osu file format v14

[General]
AudioFilename: audio.mp3
AudioLeadIn: 0
PreviewTime: 10469
Countdown: 1
SampleSet: Soft
StackLeniency: 0.7
Mode: 0
LetterboxInBreaks: 0
WidescreenStoryboard: 0

[Editor]
DistanceSpacing: 1.8
BeatDivisor: 4
GridSize: 4
TimelineZoom: 1

[Metadata]
Title:Minikui mono
TitleUnicode:醜いもの
Artist:Alieson
ArtistUnicode:Alieson
Creator:MagicNAT
Version:Insane
Source:
Tags:
BeatmapID:1081184
BeatmapSetID:508359

[Difficulty]
HPDrainRate:6.2
CircleSize:4
OverallDifficulty:6.1
ApproachRate:9
SliderMultiplier:1.6
SliderTickRate:2

[Events]
//Background and Video events
//Break Periods
//Storyboard Layer 0 (Background)
//Storyboard Layer 1 (Fail)
//Storyboard Layer 2 (Pass)
//Storyboard Layer 3 (Foreground)
//Storyboard Sound Samples

[TimingPoints]
360,315.92249368155,4,2,0,100,1,0

[HitObjects]
96,100,360,5,0,0:0:0:0:
116,126,518,1,0,0:0:0:0:
141,145,676,1,0,0:0:0:0:
178,147,833,1,0,0:0:0:0:
157,288,991,1,0,0:0:0:0:
463,251,1307,1,0,0:0:0:0:
341,92,1623,2,0,P|291:77|185:119,1,160
390,322,2255,1,0,0:0:0:0:
360,288,2887,5,0,0:0:0:0:
124,69,3203,2,0,P|115:117|68:142,1,80
230,121,3519,1,0,0:0:0:0:
408,281,3835,2,0,P|399:326|420:368,1,80
308,254,4151,1,0,0:0:0:0:
99,125,4466,1,0,0:0:0:0:
263,88,4624,1,0,0:0:0:0:
328,211,4782,1,0,0:0:0:0:
281,183,5414,5,0,0:0:0:0:
251,220,5572,1,0,0:0:0:0:
218,241,5730,1,0,0:0:0:0:
164,227,5888,1,0,0:0:0:0:
87,328,6046,1,0,0:0:0:0:
236,82,6362,1,0,0:0:0:0:
443,275,6678,2,0,P|417:312|307:330,1,160
445,75,7310,1,0,0:0:0:0:
199,179,7942,6,0,P|147:173|115:154,1,80
305,49,8258,1,0,0:0:0:0:
171,103,8416,1,0,0:0:0:0:
298,167,8573,2,0,P|336:184|392:184,1,80
244,20,8889,1,0,0:0:0:0:
353,113,9047,1,0,0:0:0:0:
214,153,9205,2,0,P|176:176|128:188,1,80
75,19,9521,1,0,0:0:0:0:
209,70,9679,1,0,0:0:0:0:
74,18,9837,1,0,0:0:0:0:
87,62,10153,1,0,0:0:0:0:
375,56,10469,6,0,P|359:93|295:133,1,80
195,67,10785,1,0,0:0:0:0:
242,202,10943,1,0,0:0:0:0:
101,171,11101,1,0,0:0:0:0:
399,317,11417,1,0,0:0:0:0:
374,175,11575,1,0,0:0:0:0:
215,274,11733,6,0,P|246:311|285:329,1,80
138,178,12049,1,0,0:0:0:0:
445,173,12365,1,0,0:0:0:0:
449,130,12996,6,0,P|432:87|387:50,1,80
337,188,13312,1,0,0:0:0:0:
219,104,13470,1,0,0:0:0:0:
204,247,13628,1,0,0:0:0:0:
298,79,13786,1,0,0:0:0:0:
285,286,13944,1,0,0:0:0:0:
401,331,14260,6,0,P|377:283|344:256,1,80
232,336,14576,1,0,0:0:0:0:
183,52,14892,1,0,0:0:0:0:
141,74,15524,6,0,P|104:94|63:97,1,80
197,158,15840,1,0,0:0:0:0:
114,275,15998,1,0,0:0:0:0:
257,259,16156,1,0,0:0:0:0:
287,213,16472,1,0,0:0:0:0:
234,347,16630,1,0,0:0:0:0:
125,328,16787,6,0,P|156:288|193:278,1,80
320,323,17103,1,0,0:0:0:0:
434,58,17419,1,0,0:0:0:0:
346,181,18051,6,0,P|296:205|189:203,1,160
297,103,18525,1,0,0:0:0:0:
157,138,18683,2,0,P|102:147|1:127,1,160
126,54,19157,1,0,0:0:0:0:
241,139,19315,2,0,P|254:184|247:235,1,80
395,239,19631,2,0,P|435:258|490:255,1,80
396,134,19947,1,0,0:0:0:0:
351,107,20263,1,0,0:0:0:0:
84,309,20579,6,0,P|124:274|171:267,1,80
283,318,20894,1,0,0:0:0:0:
85,211,21052,1,0,0:0:0:0:
165,94,21210,1,0,0:0:0:0:
397,168,21526,1,0,0:0:0:0:
335,37,21684,1,0,0:0:0:0:
459,45,21842,6,0,P|427:77|380:83,1,80
259,136,22158,1,0,0:0:0:0:
451,349,22474,1,0,0:0:0:0:
465,333,23106,6,0,P|430:293|394:283,1,80
270,337,23422,1,0,0:0:0:0:
166,237,23580,1,0,0:0:0:0:
266,133,23738,1,0,0:0:0:0:
127,173,23896,1,0,0:0:0:0:
46,103,24054,1,0,0:0:0:0:
74,61,24370,6,0,P|114:84|171:82,1,80
251,187,24686,1,0,0:0:0:0:
359,93,24843,1,0,0:0:0:0:
448,206,25001,1,0,0:0:0:0:
263,304,25317,1,0,0:0:0:0:
267,249,25633,6,0,P|291:213|331:198,1,80
409,315,25949,1,0,0:0:0:0:
391,171,26107,1,0,0:0:0:0:
292,65,26265,1,0,0:0:0:0:
77,219,26581,1,0,0:0:0:0:
216,127,26739,1,0,0:0:0:0:
259,162,26897,6,0,P|229:200|186:214,1,80
273,337,27213,1,0,0:0:0:0:
124,90,27529,1,0,0:0:0:0:
157,127,28161,6,0,P|207:170|302:160,1,160
208,48,28635,1,0,0:0:0:0:
216,191,28793,2,0,P|189:234|81:269,1,160
106,127,29266,1,0,0:0:0:0:
179,250,29424,2,0,P|221:278|261:283,1,80
324,159,29740,2,0,P|367:127|409:122,1,80
389,266,30056,1,0,0:0:0:0:
164,85,30372,5,0,0:0:0:0:
179,134,30530,1,0,0:0:0:0:
219,166,30688,2,0,P|262:177|372:114,1,160
86,41,31320,1,0,0:0:0:0:
139,145,31952,1,0,0:0:0:0:
238,188,32900,5,0,0:0:0:0:
256,225,33057,1,0,0:0:0:0:
294,249,33215,1,0,0:0:0:0:
283,129,33531,1,0,0:0:0:0:
442,163,34163,1,0,0:0:0:0:
201,4,34479,1,0,0:0:0:0:
155,286,35743,5,0,0:0:0:0:
123,252,36217,1,0,0:0:0:0:
441,309,36691,1,0,0:0:0:0:
426,264,37007,5,0,0:0:0:0:
150,184,37480,1,0,0:0:0:0:
260,106,37954,2,0,P|304:121|336:145,1,80
282,217,38270,1,0,0:0:0:0:
177,226,38665,1,0,0:0:0:0:
92,113,39218,1,0,0:0:0:0:
258,67,39534,1,0,0:0:0:0:
256,192,40798,12,0,41745,0:0:0:0:
72,77,42061,6,0,P|109:107|154:114,1,80
315,61,42377,1,0,0:0:0:0:
253,257,42535,1,0,0:0:0:0:
376,198,42693,1,0,0:0:0:0:
319,186,43009,1,0,0:0:0:0:
192,117,43167,1,0,0:0:0:0:
206,260,43325,2,0,P|189:298|150:315,1,80
107,168,43641,2,0,P|130:133|189:99,1,80
360,268,43957,1,0,0:0:0:0:
351,223,44589,6,0,P|338:181|282:148,1,80
194,241,44905,1,0,0:0:0:0:
105,127,45063,1,0,0:0:0:0:
246,147,45220,2,0,P|281:175|319:183,1,80
229,65,45536,1,0,0:0:0:0:
206,103,45852,5,0,0:0:0:0:
334,167,46010,1,0,0:0:0:0:
221,209,46168,1,0,0:0:0:0:
341,287,46326,1,0,0:0:0:0:
187,342,46484,1,0,0:0:0:0:
154,294,46800,5,0,0:0:0:0:
119,80,47116,2,0,P|154:110|205:122,1,80
418,63,47432,1,0,0:0:0:0:
274,58,47590,1,0,0:0:0:0:
405,109,47748,2,0,P|376:150|329:169,1,80
196,80,48064,1,0,0:0:0:0:
301,178,48222,1,0,0:0:0:0:
127,236,48380,1,0,0:0:0:0:
251,164,48538,1,0,0:0:0:0:
173,285,48696,1,0,0:0:0:0:
309,237,48854,1,0,0:0:0:0:
260,326,49012,1,0,0:0:0:0:
151,208,49643,6,0,P|136:166|216:80,1,160
370,235,50275,2,0,P|345:281|222:300,1,160
311,83,50907,1,0,0:0:0:0:
212,200,51065,1,0,0:0:0:0:
391,235,51223,1,0,0:0:0:0:
431,109,51381,1,0,0:0:0:0:
258,308,51539,1,0,0:0:0:0:
219,328,51855,1,0,0:0:0:0:
408,111,52171,6,0,P|378:148|271:185,1,160
351,62,52645,1,0,0:0:0:0:
209,90,52803,1,0,0:0:0:0:
386,317,53119,2,0,P|412:283|406:236,1,80
282,312,53434,1,0,0:0:0:0:
239,174,53592,1,0,0:0:0:0:
128,266,53750,1,0,0:0:0:0:
351,219,53908,1,0,0:0:0:0:
164,343,54066,1,0,0:0:0:0:
