osu file format v14

[General]
AudioFilename: audio.mp3
AudioLeadIn: 0
PreviewTime: 67325
Countdown: 0
SampleSet: Soft
StackLeniency: 0.6
Mode: 0
LetterboxInBreaks: 0
WidescreenStoryboard: 1

[Editor]
Bookmarks: 660,12493,25326,38659,50659,59993,69992,80658,91325,101992,113992,127325,139325,148658,158658,169324,179991,193324,207991,222658,232657,243323,253990,264657,276657
DistanceSpacing: 0.7
BeatDivisor: 4
GridSize: 32
TimelineZoom: 2.1

[Metadata]
Title:Dreaming bird ~ Lily & Yurika & Alicia ver. ~
TitleUnicode:Dreaming bird 〜 リリィ & ユリカ & アリシア ver. 〜
Artist:Alicia from BEST FRIENDS! / Remi, Nanase
ArtistUnicode:リシア from BEST FRIENDS!/れみ・ななせ
Creator:Andrea
Version:SkyFlame & Yogurtt's Insane
Source:アイカツオンパレード!
Tags:Anime Japanese JPop J-Pop Pop Collab Collaboration Sekaii Sekai-nyan Sekai osuplayer111 Aikatsu on Parade! video game vgm featured songs album sing a song shuffle! Lily Shirogane 白銀リリィ Ueda Reina 上田麗奈 Yurika Tōdō Toudou 藤堂ユリカ Nukamura Manami 沼倉 愛美 Alicia Charlotte アリシア・シャーロット Saori Ōnishi Onishi 大西沙織 SkyFlame Yogurtt
BeatmapID:2926075
BeatmapSetID:1420517

[Difficulty]
HPDrainRate:5.5
CircleSize:3.7
OverallDifficulty:7.8
ApproachRate:9
SliderMultiplier:1.6
SliderTickRate:1

[Events]
//Background and Video events
0,0,"Insane BG.jpg",0,0
//Break Periods
2,153524,155391
2,208190,212722
//Storyboard Layer 0 (Background)
//Storyboard Layer 1 (Fail)
//Storyboard Layer 2 (Pass)
//Storyboard Layer 3 (Foreground)
//Storyboard Layer 4 (Overlay)
//Storyboard Sound Samples

[TimingPoints]
660,666.666666666667,3,2,2,60,1,0
660,-62.5,4,2,2,60,0,0
7826,-62.5,4,2,2,5,0,0
7993,-50,4,2,1,60,0,0
8493,333.333333333333,4,2,1,70,1,0
8659,333.333333333333,4,2,1,70,1,8
9908,-100,6,2,1,5,0,8
9992,-100,6,2,1,70,0,8
10658,333.333333333333,4,2,1,70,1,0
12657,333.333333333333,4,2,1,70,1,0
13908,-100,4,2,1,5,0,8
13992,-100,4,2,1,70,0,8
14657,333.333333333333,4,2,1,70,1,0
16492,333.333333333333,4,2,1,70,1,0
16658,333.333333333333,4,2,1,70,1,8
17908,-100,4,2,1,5,0,8
17991,-100,4,2,1,70,0,8
18657,333.333333333333,4,2,1,70,1,0
20491,333.333333333333,4,2,1,70,1,0
20657,333.333333333333,4,2,1,70,1,8
22490,333.333333333333,4,2,1,70,1,0
22656,333.333333333333,4,2,1,70,1,8
25322,333.333333333333,3,2,1,70,1,0
25322,-111.111111111111,3,2,2,60,0,0
25572,-111.111111111111,3,2,2,5,0,0
25655,-111.111111111111,3,2,2,60,0,0
27238,-111.111111111111,3,2,2,5,0,0
27321,-111.111111111111,3,2,2,60,0,0
30238,-111.111111111111,3,2,2,5,0,0
30321,-111.111111111111,3,2,2,60,0,0
31238,-111.111111111111,3,2,2,5,0,0
31321,-111.111111111111,3,2,2,60,0,0
32571,-111.111111111111,3,2,2,5,0,0
32655,-111.111111111111,3,2,2,60,0,0
33238,-111.111111111111,3,2,2,5,0,0
33325,333.333333333333,4,2,1,70,1,0
35908,-100,4,2,1,5,0,0
35991,-100,4,2,1,70,0,0
36241,-100,4,2,1,5,0,0
36325,-100,4,2,1,70,0,0
41241,-100,4,2,1,5,0,0
41324,-100,4,2,1,70,0,0
46574,-100,4,2,1,5,0,0
46658,-100,4,2,1,70,0,0
50658,333.333333333333,7,2,1,70,1,0
50658,-111.111111111111,7,2,1,70,0,0
52074,-111.111111111111,7,2,1,5,0,0
52158,-111.111111111111,7,2,1,70,0,0
57907,-111.111111111111,7,2,1,5,0,0
57991,-111.111111111111,7,2,1,70,0,0
59157,-111.111111111111,7,2,1,60,0,0
59991,-111.111111111111,7,2,1,70,0,0
61407,-111.111111111111,7,2,1,5,0,0
61491,-111.111111111111,7,2,1,70,0,0
64659,333.333333333333,4,2,1,70,1,0
69992,-90.9090909090909,4,2,1,80,0,1
70575,-90.9090909090909,4,2,1,5,0,1
70659,-90.9090909090909,4,2,1,80,0,1
78242,-90.9090909090909,4,2,1,5,0,1
78325,-90.9090909090909,4,2,1,80,0,1
88908,-90.9090909090909,4,2,1,5,0,1
88992,-90.9090909090909,4,2,1,80,0,1
94242,-90.9090909090909,4,2,1,5,0,1
94325,-90.9090909090909,4,2,1,80,0,1
98075,-90.9090909090909,4,2,1,5,0,1
98158,-90.9090909090909,4,2,1,80,0,1
109982,333.333333333333,3,2,1,60,1,0
109982,-166.666666666667,3,2,1,60,0,0
110815,-166.666666666667,3,2,1,5,0,0
110964,342.857142857142,3,2,1,60,1,8
110964,-166.666666666667,3,2,1,60,0,8
111821,-166.666666666667,3,2,1,5,0,8
111992,333.333333333333,3,2,2,60,1,8
111992,-400,3,2,2,60,0,8
113992,333.333333333333,3,2,2,60,1,0
113992,-111.111111111111,3,2,2,60,0,0
114242,-111.111111111111,3,2,2,5,0,0
114325,-111.111111111111,3,2,2,60,0,0
115242,-111.111111111111,3,2,2,5,0,0
115325,-111.111111111111,3,2,2,60,0,0
115908,-111.111111111111,3,2,2,5,0,0
115992,-111.111111111111,3,2,2,60,0,0
116242,-111.111111111111,3,2,2,5,0,0
116325,-111.111111111111,3,2,2,60,0,0
117242,-111.111111111111,3,2,2,5,0,0
117325,-111.111111111111,3,2,2,60,0,0
118242,-111.111111111111,3,2,2,5,0,0
118325,-111.111111111111,3,2,2,60,0,0
119242,-111.111111111111,3,2,2,5,0,0
119325,-111.111111111111,3,2,2,60,0,0
119908,-111.111111111111,3,2,2,5,0,0
119992,-111.111111111111,3,2,2,60,0,0
121991,333.333333333333,4,2,1,70,1,0
124574,-100,4,2,1,5,0,0
124657,-100,4,2,1,70,0,0
124907,-100,4,2,1,5,0,0
124991,-100,4,2,1,70,0,0
127574,-100,4,2,1,5,0,0
127657,-100,4,2,1,70,0,0
139324,333.333333333333,7,2,1,70,1,0
139324,-111.111111111111,7,2,1,70,0,0
140240,-111.111111111111,7,2,1,5,0,0
140324,-111.111111111111,7,2,1,70,0,0
141240,-111.111111111111,7,2,1,5,0,0
141324,-111.111111111111,7,2,1,70,0,0
142657,-111.111111111111,7,2,1,70,0,0
146574,-111.111111111111,7,2,1,5,0,0
146657,-111.111111111111,7,2,1,70,0,0
147824,-111.111111111111,7,2,1,60,0,0
148657,-111.111111111111,7,2,1,70,0,0
153325,333.333333333333,4,2,1,60,1,0
153325,-111.111111111111,4,2,1,60,0,0
155991,-100,4,2,1,70,0,0
158658,-90.9090909090909,4,2,1,80,0,1
158908,-90.9090909090909,4,2,1,5,0,1
158991,-90.9090909090909,4,2,1,80,0,1
162575,-90.9090909090909,4,2,1,5,0,1
162658,-90.9090909090909,4,2,1,80,0,1
164241,-90.9090909090909,4,2,1,5,0,1
164325,-90.9090909090909,4,2,1,80,0,1
166575,-90.9090909090909,4,2,1,5,0,1
166658,-90.9090909090909,4,2,1,80,0,1
166908,-90.9090909090909,4,2,1,5,0,1
166991,-90.9090909090909,4,2,1,80,0,1
182908,-90.9090909090909,4,2,1,5,0,1
182991,-90.9090909090909,4,2,1,80,0,1
189408,-90.9090909090909,4,2,1,5,0,1
189491,-90.9090909090909,4,2,1,80,0,1
191824,-166.666666666667,4,2,1,80,0,1
192574,-166.666666666667,4,2,1,5,0,1
192658,-90.9090909090909,4,2,1,80,0,1
193324,333.333333333333,4,2,1,70,1,0
195324,333.333333333333,4,2,1,70,1,0
197324,333.333333333333,4,2,1,70,1,0
198574,-100,6,2,1,5,0,0
198657,-100,6,2,1,70,0,0
199157,333.333333333333,4,2,1,70,1,0
199324,333.333333333333,4,2,1,70,1,8
201324,333.333333333333,4,2,1,70,1,0
203157,333.333333333333,4,2,1,70,1,0
203324,333.333333333333,4,2,1,70,1,0
205324,333.333333333333,4,2,1,70,1,0
207990,-125,4,2,2,60,0,8
213322,333.333333333333,7,2,1,60,1,0
213322,-125,7,2,1,60,0,0
220238,-125,7,2,1,5,0,0
220322,-125,7,2,1,60,0,0
220738,-125,7,2,1,5,0,0
220822,-125,7,2,1,60,0,0
221072,-125,7,2,1,5,0,0
221155,-125,7,2,1,60,0,0
222655,-111.111111111111,7,2,2,60,0,0
224905,-111.111111111111,7,2,2,5,0,0
224988,-111.111111111111,7,2,2,60,0,0
227324,333.333333333333,4,2,1,70,1,0
227657,-100,4,2,1,70,0,0
232657,-90.9090909090909,4,2,1,80,0,1
238240,-90.9090909090909,4,2,1,5,0,1
238324,-90.9090909090909,4,2,1,80,0,1
240907,-90.9090909090909,4,2,1,5,0,1
240990,-90.9090909090909,4,2,1,80,0,1
243323,-83.3333333333333,4,2,1,80,0,1
251573,-90.9090909090909,4,2,1,5,0,1
251657,-83.3333333333333,4,2,1,80,0,1
256907,-90.9090909090909,4,2,1,5,0,1
256990,-90.9090909090909,4,2,1,80,0,1
259573,-90.9090909090909,4,2,1,5,0,1
259657,-90.9090909090909,4,2,1,80,0,1
260740,-90.9090909090909,4,2,1,5,0,1
260823,-90.9090909090909,4,2,1,80,0,1
261907,-90.9090909090909,4,2,1,5,0,1
261990,-90.9090909090909,4,2,1,80,0,1
263407,-90.9090909090909,4,2,1,5,0,1
263490,-90.9090909090909,4,2,1,80,0,1
265157,-83.3333333333333,4,2,1,80,0,1
272657,333.333333333333,4,2,1,80,1,0
272657,-83.3333333333333,4,2,1,80,0,0
275157,333.333333333333,4,2,1,80,1,0
275157,-120.481927710843,4,2,1,80,0,0
275239,-100,4,2,1,60,0,0
275656,-100,4,2,1,50,0,8
275989,-100,4,2,1,40,0,8
276323,-100,4,2,1,20,0,8
276489,-100,4,2,1,10,0,8
276656,-100,4,2,1,5,0,8

[Colours]
Combo1 : 134,148,176
Combo2 : 235,62,126
SliderBorder : 235,62,126
SliderTrackOverride : 88,104,137

[HitObjects]
99,68,660,6,0,P|62:108|73:201,1,128,2|0,0:0|0:0,0:0:0:0:
181,285,1326,2,0,P|226:273|325:261,1,128,0|2,0:0|0:0,0:0:0:0:
268,171,1993,2,0,P|223:159|124:147,1,128,0|0,0:0|0:0,0:0:0:0:
404,183,2660,2,0,P|405:120|365:72,1,128,2|0,0:0|0:0,0:0:0:0:
254,194,3326,5,0,0:0:0:0:
222,295,3660,1,2,0:0:0:0:
331,344,3993,2,0,L|482:320,1,128,0|0,0:0|0:0,0:0:0:0:
504,225,4660,2,0,L|377:204,1,128,2|0,0:0|0:0,0:0:0:0:
307,94,5326,5,0,0:0:0:0:
421,139,5660,1,2,0:0:0:0:
231,257,5993,2,0,L|357:236,1,128,0|0,0:0|0:0,0:0:0:0:
240,87,6660,6,0,B|170:93|136:18|136:18|162:96|199:187|143:233|69:244|21:143|98:115|113:112,1,448,2|0,0:0|0:0,0:0:0:0:
242,172,7993,6,0,L|301:154,3,40,10|8|8|8,0:0|0:0|0:0|0:0,0:0:0:0:
343,257,8326,1,8,0:0:0:0:
348,269,8410,1,8,0:0:0:0:
353,280,8493,2,0,P|296:266|187:253,1,160,4|0,1:2|1:0,0:0:0:0:
111,142,8992,1,8,0:0:0:0:
41,328,9159,2,0,P|69:321|124:314,1,80,0|2,1:0|1:2,0:0:0:0:
225,229,9492,1,0,1:0:0:0:
327,373,9658,2,0,P|375:344|376:271,1,120,8|0,0:0|0:0,0:0:0:0:
353,280,9992,5,2,1:2:0:0:
315,172,10158,1,0,1:0:0:0:
408,82,10325,1,8,0:0:0:0:
408,82,10492,2,0,B|436:149|395:140|422:229,1,120,2|0,1:2|1:0,0:0:0:0:
406,216,10824,2,0,P|450:204|494:197,1,80,0|8,1:0|0:0,0:0:0:0:
300,148,11158,1,0,0:0:0:0:
220,275,11324,6,0,P|185:238|199:124,1,160,2|8,1:2|0:0,0:0:0:0:
302,55,11824,1,0,1:0:0:0:
302,55,11907,1,0,1:0:0:0:
302,55,11991,2,0,P|292:114|289:153,1,80,2|0,1:2|1:0,0:0:0:0:
371,236,12324,1,8,0:0:0:0:
208,159,12491,6,0,L|35:140,1,160,2|0,1:2|1:0,0:0:0:0:
0,250,12990,2,0,P|12:293|21:340,1,80,8|0,0:0|1:0,0:0:0:0:
129,275,13323,2,0,P|132:255|138:236,2,40,2|0|0,1:2|1:0|1:0,0:0:0:0:
210,350,13656,2,0,P|263:347|289:308,1,80,8|0,0:0|0:0,0:0:0:0:
343,250,13990,1,2,1:2:0:0:
240,170,14156,1,0,1:0:0:0:
336,98,14323,1,8,0:0:0:0:
220,35,14490,6,0,P|143:52|63:61,1,160,2|0,1:2|1:0,0:0:0:0:
124,161,14990,1,8,0:0:0:0:
2,269,15157,2,0,P|41:273|80:282,1,80,0|2,1:0|1:2,0:0:0:0:
157,361,15490,1,0,1:0:0:0:
240,170,15656,2,0,P|288:199|289:272,1,120,12|0,1:2|1:0,0:0:0:0:
281,293,15990,5,2,1:2:0:0:
390,344,16156,1,0,1:0:0:0:
404,336,16240,1,0,1:0:0:0:
418,328,16323,2,0,L|426:274,1,40,8|0,1:2|1:0,0:0:0:0:
512,255,16490,6,0,P|462:259|410:160,1,160,6|0,1:2|1:0,0:0:0:0:
334,35,16991,2,0,L|326:130,1,80,12|0,0:0|1:0,0:0:0:0:
326,130,17241,1,0,1:0:0:0:
326,145,17324,1,2,1:2:0:0:
210,75,17491,1,0,1:0:0:0:
123,137,17658,2,0,P|129:176|143:231,1,80,8|0,0:0|0:0,0:0:0:0:
222,329,17991,6,0,P|217:348|214:368,2,40,2|0|0,1:2|1:0|1:0,0:0:0:0:
278,247,18324,1,8,0:0:0:0:
128,326,18491,2,0,P|50:315|14:262,1,120,2|0,1:2|1:0,0:0:0:0:
15,263,18823,1,0,1:0:0:0:
43,175,18990,2,0,P|52:136|58:96,1,80,8|0,0:0|1:0,0:0:0:0:
17,23,19323,5,2,1:2:0:0:
147,101,19490,1,0,1:0:0:0:
147,101,19657,1,8,0:0:0:0:
254,16,19823,5,0,1:0:0:0:
330,125,19990,1,2,1:2:0:0:
219,207,20157,1,0,1:0:0:0:
219,207,20240,1,0,1:0:0:0:
219,207,20323,2,0,L|232:268,1,40,8|0,1:2|1:0,0:0:0:0:
154,352,20490,6,0,L|313:334,1,160,6|0,1:2|1:0,0:0:0:0:
429,349,20990,2,0,P|420:309|409:271,1,80,12|0,0:0|1:0,0:0:0:0:
342,183,21323,2,0,P|322:186|303:192,2,40,2|0|0,1:2|1:0|1:0,0:0:0:0:
423,112,21657,2,0,P|420:59|381:33,1,80,8|0,0:0|0:0,0:0:0:0:
283,84,21990,1,2,1:2:0:0:
198,21,22157,1,0,1:0:0:0:
145,152,22323,1,8,0:0:0:0:
19,60,22490,6,0,P|36:137|45:217,1,160,6|8,1:2|0:0,0:0:0:0:
135,332,22989,1,8,0:0:0:0:
189,261,23156,1,0,1:0:0:0:
288,356,23322,2,0,P|332:350|369:343,1,80,2|0,1:2|1:0,0:0:0:0:
494,281,23656,1,8,0:0:0:0:
440,210,23822,1,0,1:0:0:0:
485,98,23989,5,2,1:2:0:0:
383,39,24156,1,8,1:2:0:0:
321,122,24322,2,0,L|207:108,1,80,8|8,0:0|1:2,0:0:0:0:
158,16,24655,5,10,1:2:0:0:
221,123,24822,1,8,1:2:0:0:
82,257,24989,2,0,P|72:218|86:181,1,80,8|8,0:0|1:2,0:0:0:0:
169,229,25322,5,2,0:0:0:0:
250,256,25655,5,0,0:0:0:0:
250,256,25822,2,0,P|242:301|238:331,2,71.9999978027344,0|0|0,0:0|0:0|0:0,0:0:0:0:
389,245,26322,2,0,P|397:301|320:309,1,143.999995605469,2|0,0:0|0:0,0:0:0:0:
315,184,26988,1,0,0:0:0:0:
204,123,27321,6,0,B|279:143|267:88|344:107,2,143.999995605469,2|0|0,0:0|0:0|0:0,0:0:0:0:
128,83,28155,1,0,0:0:0:0:
59,223,28321,6,0,P|103:205|138:196,1,71.9999978027344,2|0,0:0|0:0,0:0:0:0:
238,208,28655,2,0,P|220:252|211:287,2,71.9999978027344,2|0|2,0:0|0:0|0:0,0:0:0:0:
127,293,29155,1,0,0:0:0:0:
305,266,29321,6,0,P|339:276|450:323,1,143.999995605469,2|0,0:0|0:0,0:0:0:0:
488,138,29988,2,0,P|521:167|498:238,1,107.999996704102,0|0,0:0|0:0,0:0:0:0:
499,214,30321,2,0,B|445:198|445:198|417:210|417:210|348:189,1,143.999995605469,2|2,0:0|0:0,0:0:0:0:
362,193,30821,1,0,0:0:0:0:
240,40,30988,6,0,P|207:69|230:140,1,107.999996704102,2|0,0:0|0:0,0:0:0:0:
236,114,31321,1,2,0:0:0:0:
137,158,31488,1,0,0:0:0:0:
182,267,31655,1,2,0:0:0:0:
281,223,31821,1,0,0:0:0:0:
118,147,31988,5,2,0:0:0:0:
118,147,32155,1,0,0:0:0:0:
66,328,32321,2,0,P|113:309|183:302,1,107.999996704102,2|0,0:0|0:0,0:0:0:0:
176,283,32655,2,0,P|124:289|75:308,1,71.9999978027344,2|0,0:0|0:0,0:0:0:0:
1,147,32988,2,0,P|32:188|73:221,1,71.9999978027344,2|0,0:0|0:0,0:0:0:0:
233,90,33325,6,0,P|163:96|143:179,1,160,4|8,1:2|0:0,0:0:0:0:
259,267,33825,1,2,1:2:0:0:
259,267,33991,2,0,P|254:211|254:174,1,80,0|0,1:2|1:0,0:0:0:0:
333,126,34325,1,8,0:0:0:0:
169,253,34491,6,0,L|-13:217,1,160,2|0,1:2|1:0,0:0:0:0:
121,138,34991,2,0,L|212:120,1,80,8|2,0:0|1:2,0:0:0:0:
208,115,35241,1,0,1:0:0:0:
217,108,35325,1,0,1:2:0:0:
159,228,35491,1,0,1:0:0:0:
325,331,35658,2,0,P|383:290|375:222,1,120,8|0,0:0|0:0,0:0:0:0:
371,229,35991,6,0,P|330:222|292:217,1,80,2|0,1:2|0:0,0:0:0:0:
157,55,36325,2,0,P|172:125|191:243,1,160,8|2,0:0|1:2,0:0:0:0:
300,137,36825,1,0,1:0:0:0:
221,300,36991,5,8,0:0:0:0:
221,300,37158,2,0,P|180:293|142:288,1,80,2|0,1:2|1:2,0:0:0:0:
59,150,37491,1,0,1:0:0:0:
59,150,37658,2,0,P|100:143|138:138,1,80,12|0,1:2|1:2,0:0:0:0:
138,137,37908,1,0,1:2:0:0:
138,137,37991,1,2,1:2:0:0:
289,33,38158,1,0,1:2:0:0:
285,49,38241,1,0,1:2:0:0:
281,65,38324,1,8,1:2:0:0:
278,82,38408,1,0,1:2:0:0:
275,98,38491,1,0,1:2:0:0:
381,204,38658,6,0,P|427:164|359:84,1,160,4|8,1:2|0:0,0:0:0:0:
272,112,39158,2,0,L|224:100,2,40,2|0|0,1:2|1:0|1:2,0:0:0:0:
283,217,39491,2,0,L|304:310,1,80,0|8,1:0|0:0,0:0:0:0:
193,365,39824,2,0,L|101:350,1,80,2|0,1:2|1:2,0:0:0:0:
58,205,40158,2,0,L|136:217,1,80,0|8,1:2|0:0,0:0:0:0:
300,295,40491,1,2,1:2:0:0:
300,295,40574,1,0,1:2:0:0:
300,295,40658,2,0,L|392:280,1,80,0|0,1:2|1:2,0:0:0:0:
474,362,40991,2,0,P|511:321|500:239,1,120,8|0,0:0|0:0,0:0:0:0:
493,232,41324,6,0,L|504:140,1,80,2|0,1:2|0:0,0:0:0:0:
390,46,41658,1,8,0:0:0:0:
330,162,41824,1,2,1:2:0:0:
330,162,41908,1,0,1:0:0:0:
330,162,41991,1,0,1:2:0:0:
471,85,42158,1,0,1:0:0:0:
305,20,42324,1,8,0:0:0:0:
227,139,42491,6,0,P|176:127|119:104,1,80,2|0,1:2|1:2,0:0:0:0:
135,111,42741,1,0,1:0:0:0:
120,105,42824,1,0,1:0:0:0:
30,192,42991,2,0,B|46:251|46:251|44:256|44:256|60:327,1,120,8|0,0:0|1:2,0:0:0:0:
67,344,43324,5,2,1:2:0:0:
249,296,43491,1,0,1:2:0:0:
137,240,43658,1,8,0:0:0:0:
244,378,43824,1,0,1:0:0:0:
244,378,43908,1,0,1:0:0:0:
244,378,43991,6,0,P|301:357|308:244,1,160,2|8,1:2|0:0,0:0:0:0:
259,164,44491,1,2,1:2:0:0:
259,164,44574,1,0,1:0:0:0:
259,164,44658,2,0,P|229:171|258:186,1,80,0|0,1:2|1:0,0:0:0:0:
341,106,44991,2,0,P|334:66|311:34,1,80,8|0,0:0|1:0,0:0:0:0:
181,73,45324,5,2,1:2:0:0:
181,73,45408,1,0,1:0:0:0:
181,73,45491,2,0,P|140:90|89:100,1,80,0|8,1:0|0:0,0:0:0:0:
22,189,45824,1,2,1:2:0:0:
22,189,45908,1,0,1:0:0:0:
22,189,45991,2,0,P|61:198|98:215,1,80,0|0,1:2|1:0,0:0:0:0:
249,300,46324,2,0,P|152:292|130:326,1,120,8|0,0:0|0:0,0:0:0:0:
135,328,46658,6,0,P|181:281|171:171,1,160,2|8,1:2|0:0,0:0:0:0:
122,38,47158,1,0,1:0:0:0:
113,68,47241,1,0,1:0:0:0:
105,98,47324,1,2,1:2:0:0:
230,39,47491,1,0,1:0:0:0:
284,149,47658,1,8,0:0:0:0:
406,53,47824,6,0,B|436:71|448:90|448:90|434:171,1,120,2|0,1:2|1:0,0:0:0:0:
431,188,48158,1,0,1:0:0:0:
505,307,48324,2,0,L|404:287,1,80,12|2,0:0|1:2,0:0:0:0:
401,308,48574,1,0,1:0:0:0:
380,326,48658,5,0,1:2:0:0:
293,258,48824,1,2,1:2:0:0:
194,379,48991,1,8,1:2:0:0:
190,363,49074,1,0,1:2:0:0:
186,347,49158,1,0,1:2:0:0:
182,331,49241,1,0,1:2:0:0:
178,315,49324,5,4,1:2:0:0:
304,265,49491,1,8,0:0:0:0:
254,139,49658,1,8,0:0:0:0:
128,189,49824,1,8,0:0:0:0:
78,63,49991,1,14,1:2:0:0:
204,13,50158,5,0,1:2:0:0:
220,17,50241,1,0,1:2:0:0:
236,21,50324,1,8,1:2:0:0:
252,25,50408,1,0,1:2:0:0:
268,29,50491,1,0,1:2:0:0:
284,33,50574,1,0,1:2:0:0:
300,37,50658,5,4,1:2:0:0:
278,122,50991,5,0,1:2:0:0:
357,143,51158,2,0,P|286:157|190:179,1,143.999995605469,2|0,0:0|0:0,0:0:0:0:
152,245,51658,5,2,1:2:0:0:
152,245,51824,2,0,P|101:206|110:140,1,107.999996704102,8|0,0:0|0:0,0:0:0:0:
113,157,52158,5,2,0:0:0:0:
63,292,52324,2,0,P|30:306|-11:332,1,71.9999978027344,0|0,1:0|0:0,0:0:0:0:
169,265,52658,5,2,1:2:0:0:
254,332,52824,2,0,L|306:319,1,35.9999989013672,8|8,0:0|0:0,0:0:0:0:
301,309,52991,1,2,1:2:0:0:
275,219,53324,5,0,1:2:0:0:
355,202,53491,2,0,P|284:186|214:172,1,143.999995605469,2|8,0:0|0:0,0:0:0:0:
198,148,53908,5,8,0:0:0:0:
198,148,53991,1,2,1:2:0:0:
265,87,54158,2,0,P|300:79|335:72,1,71.9999978027344,8|0,0:0|1:2,0:0:0:0:
445,25,54491,6,0,P|482:72|456:147,1,143.999995605469,2|0,0:0|0:0,0:0:0:0:
379,219,54991,2,0,P|372:162|367:136,1,71.9999978027344,2|0,1:2|1:0,0:0:0:0:
481,161,55324,5,4,1:2:0:0:
473,245,55657,5,0,1:2:0:0:
323,298,55824,2,0,P|394:306|463:329,1,143.999995605469,10|0,0:0|1:0,0:0:0:0:
506,322,56241,5,0,1:0:0:0:
506,322,56324,1,2,1:2:0:0:
364,165,56491,2,0,P|386:200|387:257,1,71.9999978027344,8|0,0:0|1:2,0:0:0:0:
212,237,56824,6,0,B|237:211|237:211|285:204,1,71.9999978027344,8|0,0:0|1:2,0:0:0:0:
272,205,57074,1,0,1:2:0:0:
272,205,57157,1,0,1:2:0:0:
266,357,57324,1,2,1:2:0:0:
237,345,57407,1,0,1:2:0:0:
207,335,57491,1,0,1:2:0:0:
177,328,57574,1,0,1:2:0:0:
147,323,57657,6,0,B|153:263|113:283|134:202,1,107.999996704102,2|0,1:2|0:0,0:0:0:0:
144,195,57991,1,0,1:2:0:0:
3,331,58157,2,0,P|46:318|84:310,2,71.9999978027344,2|0|0,0:0|1:2|0:0,0:0:0:0:
207,234,58657,1,2,1:2:0:0:
67,157,58824,1,8,0:0:0:0:
219,84,58991,1,2,1:2:0:0:
69,240,59157,5,4,3:0:0:0:
161,164,59324,1,4,3:0:0:0:
161,164,59407,1,4,3:0:0:0:
161,164,59491,1,4,3:0:0:0:
295,163,59657,2,0,P|267:173|244:183,1,35.9999989013672,4|0,3:0|0:0,0:0:0:0:
158,317,59824,1,4,3:0:0:0:
158,317,59907,1,4,3:0:0:0:
158,317,59991,5,4,1:2:0:0:
342,370,60324,5,0,1:2:0:0:
262,305,60491,2,0,P|333:291|429:269,1,143.999995605469,2|0,0:0|0:0,0:0:0:0:
493,218,60991,5,2,1:2:0:0:
431,111,61157,2,0,P|380:150|389:216,1,107.999996704102,8|0,0:0|0:0,0:0:0:0:
390,205,61491,5,2,0:0:0:0:
215,218,61657,2,0,P|248:204|289:178,1,71.9999978027344,0|0,1:2|0:0,0:0:0:0:
315,74,61991,5,2,1:2:0:0:
175,14,62157,2,0,L|162:66,1,35.9999989013672,8|8,0:0|0:0,0:0:0:0:
152,61,62324,1,2,1:2:0:0:
97,270,62657,5,0,1:2:0:0:
0,203,62824,2,0,P|71:187|141:173,1,143.999995605469,2|0,0:0|1:0,0:0:0:0:
172,181,63241,5,0,1:0:0:0:
172,181,63324,1,2,1:2:0:0:
239,242,63491,2,0,P|274:250|309:257,1,71.9999978027344,8|0,0:0|1:2,0:0:0:0:
427,335,63824,6,0,P|412:271|406:235,1,71.9999978027344,8|8,0:0|1:2,0:0:0:0:
426,243,64074,2,0,L|416:197,1,35.9999989013672,8|0,0:0|1:0,0:0:0:0:
334,80,64324,2,0,P|326:115|318:150,1,71.9999978027344,2|8,1:2|0:0,0:0:0:0:
198,232,64659,6,0,P|182:184|229:133,1,120,4|2,1:2|0:0,0:0:0:0:
232,105,64992,2,0,L|221:39,2,53.3333333333333,2|0|0,1:2|0:0|0:0,0:0:0:0:
116,23,65325,2,0,L|107:75,2,53.3333333333333,2|0|0,1:2|0:0|0:0,0:0:0:0:
31,152,65659,1,2,1:2:0:0:
31,152,65770,2,0,L|41:215,1,53.3333333333333
0,339,65992,6,0,B|36:290|36:290|144:308,1,160,2|0,1:2|1:2,0:0:0:0:
295,368,66492,2,0,B|301:266|256:308|261:195,1,160,2|8,1:2|0:0,0:0:0:0:
356,165,66992,1,2,1:2:0:0:
440,237,67159,1,0,1:0:0:0:
510,160,67325,6,0,L|495:51,1,80,12|8,1:2|0:0,0:0:0:0:
377,31,67659,1,8,0:0:0:0:
377,31,67825,1,8,0:0:0:0:
281,132,67992,1,8,0:0:0:0:
281,132,68159,1,8,0:0:0:0:
166,47,68325,1,8,0:0:0:0:
131,191,68492,1,8,0:0:0:0:
23,52,68659,6,0,P|13:89|-2:132,1,80,12|0,1:2|1:2,0:0:0:0:
12,153,68909,1,0,1:2:0:0:
12,153,68992,2,0,L|22:202,3,40,8|0|0|0,1:2|1:0|1:2|1:0,0:0:0:0:
7,278,69325,2,0,L|-3:327,3,40,8|0|0|0,1:2|1:2|1:2|1:2,0:0:0:0:
100,278,69659,5,8,1:2:0:0:
139,285,69742,1,0,1:2:0:0:
178,293,69825,1,0,1:2:0:0:
217,301,69909,1,0,1:0:0:0:
256,310,69992,6,0,P|343:290|456:278,1,176.000005371094,4|8,1:2|0:0,0:0:0:0:
497,189,70492,1,0,0:0:0:0:
369,207,70659,2,0,P|325:197|269:191,1,88.000002685547,2|0,1:2|1:0,0:0:0:0:
416,107,70992,1,8,0:0:0:0:
266,217,71159,6,0,P|232:181|257:127,1,88.000002685547,2|0,1:2|1:2,0:0:0:0:
326,54,71492,1,0,1:0:0:0:
333,295,71659,2,0,P|289:300|146:355,1,176.000005371094,8|2,0:0|1:2,0:0:0:0:
165,344,72075,1,0,1:2:0:0:
165,344,72158,1,0,1:2:0:0:
116,266,72325,2,0,P|94:263|22:236,1,88.000002685547,8|0,0:0|0:0,0:0:0:0:
170,185,72658,5,2,1:2:0:0:
91,293,72825,1,0,0:0:0:0:
88,147,72992,1,8,0:0:0:0:
246,108,73158,1,2,1:2:0:0:
187,206,73325,5,0,1:2:0:0:
187,206,73492,1,0,1:0:0:0:
135,69,73658,1,8,0:0:0:0:
0,184,73825,6,0,P|-13:233|79:305,1,176.000005371094,2|0,1:2|1:0,0:0:0:0:
162,248,74325,2,0,P|220:240|280:237,1,88.000002685547,8|0,0:0|1:2,0:0:0:0:
275,207,74575,1,0,1:2:0:0:
275,207,74658,2,0,P|333:215|393:218,1,88.000002685547,2|0,1:2|1:2,0:0:0:0:
427,280,74992,1,8,0:0:0:0:
427,280,75158,1,0,0:0:0:0:
508,229,75325,6,0,B|496:202|478:173|478:173|493:117|507:48,1,176.000005371094,2|8,1:2|0:0,0:0:0:0:
393,130,75825,1,2,1:2:0:0:
393,130,75908,1,0,1:0:0:0:
393,130,75992,2,0,P|324:117|284:111,1,88.000002685547,0|0,1:2|1:0,0:0:0:0:
256,45,76325,1,8,0:0:0:0:
207,239,76492,6,0,P|152:196|165:93,1,176.000005371094,0|0,1:0|1:0,0:0:0:0:
330,205,76992,2,0,P|317:274|311:314,1,88.000002685547,8|0,0:0|1:2,0:0:0:0:
298,314,77242,1,0,1:2:0:0:
298,314,77325,1,2,1:2:0:0:
400,369,77492,1,0,1:2:0:0:
469,287,77658,5,8,0:0:0:0:
280,329,77825,1,0,0:0:0:0:
417,212,77992,6,0,P|411:159|320:128,1,132.00000402832,2|0,1:2|0:0,0:0:0:0:
332,142,78325,2,0,P|278:150|219:163,1,88.000002685547,8|2,0:0|1:2,0:0:0:0:
150,235,78575,1,0,1:0:0:0:
143,244,78658,2,0,P|186:252|229:258,1,88.000002685547,0|0,1:2|1:0,0:0:0:0:
80,107,78992,6,0,B|114:195|37:176|64:298,1,176.000005371094,8|0,0:0|1:2,0:0:0:0:
59,275,79408,1,0,1:0:0:0:
59,275,79492,1,2,1:2:0:0:
8,146,79658,1,8,0:0:0:0:
145,52,79825,1,4,1:2:0:0:
131,210,79992,6,0,L|116:159,3,44.0000013427735,2|0|0|0,1:2|1:2|1:2|1:0,0:0:0:0:
206,139,80325,1,8,1:2:0:0:
236,108,80408,1,0,1:2:0:0:
277,93,80492,1,0,1:2:0:0:
321,96,80575,1,0,1:2:0:0:
359,117,80658,6,0,P|361:170|350:292,1,176.000005371094,4|8,1:2|0:0,0:0:0:0:
199,357,81158,1,2,1:2:0:0:
199,357,81242,1,0,1:0:0:0:
199,357,81325,2,0,P|182:309|213:280,1,88.000002685547,0|0,1:2|1:0,0:0:0:0:
328,372,81658,1,8,0:0:0:0:
445,299,81825,2,0,P|450:255|449:211,1,88.000002685547,2|0,1:2|1:2,0:0:0:0:
445,96,82158,1,0,1:0:0:0:
338,151,82325,6,0,B|259:139|259:139|246:142|246:142|147:129,1,176.000005371094,8|2,0:0|1:2,0:0:0:0:
125,128,82742,1,0,1:2:0:0:
125,128,82825,1,0,1:2:0:0:
46,274,82992,2,0,P|68:271|140:244,1,88.000002685547,8|0,0:0|0:0,0:0:0:0:
265,366,83325,5,2,1:2:0:0:
312,213,83492,1,0,0:0:0:0:
175,318,83658,1,8,0:0:0:0:
360,362,83825,1,2,1:2:0:0:
360,362,83908,1,0,1:0:0:0:
360,362,83992,6,0,L|469:340,1,88.000002685547,0|0,1:2|1:0,0:0:0:0:
492,203,84325,1,8,0:0:0:0:
428,112,84492,2,0,P|414:163|395:212,1,88.000002685547,2|0,1:2|0:0,0:0:0:0:
272,283,84825,1,0,1:0:0:0:
215,194,84992,2,0,P|157:202|97:205,1,88.000002685547,8|0,0:0|1:2,0:0:0:0:
102,235,85242,1,0,1:2:0:0:
102,235,85325,2,0,P|73:231|43:229,2,44.0000013427735,2|0|0,1:2|1:0|1:2,0:0:0:0:
169,333,85658,1,8,0:0:0:0:
288,276,85825,1,0,1:0:0:0:
288,276,85908,1,0,1:0:0:0:
288,276,85992,6,0,B|300:249|318:220|318:220|303:164|289:95,1,176.000005371094,4|8,1:2|0:0,0:0:0:0:
99,110,86492,1,2,1:2:0:0:
99,110,86575,1,0,1:0:0:0:
99,110,86658,2,0,P|168:97|208:91,1,88.000002685547,0|0,1:2|1:0,0:0:0:0:
236,25,86992,1,8,0:0:0:0:
371,53,87158,6,0,P|417:105|425:221,1,176.000005371094,2|0,1:2|1:0,0:0:0:0:
316,350,87658,2,0,P|329:281|335:241,1,88.000002685547,8|0,0:0|1:2,0:0:0:0:
336,230,87908,1,0,1:2:0:0:
336,230,87992,1,2,1:2:0:0:
448,350,88158,1,0,1:2:0:0:
232,295,88325,1,8,0:0:0:0:
232,295,88492,1,0,0:0:0:0:
108,363,88658,6,0,P|55:357|24:266,1,132.00000402832,4|0,1:2|0:0,0:0:0:0:
20,262,88992,2,0,P|74:254|133:241,1,88.000002685547,8|0,0:0|0:0,0:0:0:0:
223,289,89242,1,0,1:0:0:0:
232,295,89325,2,0,P|253:255|246:209,1,88.000002685547,2|0,1:2|1:0,0:0:0:0:
195,56,89658,1,8,0:0:0:0:
135,130,89825,6,0,B|154:155|154:155|271:127|271:127|276:103,1,176.000005371094,2|0,1:2|1:0,0:0:0:0:
415,24,90325,2,0,P|374:68|387:121,1,88.000002685547,8|0,0:0|1:0,0:0:0:0:
383,122,90575,1,0,1:0:0:0:
399,147,90658,1,2,1:2:0:0:
332,269,90825,1,0,1:0:0:0:
488,338,90992,1,8,0:0:0:0:
308,263,91158,1,0,1:0:0:0:
265,276,91242,1,0,1:0:0:0:
223,289,91325,6,0,P|144:273|32:261,1,176.000005371094,4|8,1:2|0:0,0:0:0:0:
195,180,91825,1,2,1:2:0:0:
195,180,91908,1,0,1:0:0:0:
195,180,91992,2,0,P|234:172|290:166,1,88.000002685547,0|0,1:2|1:0,0:0:0:0:
390,167,92325,1,8,0:0:0:0:
381,44,92492,2,0,P|376:87|367:130,1,88.000002685547,2|0,1:2|1:2,0:0:0:0:
463,271,92825,5,0,1:0:0:0:
332,224,92992,1,8,0:0:0:0:
403,350,93158,1,0,1:2:0:0:
403,350,93242,1,0,1:2:0:0:
403,350,93325,2,0,B|307:312|323:377|211:353,1,176.000005371094,2|8,1:2|0:0,0:0:0:0:
235,237,93825,1,0,0:0:0:0:
129,200,93992,6,0,P|74:233|72:307,1,132.00000402832,2|0,1:2|0:0,0:0:0:0:
87,286,94325,1,8,0:0:0:0:
37,158,94492,2,0,P|19:115|-6:69,1,88.000002685547,2|0,1:2|1:2,0:0:0:0:
174,119,94825,1,0,1:0:0:0:
174,119,94992,1,8,0:0:0:0:
153,222,95158,6,0,P|216:207|340:188,1,176.000005371094,2|0,1:2|1:0,0:0:0:0:
371,118,95658,2,0,P|410:163|400:214,1,88.000002685547,8|0,0:0|1:2,0:0:0:0:
410,188,95908,1,0,1:2:0:0:
410,188,95992,1,2,1:2:0:0:
281,120,96158,1,0,1:2:0:0:
295,294,96325,2,0,P|338:300|381:310,1,88.000002685547,8|0,0:0|0:0,0:0:0:0:
201,369,96658,6,0,P|143:334|180:240,1,176.000005371094,4|8,1:2|0:0,0:0:0:0:
281,120,97158,1,2,1:2:0:0:
281,120,97242,1,0,1:2:0:0:
281,120,97325,2,0,P|271:162|264:206,1,88.000002685547,0|0,1:2|1:0,0:0:0:0:
158,226,97658,1,8,0:0:0:0:
375,334,97825,6,0,P|368:290|348:192,1,132.00000402832,2|0,1:2|0:0,0:0:0:0:
368,180,98158,1,0,1:0:0:0:
438,73,98325,2,0,P|472:109|469:155,1,88.000002685547,8|0,0:0|1:0,0:0:0:0:
248,193,98658,2,0,P|249:143|284:113,1,88.000002685547,2|0,1:2|1:0,0:0:0:0:
390,151,98992,5,12,0:0:0:0:
493,257,99158,2,0,P|455:309|332:297,1,176.000005371094,0|0,1:0|1:0,0:0:0:0:
225,181,99658,1,8,0:0:0:0:
365,142,99825,1,0,1:0:0:0:
365,142,99908,1,0,1:0:0:0:
365,142,99992,1,2,1:2:0:0:
277,292,100158,1,0,1:0:0:0:
122,197,100325,1,8,0:0:0:0:
166,383,100492,6,0,L|145:173,1,176.000005371094,4|0,1:2|1:0,0:0:0:0:
348,120,100992,2,0,L|334:245,1,88.000002685547,12|0,0:0|1:2,0:0:0:0:
214,238,101325,2,0,P|188:227|151:214,1,44.0000013427735,2|0,1:2|1:0,0:0:0:0:
169,75,101492,2,0,P|176:95|185:115,1,44.0000013427735,0|0,1:2|1:2,0:0:0:0:
76,295,101658,1,8,1:2:0:0:
42,267,101742,1,0,1:2:0:0:
27,227,101825,1,0,1:2:0:0:
36,184,101908,1,0,1:0:0:0:
67,153,101992,6,0,L|74:62,1,88.000002685547,4|0,1:2|0:0,0:0:0:0:
173,221,102325,2,0,L|179:308,1,88.000002685547,8|0,0:0|1:0,0:0:0:0:
231,364,102575,1,0,1:0:0:0:
240,370,102658,2,0,L|347:348,1,88.000002685547,2|0,1:2|1:0,0:0:0:0:
421,279,102992,1,8,0:0:0:0:
326,181,103158,6,0,B|358:265|294:265|326:353,1,176.000005371094,0|0,1:0|1:0,0:0:0:0:
203,234,103658,1,8,0:0:0:0:
338,153,103825,1,0,1:2:0:0:
363,157,103908,1,0,1:2:0:0:
389,162,103992,1,2,1:2:0:0:
415,166,104075,1,0,1:2:0:0:
441,171,104158,1,0,1:2:0:0:
386,58,104325,1,8,0:0:0:0:
252,129,104492,1,0,0:0:0:0:
180,46,104658,6,0,P|138:61|89:78,1,88.000002685547,4|0,1:2|0:0,0:0:0:0:
0,232,104992,2,0,P|52:208|63:178,1,88.000002685547,8|0,0:0|1:0,0:0:0:0:
62,182,105242,1,0,1:0:0:0:
62,182,105325,1,2,1:2:0:0:
130,284,105492,1,0,1:0:0:0:
35,373,105658,1,8,0:0:0:0:
161,273,105825,6,0,L|322:315,1,132.00000402832,0|0,1:0|1:0,0:0:0:0:
322,314,106158,1,0,1:0:0:0:
448,374,106325,1,8,0:0:0:0:
448,374,106492,6,0,L|437:288,1,44.0000013427735,0|0,1:2|1:2,0:0:0:0:
471,248,106658,2,0,L|527:227,2,44.0000013427735,2|0|0,1:2|1:2|1:2,0:0:0:0:
385,177,106992,1,8,0:0:0:0:
264,221,107158,1,0,1:0:0:0:
264,221,107242,1,0,1:0:0:0:
264,221,107325,6,0,B|232:137|296:137|264:49,1,176.000005371094,4|8,1:2|0:0,0:0:0:0:
363,160,107825,1,0,1:0:0:0:
418,53,107992,1,2,1:2:0:0:
464,229,108158,1,0,1:0:0:0:
386,147,108325,1,8,0:0:0:0:
322,314,108492,5,4,1:2:0:0:
475,209,108658,1,2,1:2:0:0:
489,372,108825,1,0,1:0:0:0:
301,307,108992,1,8,0:0:0:0:
410,293,109158,1,0,1:2:0:0:
410,293,109242,1,0,1:2:0:0:
410,293,109325,6,0,L|420:350,3,44.0000013427735,2|0|0|0,1:2|1:2|1:2|1:2,0:0:0:0:
295,220,109658,2,0,L|305:163,3,44.0000013427735,8|0|0|0,1:2|1:2|1:2|1:2,0:0:0:0:
190,268,109982,6,0,P|127:259|124:106,1,239.999992675781,2|0,0:0|0:0,0:0:0:0:
111,35,110964,6,0,B|100:4|100:4|174:32|174:32|179:53|179:53|258:74|258:74|248:46,1,239.999992675781,2|0,0:0|0:0,0:0:0:0:
368,30,111992,6,0,L|378:72,2,40,2|0|0,0:0|0:0|0:0,0:0:0:0:
324,135,112992,2,0,L|313:177,2,40,2|0|0,0:0|0:0|0:0,0:0:0:0:
354,242,113992,5,2,0:0:0:0:
275,310,114325,1,0,0:0:0:0:
275,310,114492,2,0,P|242:300|176:290,2,71.9999978027344,0|0|0,0:0|0:0|0:0,0:0:0:0:
180,192,114992,6,0,P|121:216|35:225,1,143.999995605469,2|0,0:0|0:0,0:0:0:0:
178,312,115492,1,0,0:0:0:0:
266,214,115658,2,0,P|273:160|230:106,1,107.999996704102,0|0,0:0|0:0,0:0:0:0:
224,123,115992,6,0,P|165:99|79:90,2,143.999995605469,2|0|0,0:0|0:0|0:0,0:0:0:0:
324,70,116825,1,0,0:0:0:0:
396,233,116992,6,0,P|390:197|389:161,1,71.9999978027344,2|0,0:0|0:0,0:0:0:0:
485,111,117325,2,0,P|483:146|478:182,2,71.9999978027344,2|0|2,0:0|0:0|0:0,0:0:0:0:
509,251,117825,1,0,0:0:0:0:
397,348,117992,6,0,P|351:330|239:298,1,143.999995605469,2|2,0:0|0:0,0:0:0:0:
71,217,118658,2,0,P|110:167|175:177,1,107.999996704102,2|0,0:0|0:0,0:0:0:0:
198,142,118992,6,0,P|173:194|161:288,1,143.999995605469,2|2,0:0|0:0,0:0:0:0:
373,117,119658,2,0,P|334:67|269:77,1,107.999996704102,2|0,0:0|0:0,0:0:0:0:
299,89,119992,5,2,0:0:0:0:
335,262,120325,2,0,P|381:249|427:240,1,71.9999978027344,2|0,0:0|0:0,0:0:0:0:
257,177,120658,1,2,0:0:0:0:
257,177,120825,1,0,0:0:0:0:
315,349,120992,6,0,P|269:336|223:327,1,71.9999978027344,2|0,0:0|0:0,0:0:0:0:
167,280,121325,2,8,P|125:303|86:329,1,71.9999978027344,2|0,0:0|0:0,0:0:0:0:
21,298,121658,1,2,0:0:0:0:
21,298,121991,6,0,B|1:264|1:264|44:125,1,160,4|8,1:2|0:0,0:0:0:0:
189,188,122491,1,0,1:0:0:0:
189,188,122657,2,0,L|101:211,1,80,2|0,1:2|1:0,0:0:0:0:
96,82,122991,5,8,0:0:0:0:
254,135,123157,2,0,P|280:187|209:262,1,160,2|0,1:2|1:0,0:0:0:0:
350,242,123657,2,0,L|438:265,1,80,8|2,0:0|1:2,0:0:0:0:
436,257,123907,1,0,1:0:0:0:
443,251,123991,1,0,1:2:0:0:
356,160,124157,1,0,1:0:0:0:
288,326,124324,2,0,L|150:358,1,120,8|0,0:0|0:0,0:0:0:0:
151,346,124657,6,0,P|117:315|125:260,1,80,2|0,1:2|0:0,0:0:0:0:
219,97,124991,2,0,P|266:142|232:256,1,160,8|2,0:0|1:2,0:0:0:0:
132,260,125491,1,0,1:0:0:0:
56,175,125657,5,8,0:0:0:0:
56,175,125824,2,0,P|120:153|156:145,1,80,2|0,1:2|1:2,0:0:0:0:
321,95,126157,1,0,1:0:0:0:
321,95,126324,2,0,P|257:73|221:65,1,80,12|2,1:2|1:2,0:0:0:0:
245,70,126574,1,0,1:2:0:0:
245,70,126657,1,0,1:2:0:0:
280,255,126824,1,0,1:2:0:0:
318,243,126907,1,0,1:0:0:0:
357,234,126991,1,8,1:2:0:0:
396,228,127074,1,0,1:0:0:0:
436,225,127157,1,0,1:2:0:0:
194,288,127324,6,0,P|201:215|244:156,1,120,4|0,1:2|0:0,0:0:0:0:
243,157,127657,2,0,P|202:147|161:132,1,80,8|2,0:0|1:2,0:0:0:0:
308,42,127991,1,0,1:2:0:0:
396,134,128157,2,0,P|437:145|478:160,1,80,0|8,1:0|0:0,0:0:0:0:
243,157,128491,6,0,P|197:165|142:184,1,80,2|0,1:2|1:2,0:0:0:0:
60,326,128824,2,0,P|90:352|161:359,1,80,0|8,1:2|0:0,0:0:0:0:
241,290,129157,2,0,P|246:269|256:243,2,40,2|0|0,1:2|1:2|1:2,0:0:0:0:
398,372,129490,1,0,1:2:0:0:
398,372,129657,2,0,P|390:326|371:271,1,80,8|0,0:0|0:0,0:0:0:0:
332,77,129990,6,0,P|324:111|307:153,1,80,2|0,1:2|0:0,0:0:0:0:
213,119,130324,1,8,0:0:0:0:
265,272,130490,2,0,P|252:238|243:203,2,40,2|0|0,1:2|1:0|1:2,0:0:0:0:
433,224,130824,5,0,1:0:0:0:
307,152,130990,1,8,0:0:0:0:
336,321,131157,2,0,P|302:345|239:359,1,80,2|0,1:2|1:2,0:0:0:0:
162,298,131491,1,0,1:0:0:0:
240,216,131657,2,0,B|161:203|193:168|102:160,1,120,8|0,0:0|1:2,0:0:0:0:
106,173,131991,1,2,1:2:0:0:
9,105,132157,1,0,1:2:0:0:
62,17,132324,2,0,P|108:29|135:62,1,80,8|2,0:0|1:2,0:0:0:0:
149,80,132574,1,0,1:0:0:0:
149,80,132657,6,0,P|183:42|292:54,1,160,0|8,1:2|0:0,0:0:0:0:
411,162,133157,2,0,L|426:87,2,40,2|0|0,1:2|1:0|1:2,0:0:0:0:
316,322,133491,1,0,1:0:0:0:
192,252,133657,1,8,0:0:0:0:
316,223,133824,1,0,1:0:0:0:
228,110,133991,6,0,L|248:208,1,80,2|0,1:2|1:0,0:0:0:0:
100,271,134324,1,8,0:0:0:0:
60,164,134491,2,0,L|75:92,1,40,2|0,1:2|1:0,0:0:0:0:
93,30,134657,2,0,B|132:21|132:21|168:36,1,80,0|0,1:2|1:0,0:0:0:0:
244,188,134991,2,0,P|303:183|324:136,1,80,8|0,0:0|0:0,0:0:0:0:
376,93,135324,5,2,1:2:0:0:
477,277,135657,2,0,L|398:295,1,80,8|0,0:0|1:0,0:0:0:0:
328,313,135907,1,0,1:0:0:0:
307,318,135991,1,2,1:2:0:0:
153,161,136157,1,0,1:0:0:0:
240,191,136324,1,8,0:0:0:0:
262,197,136407,1,0,1:0:0:0:
284,203,136490,6,0,L|265:48,1,120,2|0,1:2|1:0,0:0:0:0:
265,49,136824,1,0,1:0:0:0:
153,161,136990,1,8,0:0:0:0:
88,89,137157,1,2,1:2:0:0:
88,89,137240,1,0,1:0:0:0:
88,89,137324,1,0,1:2:0:0:
184,247,137490,1,0,1:0:0:0:
78,343,137657,5,8,1:2:0:0:
75,327,137740,1,0,1:2:0:0:
73,311,137824,1,0,1:2:0:0:
71,295,137907,1,0,1:2:0:0:
69,279,137990,5,4,1:2:0:0:
192,352,138157,1,8,0:0:0:0:
264,229,138324,1,8,0:0:0:0:
142,157,138490,1,8,0:0:0:0:
214,34,138657,1,10,1:2:0:0:
336,106,138824,5,0,1:2:0:0:
336,106,138907,1,0,1:2:0:0:
336,106,138990,2,0,L|396:88,1,40,8|0,1:2|1:2,0:0:0:0:
485,19,139157,2,0,L|470:79,1,40,0|0,1:2|1:2,0:0:0:0:
458,209,139324,5,4,1:2:0:0:
382,239,139657,5,0,1:2:0:0:
334,310,139824,2,0,B|295:267|295:267|311:163,1,143.999995605469,2|0,0:0|0:0,0:0:0:0:
196,276,140324,2,0,P|148:293|63:369,1,143.999995605469,2|0,1:2|1:2,0:0:0:0:
111,219,140824,5,2,1:2:0:0:
111,219,140990,2,0,P|116:184|120:146,1,71.9999978027344,0|0,1:0|0:0,0:0:0:0:
210,250,141324,5,2,1:2:0:0:
291,153,141490,2,0,L|343:142,1,35.9999989013672,8|8,0:0|0:0,0:0:0:0:
343,129,141657,1,0,1:2:0:0:
434,225,141990,5,0,1:2:0:0:
512,167,142157,2,0,P|530:112|453:51,1,143.999995605469,2|0,0:0|1:0,0:0:0:0:
452,76,142574,5,8,0:0:0:0:
452,76,142657,1,2,1:2:0:0:
399,214,142824,2,0,P|412:274|416:308,1,71.9999978027344,8|0,0:0|1:2,0:0:0:0:
321,357,143157,6,0,L|171:386,1,143.999995605469,2|0,0:0|0:0,0:0:0:0:
249,248,143657,2,0,L|324:262,1,71.9999978027344,2|0,1:2|1:0,0:0:0:0:
207,165,143990,5,4,1:2:0:0:
244,93,144324,5,0,1:2:0:0:
207,21,144490,2,0,P|144:27|112:120,1,143.999995605469,10|0,0:0|1:0,0:0:0:0:
123,126,144907,5,0,1:0:0:0:
123,126,144990,1,2,1:2:0:0:
295,170,145157,2,0,P|333:138|316:92,1,71.9999978027344,8|0,0:0|1:2,0:0:0:0:
187,186,145490,6,0,B|167:221|167:221|169:279,1,71.9999978027344,8|0,0:0|1:2,0:0:0:0:
168,252,145740,1,0,1:2:0:0:
168,252,145824,1,0,1:2:0:0:
301,332,145990,1,2,1:2:0:0:
335,323,146074,1,0,1:2:0:0:
370,314,146157,1,0,1:2:0:0:
405,306,146240,1,0,1:2:0:0:
440,297,146324,6,0,P|446:242|456:186,1,107.999996704102,2|0,1:2|0:0,0:0:0:0:
441,162,146657,1,0,1:2:0:0:
339,214,146824,2,0,P|325:177|315:138,2,71.9999978027344,2|0|0,0:0|1:2|0:0,0:0:0:0:
395,73,147324,1,2,1:2:0:0:
226,160,147490,1,8,0:0:0:0:
274,15,147657,1,2,1:2:0:0:
325,122,147824,5,4,3:0:0:0:
171,78,147990,1,4,3:0:0:0:
171,78,148074,1,4,3:0:0:0:
171,78,148157,1,4,3:0:0:0:
190,238,148324,2,0,L|150:225,1,35.9999989013672,4|0,3:0|0:0,0:0:0:0:
78,285,148490,1,4,3:0:0:0:
78,285,148574,1,4,3:0:0:0:
78,285,148657,5,4,1:2:0:0:
190,238,148990,5,0,1:2:0:0:
291,192,149157,2,0,B|260:332,1,143.999995605469,2|0,0:0|0:0,0:0:0:0:
487,328,149657,5,2,1:2:0:0:
364,268,149824,1,8,0:0:0:0:
396,357,149990,1,0,1:2:0:0:
468,167,150157,5,2,0:0:0:0:
468,167,150324,2,0,P|463:202|459:240,1,71.9999978027344,0|0,1:2|0:0,0:0:0:0:
357,108,150657,5,2,1:2:0:0:
502,59,150824,2,0,L|450:48,1,35.9999989013672,8|8,0:0|0:0,0:0:0:0:
450,35,150990,1,2,1:2:0:0:
259,130,151324,5,0,1:2:0:0:
325,204,151490,2,0,P|343:259|266:320,1,143.999995605469,2|0,0:0|1:0,0:0:0:0:
277,324,151907,5,0,1:0:0:0:
263,328,151990,1,2,1:2:0:0:
148,239,152157,2,0,P|135:179|131:145,1,71.9999978027344,8|0,0:0|1:2,0:0:0:0:
24,356,152490,5,8,0:0:0:0:
100,344,152657,1,8,1:2:0:0:
179,333,152824,1,8,0:0:0:0:
211,179,152990,1,2,1:2:0:0:
133,168,153157,1,8,0:0:0:0:
288,191,153324,5,2,0:0:0:0:
321,278,155991,5,12,1:2:0:0:
174,130,156158,1,8,0:0:0:0:
113,180,156325,1,8,0:0:0:0:
186,210,156491,1,8,0:0:0:0:
101,101,156658,5,8,0:0:0:0:
49,229,156825,1,8,0:0:0:0:
186,210,156991,5,8,0:0:0:0:
300,61,157158,1,8,0:0:0:0:
361,111,157325,1,12,1:2:0:0:
288,141,157491,1,0,1:2:0:0:
373,32,157658,5,8,1:2:0:0:
425,160,157825,1,0,1:2:0:0:
288,141,157991,5,8,1:2:0:0:
274,160,158075,1,0,1:2:0:0:
264,182,158158,1,0,1:2:0:0:
259,205,158241,1,0,1:2:0:0:
258,229,158325,1,8,1:2:0:0:
261,253,158408,1,0,1:2:0:0:
269,276,158491,1,0,1:2:0:0:
281,296,158575,1,0,1:0:0:0:
296,314,158658,6,0,L|484:288,1,176.000005371094,4|8,1:2|0:0,0:0:0:0:
391,338,159158,1,2,1:2:0:0:
236,253,159325,2,0,L|142:240,1,88.000002685547,0|0,1:2|1:0,0:0:0:0:
60,312,159658,1,8,0:0:0:0:
100,170,159825,6,0,P|162:152|208:177,1,88.000002685547,2|0,1:2|0:0,0:0:0:0:
162,263,160158,1,0,1:0:0:0:
15,220,160325,2,0,B|30:123|-32:150|2:45,1,176.000005371094,8|0,0:0|1:0,0:0:0:0:
0,49,160741,1,0,1:2:0:0:
0,49,160825,1,0,1:2:0:0:
161,62,160991,2,0,P|101:79|65:94,1,88.000002685547,8|2,0:0|1:2,0:0:0:0:
198,183,161325,5,0,1:2:0:0:
238,57,161491,1,0,0:0:0:0:
364,108,161658,1,8,0:0:0:0:
324,234,161825,1,2,1:2:0:0:
268,136,161991,5,0,1:2:0:0:
268,136,162158,1,0,1:0:0:0:
163,213,162325,2,0,P|88:228|13:254,1,132.00000402832,8|0,0:0|0:0,0:0:0:0:
13,236,162658,5,0,1:2:0:0:
120,310,162825,1,2,1:2:0:0:
283,162,162991,2,0,P|269:206|260:251,1,88.000002685547,8|0,0:0|1:2,0:0:0:0:
240,265,163241,1,0,1:2:0:0:
240,265,163325,2,0,P|246:310|257:355,1,88.000002685547,2|0,1:2|1:2,0:0:0:0:
366,289,163658,1,8,0:0:0:0:
366,289,163825,1,0,0:0:0:0:
457,334,163991,6,0,B|495:281|495:281|440:151,1,176.000005371094,2|8,1:2|0:0,0:0:0:0:
346,265,164491,1,2,1:2:0:0:
346,265,164575,1,0,1:0:0:0:
346,266,164658,2,0,L|237:241,1,88.000002685547,0|0,1:2|1:0,0:0:0:0:
175,323,164991,1,8,0:0:0:0:
232,167,165158,6,0,L|60:206,1,176.000005371094,2|0,1:2|1:0,0:0:0:0:
161,12,165658,2,0,P|207:35|215:78,1,88.000002685547,8|0,0:0|1:2,0:0:0:0:
197,97,165908,1,0,1:2:0:0:
197,97,165991,1,2,1:2:0:0:
91,111,166158,1,0,1:2:0:0:
186,233,166325,5,8,0:0:0:0:
43,192,166491,1,0,0:0:0:0:
132,352,166658,6,0,P|198:334|288:314,1,132.00000402832,2|0,1:2|0:0,0:0:0:0:
284,297,166991,2,0,L|266:394,1,88.000002685547,8|2,0:0|1:2,0:0:0:0:
377,348,167241,1,0,1:0:0:0:
384,332,167325,2,0,L|367:245,1,88.000002685547,0|0,1:2|1:0,0:0:0:0:
424,49,167658,6,0,P|475:77|479:206,1,176.000005371094,8|0,0:0|1:2,0:0:0:0:
492,185,168074,1,0,1:0:0:0:
492,185,168158,1,2,1:2:0:0:
391,258,168324,1,8,0:0:0:0:
418,137,168491,1,4,1:2:0:0:
307,196,168658,6,0,P|346:185|370:182,1,44.0000013427735,2|0,1:2|1:2,0:0:0:0:
274,88,168824,2,0,P|252:83|231:76,1,44.0000013427735,0|0,1:2|1:2,0:0:0:0:
101,150,168991,1,8,1:2:0:0:
143,158,169074,1,0,1:2:0:0:
177,185,169158,1,0,1:2:0:0:
196,224,169241,1,0,1:2:0:0:
193,268,169324,6,0,P|141:257|15:243,1,176.000005371094,4|8,1:2|0:0,0:0:0:0:
113,351,169824,1,2,1:2:0:0:
216,289,169991,1,0,1:2:0:0:
319,369,170158,1,0,1:0:0:0:
422,307,170324,1,8,0:0:0:0:
322,189,170491,6,0,L|313:276,1,88.000002685547,2|0,1:2|1:2,0:0:0:0:
433,188,170824,1,0,1:0:0:0:
347,74,170991,2,0,P|272:96|167:125,1,176.000005371094,8|2,0:0|1:2,0:0:0:0:
144,136,171408,1,0,1:2:0:0:
144,136,171491,1,0,1:2:0:0:
33,44,171658,1,8,0:0:0:0:
4,188,171824,2,0,L|22:235,1,44.0000013427735,0|0,1:0|1:0,0:0:0:0:
73,325,171991,5,2,1:2:0:0:
176,263,172158,1,0,0:0:0:0:
132,161,172324,1,8,0:0:0:0:
287,225,172491,1,2,1:2:0:0:
287,225,172574,1,0,1:0:0:0:
287,225,172658,6,0,L|394:237,1,88.000002685547,0|0,1:2|1:0,0:0:0:0:
452,145,172991,1,8,0:0:0:0:
494,338,173158,2,0,P|436:310|389:324,1,88.000002685547,2|0,1:2|1:0,0:0:0:0:
263,359,173491,2,0,L|318:344,1,44.0000013427735,0|0,1:0|1:0,0:0:0:0:
332,330,173658,6,0,L|211:306,1,88.000002685547,8|0,0:0|1:2,0:0:0:0:
155,344,173908,1,0,1:2:0:0:
136,361,173991,2,0,P|126:312|111:248,1,88.000002685547,2|0,1:2|1:2,0:0:0:0:
198,181,174324,1,8,0:0:0:0:
94,96,174491,2,0,L|39:111,1,44.0000013427735,0|0,1:0|1:0,0:0:0:0:
25,125,174658,6,0,P|113:138|232:159,1,176.000005371094,4|8,1:2|0:0,0:0:0:0:
352,216,175158,2,0,L|359:163,1,44.0000013427735,2|0,1:2|1:0,0:0:0:0:
373,144,175324,5,0,1:2:0:0:
224,171,175491,1,0,1:0:0:0:
325,66,175658,1,8,0:0:0:0:
446,256,175824,6,0,L|249:276,1,176.000005371094,2|0,1:2|1:0,0:0:0:0:
151,357,176324,1,8,0:0:0:0:
56,265,176491,2,0,L|8:282,2,44.0000013427735,0|0|2,1:2|1:2|1:2,0:0:0:0:
168,190,176824,1,0,1:2:0:0:
71,87,176991,1,8,0:0:0:0:
223,32,177158,2,0,B|223:35|235:90,1,44.0000013427735,0|0,1:0|1:0,0:0:0:0:
291,137,177324,6,0,P|380:119|461:198,1,176.000005371094,4|8,1:2|0:0,0:0:0:0:
364,283,177824,1,0,1:0:0:0:
345,244,177908,1,0,1:0:0:0:
359,203,177991,1,2,1:2:0:0:
460,308,178158,1,0,1:0:0:0:
446,164,178324,1,8,0:0:0:0:
303,347,178491,6,0,P|247:344|196:256,1,132.00000402832,2|0,1:2|1:0,0:0:0:0:
193,260,178824,1,0,1:0:0:0:
275,181,178991,1,8,0:0:0:0:
134,146,179158,1,0,1:0:0:0:
52,266,179324,1,2,1:2:0:0:
138,384,179491,1,0,1:0:0:0:
303,347,179658,1,12,0:0:0:0:
193,260,179824,2,0,L|276:249,1,44.0000013427735,0|0,1:0|1:0,0:0:0:0:
378,296,179991,6,0,P|426:257|388:140,1,176.000005371094,4|8,1:2|0:0,0:0:0:0:
278,75,180491,1,2,1:2:0:0:
278,75,180574,1,0,1:0:0:0:
278,75,180658,2,0,P|297:138|306:194,1,88.000002685547,0|0,1:2|1:0,0:0:0:0:
211,286,180991,1,8,0:0:0:0:
131,350,181158,2,0,P|104:313|132:248,1,88.000002685547,2|0,1:2|1:2,0:0:0:0:
207,160,181491,5,0,1:0:0:0:
96,85,181658,1,8,0:0:0:0:
17,221,181824,1,2,1:2:0:0:
17,221,181908,1,0,1:2:0:0:
17,221,181991,2,0,P|99:197|190:179,1,176.000005371094,0|8,1:2|0:0,0:0:0:0:
291,61,182491,1,0,0:0:0:0:
414,167,182658,6,0,P|410:239|325:264,1,132.00000402832,2|0,1:2|0:0,0:0:0:0:
354,242,182991,1,8,0:0:0:0:
426,351,183158,2,0,P|475:337|537:328,1,88.000002685547,2|0,1:2|1:2,0:0:0:0:
499,236,183491,1,0,1:0:0:0:
499,236,183658,1,8,0:0:0:0:
291,303,183824,6,0,P|242:289|108:264,1,176.000005371094,2|0,1:2|1:0,0:0:0:0:
57,333,184324,2,0,P|28:276|56:233,1,88.000002685547,8|0,0:0|1:2,0:0:0:0:
33,256,184574,1,0,1:2:0:0:
33,256,184658,1,2,1:2:0:0:
213,202,184824,1,0,1:2:0:0:
84,350,184991,1,8,0:0:0:0:
89,186,185158,1,0,0:0:0:0:
273,323,185324,6,0,P|319:284|305:157,1,176.000005371094,4|8,1:2|0:0,0:0:0:0:
201,130,185824,1,2,1:2:0:0:
201,130,185908,1,0,1:2:0:0:
201,130,185991,2,0,L|79:159,1,88.000002685547,0|0,1:2|1:0,0:0:0:0:
35,113,186324,1,8,0:0:0:0:
0,246,186491,6,0,L|169:285,1,132.00000402832,2|0,1:2|1:0,0:0:0:0:
151,258,186824,1,0,1:0:0:0:
266,358,186991,2,0,P|238:317|250:265,1,88.000002685547,8|0,0:0|1:0,0:0:0:0:
420,220,187324,2,0,P|410:268|365:297,1,88.000002685547,2|0,1:2|1:0,0:0:0:0:
223,202,187658,1,12,0:0:0:0:
276,65,187824,6,0,P|307:119|349:250,1,176.000005371094,0|0,1:0|1:0,0:0:0:0:
412,152,188324,1,12,0:0:0:0:
272,277,188491,1,0,1:0:0:0:
272,277,188574,1,0,1:0:0:0:
272,277,188658,1,2,1:2:0:0:
189,167,188824,1,0,1:0:0:0:
370,233,188991,1,8,0:0:0:0:
253,366,189158,6,0,L|74:332,1,176.000005371094,4|0,1:2|1:0,0:0:0:0:
99,137,189658,2,0,L|119:238,1,88.000002685547,12|0,0:0|1:2,0:0:0:0:
269,99,189991,2,0,L|198:77,1,44.0000013427735,2|0,1:2|1:0,0:0:0:0:
214,262,190158,2,0,L|285:240,1,44.0000013427735,0|0,1:2|1:2,0:0:0:0:
422,94,190324,1,8,1:2:0:0:
390,124,190408,1,0,1:2:0:0:
369,162,190491,1,0,1:2:0:0:
360,205,190574,1,0,1:0:0:0:
365,249,190658,5,12,1:2:0:0:
504,313,190824,1,8,1:2:0:0:
495,302,191158,5,8,1:2:0:0:
298,361,191324,1,8,1:2:0:0:
307,371,191658,5,8,1:2:0:0:
234,172,191824,2,0,B|168:149|168:149|159:152|159:152|102:132|102:132|97:175|53:200,1,215.999993408203,12|0,1:2|0:0,0:0:0:0:
25,124,192658,6,0,L|12:75,3,44.0000013427735,8|0|0|0,1:2|1:2|1:2|1:2,0:0:0:0:
107,8,192991,1,8,1:2:0:0:
149,17,193074,1,0,1:2:0:0:
192,27,193158,1,0,1:2:0:0:
235,37,193241,1,0,1:2:0:0:
278,47,193324,6,0,B|293:113|293:113|281:147|281:147|296:221,1,160,4|8,1:2|0:0,0:0:0:0:
445,279,193824,1,0,1:0:0:0:
445,279,193907,1,0,1:0:0:0:
445,279,193990,2,0,P|398:313|358:300,1,80,2|0,1:2|1:0,0:0:0:0:
150,320,194324,2,0,B|193:282|193:282|306:313,1,160,8|2,0:0|1:2,0:0:0:0:
301,281,194740,2,0,L|295:209,1,40,0|0,1:0|1:0,0:0:0:0:
213,160,194990,1,8,0:0:0:0:
281,71,195157,6,0,L|371:93,1,80,2|0,1:2|1:2,0:0:0:0:
470,21,195490,1,2,1:2:0:0:
470,21,195657,2,0,B|507:80|507:80|481:199,1,160,8|2,0:0|1:2,0:0:0:0:
460,276,196157,1,2,0:0:0:0:
354,237,196324,1,8,0:0:0:0:
296,325,196490,1,0,1:0:0:0:
296,325,196574,1,0,1:0:0:0:
296,325,196657,6,0,L|217:340,2,53.3333333333333,2|2|2,1:2|0:0|0:0,0:0:0:0:
176,279,196990,2,0,L|97:263,2,53.3333333333333,10|2|2,0:0|0:0|0:0,0:0:0:0:
219,175,197324,6,0,B|285:160|285:160|319:172|319:172|393:157,1,160,2|8,1:2|0:0,0:0:0:0:
445,279,197824,1,0,1:2:0:0:
445,279,197907,1,0,1:2:0:0:
445,279,197990,2,0,P|398:313|358:300,1,80,2|0,1:2|1:2,0:0:0:0:
150,320,198324,2,0,B|193:282|193:282|286:306,1,120,8|0,0:0|0:0,0:0:0:0:
282,289,198657,2,0,L|276:217,1,40,2|0,1:2|1:0,0:0:0:0:
213,160,198824,1,0,1:0:0:0:
368,192,198990,1,8,0:0:0:0:
281,71,199157,6,0,L|371:93,1,80,4|2,1:2|1:2,0:0:0:0:
470,21,199490,1,0,1:0:0:0:
470,21,199657,2,0,B|507:80|507:80|481:199,1,160,12|2,0:0|1:2,0:0:0:0:
460,276,200157,1,0,1:0:0:0:
354,237,200324,1,8,0:0:0:0:
296,325,200490,1,0,1:0:0:0:
296,325,200574,1,0,1:0:0:0:
296,325,200657,6,0,L|217:340,2,53.3333333333333,2|2|2,1:2|0:0|0:0,0:0:0:0:
176,279,200990,2,0,L|97:263,2,53.3333333333333,10|2|2,1:2|0:0|0:0,0:0:0:0:
0,251,201324,6,0,B|48:244|60:205|60:205|73:162|123:160,1,160,4|8,1:2|0:0,0:0:0:0:
245,203,201824,1,0,1:0:0:0:
245,203,201907,1,0,1:0:0:0:
245,203,201990,2,0,L|274:121,1,80,2|0,1:2|1:0,0:0:0:0:
224,56,202324,2,0,P|285:73|341:19,1,120,8|2,0:0|1:2,0:0:0:0:
360,30,202657,2,0,L|401:63,1,40,0|0,1:0|1:0,0:0:0:0:
440,200,202824,1,8,0:0:0:0:
512,81,202990,1,0,0:0:0:0:
413,214,203157,6,0,B|364:197|364:197|282:232,1,120,4|0,1:2|1:0,0:0:0:0:
273,239,203490,1,0,1:0:0:0:
172,318,203657,2,0,L|151:230,1,80,8|0,0:0|0:0,0:0:0:0:
223,133,203990,1,2,1:2:0:0:
223,133,204157,1,0,1:0:0:0:
107,76,204324,2,0,L|-4:109,1,80,8|0,0:0|1:0,0:0:0:0:
206,11,204657,5,4,1:2:0:0:
313,93,204824,1,0,1:2:0:0:
340,87,204907,1,0,1:2:0:0:
367,82,204990,1,8,1:2:0:0:
395,76,205074,1,0,1:2:0:0:
422,71,205157,1,0,1:2:0:0:
449,65,205240,1,0,1:2:0:0:
476,60,205324,6,0,L|459:162,1,80,4|0,1:2|1:0,0:0:0:0:
436,250,205657,1,8,0:0:0:0:
436,250,205824,1,0,1:0:0:0:
329,195,205990,1,2,1:2:0:0:
287,291,206157,5,0,1:0:0:0:
181,226,206324,1,8,0:0:0:0:
158,334,206490,1,0,1:0:0:0:
51,275,206657,5,10,1:2:0:0:
168,210,206824,1,8,1:2:0:0:
51,149,206990,1,8,1:2:0:0:
163,80,207157,5,8,1:2:0:0:
258,144,207324,1,10,1:2:0:0:
370,75,207490,1,8,1:2:0:0:
439,187,207657,1,8,1:2:0:0:
327,256,207824,1,8,1:2:0:0:
413,358,207990,5,2,0:0:0:0:
156,52,213322,6,0,P|106:79|100:151,1,128,2|0,0:0|0:0,0:0:0:0:
71,244,213822,2,0,L|202:215,1,128,2|0,0:0|0:0,0:0:0:0:
160,197,214322,2,0,L|285:225,1,128,2|0,0:0|0:0,0:0:0:0:
262,242,214822,2,0,L|393:213,1,128,2|0,0:0|0:0,0:0:0:0:
480,178,215322,2,0,L|460:251,1,64,2|0,0:0|0:0,0:0:0:0:
402,131,215655,5,2,0:0:0:0:
402,131,215822,2,0,L|339:115,1,64,0|0,0:0|0:0,0:0:0:0:
292,17,216155,2,0,P|256:35|237:130,1,128,2|0,0:0|0:0,0:0:0:0:
146,82,216655,2,0,L|22:112,1,128,2|0,0:0|0:0,0:0:0:0:
0,197,217155,2,0,L|124:226,1,128,2|0,0:0|0:0,0:0:0:0:
203,185,217655,2,0,P|214:230|197:270,1,64,2|0,0:0|0:0,0:0:0:0:
104,353,217988,5,2,0:0:0:0:
104,353,218155,2,0,P|128:313|168:297,1,64,0|0,0:0|0:0,0:0:0:0:
302,279,218488,2,0,P|280:325|204:347,1,128,2|0,0:0|0:0,0:0:0:0:
361,350,218988,2,0,P|420:336|514:323,1,128,2|0,0:0|0:0,0:0:0:0:
512,242,219488,2,0,P|453:228|359:215,1,128,2|0,0:0|0:0,0:0:0:0:
318,153,219988,6,0,P|313:116|299:39,1,96,2|0,0:0|0:0,0:0:0:0:
321,31,220322,1,2,0:0:0:0:
321,31,220488,2,0,L|411:43,1,64,2|0,0:0|0:0,0:0:0:0:
237,121,220822,2,0,P|198:85|132:96,1,96,2|0,0:0|0:0,0:0:0:0:
92,129,221155,1,2,0:0:0:0:
165,170,221433,6,0,L|152:235,1,42.6666666666667,2|0,0:0|0:0,0:0:0:0:
199,277,221655,2,0,L|186:342,2,42.6666666666667,2|0|0,0:0|0:0|0:0,0:0:0:0:
287,228,221988,2,0,L|274:293,2,42.6666666666667,2|0|0,0:0|0:0|0:0,0:0:0:0:
345,322,222322,2,0,L|332:387,2,42.6666666666667,2|0|0,0:0|0:0|0:0,0:0:0:0:
426,262,222655,6,0,P|431:188|441:105,1,143.999995605469,2|0,0:0|0:0,0:0:0:0:
355,18,223155,2,0,P|350:89|341:161,1,143.999995605469,2|0,0:0|0:0,0:0:0:0:
259,207,223655,2,0,B|214:207|182:173|182:173|142:174|107:221,1,143.999995605469,2|0,0:0|0:0,0:0:0:0:
216,311,224155,2,0,B|260:311|292:344|292:344|332:343|367:296,1,143.999995605469,2|0,0:0|0:0,0:0:0:0:
425,253,224655,2,0,P|451:284|448:338,1,71.9999978027344,2|0,0:0|0:0,0:0:0:0:
331,206,224988,6,0,P|371:160|458:149,1,143.999995605469,2|0,0:0|0:0,0:0:0:0:
258,259,225488,2,0,P|243:199|284:122,1,143.999995605469,2|0,0:0|0:0,0:0:0:0:
259,349,225988,2,0,P|202:327|162:249,1,143.999995605469,2|0,0:0|0:0,0:0:0:0:
32,215,226488,2,0,P|88:193|128:115,1,143.999995605469,2|0,0:0|0:0,0:0:0:0:
267,99,226988,2,0,P|238:88|218:49,1,71.9999978027344,2|0,0:0|0:0,0:0:0:0:
304,25,227324,6,0,L|450:46,1,120,4|2,1:2|0:0,0:0:0:0:
452,73,227657,2,0,L|470:132,2,53.3333333333333,0|0|0,1:2|0:0|0:0,0:0:0:0:
412,191,227990,2,0,L|394:250,2,53.3333333333333,2|0|0,1:2|0:0|0:0,0:0:0:0:
510,326,228324,2,0,L|494:274,2,53.3333333333333,2|0|0,1:2|0:0|0:0,0:0:0:0:
421,368,228657,5,2,1:2:0:0:
345,323,228824,1,8,0:0:0:0:
220,382,228990,1,0,1:2:0:0:
345,309,229157,1,10,0:0:0:0:
233,256,229324,1,0,1:2:0:0:
275,136,229490,6,0,L|319:120,1,40,2|0,1:2|1:2,0:0:0:0:
398,75,229657,2,0,L|431:108,1,40,8|0,1:2|1:2,0:0:0:0:
505,153,229824,2,0,L|488:196,1,40,0|0,1:2|1:2,0:0:0:0:
430,254,229990,5,4,1:2:0:0:
328,214,230157,1,8,0:0:0:0:
243,282,230324,5,8,0:0:0:0:
352,338,230490,1,8,0:0:0:0:
347,325,230657,5,8,0:0:0:0:
228,364,230824,1,8,0:0:0:0:
118,308,230990,1,8,0:0:0:0:
55,177,231157,1,8,0:0:0:0:
142,34,231324,5,4,1:2:0:0:
253,134,231490,1,0,1:0:0:0:
260,121,231657,1,8,0:0:0:0:
318,11,231824,5,0,1:0:0:0:
199,208,231990,1,8,0:0:0:0:
385,170,232157,1,0,1:2:0:0:
385,170,232240,1,0,1:2:0:0:
385,170,232324,2,0,L|439:184,1,40,8|0,1:2|1:2,0:0:0:0:
506,281,232490,2,0,L|452:295,1,40,0|0,1:2|1:2,0:0:0:0:
340,367,232657,6,0,P|284:306|323:227,1,176.000005371094,4|8,1:2|0:0,0:0:0:0:
210,352,233157,1,2,1:2:0:0:
127,244,233324,2,0,P|69:226|26:220,1,88.000002685547,0|0,1:2|1:0,0:0:0:0:
315,137,233657,1,8,0:0:0:0:
164,55,233824,6,0,P|123:99|130:142,1,88.000002685547,2|0,1:2|1:2,0:0:0:0:
220,228,234157,1,0,1:0:0:0:
401,240,234324,2,0,P|402:175|289:115,1,176.000005371094,8|0,0:0|1:0,0:0:0:0:
320,112,234740,1,0,1:2:0:0:
320,112,234824,1,0,1:2:0:0:
200,188,234990,1,8,0:0:0:0:
299,247,235157,1,0,0:0:0:0:
134,290,235324,5,2,1:2:0:0:
292,215,235490,1,0,0:0:0:0:
168,109,235657,1,8,0:0:0:0:
43,253,235824,1,2,1:2:0:0:
188,209,235990,5,0,1:2:0:0:
188,209,236157,1,0,1:0:0:0:
125,39,236324,1,8,0:0:0:0:
309,1,236490,6,0,P|369:61|338:157,1,176.000005371094,2|0,1:2|1:0,0:0:0:0:
415,274,236990,2,0,P|374:264|307:254,1,88.000002685547,8|0,0:0|1:2,0:0:0:0:
299,237,237240,1,0,1:2:0:0:
299,237,237324,2,0,P|306:280|316:323,1,88.000002685547,2|0,1:2|1:2,0:0:0:0:
161,375,237657,1,8,0:0:0:0:
211,274,237824,1,0,0:0:0:0:
127,158,237990,6,0,P|57:175|64:298,1,176.000005371094,2|8,1:2|0:0,0:0:0:0:
189,252,238490,1,2,1:2:0:0:
189,252,238574,1,0,1:0:0:0:
189,252,238657,2,0,P|249:235|300:225,1,88.000002685547,0|0,1:2|1:0,0:0:0:0:
213,135,238990,1,8,0:0:0:0:
273,322,239157,6,0,P|343:305|336:182,1,176.000005371094,2|0,1:2|1:0,0:0:0:0:
233,111,239657,2,0,P|247:187|257:232,1,88.000002685547,8|0,0:0|1:2,0:0:0:0:
274,229,239907,1,0,1:2:0:0:
274,229,239990,1,2,1:2:0:0:
380,186,240157,1,0,1:2:0:0:
453,339,240324,5,8,0:0:0:0:
298,305,240490,1,0,0:0:0:0:
444,253,240657,6,0,P|474:203|434:120,1,132.00000402832,2|0,1:2|0:0,0:0:0:0:
464,113,240990,2,0,L|363:128,1,88.000002685547,8|2,0:0|1:2,0:0:0:0:
286,35,241240,1,0,1:0:0:0:
277,48,241324,2,0,L|264:135,1,88.000002685547,0|0,1:2|1:0,0:0:0:0:
161,243,241657,6,0,P|104:216|126:101,1,176.000005371094,8|0,0:0|1:2,0:0:0:0:
107,114,242073,1,0,1:0:0:0:
107,114,242157,1,2,1:2:0:0:
289,161,242323,1,8,0:0:0:0:
189,272,242490,6,0,P|219:258|253:246,1,44.0000013427735,4|0,1:2|1:0,0:0:0:0:
343,122,242657,2,0,P|329:152|317:186,1,44.0000013427735,2|0,1:2|1:2,0:0:0:0:
390,295,242823,1,0,1:2:0:0:
426,270,242907,1,0,1:2:0:0:
452,235,242990,1,8,1:2:0:0:
465,193,243073,1,0,1:0:0:0:
463,149,243157,1,0,1:2:0:0:
447,109,243240,1,0,1:2:0:0:
418,76,243323,6,0,B|305:69|351:118|227:113,1,191.999994140625,4|8,1:2|0:0,0:0:0:0:
97,37,243823,1,2,1:2:0:0:
97,37,243907,1,0,1:0:0:0:
97,37,243990,2,0,P|66:81|83:133,1,95.9999970703126,0|0,1:2|1:0,0:0:0:0:
180,217,244323,1,8,0:0:0:0:
73,329,244490,2,0,L|55:209,1,95.9999970703126,2|0,1:2|1:2,0:0:0:0:
212,322,244823,1,0,1:0:0:0:
278,222,244990,6,0,B|329:222|365:184|365:184|409:185|449:238,1,191.999994140625,8|2,0:0|1:2,0:0:0:0:
439,262,245407,1,0,1:2:0:0:
439,262,245490,1,0,1:2:0:0:
510,56,245657,2,0,P|488:59|416:86,1,95.9999970703126,8|0,0:0|0:0,0:0:0:0:
512,193,245990,5,2,1:2:0:0:
371,316,246157,1,0,0:0:0:0:
419,84,246323,1,8,0:0:0:0:
281,214,246490,1,2,1:2:0:0:
281,214,246573,1,0,1:0:0:0:
281,214,246657,6,0,L|172:192,1,95.9999970703126,0|0,1:2|1:0,0:0:0:0:
46,68,246990,1,8,0:0:0:0:
79,230,247157,2,0,P|93:179|112:130,1,95.9999970703126,4|2,1:2|1:2,0:0:0:0:
175,309,247490,1,0,1:0:0:0:
42,384,247657,2,0,P|28:333|9:284,1,95.9999970703126,8|0,0:0|1:2,0:0:0:0:
195,221,247990,5,2,1:2:0:0:
195,221,248073,1,0,1:2:0:0:
195,221,248157,1,0,1:2:0:0:
273,363,248323,1,8,0:0:0:0:
434,280,248490,1,0,1:2:0:0:
434,280,248573,1,0,1:2:0:0:
434,280,248657,6,0,B|407:268|378:250|378:250|322:265|253:279,1,191.999994140625,4|8,1:2|0:0,0:0:0:0:
315,149,249157,1,2,1:2:0:0:
315,149,249240,1,0,1:0:0:0:
315,149,249323,2,0,P|384:136|424:130,1,95.9999970703126,0|0,1:2|1:0,0:0:0:0:
299,2,249657,1,8,0:0:0:0:
130,106,249823,6,0,P|190:159|325:168,1,191.999994140625,2|2,1:2|1:2,0:0:0:0:
500,90,250323,2,0,P|487:159|481:199,1,95.9999970703126,8|2,0:0|1:2,0:0:0:0:
480,210,250573,1,0,1:2:0:0:
480,210,250657,1,0,1:2:0:0:
385,313,250823,1,0,1:2:0:0:
297,176,250990,1,8,0:0:0:0:
204,317,251157,1,2,0:0:0:0:
88,188,251323,6,0,P|94:135|185:104,1,143.999995605469,4|0,1:2|0:0,0:0:0:0:
189,100,251657,2,0,P|197:154|210:213,1,95.9999970703126,8|0,0:0|1:0,0:0:0:0:
278,256,251907,1,0,1:0:0:0:
287,262,251990,2,0,P|308:222|295:164,1,95.9999970703126,2|0,1:2|1:0,0:0:0:0:
171,322,252323,1,8,0:0:0:0:
323,350,252490,6,0,B|384:335|384:335|411:295|411:295|495:280,1,191.999994140625,4|0,1:2|1:0,0:0:0:0:
409,191,252990,1,8,1:2:0:0:
389,149,253073,1,0,1:0:0:0:
397,102,253157,1,0,1:0:0:0:
432,70,253240,1,0,1:0:0:0:
478,64,253323,1,2,1:2:0:0:
389,224,253490,6,0,L|326:210,1,47.9999985351563,0|0,1:2|1:2,0:0:0:0:
279,131,253657,2,0,L|216:145,1,47.9999985351563,8|0,1:2|1:2,0:0:0:0:
169,224,253823,2,0,L|122:213,1,47.9999985351563,0|0,1:2|1:2,0:0:0:0:
0,100,253990,6,0,P|17:163|33:297,1,191.999994140625,4|8,1:2|0:0,0:0:0:0:
118,49,254490,1,2,1:2:0:0:
118,49,254573,1,0,1:0:0:0:
118,49,254657,2,0,P|134:77|159:139,1,95.9999970703126,0|0,1:2|1:0,0:0:0:0:
304,99,254990,1,8,0:0:0:0:
122,213,255157,2,0,P|166:230|208:253,1,95.9999970703126,2|0,1:2|1:2,0:0:0:0:
347,180,255490,5,0,1:0:0:0:
295,264,255657,1,8,0:0:0:0:
430,320,255823,1,2,1:2:0:0:
430,320,255907,1,0,1:2:0:0:
430,320,255990,2,0,P|474:282|432:167,1,191.999994140625,0|8,1:2|0:0,0:0:0:0:
309,92,256490,1,0,0:0:0:0:
213,204,256657,6,0,P|198:151|157:41,1,143.999995605469,2|0,1:2|0:0,0:0:0:0:
180,36,256990,1,8,0:0:0:0:
105,141,257157,1,2,1:2:0:0:
105,141,257240,1,0,1:0:0:0:
105,141,257323,1,0,1:2:0:0:
253,198,257490,1,0,1:0:0:0:
109,288,257657,1,8,0:0:0:0:
211,116,257823,6,0,P|265:101|345:187,1,176.000005371094,2|0,1:2|1:0,0:0:0:0:
422,200,258323,2,0,P|385:250|342:252,1,88.000002685547,8|0,0:0|1:2,0:0:0:0:
362,254,258573,1,0,1:2:0:0:
362,254,258657,1,2,1:2:0:0:
407,118,258823,1,0,1:2:0:0:
253,198,258990,2,0,L|280:309,1,88.000002685547,12|0,0:0|0:0,0:0:0:0:
92,317,259323,6,0,P|105:238|188:261,1,176.000005371094,4|8,1:2|0:0,0:0:0:0:
108,148,259823,1,2,1:2:0:0:
108,148,259907,1,0,1:0:0:0:
108,148,259990,2,0,P|97:104|78:38,1,88.000002685547,0|0,1:2|1:0,0:0:0:0:
192,88,260323,1,8,0:0:0:0:
302,24,260490,2,0,P|290:66|269:176,1,132.00000402832,2|0,1:2|0:0,0:0:0:0:
291,179,260823,5,0,1:0:0:0:
432,125,260990,1,8,0:0:0:0:
465,275,261157,1,0,1:0:0:0:
324,329,261323,1,2,1:2:0:0:
406,212,261490,1,0,1:0:0:0:
396,375,261657,6,0,P|252:340|196:335,1,176.000005371094,12|2,0:0|1:2,0:0:0:0:
157,208,262157,1,0,1:0:0:0:
49,312,262323,1,8,0:0:0:0:
210,145,262490,2,0,P|203:188|190:230,1,88.000002685547,0|2,1:0|1:2,0:0:0:0:
64,177,262823,1,0,1:0:0:0:
64,177,262990,1,8,0:0:0:0:
220,50,263157,6,0,P|281:81|283:203,1,176.000005371094,4|0,1:2|1:0,0:0:0:0:
177,299,263657,1,12,1:2:0:0:
177,299,263740,1,0,1:2:0:0:
177,299,263823,2,0,P|170:274|156:230,1,44.0000013427735,0|0,1:2|1:2,0:0:0:0:
98,119,263990,2,0,P|91:144|77:188,1,44.0000013427735,2|0,1:2|1:0,0:0:0:0:
42,265,264157,2,0,P|17:272|-27:286,1,44.0000013427735,0|0,1:2|1:2,0:0:0:0:
0,157,264323,1,8,1:2:0:0:
62,352,264490,5,0,1:2:0:0:
72,355,264573,1,0,1:2:0:0:
81,360,264657,2,0,P|156:336|282:308,1,176.000005371094,4|8,1:2|0:0,0:0:0:0:
431,347,265157,1,0,1:2:0:0:
431,347,265240,1,0,1:0:0:0:
431,347,265323,2,0,P|469:302|464:259,1,95.9999970703126,2|0,1:2|1:0,0:0:0:0:
429,154,265657,1,8,0:0:0:0:
288,233,265823,6,0,B|180:207|180:207|147:146|204:135,1,191.999994140625,0|0,1:0|1:0,0:0:0:0:
365,27,266323,2,0,L|350:138,1,95.9999970703126,8|0,0:0|1:2,0:0:0:0:
369,145,266573,1,0,1:2:0:0:
382,164,266657,2,0,L|447:149,2,47.9999985351563,2|0|0,1:2|1:0|1:2,0:0:0:0:
254,75,266990,1,8,0:0:0:0:
174,244,267157,1,0,1:0:0:0:
174,244,267240,1,0,1:0:0:0:
174,244,267323,6,0,P|103:194|113:88,1,191.999994140625,4|8,1:2|0:0,0:0:0:0:
23,246,267823,1,0,1:0:0:0:
23,246,267907,1,0,1:0:0:0:
23,246,267990,2,0,P|46:296|56:338,1,95.9999970703126,2|0,1:2|1:0,0:0:0:0:
196,258,268323,1,8,0:0:0:0:
300,346,268490,6,0,B|364:333|364:333|389:177,1,191.999994140625,0|0,1:0|1:0,0:0:0:0:
336,82,268990,2,0,L|238:105,1,95.9999970703126,8|0,0:0|1:2,0:0:0:0:
109,59,269323,1,2,1:2:0:0:
109,59,269407,1,0,1:2:0:0:
109,59,269490,1,0,1:2:0:0:
60,168,269657,2,0,P|79:222|84:264,1,95.9999970703126,12|0,0:0|1:0,0:0:0:0:
70,291,269907,1,0,1:0:0:0:
55,321,269990,6,0,P|125:306|216:383,1,191.999994140625,4|12,1:2|0:0,0:0:0:0:
327,309,270490,1,0,1:0:0:0:
234,219,270657,1,2,1:2:0:0:
234,219,270823,1,0,1:0:0:0:
339,151,270990,5,8,0:0:0:0:
226,95,271157,2,0,L|122:122,1,95.9999970703126,4|2,1:2|1:2,0:0:0:0:
52,51,271490,1,0,1:0:0:0:
108,212,271657,2,0,L|81:316,1,95.9999970703126,12|0,0:0|1:2,0:0:0:0:
197,353,271990,5,2,1:2:0:0:
197,353,272073,1,0,1:2:0:0:
197,353,272157,2,0,L|253:334,1,47.9999985351563,0|0,1:2|1:2,0:0:0:0:
358,284,272323,1,8,1:2:0:0:
358,284,272407,1,0,1:2:0:0:
358,284,272490,2,0,L|302:265,1,47.9999985351563,0|0,1:2|1:2,0:0:0:0:
165,189,272657,5,10,1:2:0:0:
248,111,272823,2,0,L|231:-6,1,95.9999970703126,8|0,0:0|1:0,0:0:0:0:
330,186,273157,5,10,0:0:0:0:
413,108,273323,2,0,L|396:-9,1,95.9999970703126,8|0,0:0|1:0,0:0:0:0:
330,186,273657,5,10,0:0:0:0:
450,268,273823,2,0,L|463:363,1,95.9999970703126,8|0,0:0|1:0,0:0:0:0:
348,184,274157,5,10,0:0:0:0:
225,247,274323,2,0,L|238:342,1,95.9999970703126,8|0,0:0|1:0,0:0:0:0:
163,91,274657,5,10,0:0:0:0:
53,291,274823,1,8,0:0:0:0:
0,134,274990,1,8,0:0:0:0:
225,247,275157,6,0,B|296:286|371:180|288:193|288:180|359:23|491:60|561:139|507:146|507:146|484:198|399:222|346:183,1,597.60000866272,12|0,0:0|0:0,0:0:0:0:
