osu file format v14

[General]
AudioFilename: audio.mp3
AudioLeadIn: 0
PreviewTime: 6130
Countdown: 0
SampleSet: Soft
StackLeniency: 0.7
Mode: 0
LetterboxInBreaks: 0
WidescreenStoryboard: 1

[Editor]
Bookmarks: 224,6224,18224,30224,42224,54224,66224,78224,84224,96224,108974
DistanceSpacing: 1
BeatDivisor: 4
GridSize: 32
TimelineZoom: 1.2

[Metadata]
Title:Cage Fight
TitleUnicode:Cage Fight
Artist:Alicia Blacker, Clyde Shorey
ArtistUnicode:Alicia Blacker, Clyde Shorey
Creator:Xen
Version:Normal
Source:
Tags:throttled msi victory league of legends genshin impact ruin guard noelle electronic instrumental xenon- xehn
BeatmapID:3059567
BeatmapSetID:1488922

[Difficulty]
HPDrainRate:4
CircleSize:3.4
OverallDifficulty:4
ApproachRate:5.5
SliderMultiplier:2
SliderTickRate:1

[Events]
//Background and Video events
0,0,"bg.jpg",0,0
//Break Periods
//Storyboard Layer 0 (Background)
//Storyboard Layer 1 (Fail)
//Storyboard Layer 2 (Pass)
//Storyboard Layer 3 (Foreground)
//Storyboard Layer 4 (Overlay)
//Storyboard Sound Samples

[TimingPoints]
224,750,4,2,2,60,1,0
224,-90.9090909090909,4,2,2,60,0,0
6224,-90.9090909090909,4,2,2,70,0,0
18224,-90.9090909090909,4,2,2,80,0,0
30224,-90.9090909090909,4,2,2,45,0,0
42224,-90.9090909090909,4,2,2,55,0,0
54224,-90.9090909090909,4,2,2,70,0,0
66224,-90.9090909090909,4,2,2,80,0,0
78224,-90.9090909090909,4,2,2,55,0,0
84224,-90.9090909090909,4,2,2,80,0,0

[Colours]
Combo1 : 251,160,103
Combo2 : 114,142,186
Combo3 : 216,60,73
Combo4 : 38,48,117

[HitObjects]
60,125,224,6,0,P|56:67|80:19,2,110.000003356934,2|2|2,0:0|0:0|0:0,0:0:0:0:
166,91,1349,1,2,0:0:0:0:
245,167,1724,2,0,L|354:154,1,110.000003356934,2|2,0:0|0:0,0:0:0:0:
435,228,2474,2,0,P|438:285|415:334,1,110.000003356934,2|2,0:0|0:0,0:0:0:0:
316,375,3224,6,0,L|206:362,2,110.000003356934,2|2|2,0:0|0:0|0:0,0:0:0:0:
416,331,4349,1,2,0:0:0:0:
358,237,4724,2,0,P|353:182|376:133,1,110.000003356934,2|2,0:0|0:0,0:0:0:0:
422,33,5474,2,0,L|312:46,1,110.000003356934,2|2,0:0|0:0,0:0:0:0:
247,135,6224,6,0,L|120:119,1,110.000003356934,4|0,1:2|3:0,0:0:0:0:
51,52,6974,2,0,P|28:101|32:155,1,110.000003356934,8|0,0:0|3:0,0:0:0:0:
64,207,7536,1,2,0:0:0:0:
64,207,7724,2,0,L|48:334,1,110.000003356934,0|0,3:0|1:0,0:0:0:0:
137,384,8474,1,8,0:0:0:0:
230,326,8849,1,0,1:0:0:0:
325,379,9224,6,0,P|374:356|428:360,1,110.000003356934,4|0,1:3|3:0,0:0:0:0:
505,282,9974,2,0,L|491:172,1,110.000003356934,8|0,0:0|3:0,0:0:0:0:
485,123,10536,1,2,0:0:0:0:
485,123,10724,2,0,P|435:100|381:104,1,110.000003356934,0|0,3:0|1:0,0:0:0:0:
299,178,11474,1,8,0:0:0:0:
355,272,11849,1,0,3:0:0:0:
287,358,12224,6,0,L|177:344,1,110.000003356934,4|0,1:3|3:0,0:0:0:0:
100,266,12974,2,0,P|95:211|118:162,1,110.000003356934,8|0,0:0|3:0,0:0:0:0:
156,123,13536,1,2,0:0:0:0:
156,123,13724,2,0,L|283:107,1,110.000003356934,0|0,3:0|1:0,0:0:0:0:
347,36,14474,1,8,0:0:0:0:
434,102,14849,1,0,1:0:0:0:
352,175,15224,6,0,P|374:224|370:278,1,110.000003356934,4|0,1:3|3:0,0:0:0:0:
297,362,15974,2,0,L|170:346,1,110.000003356934,8|0,0:0|3:0,0:0:0:0:
154,312,16536,1,2,0:0:0:0:
154,312,16724,2,0,P|149:257|172:208,1,110.000003356934,0|0,3:0|1:0,0:0:0:0:
257,137,17474,1,8,0:0:0:0:
353,190,17849,1,0,1:0:0:0:
433,115,18224,5,4,1:2:0:0:
386,16,18599,1,0,3:0:0:0:
277,29,18974,2,0,L|167:41,1,110.000003356934,8|0,0:0|3:0,0:0:0:0:
123,74,19536,2,0,P|100:123|104:177,1,110.000003356934,2|2,0:0|0:0,0:0:0:0:
131,226,20099,1,0,1:0:0:0:
66,315,20474,2,0,L|175:328,1,110.000003356934,8|0,0:0|1:0,0:0:0:0:
233,342,21036,1,2,0:0:0:0:
233,342,21224,5,4,1:3:0:0:
306,259,21599,1,0,3:0:0:0:
226,183,21974,2,0,P|221:128|244:79,1,110.000003356934,8|0,0:0|3:0,0:0:0:0:
285,42,22536,2,0,L|394:54,1,110.000003356934,2|2,0:0|0:0,0:0:0:0:
448,66,23099,1,0,1:0:0:0:
512,155,23474,2,0,P|516:209|493:258,1,110.000003356934,8|0,0:0|3:0,0:0:0:0:
450,292,24036,1,0,0:0:0:0:
450,292,24224,5,4,1:2:0:0:
356,234,24599,1,0,3:0:0:0:
414,143,24974,2,0,L|401:33,1,110.000003356934,8|0,0:0|3:0,0:0:0:0:
356,0,25536,2,0,P|301:-4|252:18,1,110.000003356934,2|2,0:0|0:0,0:0:0:0:
217,61,26099,1,0,1:0:0:0:
117,14,26474,2,0,L|130:123,1,110.000003356934,8|0,0:0|1:0,0:0:0:0:
142,181,27036,1,2,0:0:0:0:
142,181,27224,5,4,1:3:0:0:
84,274,27599,1,0,3:0:0:0:
163,349,27974,2,0,P|217:353|266:330,1,110.000003356934,8|0,0:0|3:0,0:0:0:0:
304,290,28536,2,0,L|291:180,1,110.000003356934,2|2,0:0|0:0,0:0:0:0:
280,127,29099,1,0,1:0:0:0:
355,46,29474,2,0,P|409:41|458:64,1,110.000003356934,8|0,0:0|1:0,0:0:0:0:
492,115,30036,1,0,0:0:0:0:
492,115,30224,6,0,B|485:167|485:167|438:204|438:204|432:256,2,165.000005035401,0|2|8,3:0|0:0|0:0,0:0:0:0:
400,54,31724,2,0,L|393:0,2,55.0000016784668,2|2|2,0:0|0:0|0:0,0:0:0:0:
310,118,32474,2,0,P|260:95|206:99,1,110.000003356934,2|8,0:0|0:0,0:0:0:0:
136,183,33224,6,0,B|149:102|74:115|87:34,2,165.000005035401,8|0|8,0:0|0:0|0:0,0:0:0:0:
66,269,34724,2,0,P|115:291|169:288,1,110.000003356934,8|2,0:0|0:0,0:0:0:0:
224,269,35286,1,2,0:0:0:0:
224,269,35474,2,0,L|208:397,1,110.000003356934,8|8,0:0|0:0,0:0:0:0:
312,336,36224,6,0,B|364:330|364:330|401:283|401:283|453:276,2,165.000005035401,0|2|8,3:0|0:0|0:0,0:0:0:0:
224,270,37724,2,0,L|217:216,2,55.0000016784668,2|2|2,0:0|0:0|0:0,0:0:0:0:
144,345,38474,2,0,P|89:348|40:325,1,110.000003356934,2|8,0:0|0:0,0:0:0:0:
0,218,39224,6,0,B|-13:136|61:149|49:69,2,165.000005035401,8|2|8,0:0|0:0|0:0,0:0:0:0:
79,293,40724,2,0,P|128:270|182:273,1,110.000003356934,8|2,0:0|0:0,0:0:0:0:
237,293,41286,1,2,0:0:0:0:
237,293,41474,2,0,L|221:165,1,110.000003356934,8|8,0:0|0:0,0:0:0:0:
141,110,42224,6,0,B|166:68|203:72|203:72|290:82,1,165.000005035401,4|2,1:3|0:0,0:0:0:0:
344,91,42974,1,8,2:1:0:0:
413,175,43349,1,8,0:0:0:0:
347,263,43724,2,0,L|353:317,2,55.0000016784668,2|2|2,0:0|0:0|0:0,0:0:0:0:
265,188,44474,2,0,P|215:211|161:207,1,110.000003356934,8|0,2:1|1:0,0:0:0:0:
61,161,45224,6,0,L|74:270,1,110.000003356934,0|8,1:0|0:0,0:0:0:0:
86,328,45786,1,8,0:0:0:0:
86,328,45974,2,0,P|140:324|189:347,1,110.000003356934,8|8,2:1|0:0,0:0:0:0:
294,312,46724,2,0,L|308:201,1,110.000003356934,0|2,1:0|0:0,0:0:0:0:
387,126,47474,1,8,2:1:0:0:
337,26,47849,1,0,3:0:0:0:
226,42,48224,6,0,P|222:123|180:193,1,165.000005035401,0|2,1:0|0:0,0:0:0:0:
139,230,48974,1,8,2:1:0:0:
220,304,49349,1,8,0:0:0:0:
313,247,49724,2,0,L|305:183,2,55.0000016784668,2|2|2,0:0|0:0|0:0,0:0:0:0:
401,312,50474,2,0,P|455:315|504:292,1,110.000003356934,8|0,2:1|1:0,0:0:0:0:
435,206,51224,6,0,L|451:79,1,110.000003356934,0|8,1:0|0:0,0:0:0:0:
456,46,51786,1,8,0:0:0:0:
456,46,51974,2,0,P|406:22|352:26,1,110.000003356934,8|2,2:1|0:0,0:0:0:0:
280,109,52724,2,0,L|217:101,1,55.0000016784668,0|8,1:0|0:0,0:0:0:0:
171,90,53099,1,8,0:0:0:0:
85,21,53474,2,0,P|61:70|65:124,1,110.000003356934,8|8,2:1|0:0,0:0:0:0:
9,219,54224,6,0,P|22:242|45:256,1,55.0000016784668,4|2,1:2|0:0,0:0:0:0:
99,267,54599,1,4,0:3:0:0:
177,189,54974,2,0,L|240:181,1,55.0000016784668,12|2,0:3|0:0,0:0:0:0:
286,170,55349,1,4,0:3:0:0:
345,77,55724,2,0,P|399:73|448:96,1,110.000003356934,0|0,3:0|1:0,0:0:0:0:
505,190,56474,1,8,0:0:0:0:
450,285,56849,1,0,3:0:0:0:
357,225,57224,6,0,P|330:229|304:220,1,55.0000016784668,4|2,1:2|0:0,0:0:0:0:
262,186,57599,1,4,0:3:0:0:
196,274,57974,2,0,L|133:282,1,55.0000016784668,12|2,0:3|0:0,0:0:0:0:
88,290,58349,1,4,0:3:0:0:
1,221,58724,2,0,P|-2:166|20:117,1,110.000003356934,0|0,3:0|1:0,0:0:0:0:
111,56,59474,1,8,0:0:0:0:
200,119,59849,1,0,3:0:0:0:
285,49,60224,6,0,L|339:42,1,55.0000016784668,4|2,1:2|0:0,0:0:0:0:
378,81,60599,2,0,P|433:78|482:100,2,110.000003356934,0|8|0,3:0|0:0|3:0,0:0:0:0:
316,172,61724,2,0,L|332:299,1,110.000003356934,0|0,3:0|1:0,0:0:0:0:
263,369,62474,1,8,0:0:0:0:
170,308,62849,1,0,3:0:0:0:
91,381,63224,6,0,L|36:374,1,55.0000016784668,4|2,1:2|0:0,0:0:0:0:
0,332,63599,2,0,P|-3:277|19:228,2,110.000003356934,0|8|0,3:0|0:0|3:0,0:0:0:0:
104,297,64724,2,0,L|213:310,1,110.000003356934,0|0,3:0|1:0,0:0:0:0:
289,231,65474,1,8,0:0:0:0:
234,135,65849,1,0,3:0:0:0:
303,49,66224,6,0,P|330:45|356:54,1,55.0000016784668,4|2,1:2|0:0,0:0:0:0:
398,88,66599,1,4,0:3:0:0:
506,71,66974,2,0,L|498:134,1,55.0000016784668,12|2,0:3|0:0,0:0:0:0:
490,183,67349,1,4,0:3:0:0:
490,183,67536,2,0,P|435:179|385:202,1,110.000003356934,4|0,0:3|0:0,0:0:0:0:
350,243,68099,1,0,1:0:0:0:
250,196,68474,2,0,L|236:86,1,110.000003356934,8|8,0:0|3:0,0:0:0:0:
202,50,69036,1,8,3:0:0:0:
202,50,69224,6,0,P|175:46|149:55,1,55.0000016784668,4|2,1:2|0:0,0:0:0:0:
107,89,69599,1,4,0:3:0:0:
0,73,69974,2,0,L|8:136,1,55.0000016784668,12|2,0:3|0:0,0:0:0:0:
16,185,70349,1,4,0:3:0:0:
16,185,70536,2,0,P|70:181|120:204,1,110.000003356934,4|0,0:3|0:0,0:0:0:0:
156,245,71099,1,0,1:0:0:0:
113,346,71474,2,0,L|222:332,1,110.000003356934,8|8,0:0|3:0,0:0:0:0:
268,371,72036,1,8,3:0:0:0:
268,371,72224,6,0,L|331:379,1,55.0000016784668,4|2,1:2|0:0,0:0:0:0:
378,384,72599,1,0,3:0:0:0:
474,331,72974,2,0,P|477:276|455:227,1,110.000003356934,8|0,0:0|3:0,0:0:0:0:
413,191,73536,2,0,L|303:204,1,110.000003356934,4|0,0:3|0:0,0:0:0:0:
248,211,74099,1,0,1:0:0:0:
177,295,74474,2,0,L|50:280,1,110.000003356934,8|8,0:0|3:0,0:0:0:0:
35,245,75036,1,8,3:0:0:0:
35,245,75224,6,0,L|27:182,1,55.0000016784668,4|2,1:2|0:0,0:0:0:0:
22,135,75599,1,0,3:0:0:0:
100,57,75974,2,0,P|154:53|203:75,1,110.000003356934,8|0,0:0|3:0,0:0:0:0:
240,118,76536,2,0,L|226:227,1,110.000003356934,4|0,0:3|0:0,0:0:0:0:
220,283,77099,1,0,1:0:0:0:
308,347,77474,2,0,P|362:350|411:328,1,110.000003356934,8|8,0:0|3:0,0:0:0:0:
455,293,78036,1,8,3:0:0:0:
455,293,78224,6,0,L|448:229,2,55.0000016784668,8|2|2,0:0|0:0|0:0,0:0:0:0:
505,314,78786,1,8,0:0:0:0:
358,237,79349,2,0,L|351:301,2,55.0000016784668,8|2|2,0:0|0:0|0:0,0:0:0:0:
317,199,79911,2,0,P|271:229|217:234,1,110.000003356934,8|2,0:0|0:0,0:0:0:0:
163,223,80474,1,8,0:0:0:0:
217,127,80849,1,2,0:0:0:0:
150,39,81224,6,0,L|86:46,2,55.0000016784668,8|2|2,0:0|0:0|0:0,0:0:0:0:
189,0,81786,1,8,0:0:0:0:
302,120,82349,2,0,L|366:127,2,55.0000016784668,8|2|2,0:0|0:0|0:0,0:0:0:0:
273,166,82911,2,0,P|295:215|291:269,1,110.000003356934,8|2,0:0|0:0,0:0:0:0:
266,320,83474,1,8,0:0:0:0:
165,275,83849,1,2,0:0:0:0:
65,322,84224,6,0,L|55:401,2,55.0000016784668,4|2|2,1:2|0:0|0:0,0:0:0:0:
23,295,84786,1,8,0:0:0:0:
23,295,84974,2,0,L|7:168,1,110.000003356934,8|8,0:1|0:0,0:0:0:0:
89,110,85724,2,0,P|143:106|194:133,1,110.000003356934,2|0,0:0|1:0,0:0:0:0:
234,172,86286,1,2,0:0:0:0:
234,172,86474,1,8,0:1:0:0:
320,104,86849,1,0,3:0:0:0:
392,188,87224,6,0,L|385:242,2,55.0000016784668,4|2|2,1:3|0:0|0:0,0:0:0:0:
445,166,87786,1,8,0:0:0:0:
445,166,87974,2,0,P|448:111|426:62,1,110.000003356934,8|8,0:1|0:0,0:0:0:0:
330,7,88724,2,0,L|203:23,1,110.000003356934,2|0,0:0|1:0,0:0:0:0:
170,29,89286,1,2,0:0:0:0:
170,29,89474,1,8,0:1:0:0:
112,121,89849,1,0,3:0:0:0:
193,195,90224,6,0,L|272:205,2,55.0000016784668,4|2|2,1:2|0:0|0:0,0:0:0:0:
164,236,90786,1,8,0:0:0:0:
164,236,90974,2,0,L|37:252,1,110.000003356934,8|8,0:1|0:0,0:0:0:0:
54,360,91724,2,0,L|163:373,1,110.000003356934,2|0,0:0|1:0,0:0:0:0:
222,384,92286,1,2,0:0:0:0:
222,384,92474,1,8,0:1:0:0:
288,296,92849,1,0,3:0:0:0:
211,217,93224,6,0,L|205:162,2,55.0000016784668,4|2|2,1:3|0:0|0:0,0:0:0:0:
180,263,93786,1,8,0:0:0:0:
180,263,93974,2,0,P|130:285|76:281,1,110.000003356934,8|8,0:1|0:0,0:0:0:0:
0,202,94724,2,0,L|16:75,1,110.000003356934,2|0,0:0|1:0,0:0:0:0:
27,43,95286,1,2,0:0:0:0:
27,43,95474,1,8,0:1:0:0:
129,4,95849,1,0,3:0:0:0:
217,69,96224,6,0,L|227:148,1,55.0000016784668,4|2,1:2|0:0,0:0:0:0:
265,159,96599,2,0,L|258:222,1,55.0000016784668,2|8,0:0|0:0,0:0:0:0:
232,261,96974,2,0,P|281:238|335:242,1,110.000003356934,8|8,0:1|0:0,0:0:0:0:
423,308,97724,2,0,L|439:181,1,110.000003356934,2|0,0:0|1:0,0:0:0:0:
446,148,98286,1,2,0:0:0:0:
446,148,98474,1,8,0:1:0:0:
357,83,98849,1,0,3:0:0:0:
278,159,99224,6,0,P|251:155|225:164,1,55.0000016784668,4|2,1:3|0:0,0:0:0:0:
173,143,99599,2,0,P|154:162|146:189,1,55.0000016784668,2|8,0:0|0:0,0:0:0:0:
101,219,99974,2,0,L|114:328,1,110.000003356934,8|8,0:1|0:0,0:0:0:0:
213,376,100724,2,0,P|267:379|316:357,1,110.000003356934,2|0,0:0|1:0,0:0:0:0:
364,326,101286,1,2,0:0:0:0:
364,326,101474,1,8,0:1:0:0:
302,234,101849,1,0,3:0:0:0:
202,281,102224,6,0,L|123:271,1,55.0000016784668,4|2,1:2|0:0,0:0:0:0:
103,240,102599,2,0,L|110:177,1,55.0000016784668,2|8,0:0|0:0,0:0:0:0:
132,135,102974,2,0,P|127:80|150:31,1,110.000003356934,8|8,0:1|0:0,0:0:0:0:
255,0,103724,2,0,L|364:12,1,110.000003356934,2|0,0:0|1:0,0:0:0:0:
423,20,104286,1,2,0:0:0:0:
423,20,104474,1,8,0:1:0:0:
496,102,104849,1,0,3:0:0:0:
407,167,105224,6,0,P|380:163|354:172,1,55.0000016784668,4|2,1:3|0:0,0:0:0:0:
305,145,105599,2,0,P|286:164|278:191,1,55.0000016784668,2|8,0:0|0:0,0:0:0:0:
229,215,105974,2,0,L|242:324,1,110.000003356934,8|8,0:1|0:0,0:0:0:0:
338,377,106724,2,0,P|392:380|441:358,1,110.000003356934,2|0,0:0|1:0,0:0:0:0:
489,327,107286,1,2,0:0:0:0:
489,327,107474,1,8,0:1:0:0:
427,235,107849,1,0,3:0:0:0:
494,148,108224,6,0,L|502:85,1,55.0000016784668,8|8,0:0|0:0,0:0:0:0:
512,42,108599,1,4,0:3:0:0:
512,42,108786,1,4,0:3:0:0:
