osu file format v14

[General]
AudioFilename: audio.mp3
AudioLeadIn: 0
PreviewTime: 6130
Countdown: 0
SampleSet: Soft
StackLeniency: 0.7
Mode: 0
LetterboxInBreaks: 0
WidescreenStoryboard: 1

[Editor]
Bookmarks: 224,6224,18224,30224,42224,54224,66224,78224,84224,96224,108974
DistanceSpacing: 1.47
BeatDivisor: 4
GridSize: 16
TimelineZoom: 1.2

[Metadata]
Title:Cage Fight
TitleUnicode:Cage Fight
Artist:Alicia Blacker, Clyde Shorey
ArtistUnicode:Alicia Blacker, Clyde Shorey
Creator:Xen
Version:Hard
Source:
Tags:throttled msi victory league of legends genshin impact ruin guard noelle electronic instrumental xenon- xehn
BeatmapID:3059566
BeatmapSetID:1488922

[Difficulty]
HPDrainRate:5
CircleSize:3.6
OverallDifficulty:6.5
ApproachRate:8
SliderMultiplier:2
SliderTickRate:1

[Events]
//Background and Video events
0,0,"bg.jpg",0,0
//Break Periods
//Storyboard Layer 0 (Background)
//Storyboard Layer 1 (Fail)
//Storyboard Layer 2 (Pass)
//Storyboard Layer 3 (Foreground)
//Storyboard Layer 4 (Overlay)
//Storyboard Sound Samples

[TimingPoints]
224,750,4,2,2,60,1,0
224,-90.9090909090909,4,2,2,60,0,0
5474,-76.9230769230769,4,2,2,60,0,0
6224,-68.9655172413793,4,2,2,70,0,0
18224,-62.5,4,2,2,80,0,0
30224,-90.9090909090909,4,2,2,45,0,0
42224,-90.9090909090909,4,2,2,55,0,0
54224,-62.5,4,2,2,70,0,0
66224,-62.5,4,2,2,80,0,0
78224,-90.9090909090909,4,2,2,55,0,0
84224,-62.5,4,2,2,80,0,0

[Colours]
Combo1 : 251,160,103
Combo2 : 114,142,186
Combo3 : 216,60,73
Combo4 : 38,48,117

[HitObjects]
141,119,224,6,0,L|127:228,2,110.000003356934,2|2|2,0:0|0:0|0:0,0:0:0:0:
291,195,1349,1,2,0:0:0:0:
199,58,1724,6,0,P|150:34|95:47,1,110.000003356934,2|2,0:0|0:0,0:0:0:0:
128,228,2474,2,0,L|114:337,1,110.000003356934,2|2,0:0|0:0,0:0:0:0:
299,270,3224,6,0,L|285:160,2,110.000003356934,2|2|2,0:0|0:0|0:0,0:0:0:0:
450,356,4349,1,2,0:0:0:0:
480,191,4724,6,0,P|427:179|378:202,1,110.000003356934,2|2,0:0|0:0,0:0:0:0:
274,38,5474,2,0,L|286:133,1,64.9999970245363,2|0,0:0|0:0,0:0:0:0:
294,182,5849,1,2,0:0:0:0:
200,349,6224,6,0,B|131:357|137:292|69:301,1,145.000004425049,4|0,1:2|3:0,0:0:0:0:
13,245,6786,1,0,0:0:0:0:
55,177,6974,2,0,P|54:105|92:44,1,145.000004425049,8|0,0:0|3:0,0:0:0:0:
166,14,7536,1,2,0:0:0:0:
233,57,7724,6,0,L|305:48,1,72.5000022125245,0|2,3:0|0:0,0:0:0:0:
377,14,8099,2,0,B|336:30|332:60|332:60|322:137,1,145.000004425049,0|8,1:0|0:0,0:0:0:0:
419,264,8849,2,0,P|383:263|352:282,1,72.5000022125245,0|2,1:0|0:0,0:0:0:0:
303,218,9224,5,4,1:3:0:0:
259,151,9411,1,2,0:0:0:0:
215,84,9599,2,0,L|119:72,1,72.5000022125245,0|0,3:0|0:0,0:0:0:0:
104,4,9974,2,0,P|104:75|66:136,1,145.000004425049,8|0,0:0|3:0,0:0:0:0:
6,189,10536,1,2,0:0:0:0:
50,255,10724,6,0,L|39:351,1,72.5000022125245,0|2,3:0|0:0,0:0:0:0:
99,382,11099,2,0,L|258:363,2,145.000004425049,0|8|0,1:0|0:0|3:0,0:0:0:0:
154,229,12224,6,0,B|146:160|211:166|202:98,1,145.000004425049,4|0,1:3|3:0,0:0:0:0:
246,32,12786,1,0,0:0:0:0:
310,77,12974,2,0,P|382:76|443:114,1,145.000004425049,8|0,0:0|3:0,0:0:0:0:
484,180,13536,1,2,0:0:0:0:
442,248,13724,6,0,L|433:320,1,72.5000022125245,0|2,3:0|0:0,0:0:0:0:
384,384,14099,2,0,B|400:342|429:338|429:338|507:329,1,145.000004425049,0|8,1:0|0:0,0:0:0:0:
396,180,14849,2,0,P|360:181|329:162,1,72.5000022125245,0|2,1:0|0:0,0:0:0:0:
275,225,15224,5,4,1:3:0:0:
208,269,15411,1,2,0:0:0:0:
141,313,15599,2,0,L|45:301,1,72.5000022125245,0|0,3:0|0:0,0:0:0:0:
9,250,15974,2,0,P|9:179|47:118,1,145.000004425049,8|0,0:0|3:0,0:0:0:0:
115,77,16536,1,2,0:0:0:0:
182,120,16724,6,0,L|278:131,1,72.5000022125245,0|2,3:0|0:0,0:0:0:0:
299,193,17099,2,0,L|280:34,2,145.000004425049,0|8|0,1:0|0:0|1:0,0:0:0:0:
486,281,18224,6,0,P|436:249|377:249,1,120,4|0,1:2|0:0,0:0:0:0:
362,255,18599,2,0,P|382:288|382:327,1,80,0|0,3:0|0:0,0:0:0:0:
298,351,18974,2,0,P|277:317|277:278,1,80,8|0,0:0|0:0,0:0:0:0:
299,193,19349,5,0,3:0:0:0:
238,129,19536,2,0,L|47:105,1,160,2|2,0:0|0:0,0:0:0:0:
12,166,20099,2,0,P|11:205|32:238,1,80,0|0,1:0|0:0,0:0:0:0:
102,292,20474,2,0,L|198:281,1,80,8|0,0:0|0:0,0:0:0:0:
235,213,20849,1,0,1:0:0:0:
182,142,21036,1,2,0:0:0:0:
239,75,21224,6,0,P|298:75|348:43,1,120,4|0,1:3|0:0,0:0:0:0:
358,31,21599,2,0,L|437:40,1,80,0|0,3:0|0:0,0:0:0:0:
493,108,21974,2,0,P|493:147|472:180,1,80,8|0,0:0|0:0,0:0:0:0:
395,224,22349,5,0,3:0:0:0:
329,165,22536,2,0,B|250:152|262:225|184:213,1,160,2|2,0:0|0:0,0:0:0:0:
125,146,23099,2,0,L|29:157,1,80,0|0,1:0|0:0,0:0:0:0:
0,231,23474,2,0,P|0:270|20:303,1,80,8|0,0:0|0:0,0:0:0:0:
95,350,23849,1,0,3:0:0:0:
165,298,24036,1,0,0:0:0:0:
243,338,24224,6,0,P|293:306|352:306,1,120,4|0,1:2|0:0,0:0:0:0:
368,312,24599,2,0,P|347:278|348:238,1,80,0|0,3:0|0:0,0:0:0:0:
411,177,24974,2,0,P|411:137|391:103,1,80,8|0,0:0|0:0,0:0:0:0:
315,57,25349,5,0,3:0:0:0:
238,99,25536,2,0,L|214:290,1,160,2|2,0:0|0:0,0:0:0:0:
143,305,26099,2,0,P|103:305|70:284,1,80,0|0,1:0|0:0,0:0:0:0:
8,221,26474,2,0,L|-3:125,1,80,8|0,0:0|0:0,0:0:0:0:
59,76,26849,1,0,1:0:0:0:
135,119,27036,1,2,0:0:0:0:
214,81,27224,6,0,P|182:130|181:190,1,120,4|0,1:3|0:0,0:0:0:0:
190,204,27599,2,0,L|269:195,1,80,0|0,3:0|0:0,0:0:0:0:
319,267,27974,2,0,L|398:276,1,80,8|0,0:0|0:0,0:0:0:0:
465,218,28349,5,0,3:0:0:0:
418,144,28536,2,0,B|431:65|358:77|370:-1,1,160,2|2,0:0|0:0,0:0:0:0:
286,28,29099,2,0,L|206:18,1,80,0|0,1:0|0:0,0:0:0:0:
137,73,29474,2,0,P|137:112|158:146,1,80,8|0,0:0|0:0,0:0:0:0:
235,188,29849,1,0,1:0:0:0:
310,142,30036,1,0,0:0:0:0:
394,183,30224,6,0,B|412:195|412:195|398:314|398:314|416:327,2,165.000005035401,0|2|8,3:0|0:0|0:0,0:0:0:0:
512,54,31724,2,0,L|505:0,2,55.0000016784668,2|2|2,0:0|0:0|0:0,0:0:0:0:
395,183,32474,2,0,P|348:211|294:212,1,110.000003356934,2|8,0:0|0:0,0:0:0:0:
184,96,33224,6,0,L|190:41,2,55.0000016784668,8|2|2,0:0|0:0|0:0,0:0:0:0:
125,149,33786,2,0,L|140:276,1,110.000003356934,0|0,0:0|0:0,0:0:0:0:
150,337,34349,1,8,0:0:0:0:
303,378,34724,6,0,P|349:349|403:348,1,110.000003356934,8|2,0:0|0:0,0:0:0:0:
457,290,35286,1,2,0:0:0:0:
425,216,35474,2,0,L|439:105,1,110.000003356934,8|8,0:0|0:0,0:0:0:0:
291,64,36224,6,0,B|289:18|323:-7|323:-7|363:9|372:53,2,165.000005035401,0|2|8,3:0|0:0|0:0,0:0:0:0:
200,195,37724,2,0,L|146:202,2,55.0000016784668,2|2|2,0:0|0:0|0:0,0:0:0:0:
335,281,38474,2,0,P|333:335|306:382,1,110.000003356934,2|8,0:0|0:0,0:0:0:0:
398,232,39224,6,0,L|404:177,2,55.0000016784668,8|2|2,0:0|0:0|0:0,0:0:0:0:
434,301,39786,2,0,P|381:309|335:281,1,110.000003356934,2|2,0:0|0:0,0:0:0:0:
320,202,40349,1,8,0:0:0:0:
297,360,40724,6,0,L|187:373,1,110.000003356934,8|2,0:0|0:0,0:0:0:0:
108,382,41286,1,2,0:0:0:0:
48,328,41474,2,0,P|48:273|77:227,1,110.000003356934,8|8,0:0|0:0,0:0:0:0:
188,372,42224,6,0,P|215:324|217:270,1,110.000003356934,4|0,1:3|0:0,0:0:0:0:
156,219,42786,2,0,L|142:107,1,110.000003356934,2|0,0:0|0:0,0:0:0:0:
193,47,43349,1,8,0:0:0:0:
332,124,43724,2,0,L|324:188,1,55.0000016784668,2|2,0:0|0:0,0:0:0:0:
262,227,44099,2,0,P|276:250|276:277,1,55.0000016784668,2|0,0:0|0:0,0:0:0:0:
212,325,44474,2,0,P|184:277|182:223,1,110.000003356934,8|0,2:1|1:0,0:0:0:0:
147,45,45224,6,0,P|127:64|101:70,2,55.0000016784668,0|8|8,1:0|0:0|0:0,0:0:0:0:
213,91,45786,2,0,L|205:154,2,55.0000016784668,8|8|8,0:0|2:1|0:0,0:0:0:0:
290,61,46349,1,8,0:0:0:0:
290,61,46536,1,8,0:0:0:0:
358,104,46724,6,0,P|406:76|460:74,1,110.000003356934,0|2,1:0|0:0,0:0:0:0:
512,135,47286,1,2,0:0:0:0:
482,210,47474,2,0,L|497:337,1,110.000003356934,8|0,2:1|3:0,0:0:0:0:
255,298,48224,6,0,P|200:295|153:268,1,110.000003356934,0|0,1:0|0:0,0:0:0:0:
103,206,48786,2,0,L|117:318,1,110.000003356934,2|0,0:0|0:0,0:0:0:0:
62,373,49349,1,8,0:0:0:0:
196,287,49724,2,0,L|202:232,1,55.0000016784668,2|2,0:0|0:0,0:0:0:0:
271,191,50099,2,0,L|264:136,1,55.0000016784668,2|0,0:0|0:0,0:0:0:0:
314,73,50474,2,0,P|266:100|212:102,1,110.000003356934,8|0,2:1|1:0,0:0:0:0:
206,281,51224,6,0,P|182:267|155:266,2,55.0000016784668,0|8|8,1:0|0:0|0:0,0:0:0:0:
275,323,51786,2,0,L|282:377,2,55.0000016784668,8|8|2,0:0|2:1|0:0,0:0:0:0:
332,266,52349,2,0,P|351:247|378:240,1,55.0000016784668,2|2,0:0|0:0,0:0:0:0:
440,294,52724,6,0,P|413:246|411:192,1,110.000003356934,0|8,1:0|0:0,0:0:0:0:
458,127,53286,1,8,0:0:0:0:
399,72,53474,2,0,L|289:84,1,110.000003356934,8|8,2:1|0:0,0:0:0:0:
120,60,54224,5,4,1:2:0:0:
210,18,54411,1,2,0:0:0:0:
290,84,54599,2,0,L|279:180,1,80,4|2,0:3|0:0,0:0:0:0:
180,183,54974,5,12,0:3:0:0:
90,141,55161,1,2,0:0:0:0:
10,207,55349,2,0,L|21:303,1,80,4|2,0:3|0:0,0:0:0:0:
138,366,55724,6,0,B|97:341|101:304|101:304|111:218,1,160,0|0,3:0|1:0,0:0:0:0:
173,158,56286,1,0,0:0:0:0:
248,204,56474,2,0,P|282:183|321:183,1,80,8|0,0:0|0:0,0:0:0:0:
386,241,56849,2,0,L|375:336,1,80,0|0,3:0|0:0,0:0:0:0:
470,212,57224,5,4,1:2:0:0:
512,122,57411,1,2,0:0:0:0:
446,42,57599,2,0,L|350:53,1,80,4|2,0:3|0:0,0:0:0:0:
344,151,57974,5,12,0:3:0:0:
386,241,58161,1,2,0:0:0:0:
320,321,58349,2,0,L|224:310,1,80,4|2,0:3|0:0,0:0:0:0:
196,384,58724,2,0,P|194:304|151:238,1,160,0|0,3:0|1:0,0:0:0:0:
100,168,59286,1,0,0:0:0:0:
163,106,59474,2,0,L|259:117,1,80,8|0,0:0|0:0,0:0:0:0:
319,72,59849,2,0,P|318:32|298:-1,1,80,0|0,3:0|0:0,0:0:0:0:
403,19,60224,5,4,1:2:0:0:
448,94,60411,1,2,0:0:0:0:
373,138,60599,2,0,L|353:297,2,160,0|8|0,3:0|0:0|3:0,0:0:0:0:
309,77,61536,1,2,0:0:0:0:
234,122,61724,6,0,P|167:79|88:77,1,160,0|0,3:0|1:0,0:0:0:0:
18,131,62286,1,0,0:0:0:0:
55,210,62474,2,0,L|44:305,1,80,8|0,0:0|0:0,0:0:0:0:
100,358,62849,2,0,P|140:357|173:337,1,80,0|0,3:0|0:0,0:0:0:0:
314,354,63224,5,4,1:2:0:0:
249,294,63411,1,2,0:0:0:0:
281,211,63599,2,0,B|359:223|347:150|426:163,2,160,0|8|0,3:0|0:0|3:0,0:0:0:0:
249,294,64536,1,2,0:0:0:0:
162,276,64724,6,0,P|82:274|15:233,1,160,0|0,3:0|1:0,0:0:0:0:
67,163,65286,1,0,0:0:0:0:
6,99,65474,2,0,P|6:59|27:25,1,80,8|0,0:0|0:0,0:0:0:0:
111,0,65849,2,0,L|190:9,1,80,0|0,3:0|0:0,0:0:0:0:
264,84,66224,5,4,1:2:0:0:
367,67,66411,1,2,0:0:0:0:
470,50,66599,2,0,L|460:129,1,80,4|2,0:3|0:0,0:0:0:0:
373,187,66974,5,12,0:3:0:0:
404,261,67161,1,2,0:0:0:0:
335,340,67349,5,4,0:3:0:0:
236,306,67536,2,0,B|157:293|169:366|91:354,1,160,4|0,0:3|0:0,0:0:0:0:
25,294,68099,2,0,L|37:199,1,80,0|0,1:0|0:0,0:0:0:0:
108,166,68474,2,0,L|97:71,1,80,8|0,0:0|0:0,0:0:0:0:
171,36,68849,1,8,3:0:0:0:
247,78,69036,1,8,3:0:0:0:
325,37,69224,5,4,1:2:0:0:
308,140,69411,1,2,0:0:0:0:
291,243,69599,2,0,L|212:253,1,80,4|2,0:3|0:0,0:0:0:0:
153,166,69974,5,12,0:3:0:0:
79,135,70161,1,2,0:0:0:0:
0,204,70349,5,4,0:3:0:0:
34,303,70536,2,0,P|112:305|179:348,1,160,4|0,0:3|0:0,0:0:0:0:
225,272,71099,2,0,P|258:251|298:251,1,80,0|0,1:0|0:0,0:0:0:0:
370,301,71474,2,0,P|409:300|443:280,1,80,8|0,0:0|0:0,0:0:0:0:
497,210,71849,1,8,3:0:0:0:
447,137,72036,1,8,3:0:0:0:
342,179,72224,5,4,1:2:0:0:
292,106,72411,1,2,0:0:0:0:
214,147,72599,2,0,P|180:126|140:126,1,80,0|0,3:0|0:0,0:0:0:0:
70,73,72974,2,0,P|111:140|111:219,1,160,8|0,0:0|3:0,0:0:0:0:
24,227,73536,6,0,B|103:214|91:287|169:275,1,160,4|0,0:3|0:0,0:0:0:0:
240,222,74099,2,0,L|251:127,1,80,0|0,1:0|0:0,0:0:0:0:
319,89,74474,2,0,P|358:89|392:109,1,80,8|0,0:0|0:0,0:0:0:0:
454,171,74849,1,8,3:0:0:0:
422,252,75036,1,8,3:0:0:0:
317,213,75224,5,4,1:2:0:0:
285,294,75411,1,2,0:0:0:0:
200,268,75599,2,0,P|166:289|126:289,1,80,0|0,3:0|0:0,0:0:0:0:
56,342,75974,2,0,P|97:275|97:196,1,160,8|0,0:0|3:0,0:0:0:0:
10,188,76536,6,0,B|89:201|77:128|155:140,1,160,4|0,0:3|0:0,0:0:0:0:
236,107,77099,2,0,P|236:68|256:34,1,80,0|0,1:0|0:0,0:0:0:0:
337,0,77474,2,0,L|416:9,1,80,8|0,0:0|0:0,0:0:0:0:
477,72,77849,1,8,3:0:0:0:
432,147,78036,1,8,3:0:0:0:
512,223,78224,6,0,B|490:206|490:206|473:227,2,55.0000016784668,8|2|2,0:0|0:0|0:0,0:0:0:0:
507,303,78786,1,8,0:0:0:0:
358,127,79349,6,0,L|303:133,1,55.0000016784668,8|2,0:0|0:0,0:0:0:0:
236,89,79724,1,2,0:0:0:0:
181,148,79911,6,0,L|126:154,1,55.0000016784668,8|2,0:0|0:0,0:0:0:0:
59,110,80286,1,2,0:0:0:0:
0,165,80474,2,0,P|0:219|27:266,1,110.000003356934,8|2,0:0|0:0,0:0:0:0:
176,318,81224,6,0,B|192:296|192:296|171:279,2,55.0000016784668,8|2|2,0:0|0:0|0:0,0:0:0:0:
96,313,81786,1,8,0:0:0:0:
154,100,82349,6,0,L|209:106,1,55.0000016784668,8|2,0:0|0:0,0:0:0:0:
276,62,82724,1,2,0:0:0:0:
331,121,82911,6,0,L|386:127,1,55.0000016784668,8|2,0:0|0:0,0:0:0:0:
453,83,83286,1,2,0:0:0:0:
512,138,83474,2,0,P|512:192|485:239,1,110.000003356934,8|2,0:0|0:0,0:0:0:0:
300,213,84224,5,4,1:2:0:0:
218,169,84411,1,2,0:0:0:0:
150,233,84599,1,2,0:0:0:0:
190,316,84786,1,8,0:0:0:0:
283,304,84974,2,0,B|362:291|350:364|428:352,1,160,8|8,0:1|0:0,0:0:0:0:
493,286,85536,1,2,0:0:0:0:
434,213,85724,6,0,L|443:133,1,80,2|2,0:0|0:0,0:0:0:0:
379,65,86099,2,0,P|339:65|305:84,1,80,0|2,1:0|0:0,0:0:0:0:
234,24,86474,2,0,B|275:49|271:86|271:86|261:172,1,160,8|0,0:1|3:0,0:0:0:0:
403,269,87224,5,4,1:3:0:0:
318,232,87411,1,2,0:0:0:0:
250,295,87599,1,2,0:0:0:0:
165,258,87786,1,8,0:0:0:0:
97,321,87974,2,0,P|57:252|56:173,1,160,8|8,0:1|0:0,0:0:0:0:
0,99,88536,1,2,0:0:0:0:
57,25,88724,6,0,L|136:34,1,80,2|2,0:0|0:0,0:0:0:0:
196,105,89099,2,0,L|275:95,1,80,0|2,1:0|0:0,0:0:0:0:
341,29,89474,1,8,0:1:0:0:
424,70,89661,1,8,0:0:0:0:
409,161,89849,1,0,3:0:0:0:
229,315,90224,5,4,1:2:0:0:
311,359,90411,1,2,0:0:0:0:
379,295,90599,1,2,0:0:0:0:
339,212,90786,1,8,0:0:0:0:
246,224,90974,2,0,B|167:237|179:164|101:176,1,160,8|8,0:1|0:0,0:0:0:0:
39,245,91536,1,2,0:0:0:0:
98,316,91724,6,0,L|178:307,1,80,2|2,0:0|0:0,0:0:0:0:
245,368,92099,2,0,P|285:368|319:349,1,80,0|2,1:0|0:0,0:0:0:0:
410,357,92474,2,0,B|423:278|350:290|362:212,1,160,8|0,0:1|3:0,0:0:0:0:
493,106,93224,5,4,1:3:0:0:
408,143,93411,1,2,0:0:0:0:
340,80,93599,1,2,0:0:0:0:
255,117,93786,1,8,0:0:0:0:
187,54,93974,2,0,P|147:123|146:202,1,160,8|8,0:1|0:0,0:0:0:0:
90,276,94536,1,2,0:0:0:0:
147,350,94724,6,0,L|226:341,1,80,2|2,0:0|0:0,0:0:0:0:
286,270,95099,2,0,L|365:280,1,80,0|2,1:0|0:0,0:0:0:0:
447,323,95474,2,0,B|401:308|396:271|396:271|384:185,1,160,8|0,0:1|3:0,0:0:0:0:
227,118,96224,5,4,1:2:0:0:
245,28,96411,1,2,0:0:0:0:
335,47,96599,1,2,0:0:0:0:
316,136,96786,1,8,0:0:0:0:
256,206,96974,2,0,B|244:284|317:272|304:351,1,160,8|8,0:1|0:0,0:0:0:0:
218,384,97536,1,2,0:0:0:0:
140,333,97724,6,0,L|60:342,1,80,2|2,0:0|0:0,0:0:0:0:
0,272,98099,1,0,1:0:0:0:
58,200,98286,1,2,0:0:0:0:
12,118,98474,2,0,P|91:116|159:76,1,160,8|0,0:1|3:0,0:0:0:0:
348,181,99224,5,4,1:3:0:0:
273,133,99411,1,2,0:0:0:0:
189,162,99599,1,2,0:0:0:0:
160,246,99786,1,8,0:0:0:0:
72,277,99974,2,0,L|230:296,1,160,8|8,0:1|0:0,0:0:0:0:
300,357,100536,1,2,0:0:0:0:
382,313,100724,6,0,P|382:273|363:239,1,80,2|2,0:0|0:0,0:0:0:0:
291,179,101099,1,0,1:0:0:0:
343,102,101286,1,2,0:0:0:0:
280,33,101474,2,0,L|200:42,1,80,8|0,0:1|0:0,0:0:0:0:
108,54,101849,1,0,3:0:0:0:
285,207,102224,5,4,1:2:0:0:
267,297,102411,1,2,0:0:0:0:
177,278,102599,1,2,0:0:0:0:
196,189,102786,1,8,0:0:0:0:
256,119,102974,2,0,B|334:131|322:58|401:71,1,160,8|8,0:1|0:0,0:0:0:0:
473,128,103536,1,2,0:0:0:0:
429,210,103724,6,0,L|438:290,1,80,2|2,0:0|0:0,0:0:0:0:
368,350,104099,1,0,1:0:0:0:
296,292,104286,1,2,0:0:0:0:
214,338,104474,2,0,P|212:259|172:191,1,160,8|0,0:1|3:0,0:0:0:0:
30,91,105224,5,4,1:3:0:0:
105,139,105411,1,2,0:0:0:0:
189,110,105599,1,2,0:0:0:0:
218,26,105786,1,8,0:0:0:0:
276,98,105974,2,0,L|256:256,1,160,8|8,0:1|0:0,0:0:0:0:
313,330,106536,1,2,0:0:0:0:
392,281,106724,6,0,P|426:300|466:300,1,80,2|2,0:0|0:0,0:0:0:0:
512,220,107099,1,0,1:0:0:0:
458,144,107286,1,2,0:0:0:0:
507,65,107474,2,0,P|438:105|359:107,1,160,8|0,0:1|3:0,0:0:0:0:
193,54,108224,5,8,0:0:0:0:
202,133,108411,1,8,0:0:0:0:
214,228,108599,5,4,0:3:0:0:
224,308,108786,1,4,0:3:0:0:
