osu file format v14

[General]
AudioFilename: audio.mp3
AudioLeadIn: 0
PreviewTime: -1
Countdown: 1
SampleSet: Soft
StackLeniency: 0.7
Mode: 0
LetterboxInBreaks: 0
WidescreenStoryboard: 0

[Editor]
Bookmarks: 80951,117618
DistanceSpacing: 0.5
BeatDivisor: 4
GridSize: 4
TimelineZoom: 2.1

[Metadata]
Title:Break the night
TitleUnicode:Break the night
Artist:Alice's Emotion
ArtistUnicode:Alice's Emotion
Creator:-YN
Version:Night
Source:
Tags:
BeatmapID:1468819
BeatmapSetID:694247

[Difficulty]
HPDrainRate:6
CircleSize:4
OverallDifficulty:8.5
ApproachRate:9.5
SliderMultiplier:1.6
SliderTickRate:1

[Events]
//Background and Video events
0,0,"22761315_p0.jpg",0,0
//Break Periods
//Storyboard Layer 0 (Background)
//Storyboard Layer 1 (Fail)
//Storyboard Layer 2 (Pass)
//Storyboard Layer 3 (Foreground)
//Storyboard Sound Samples

[TimingPoints]
285,333.333333333333,4,2,0,50,1,0
3618,-66.6666666666667,4,2,0,50,0,0
4118,-100,4,2,0,50,0,0
8951,-66.6666666666667,4,2,0,50,0,0
10951,-62.5,4,2,0,50,0,0
12201,-62.5,4,2,0,5,0,0
12284,-100,4,2,1,30,0,0
21284,-100,4,2,0,30,0,0
21618,-76.9230769230769,4,2,0,30,0,0
22284,-100,4,2,0,50,0,0
22951,-100,4,2,1,30,0,0
28118,-66.6666666666667,4,2,1,30,0,0
29284,-100,4,2,1,30,0,0
30951,-71.4285714285714,4,2,1,50,0,0
32284,-100,4,2,0,50,0,0
35618,-66.6666666666667,4,2,0,50,0,0
37618,-100,4,2,0,50,0,0
40951,-66.6666666666667,4,2,0,50,0,0
44284,-76.9230769230769,4,2,0,50,0,0
49618,-133.333333333333,4,2,0,50,0,0
53118,-100,4,2,0,50,0,0
54618,-58.8235294117647,4,2,0,50,0,1
68951,-66.6666666666667,4,2,0,50,0,1
69701,-58.8235294117647,4,2,0,50,0,1
70951,-100,4,2,0,20,0,1
72784,-58.8235294117647,4,2,0,50,0,1
74951,-66.6666666666667,4,2,0,50,0,0
75201,-66.6666666666667,4,2,0,40,0,0
75451,-66.6666666666667,4,2,0,30,0,0
75618,-66.6666666666667,4,2,0,20,0,0
76118,-66.6666666666667,4,2,1,20,0,0
76284,-66.6666666666667,4,3,1,50,0,0
85618,-100,4,3,1,50,0,0
86451,-66.6666666666667,4,3,1,50,0,0
86868,-66.6666666666667,4,3,1,5,0,0
86951,-100,4,3,1,50,0,0
88951,-66.6666666666667,4,3,1,50,0,0
89618,-100,4,1,1,50,0,0
94284,-66.6666666666667,4,1,1,50,0,0
94951,-100,4,1,1,50,0,0
96284,-62.5,4,1,1,50,0,0
97534,-62.5,4,1,1,5,0,0
97618,-100,4,2,1,30,0,0
106618,-100,4,2,0,30,0,0
106951,-76.9230769230769,4,2,0,30,0,0

[HitObjects]
388,132,285,5,0,0:0:0:0:
388,132,368,1,0,0:0:0:0:
388,132,451,1,0,0:0:0:0:
388,132,534,1,0,0:0:0:0:
388,132,618,1,0,0:0:0:0:
388,132,701,1,0,0:0:0:0:
388,132,784,1,0,0:0:0:0:
388,132,868,1,0,0:0:0:0:
392,136,951,6,0,L|396:192,1,40
360,289,1118,2,0,L|357:249,1,40
296,144,1284,2,0,L|298:183,1,40
264,296,1451,2,0,L|262:257,1,40
216,72,1618,6,0,P|168:76|104:100,1,80
64,216,1951,1,0,0:0:0:0:
222,151,2118,2,0,L|214:55,1,80
58,72,2451,2,0,B|96:81|96:81|136:84,1,80
300,138,2784,2,0,B|262:147|262:147|222:150,1,80
412,88,3118,1,0,0:0:0:0:
221,150,3284,1,0,0:0:0:0:
416,212,3451,1,0,0:0:0:0:
304,24,3618,6,0,L|295:143,1,120.000004577637
265,361,3951,2,0,L|274:242,1,120.000004577637
184,182,4284,5,0,0:0:0:0:
184,310,4451,1,0,0:0:0:0:
139,147,4618,1,0,0:0:0:0:
100,310,4784,1,0,0:0:0:0:
113,96,4951,1,0,0:0:0:0:
40,240,5118,2,0,L|41:265,1,20
40,240,5201,2,0,L|36:214,1,20
40,240,5284,6,0,P|80:232|128:232,1,80
392,288,5618,1,0,0:0:0:0:
329,115,5784,1,0,0:0:0:0:
432,224,5951,1,0,0:0:0:0:
397,150,6118,1,0,0:0:0:0:
284,264,6284,2,0,L|400:148,1,160
352,40,6951,6,0,P|412:32|456:40,1,80
397,150,7284,1,0,0:0:0:0:
282,77,7451,1,0,0:0:0:0:
397,150,7618,2,0,P|433:133|472:126,1,80
460,264,7951,1,0,0:0:0:0:
396,149,8118,2,0,P|377:162|358:186,1,40
352,40,8284,6,0,P|320:52|276:84,1,80
230,301,8618,1,0,0:0:0:0:
460,264,8784,1,0,0:0:0:0:
282,77,8951,2,0,P|238:81|166:121,1,120.000004577637
120,340,9284,2,0,P|164:336|236:296,1,120.000004577637
418,147,9618,5,0,0:0:0:0:
143,206,9784,1,0,0:0:0:0:
415,273,9951,1,0,0:0:0:0:
199,96,10118,1,0,0:0:0:0:
317,350,10284,1,0,0:0:0:0:
321,69,10451,1,0,0:0:0:0:
321,69,10534,1,0,0:0:0:0:
321,69,10618,1,0,0:0:0:0:
196,321,10784,1,0,0:0:0:0:
420,28,10951,6,0,B|539:154|457:360|457:360|326:322|259:263|192:270|237:173|173:110|225:69|382:31|408:136|408:236|318:237|302:173,1,960
306,185,12284,5,0,0:0:0:0:
323,196,12367,1,0,0:0:0:0:
342,203,12450,1,0,0:0:0:0:
362,203,12534,1,0,0:0:0:0:
381,198,12617,1,0,0:0:0:0:
398,187,12700,1,0,0:0:0:0:
408,172,12784,2,0,P|420:144|408:112,1,40
336,128,12950,5,0,0:0:0:0:
328,109,13033,1,0,0:0:0:0:
315,94,13116,1,0,0:0:0:0:
297,84,13200,1,0,0:0:0:0:
278,81,13283,1,0,0:0:0:0:
258,85,13366,1,0,0:0:0:0:
240,96,13450,2,0,P|212:120|212:144,1,40
276,176,13616,5,0,0:0:0:0:
273,195,13699,1,0,0:0:0:0:
266,214,13782,1,0,0:0:0:0:
254,230,13866,1,0,0:0:0:0:
238,242,13949,1,0,0:0:0:0:
220,249,14032,1,0,0:0:0:0:
200,248,14116,2,0,P|172:224|172:200,1,40
132,300,14283,5,0,0:0:0:0:
114,290,14366,1,0,0:0:0:0:
98,278,14449,1,0,0:0:0:0:
85,263,14533,1,0,0:0:0:0:
74,246,14616,1,0,0:0:0:0:
68,227,14699,1,0,0:0:0:0:
64,208,14783,2,0,P|64:180|84:148,1,40
80,72,14951,5,0,0:0:0:0:
90,77,15034,1,0,0:0:0:0:
100,83,15117,1,0,0:0:0:0:
111,89,15201,1,0,0:0:0:0:
121,95,15284,1,0,0:0:0:0:
132,101,15367,1,0,0:0:0:0:
144,108,15451,2,0,L|200:136,1,40
220,196,15618,5,0,0:0:0:0:
209,200,15701,1,0,0:0:0:0:
198,204,15784,1,0,0:0:0:0:
186,209,15868,1,0,0:0:0:0:
175,213,15951,1,0,0:0:0:0:
164,218,16034,1,0,0:0:0:0:
152,224,16118,2,0,L|95:250,1,40
38,258,16284,5,0,0:0:0:0:
37,246,16367,1,0,0:0:0:0:
36,234,16450,1,0,0:0:0:0:
34,221,16534,1,0,0:0:0:0:
34,210,16617,1,0,0:0:0:0:
32,198,16700,1,0,0:0:0:0:
29,184,16784,2,0,L|18:122,1,40
124,152,16951,5,0,0:0:0:0:
128,132,17034,1,0,0:0:0:0:
134,113,17117,1,0,0:0:0:0:
144,95,17200,1,0,0:0:0:0:
155,79,17284,1,0,0:0:0:0:
169,64,17367,1,0,0:0:0:0:
180,48,17451,2,0,P|200:32|240:24,1,40
244,104,17618,5,0,0:0:0:0:
247,123,17701,1,0,0:0:0:0:
254,142,17784,1,0,0:0:0:0:
264,159,17867,1,0,0:0:0:0:
277,174,17951,1,0,0:0:0:0:
293,187,18034,1,0,0:0:0:0:
310,197,18117,1,0,0:0:0:0:
329,204,18201,1,0,0:0:0:0:
348,208,18284,1,0,0:0:0:0:
368,208,18367,1,0,0:0:0:0:
388,204,18451,2,0,P|424:184|436:156,1,40
368,124,18618,5,0,0:0:0:0:
366,104,18701,1,0,0:0:0:0:
364,84,18784,2,0,L|360:32,1,40
448,44,18951,5,0,0:0:0:0:
457,66,19034,1,0,0:0:0:0:
464,89,19117,1,0,0:0:0:0:
469,112,19200,1,0,0:0:0:0:
471,136,19284,1,0,0:0:0:0:
472,160,19367,1,0,0:0:0:0:
470,184,19450,1,0,0:0:0:0:
466,207,19534,1,0,0:0:0:0:
459,231,19617,1,0,0:0:0:0:
451,253,19700,1,0,0:0:0:0:
444,276,19784,2,0,P|420:312|408:324,1,40
364,252,19951,5,0,0:0:0:0:
346,242,20034,1,0,0:0:0:0:
324,236,20118,2,0,P|292:224|264:224,1,40
280,304,20284,5,0,0:0:0:0:
262,314,20367,1,0,0:0:0:0:
245,323,20450,1,0,0:0:0:0:
227,332,20533,1,0,0:0:0:0:
208,339,20617,1,0,0:0:0:0:
189,345,20700,1,0,0:0:0:0:
170,350,20783,1,0,0:0:0:0:
150,354,20867,1,0,0:0:0:0:
130,356,20950,1,0,0:0:0:0:
110,358,21033,1,0,0:0:0:0:
88,360,21118,2,0,P|56:363|32:360,1,40
68,284,21284,6,0,P|48:240|44:208,1,80
140,144,21618,2,0,B|96:240|188:248|156:364,1,207.999990478516
244,292,22118,2,0,P|232:240|196:176,1,103.999995239258
212,184,22368,1,0,0:0:0:0:
215,177,22451,1,0,0:0:0:0:
217,171,22534,1,0,0:0:0:0:
219,165,22617,1,0,0:0:0:0:
221,159,22701,1,0,0:0:0:0:
224,156,22784,2,0,L|256:104,1,40
208,48,22951,5,0,0:0:0:0:
227,43,23034,1,0,0:0:0:0:
247,43,23117,1,0,0:0:0:0:
267,47,23200,1,0,0:0:0:0:
284,56,23284,1,0,0:0:0:0:
300,68,23367,1,0,0:0:0:0:
312,84,23451,2,0,P|324:104|332:144,1,40
408,92,23618,5,0,0:0:0:0:
411,111,23701,1,0,0:0:0:0:
410,131,23784,1,0,0:0:0:0:
405,150,23867,1,0,0:0:0:0:
395,167,23951,1,0,0:0:0:0:
382,182,24034,1,0,0:0:0:0:
366,193,24118,2,0,P|345:203|305:209,1,40
368,280,24284,5,0,0:0:0:0:
350,287,24367,1,0,0:0:0:0:
330,290,24450,1,0,0:0:0:0:
310,290,24533,1,0,0:0:0:0:
291,284,24617,1,0,0:0:0:0:
274,274,24700,1,0,0:0:0:0:
260,261,24784,2,0,P|244:243|229:205,1,40
176,284,24951,5,0,0:0:0:0:
165,268,25034,1,0,0:0:0:0:
157,249,25117,1,0,0:0:0:0:
153,229,25200,1,0,0:0:0:0:
154,209,25284,1,0,0:0:0:0:
160,191,25367,1,0,0:0:0:0:
170,174,25451,2,0,P|183:155|217:132,1,40
156,72,25618,5,0,0:0:0:0:
143,87,25701,1,0,0:0:0:0:
131,103,25784,1,0,0:0:0:0:
118,118,25867,1,0,0:0:0:0:
106,134,25951,1,0,0:0:0:0:
93,150,26034,1,0,0:0:0:0:
80,164,26118,2,0,L|44:208,1,40
112,252,26284,5,0,0:0:0:0:
124,236,26367,1,0,0:0:0:0:
136,220,26450,1,0,0:0:0:0:
149,205,26533,1,0,0:0:0:0:
161,189,26617,1,0,0:0:0:0:
174,173,26700,1,0,0:0:0:0:
188,160,26784,2,0,L|224:116,1,40
272,188,26951,5,0,0:0:0:0:
284,172,27034,1,0,0:0:0:0:
296,156,27117,1,0,0:0:0:0:
309,141,27200,1,0,0:0:0:0:
321,125,27284,1,0,0:0:0:0:
334,109,27367,1,0,0:0:0:0:
348,96,27451,2,0,L|384:52,1,40
440,108,27618,5,0,0:0:0:0:
428,124,27701,1,0,0:0:0:0:
417,140,27784,1,0,0:0:0:0:
405,157,27867,1,0,0:0:0:0:
396,172,27951,2,0,L|360:228,1,40
424,272,28118,5,0,0:0:0:0:
397,285,28201,1,0,0:0:0:0:
367,291,28284,1,0,0:0:0:0:
337,289,28367,1,0,0:0:0:0:
309,280,28451,1,0,0:0:0:0:
284,264,28534,1,0,0:0:0:0:
263,242,28617,1,0,0:0:0:0:
249,215,28701,1,0,0:0:0:0:
242,186,28784,1,0,0:0:0:0:
243,156,28867,1,0,0:0:0:0:
251,128,28951,1,0,0:0:0:0:
267,102,29034,1,0,0:0:0:0:
288,80,29118,2,0,P|314:60|349:46,1,60.0000022888184
352,132,29284,5,0,0:0:0:0:
353,151,29367,1,0,0:0:0:0:
349,171,29450,1,0,0:0:0:0:
342,190,29533,1,0,0:0:0:0:
333,208,29617,1,0,0:0:0:0:
323,225,29700,1,0,0:0:0:0:
313,242,29783,1,0,0:0:0:0:
303,260,29867,1,0,0:0:0:0:
296,278,29950,1,0,0:0:0:0:
291,298,30033,1,0,0:0:0:0:
290,318,30117,1,0,0:0:0:0:
295,337,30200,1,0,0:0:0:0:
305,354,30283,1,0,0:0:0:0:
320,367,30367,1,0,0:0:0:0:
340,372,30451,2,0,P|368:384|400:388,1,40
456,380,30618,5,0,0:0:0:0:
475,382,30701,1,0,0:0:0:0:
492,372,30784,2,0,P|528:352|532:320,1,40
468,300,30951,6,0,B|428:296|400:308|400:308|484:184|380:124|404:44|404:44|312:60|244:8|244:8|68:20|-8:88|8:184|60:256|132:212,1,895.999972656251,0|0,3:3|0:0,0:0:0:0:
108,232,32368,1,0,0:0:0:0:
133,243,32451,1,0,0:0:0:0:
160,251,32534,1,0,0:0:0:0:
187,256,32617,1,0,0:0:0:0:
215,257,32701,1,0,0:0:0:0:
243,254,32784,1,0,0:0:0:0:
269,245,32868,1,0,0:0:0:0:
293,231,32951,1,0,0:0:0:0:
313,211,33034,1,0,0:0:0:0:
329,188,33118,1,0,0:0:0:0:
340,162,33201,1,0,0:0:0:0:
346,135,33284,1,0,0:0:0:0:
347,107,33368,1,0,0:0:0:0:
344,79,33451,1,0,0:0:0:0:
336,52,33534,1,0,0:0:0:0:
308,36,33618,6,0,B|248:36|248:36|212:56|212:56|124:56,1,160
48,56,34118,1,0,0:0:0:0:
152,56,34284,2,0,B|160:132|104:140|112:216,1,160
216,196,34784,1,0,0:0:0:0:
176,292,34951,2,0,P|256:296|316:212,1,160
216,196,35451,1,0,0:0:0:0:
240,80,35618,6,0,P|296:100|240:124,1,120.000004577637
216,196,35951,2,0,P|168:216|162:164,1,120.000004577637
316,4,36284,2,0,P|360:48|372:140,1,120.000004577637
124,292,36618,2,0,P|80:248|68:156,1,120.000004577637
375,102,36951,2,0,L|379:230,1,120.000004577637
64,193,37284,2,0,L|60:73,1,120.000004577637
196,180,37618,6,0,L|192:348,1,160
384,224,38118,2,0,B|394:158|394:158|448:100|448:100|340:80|340:80|244:92,1,320
273,11,38951,6,0,P|201:71|213:135,1,160
264,200,39451,1,0,0:0:0:0:
267,359,39618,2,0,P|263:195|263:195,1,160
188,140,40118,2,0,B|188:204|188:204|164:224|164:224|164:276|164:276|188:296|188:296|188:360,1,240
88,156,40951,6,0,L|92:32,1,120.000004577637
272,196,41284,2,0,P|326:205|342:153,1,120.000004577637
88,156,41618,2,0,L|84:275,1,120.000004577637
229,125,41951,2,0,P|281:141|271:195,1,120.000004577637
44,172,42284,2,0,L|48:48,1,120.000004577637
136,324,42618,1,0,0:0:0:0:
264,76,42784,2,0,B|332:40|364:60|376:96|376:96|360:120|376:144|376:144|392:172|436:168|436:168|416:240|460:280,1,360.000013732911
336,296,43451,6,0,L|396:348,1,60.0000022888184
228,304,43618,2,0,L|273:343,1,60.0000022888184
120,312,43784,2,0,L|165:351,1,60.0000022888184
12,320,43951,2,0,L|57:359,1,60.0000022888184
28,236,44118,1,0,0:0:0:0:
28,236,44201,1,0,0:0:0:0:
28,236,44284,6,0,P|56:184|108:160,1,103.999995239258
199,179,44618,1,0,0:0:0:0:
120,248,44784,1,0,0:0:0:0:
168,96,44951,2,0,P|227:95|273:129,1,103.999995239258
324,240,45284,1,0,0:0:0:0:
384,92,45451,2,0,B|368:168|368:168|432:208|402:283|402:283|356:348|288:320,1,311.999985717774
324,240,46118,1,0,0:0:0:0:
477,302,46284,6,0,P|452:347|412:380,1,103.999995239258
484,201,46618,2,0,P|490:252|477:302,1,103.999995239258
437,28,46951,1,0,0:0:0:0:
324,240,47118,1,0,0:0:0:0:
410,60,47284,1,0,0:0:0:0:
324,240,47451,1,0,0:0:0:0:
384,92,47618,1,0,0:0:0:0:
324,240,47784,1,0,0:0:0:0:
177,94,47951,2,0,P|225:114|256:156,1,103.999995239258
24,52,48284,6,0,B|40:104|92:104|92:104|96:164|176:180,2,207.999990478516
184,100,49118,1,0,0:0:0:0:
184,100,49201,1,0,0:0:0:0:
184,100,49284,1,0,0:0:0:0:
68,240,49451,1,0,0:0:0:0:
68,240,49534,1,0,0:0:0:0:
68,240,49618,6,0,B|188:300|176:236|324:340|324:340|328:200|268:180,1,450.000017166138
275,183,50951,2,0,B|320:168|368:204|368:204|384:108|460:72|460:72|388:32|292:56|268:64,1,450.000017166138
281,59,52284,2,0,B|208:79|168:99|168:99|104:59|52:47,1,240.000009155274
68,127,53118,2,0,P|66:66|42:22,1,80
36,199,53451,2,0,P|57:165|68:127,1,80
120,128,54451,5,0,0:0:0:0:
56,52,54618,2,0,P|124:40|204:68,1,136.000002593994
228,100,54868,1,0,0:0:0:0:
260,148,54951,6,0,P|272:176|316:296,1,136.000002593994
120,200,55284,1,0,0:0:0:0:
296,28,55451,1,0,0:0:0:0:
296,28,55534,1,0,0:0:0:0:
296,28,55618,2,0,P|308:56|352:176,1,136.000002593994
396,312,55951,1,0,0:0:0:0:
472,136,56118,1,0,0:0:0:0:
272,208,56284,6,0,P|184:184|152:128,1,136.000002593994
296,28,56618,1,0,0:0:0:0:
272,208,56784,1,0,0:0:0:0:
272,208,56868,1,0,0:0:0:0:
272,208,56951,2,0,P|219:282|155:293,1,136.000002593994
192,109,57284,5,0,0:0:0:0:
268,28,57451,1,0,0:0:0:0:
123,89,57618,5,0,0:0:0:0:
42,13,57784,1,0,0:0:0:0:
103,160,57951,5,0,0:0:0:0:
27,241,58118,1,0,0:0:0:0:
176,180,58284,5,0,0:0:0:0:
257,256,58451,1,0,0:0:0:0:
224,112,58618,5,0,0:0:0:0:
152,344,58784,1,0,0:0:0:0:
152,344,58868,1,0,0:0:0:0:
152,344,58951,1,0,0:0:0:0:
340,232,59118,1,0,0:0:0:0:
367,213,59201,1,0,0:0:0:0:
394,195,59284,1,0,0:0:0:0:
256,180,59451,1,0,0:0:0:0:
229,198,59534,1,0,0:0:0:0:
201,217,59617,1,0,0:0:0:0:
284,40,59784,1,0,0:0:0:0:
311,21,59867,1,0,0:0:0:0:
336,0,59951,2,0,P|368:76|344:128,1,136.000002593994
304,152,60201,1,0,0:0:0:0:
256,180,60284,6,0,P|212:240|204:312,1,136.000002593994
392,220,60618,1,0,0:0:0:0:
264,64,60784,1,0,0:0:0:0:
224,44,60868,1,0,0:0:0:0:
188,68,60951,2,0,P|132:124|112:196,1,136.000002593994
316,316,61284,1,0,0:0:0:0:
204,164,61451,1,0,0:0:0:0:
416,88,61618,6,0,B|428:144|428:144|424:180|424:180|432:240,1,136.000002593994
456,364,61951,1,0,0:0:0:0:
352,140,62118,1,0,0:0:0:0:
344,96,62201,1,0,0:0:0:0:
336,56,62284,2,0,P|280:16|212:28,1,136.000002593994
48,184,62618,5,0,0:0:0:0:
260,96,62784,1,0,0:0:0:0:
228,296,62951,5,0,0:0:0:0:
296,77,63117,1,0,0:0:0:0:
260,268,63284,5,0,0:0:0:0:
328,60,63451,1,0,0:0:0:0:
360,32,63534,1,0,0:0:0:0:
388,8,63618,6,0,B|384:68|384:68|312:96|311:178|356:212|420:220,1,272.000005187988
452,232,64034,1,0,0:0:0:0:
500,248,64118,1,0,0:0:0:0:
360,336,64284,1,0,0:0:0:0:
312,316,64368,1,0,0:0:0:0:
268,296,64451,6,0,L|192:264,1,68.0000012969971
168,40,64618,2,0,L|136:116,1,68.0000012969971
204,304,64784,2,0,L|140:277,1,68.0000012969971
119,85,64951,2,0,L|92:148,1,68.0000012969971
148,332,65118,2,0,L|85:305,1,68.0000012969971
60,112,65285,2,0,L|33:174,1,68.0000012969971
0,268,65451,1,0,0:0:0:0:
0,268,65534,1,0,0:0:0:0:
0,268,65618,6,0,L|144:196,1,136.000002593994
300,124,65951,1,0,0:0:0:0:
476,32,66118,1,0,0:0:0:0:
476,32,66201,1,0,0:0:0:0:
476,32,66284,2,0,P|480:108|452:168,1,136.000002593994
316,280,66618,1,0,0:0:0:0:
204,124,66784,1,0,0:0:0:0:
400,96,66951,1,0,0:0:0:0:
316,280,67118,6,0,P|236:340|156:324,1,136.000002593994
156,312,67368,1,0,0:0:0:0:
116,272,67451,1,0,0:0:0:0:
264,152,67618,2,0,B|336:160|336:160|388:200,1,136.000002593994
152,208,67951,5,0,0:0:0:0:
212,352,68118,1,0,0:0:0:0:
185,108,68284,5,0,0:0:0:0:
245,252,68451,1,0,0:0:0:0:
213,20,68618,5,0,0:0:0:0:
273,164,68785,1,0,0:0:0:0:
324,64,68951,2,0,B|428:68|428:68|416:104,1,120.000004577637
368,232,69284,1,0,0:0:0:0:
428,68,69451,2,0,L|380:212,1,120.000004577637
368,232,69701,1,0,0:0:0:0:
348,284,69784,1,0,0:0:0:0:
272,163,69951,5,0,0:0:0:0:
298,113,70034,1,0,0:0:0:0:
324,64,70117,1,0,0:0:0:0:
188,96,70284,1,0,0:0:0:0:
162,146,70367,1,0,0:0:0:0:
136,195,70450,1,0,0:0:0:0:
136,24,70618,6,0,L|0:36,1,136.000002593994
76,176,70951,2,0,L|72:248,21,40
72,268,72784,1,0,0:0:0:0:
88,288,73118,1,0,0:0:0:0:
368,296,73284,1,0,0:0:0:0:
140,72,73618,6,0,P|76:104|56:184,1,136.000002593994
64,221,73868,1,0,0:0:0:0:
88,276,73951,1,0,0:0:0:0:
224,156,74118,1,0,0:0:0:0:
228,96,74201,1,0,0:0:0:0:
224,36,74284,1,0,0:0:0:0:
348,184,74451,1,0,0:0:0:0:
352,244,74534,1,0,0:0:0:0:
348,304,74617,1,0,0:0:0:0:
224,36,74784,5,0,0:0:0:0:
256,192,74951,12,0,76118,0:0:0:0:
468,300,76284,6,0,P|468:260|464:148,1,120.000004577637
389,98,76618,2,0,P|351:143|293:151,1,120.000004577637
292,32,76951,2,0,P|292:72|296:184,1,120.000004577637
388,292,77284,2,0,P|414:239|469:219,1,120.000004577637
467,99,77618,2,0,P|467:139|471:251,1,120.000004577637
388,292,77951,1,0,0:0:0:0:
320,192,78117,1,0,0:0:0:0:
268,301,78284,1,0,0:0:0:0:
200,201,78451,1,0,0:0:0:0:
120,104,78618,2,0,P|160:56|216:40,1,120.000004577637
340,85,78951,5,0,0:0:0:0:
133,251,79118,1,0,0:0:0:0:
392,192,79284,1,0,0:0:0:0:
133,132,79451,1,0,0:0:0:0:
340,298,79618,1,0,0:0:0:0:
225,59,79784,1,0,0:0:0:0:
225,324,79951,1,0,0:0:0:0:
300,64,80118,1,0,0:0:0:0:
208,316,80284,5,0,0:0:0:0:
297,93,80451,1,0,0:0:0:0:
208,286,80618,1,0,0:0:0:0:
294,123,80784,1,0,0:0:0:0:
205,252,80951,6,0,B|213:148|181:104|181:104|133:128|97:188,1,240.000009155274
112,232,81618,6,0,P|115:253|117:352,1,120.000004577637
106,112,81951,2,0,P|104:171|111:231,1,120.000004577637
44,272,82284,2,0,P|56:304|56:288,1,120.000004577637
184,172,82618,2,0,P|168:140|168:152,1,120.000004577637
117,352,82951,2,0,B|115:253|111:231|104:171|106:112,1,240.000009155274
44,272,83451,1,0,0:0:0:0:
184,172,83618,2,0,P|188:96|192:48,1,120.000004577637
192,287,83951,2,0,B|192:223|192:223|184:219|184:219|184:170,1,120.000004577637
84,40,84284,5,0,0:0:0:0:
400,60,84451,1,0,0:0:0:0:
120,55,84618,1,0,0:0:0:0:
418,132,84784,1,0,0:0:0:0:
157,71,84951,1,0,0:0:0:0:
437,205,85118,1,0,0:0:0:0:
194,87,85284,1,0,0:0:0:0:
456,277,85451,1,0,0:0:0:0:
232,108,85618,6,0,L|276:132,9,40
332,160,86451,2,0,B|396:72|488:68|488:68|504:144|452:200,1,300.000011444092
440,224,86951,2,0,P|431:233|360:288,1,80
240,244,87284,1,0,0:0:0:0:
332,160,87451,1,0,0:0:0:0:
379,275,87618,2,0,P|368:284|299:323,1,80
332,160,87951,1,0,0:0:0:0:
311,317,88118,2,0,P|291:312|256:287,1,40
405,186,88284,6,0,P|361:178|317:142,1,80
252,32,88618,1,0,0:0:0:0:
392,108,88784,1,0,0:0:0:0:
256,120,88951,2,0,P|192:88|152:20,1,120.000004577637
384,272,89284,2,0,P|448:304|488:372,1,120.000004577637
256,120,89618,5,0,0:0:0:0:
300,240,89784,1,0,0:0:0:0:
196,116,89951,1,0,0:0:0:0:
196,243,90117,1,0,0:0:0:0:
148,76,90284,1,0,0:0:0:0:
104,195,90451,2,0,L|126:203,1,20
104,195,90534,2,0,L|81:186,1,20
104,195,90618,2,0,P|100:215|96:303,1,80
321,336,90951,5,0,0:0:0:0:
94,274,91118,1,0,0:0:0:0:
246,315,91284,1,0,0:0:0:0:
166,294,91451,1,0,0:0:0:0:
321,336,91618,2,0,L|156:292,1,160
213,112,92284,6,0,P|273:104|317:112,1,80
258,222,92618,1,0,0:0:0:0:
143,149,92784,1,0,0:0:0:0:
258,222,92951,2,0,P|294:205|333:198,1,80
321,336,93284,1,0,0:0:0:0:
257,221,93451,2,0,P|238:234|219:258,1,40
213,112,93617,6,0,P|181:124|137:156,1,80
321,336,93951,1,0,0:0:0:0:
420,124,94118,1,0,0:0:0:0:
160,336,94284,2,0,P|232:312|268:256,1,120.000004577637
432,40,94618,2,0,P|360:64|324:120,1,120.000004577637
316,328,94951,5,0,0:0:0:0:
198,74,95118,1,0,0:0:0:0:
414,251,95284,1,0,0:0:0:0:
142,184,95451,1,0,0:0:0:0:
417,125,95618,1,0,0:0:0:0:
195,299,95784,1,0,0:0:0:0:
195,299,95868,1,0,0:0:0:0:
195,299,95951,1,0,0:0:0:0:
321,69,96118,1,0,0:0:0:0:
176,376,96284,6,0,B|22:379|106:230|-68:184|-68:184|86:195|80:38|158:19|158:19|163:125|308:104|256:252|256:252|220:200|152:223,1,960
188,292,97618,5,0,0:0:0:0:
201,307,97701,1,0,0:0:0:0:
217,318,97784,1,0,0:0:0:0:
235,325,97867,1,0,0:0:0:0:
255,327,97951,1,0,0:0:0:0:
275,325,98034,1,0,0:0:0:0:
296,320,98118,2,0,P|316:300|328:276,1,40
360,216,98284,5,0,0:0:0:0:
366,197,98367,1,0,0:0:0:0:
370,177,98450,1,0,0:0:0:0:
372,157,98533,1,0,0:0:0:0:
371,137,98617,1,0,0:0:0:0:
367,118,98700,1,0,0:0:0:0:
360,100,98784,2,0,P|336:64|312:60,1,40
268,36,98951,5,0,0:0:0:0:
248,35,99034,1,0,0:0:0:0:
228,37,99117,1,0,0:0:0:0:
209,44,99200,1,0,0:0:0:0:
191,53,99284,1,0,0:0:0:0:
172,60,99367,1,0,0:0:0:0:
152,64,99451,2,0,P|116:68|100:80,1,40
88,144,99618,5,0,0:0:0:0:
68,149,99701,1,0,0:0:0:0:
51,160,99784,1,0,0:0:0:0:
37,174,99867,1,0,0:0:0:0:
27,191,99951,1,0,0:0:0:0:
21,210,100034,1,0,0:0:0:0:
14,229,100118,2,0,P|6:253|10:285,1,40
84,264,100284,5,0,0:0:0:0:
103,265,100367,1,0,0:0:0:0:
123,266,100450,1,0,0:0:0:0:
143,267,100533,1,0,0:0:0:0:
163,268,100617,1,0,0:0:0:0:
183,269,100700,1,0,0:0:0:0:
204,272,100784,2,0,L|252:276,1,40
328,280,100951,5,0,0:0:0:0:
322,260,101034,1,0,0:0:0:0:
317,241,101117,1,0,0:0:0:0:
311,222,101200,1,0,0:0:0:0:
306,202,101284,1,0,0:0:0:0:
301,183,101367,1,0,0:0:0:0:
297,166,101451,2,0,L|283:117,1,40
268,52,101618,5,0,0:0:0:0:
248,46,101701,1,0,0:0:0:0:
228,41,101784,1,0,0:0:0:0:
209,36,101867,1,0,0:0:0:0:
189,31,101951,1,0,0:0:0:0:
170,26,102034,1,0,0:0:0:0:
154,20,102118,2,0,L|104:7,1,40
35,7,102284,5,0,0:0:0:0:
23,23,102367,1,0,0:0:0:0:
14,41,102450,1,0,0:0:0:0:
8,60,102533,1,0,0:0:0:0:
4,79,102617,1,0,0:0:0:0:
3,99,102700,1,0,0:0:0:0:
4,120,102784,2,0,P|8:160|16:184,1,40
84,128,102951,5,0,0:0:0:0:
88,147,103034,1,0,0:0:0:0:
87,167,103117,1,0,0:0:0:0:
81,186,103200,1,0,0:0:0:0:
72,204,103284,1,0,0:0:0:0:
62,221,103367,1,0,0:0:0:0:
52,238,103450,1,0,0:0:0:0:
44,257,103534,1,0,0:0:0:0:
39,276,103617,1,0,0:0:0:0:
38,296,103700,1,0,0:0:0:0:
40,316,103784,2,0,P|48:344|76:368,1,40
132,376,103951,5,0,0:0:0:0:
151,377,104034,1,0,0:0:0:0:
172,380,104118,2,0,P|208:380|228:372,1,40
188,304,104284,5,0,0:0:0:0:
207,302,104367,1,0,0:0:0:0:
227,304,104450,1,0,0:0:0:0:
245,312,104533,1,0,0:0:0:0:
263,323,104617,1,0,0:0:0:0:
280,333,104700,1,0,0:0:0:0:
298,341,104783,1,0,0:0:0:0:
317,346,104867,1,0,0:0:0:0:
337,348,104950,1,0,0:0:0:0:
357,348,105033,1,0,0:0:0:0:
378,345,105118,2,0,P|410:333|422:321,1,40
364,264,105284,5,0,0:0:0:0:
379,251,105367,1,0,0:0:0:0:
398,244,105451,2,0,P|436:252|454:275,1,40
492,312,105618,5,0,0:0:0:0:
502,295,105701,1,0,0:0:0:0:
509,276,105784,1,0,0:0:0:0:
512,256,105867,1,0,0:0:0:0:
511,236,105951,1,0,0:0:0:0:
504,217,106034,1,0,0:0:0:0:
494,201,106117,1,0,0:0:0:0:
479,187,106201,1,0,0:0:0:0:
463,176,106284,1,0,0:0:0:0:
444,168,106367,1,0,0:0:0:0:
425,163,106451,2,0,P|418:160|384:152,1,40
356,224,106618,6,0,P|304:172|304:148,1,80
140,96,106951,2,0,B|240:160|272:48|360:116,1,207.999990478516
200,36,107451,2,0,P|244:20|328:16,1,103.999995239258
