osu file format v14

[General]
AudioFilename: audio.mp3
AudioLeadIn: 0
PreviewTime: 130012
Countdown: 0
SampleSet: Soft
StackLeniency: 0.5
Mode: 0
LetterboxInBreaks: 0
WidescreenStoryboard: 0

[Editor]
Bookmarks: 12,8012,16012,24012,32012,40012,48012,54012,62012,77512,78012,94012,98012,106012,114012,122012,130012,138012,144012,152012,160012,168012,176012,184012,199512,200012,216012,220012,228012,236012,242528,246166,246550
DistanceSpacing: 0.7
BeatDivisor: 4
GridSize: 32
TimelineZoom: 1.9

[Metadata]
Title:Maharajah
TitleUnicode:Maharajah
Artist:Alice Schach and the Magic Orchestra
ArtistUnicode:アリスシャッハと魔法の楽団
Creator:eiri-
Version:Desolation
Source:Muse Dash
Tags:Ayyri Trynna 赤川ねね Akagawa Nene 南ゆに Minami Yuni hhjkl Kowari Made Up Constructed Language Alician Electronic Pop Video Game Reminiscent Bibliotheca Comiket 95 C95
BeatmapID:2287666
BeatmapSetID:1094596

[Difficulty]
HPDrainRate:5
CircleSize:6
OverallDifficulty:8.5
ApproachRate:9
SliderMultiplier:1.6
SliderTickRate:1

[Events]
//Background and Video events
0,0,"Maharajah.jpg",0,0
//Break Periods
2,98212,113412
2,114212,117412
2,118212,121412
2,122212,125370
//Storyboard Layer 0 (Background)
//Storyboard Layer 1 (Fail)
//Storyboard Layer 2 (Pass)
//Storyboard Layer 3 (Foreground)
//Storyboard Layer 4 (Overlay)
//Storyboard Sound Samples

[TimingPoints]
12,500,4,2,1,50,1,0
12,-200,4,2,1,50,0,0
16012,-200,4,2,1,60,0,0
31512,-100,4,2,1,60,0,0
32012,-80,4,2,1,75,0,0
48012,-133.333333333333,4,2,1,60,0,0
54012,-133.333333333333,4,2,1,65,0,0
58012,-133.333333333333,4,2,1,70,0,0
62012,-66.6666666666667,4,2,1,80,0,1
77512,-66.6666666666667,4,2,1,80,0,0
78012,-57.1428571428571,4,2,1,80,0,1
94012,-133.333333333333,4,2,1,80,0,0
98012,-100,4,2,1,60,0,1
98137,-100,4,2,1,60,0,0
130012,-100,4,2,1,50,0,0
144012,-100,4,2,1,60,0,0
148012,-100,4,2,1,65,0,0
152012,-100,4,2,1,60,0,0
168012,-80,4,2,1,70,0,0
176012,-80,4,2,1,75,0,0
184012,-66.6666666666667,4,2,1,80,0,1
199512,-66.6666666666667,4,2,1,80,0,0
200012,-57.1428571428571,4,2,1,80,0,1
216012,-133.333333333333,4,2,1,80,0,0
220012,-200,4,2,1,60,0,1
220137,-200,4,2,1,60,0,0
236012,-200,4,2,1,50,0,0
240043,560.747663551402,4,2,1,50,1,0
240293,540.540540540541,4,2,1,50,1,0
240563,545.454545454546,4,2,1,50,1,0
241381,705.882352941177,4,2,1,50,1,0
241733,759.493670886076,4,2,1,50,1,0
242112,833.333333333334,4,2,1,50,1,0
242528,705.882352941177,4,2,1,40,1,0
243233,833.333333333334,4,2,1,40,1,0
243649,895.522388059702,4,2,1,40,1,0
244096,612.244897959184,4,2,1,40,1,0
244708,731.707317073171,4,2,1,40,1,0
246166,769.23076923077,4,2,1,30,1,0
246358,-100,4,2,1,25,0,0
246550,-100,4,2,1,20,0,0

[Colours]
Combo1 : 64,121,179
Combo2 : 173,206,231
Combo3 : 238,224,145
Combo4 : 115,164,204

[HitObjects]
424,309,12,6,0,L|431:263,1,40,2|0,0:0|0:0,0:0:0:0:
427,240,512,1,2,0:0:0:0:
427,240,762,1,2,0:0:0:0:
427,240,1012,2,0,L|478:226,1,40,2|0,0:0|0:0,0:0:0:0:
484,204,1512,2,0,L|392:184,1,80,2|2,0:0|0:0,0:0:0:0:
344,209,2262,1,0,0:0:0:0:
344,209,2387,1,0,0:0:0:0:
344,209,2512,2,0,L|352:161,1,40,2|2,0:0|0:0,0:0:0:0:
340,133,3012,2,0,L|371:126,1,20,2|2,0:0|0:0,0:0:0:0:
359,128,3262,1,2,0:0:0:0:
359,128,3512,1,2,0:0:0:0:
295,167,4012,6,0,L|243:146,1,40,2|0,0:0|0:0,0:0:0:0:
228,172,4512,1,2,0:0:0:0:
228,172,4762,1,2,0:0:0:0:
228,172,5012,2,0,L|252:121,1,40,2|0,0:0|0:0,0:0:0:0:
301,105,5512,2,0,L|279:57,2,40,2|2|2,0:0|0:0|0:0,0:0:0:0:
160,81,6262,1,0,0:0:0:0:
160,81,6387,1,0,0:0:0:0:
160,81,6512,2,0,L|108:93,1,40,2|2,0:0|0:0,0:0:0:0:
110,131,7012,2,0,L|140:144,1,20,2|2,0:0|0:0,0:0:0:0:
128,138,7262,1,2,0:0:0:0:
128,138,7512,1,2,0:0:0:0:
66,244,8012,6,0,L|73:298,1,40,2|0,0:0|0:0,0:0:0:0:
63,316,8512,1,2,0:0:0:0:
63,316,8762,1,2,0:0:0:0:
63,316,9012,2,0,L|114:332,1,40,2|2,0:0|0:0,0:0:0:0:
137,374,9387,1,2,0:0:0:0:
137,374,9512,2,0,L|122:285,1,80,2|2,0:0|0:0,0:0:0:0:
140,232,10262,1,0,0:0:0:0:
140,232,10512,2,0,L|191:223,1,40,2|2,0:0|0:0,0:0:0:0:
245,263,11012,1,0,0:0:0:0:
245,263,11137,1,0,0:0:0:0:
245,263,11262,2,0,L|296:254,1,40,2|2,0:0|0:0,0:0:0:0:
385,290,12012,6,0,L|406:243,1,40,2|0,0:0|0:0,0:0:0:0:
383,222,12512,1,2,0:0:0:0:
383,222,12762,2,0,L|438:213,1,40,2|2,0:0|0:0,0:0:0:0:
506,255,13262,1,0,0:0:0:0:
506,255,13387,1,0,0:0:0:0:
506,255,13512,1,2,0:0:0:0:
479,148,13762,2,0,L|468:97,1,40,2|2,0:0|0:0,0:0:0:0:
489,50,14262,1,0,0:0:0:0:
428,13,14512,1,2,0:0:0:0:
401,41,14762,1,2,0:0:0:0:
334,29,15012,2,0,L|236:43,1,80,2|2,0:0|0:0,0:0:0:0:
222,49,16012,6,0,L|347:80,1,120,2|0,0:0|3:0,0:0:0:0:
284,97,17012,6,0,L|409:128,1,120,2|0,0:0|3:0,0:0:0:0:
346,145,18012,6,0,L|471:176,1,120,2|0,0:0|3:0,0:0:0:0:
474,170,19012,6,0,L|481:225,1,40,2|0,0:0|3:0,0:0:0:0:
468,237,19512,2,0,L|475:292,1,40,2|0,0:0|3:0,0:0:0:0:
482,347,20012,6,0,P|450:294|390:291,1,120,2|0,0:0|3:0,0:0:0:0:
330,364,21012,6,0,P|387:356|415:305,1,120,2|0,0:0|3:0,0:0:0:0:
367,215,22012,6,0,P|353:271|390:315,1,120,2|0,0:0|3:0,0:0:0:0:
399,307,23012,6,0,P|371:292|352:294,1,40,2|0,0:0|3:0,0:0:0:0:
328,310,23512,2,0,P|300:325|281:323,1,40,2|0,0:0|3:0,0:0:0:0:
169,280,24012,6,0,L|288:259,1,120,2|0,0:0|3:0,0:0:0:0:
238,229,25012,6,0,L|356:207,1,120,2|0,0:0|3:0,0:0:0:0:
306,177,26012,6,0,L|424:155,1,120,2|0,0:0|3:0,0:0:0:0:
436,157,27012,6,0,L|412:104,1,40,2|0,0:0|3:0,0:0:0:0:
420,83,27512,2,0,L|396:30,1,40,2|0,0:0|3:0,0:0:0:0:
309,4,28012,6,0,P|275:23|256:112,1,120,2|0,0:0|3:0,0:0:0:0:
328,142,29012,6,0,P|309:108|220:89,1,120,2|0,0:0|3:0,0:0:0:0:
190,161,30012,6,0,P|224:142|243:53,1,120,2|0,0:0|3:0,0:0:0:0:
222,14,31012,5,2,0:0:0:0:
222,14,31512,6,0,L|234:150,1,120,2|0,0:0|0:0,0:0:0:0:
245,234,32012,5,14,0:0:0:0:
245,234,32512,1,8,0:0:0:0:
352,160,33012,5,10,0:0:0:0:
352,160,33512,1,8,0:0:0:0:
448,320,34012,5,10,0:0:0:0:
448,320,34512,1,8,0:0:0:0:
480,128,35012,6,0,L|384:160,1,100,10|0,0:0|3:0,0:0:0:0:
320,128,35512,2,0,L|224:160,1,100,10|0,0:0|3:0,0:0:0:0:
64,224,36012,5,10,0:0:0:0:
64,224,36512,1,8,0:0:0:0:
128,64,37012,5,10,0:0:0:0:
128,64,37512,1,8,0:0:0:0:
192,288,38012,5,10,0:0:0:0:
192,288,38512,1,8,0:0:0:0:
384,96,39012,6,0,L|416:224,1,100,10|0,0:0|3:0,0:0:0:0:
384,256,39512,2,0,L|416:384,1,100,10|0,0:0|3:0,0:0:0:0:
480,160,40012,5,10,0:0:0:0:
480,160,40512,1,8,0:0:0:0:
320,256,41012,5,10,0:0:0:0:
320,256,41512,1,8,0:0:0:0:
160,128,42012,5,10,0:0:0:0:
160,128,42512,1,8,0:0:0:0:
416,64,43012,6,0,L|288:32,1,100,10|0,0:0|3:0,0:0:0:0:
256,64,43512,2,0,L|128:32,1,100,10|0,0:0|3:0,0:0:0:0:
224,256,44012,5,10,0:0:0:0:
224,256,44512,1,8,0:0:0:0:
256,96,45012,5,10,0:0:0:0:
256,96,45512,1,8,0:0:0:0:
288,256,46012,5,10,0:0:0:0:
288,256,46512,1,8,0:0:0:0:
256,32,47012,6,0,L|256:160,1,100,10|0,0:0|3:0,0:0:0:0:
256,256,47512,2,0,L|256:384,1,100,10|0,0:0|3:0,0:0:0:0:
256,192,48012,5,14,0:0:0:0:
256,192,49012,6,0,L|320:224,1,60.0000022888184,2|0,0:0|0:0,0:0:0:0:
384,192,49512,2,0,L|448:160,1,60.0000022888184,2|0,0:0|0:0,0:0:0:0:
448,96,50012,2,0,L|416:0,1,90.0000034332277,2|0,0:0|0:0,0:0:0:0:
447,19,50512,2,0,L|474:99,1,60.0000022888184,2|0,0:0|0:0,0:0:0:0:
403,125,51012,2,0,L|365:200,1,60.0000022888184,2|0,0:0|0:0,0:0:0:0:
463,241,51512,2,0,L|479:324,1,60.0000022888184,2|0,0:0|0:0,0:0:0:0:
292,241,52012,2,0,L|336:39,1,180.000006866455,2|0,0:0|0:0,0:0:0:0:
320,37,53512,2,0,L|414:94,1,90.0000034332277,2|0,0:0|0:0,0:0:0:0:
385,91,54012,5,14,0:0:0:0:
318,6,54262,1,8,0:0:0:0:
288,352,54762,1,10,0:0:0:0:
320,192,55012,1,6,1:2:0:0:
336,256,55262,1,14,0:0:0:0:
96,240,55762,1,8,0:0:0:0:
336,192,56012,5,12,0:0:0:0:
336,192,56762,1,8,0:0:0:0:
48,128,57012,1,4,1:2:0:0:
128,112,57512,1,6,1:2:0:0:
208,96,58012,6,0,L|320:128,1,90.0000034332277,14|0,0:0|0:0,0:0:0:0:
294,120,58512,1,2,3:2:0:0:
294,120,58762,1,2,3:2:0:0:
352,88,59012,1,0,0:0:0:0:
407,261,59387,1,2,3:2:0:0:
432,228,59512,1,2,3:2:0:0:
256,253,59762,1,2,3:2:0:0:
345,62,60012,5,10,0:0:0:0:
338,152,60262,1,10,0:0:0:0:
345,62,60512,5,10,0:0:0:0:
346,70,60637,1,10,0:0:0:0:
347,78,60762,1,10,0:0:0:0:
348,86,60887,1,10,0:0:0:0:
344,117,61012,5,10,0:0:0:0:
304,113,61095,1,10,0:0:0:0:
264,110,61178,1,10,0:0:0:0:
224,107,61262,1,10,0:0:0:0:
184,104,61345,1,10,0:0:0:0:
144,101,61428,1,10,0:0:0:0:
139,173,61512,5,10,0:0:0:0:
178,177,61595,1,10,0:0:0:0:
218,180,61678,1,10,0:0:0:0:
258,183,61762,1,10,0:0:0:0:
298,186,61845,1,10,0:0:0:0:
338,189,61928,1,10,0:0:0:0:
343,260,62012,6,0,P|375:190|417:151,1,120.000004577637,14|0,0:0|3:0,0:0:0:0:
507,295,62512,2,0,P|452:319|393:323,1,120.000004577637,10|2,0:0|3:2,0:0:0:0:
512,185,62887,1,2,3:2:0:0:
512,185,63012,2,0,L|489:39,1,120.000004577637,10|0,0:0|3:0,0:0:0:0:
446,259,63512,2,0,L|469:405,1,120.000004577637,10|0,0:0|3:0,0:0:0:0:
434,179,64012,6,0,B|408:156|408:156|294:186,1,120.000004577637,10|0,0:0|3:0,0:0:0:0:
275,289,64512,2,0,B|249:312|249:312|135:282,1,120.000004577637,10|2,0:0|3:2,0:0:0:0:
30,257,64887,1,2,3:2:0:0:
30,257,65012,2,0,L|15:180,1,60.0000022888184,10|0,0:0|0:0,0:0:0:0:
187,204,65262,2,0,L|202:127,1,60.0000022888184,2|0,3:2|0:0,0:0:0:0:
56,124,65512,2,0,L|29:-5,1,120.000004577637,10|2,0:0|3:2,0:0:0:0:
172,142,66012,6,0,L|148:299,1,120.000004577637,10|0,0:0|3:0,0:0:0:0:
257,59,66512,2,0,L|281:216,1,120.000004577637,10|2,0:0|3:2,0:0:0:0:
119,53,66887,1,2,3:2:0:0:
110,27,67012,2,0,L|251:56,1,120.000004577637,10|0,0:0|3:0,0:0:0:0:
437,92,67512,1,10,0:0:0:0:
437,92,67637,1,2,0:0:0:0:
437,92,67762,2,0,L|420:14,1,60.0000022888184,2|0,3:2|0:0,0:0:0:0:
380,256,68012,6,0,P|313:256|277:200,1,120.000004577637,10|0,0:0|3:0,0:0:0:0:
331,98,68512,2,0,P|398:98|434:154,1,120.000004577637,10|2,0:0|3:2,0:0:0:0:
196,140,68887,1,2,3:2:0:0:
196,140,69012,2,0,L|53:170,1,120.000004577637,10|0,0:0|3:0,0:0:0:0:
256,192,69512,2,0,L|286:49,1,120.000004577637,10|8,0:0|3:2,0:0:0:0:
80,18,69887,1,8,3:2:0:0:
80,18,70012,6,0,P|106:96|156:53,1,120.000004577637,14|2,0:0|3:2,0:0:0:0:
224,64,70387,1,2,3:2:0:0:
247,97,70512,2,0,L|234:171,1,60.0000022888184,10|0,0:0|0:0,0:0:0:0:
343,59,70762,2,0,L|330:-15,1,60.0000022888184,2|0,3:2|0:0,0:0:0:0:
374,238,71012,6,0,P|426:164|487:184,1,120.000004577637,14|2,0:0|3:2,0:0:0:0:
417,348,71387,1,2,3:2:0:0:
417,348,71512,2,0,L|337:322,1,60.0000022888184,10|0,0:0|0:0,0:0:0:0:
256,256,71762,2,0,L|176:282,1,60.0000022888184,10|10,3:2|3:2,0:0:0:0:
32,321,72012,6,0,P|97:312|92:353,1,120.000004577637,14|2,0:0|3:2,0:0:0:0:
32,224,72387,1,2,3:2:0:0:
49,191,72512,2,0,L|27:106,1,60.0000022888184,10|0,0:0|0:0,0:0:0:0:
153,25,72762,1,2,3:2:0:0:
153,25,72887,1,2,3:2:0:0:
153,25,73012,6,0,L|131:152,1,120.000004577637,14|2,0:0|3:2,0:0:0:0:
107,307,73387,1,2,3:2:0:0:
107,307,73512,1,10,0:0:0:0:
159,281,73637,1,2,3:2:0:0:
210,308,73762,1,2,3:2:0:0:
218,365,73887,1,2,3:2:0:0:
159,344,74012,6,0,L|319:313,1,120.000004577637,14|2,0:0|3:2,0:0:0:0:
397,365,74345,1,2,3:2:0:0:
397,365,74428,1,2,3:2:0:0:
397,365,74512,2,0,L|369:269,1,60.0000022888184,10|0,0:0|0:0,0:0:0:0:
350,172,74762,1,2,3:2:0:0:
408,193,74887,1,2,3:2:0:0:
466,172,75012,6,0,B|491:138|491:138|469:15,1,120.000004577637,10|2,0:0|3:2,0:0:0:0:
303,82,75345,1,2,3:2:0:0:
303,82,75428,1,2,3:2:0:0:
303,82,75512,2,0,B|278:116|278:116|300:239,1,120.000004577637,10|2,0:0|3:2,0:0:0:0:
326,368,75887,1,2,3:2:0:0:
326,368,75949,1,2,3:2:0:0:
326,368,76012,6,0,P|269:321|186:328,1,120.000004577637,10|0,0:0|3:0,0:0:0:0:
455,235,76512,2,0,P|412:275|354:287,1,120.000004577637,10|0,0:0|3:0,0:0:0:0:
56,234,77012,2,0,P|99:275|157:287,1,120.000004577637,10|0,0:0|3:0,0:0:0:0:
256,192,77512,5,10,0:0:0:0:
256,180,77637,1,10,0:0:0:0:
256,152,77762,1,10,0:0:0:0:
256,112,77887,1,10,0:0:0:0:
256,48,78012,6,0,P|217:21|112:43,1,140.000001335144,14|0,0:0|3:0,0:0:0:0:
256,48,78512,2,0,P|295:21|400:43,1,140.000001335144,10|2,0:0|3:2,0:0:0:0:
474,90,78824,1,2,3:2:0:0:
474,90,78887,1,2,3:2:0:0:
474,90,78949,1,2,3:2:0:0:
474,90,79012,2,0,L|456:270,1,140.000001335144,10|0,0:0|3:0,0:0:0:0:
334,139,79512,2,0,L|316:-41,1,140.000001335144,10|0,0:0|3:0,0:0:0:0:
352,296,80012,6,0,P|412:228|358:161,1,140.000001335144,10|0,0:0|3:0,0:0:0:0:
152,288,80512,2,0,P|220:348|287:294,1,140.000001335144,10|2,0:0|3:2,0:0:0:0:
160,88,80887,1,2,3:2:0:0:
160,88,81012,2,0,P|100:156|154:223,1,140.000001335144,10|0,0:0|3:0,0:0:0:0:
360,96,81512,2,0,P|292:36|225:90,1,140.000001335144,10|0,0:0|3:0,0:0:0:0:
354,308,82012,6,0,P|393:228|439:178,1,140.000001335144,10|0,0:0|3:0,0:0:0:0:
261,331,82512,2,0,P|191:274|129:249,1,140.000001335144,10|2,0:0|3:2,0:0:0:0:
170,280,82887,1,2,3:2:0:0:
314,239,83012,2,0,L|334:82,1,140.000001335144,10|0,0:0|3:0,0:0:0:0:
194,15,83512,2,0,L|214:172,1,140.000001335144,10|0,0:0|3:0,0:0:0:0:
242,341,84012,6,0,B|138:323|138:323|131:339|142:359,1,140.000001335144,10|0,0:0|3:0,0:0:0:0:
311,261,84512,2,0,B|415:243|415:243|422:259|411:279,1,140.000001335144,10|2,0:0|3:2,0:0:0:0:
382,330,84887,1,2,3:2:0:0:
382,330,85012,1,10,0:0:0:0:
256,192,85262,5,2,1:2:0:0:
256,160,85387,1,2,1:2:0:0:
192,128,85512,1,10,0:0:0:0:
192,96,85637,1,10,0:0:0:0:
320,96,85762,1,2,1:2:0:0:
320,64,85887,1,2,1:2:0:0:
256,32,86012,5,14,0:0:0:0:
256,352,86512,1,2,1:2:0:0:
256,352,86762,1,2,1:2:0:0:
288,320,86887,1,2,1:2:0:0:
352,352,87012,5,14,0:0:0:0:
160,352,87387,1,10,0:0:0:0:
160,352,87512,5,2,1:2:0:0:
160,320,87637,1,2,1:2:0:0:
160,288,87762,1,2,1:2:0:0:
192,288,87887,1,2,1:2:0:0:
256,288,88012,5,14,0:0:0:0:
297,237,88178,1,10,0:0:0:0:
273,176,88345,1,10,0:0:0:0:
209,166,88511,5,10,0:0:0:0:
168,216,88678,1,10,0:0:0:0:
191,277,88845,1,10,0:0:0:0:
308,200,89012,5,6,1:2:0:0:
308,200,89137,1,2,1:2:0:0:
324,173,89262,5,10,0:0:0:0:
322,162,89324,1,10,0:0:0:0:
320,151,89387,1,10,0:0:0:0:
318,140,89449,1,10,0:0:0:0:
316,129,89512,6,0,L|394:147,1,70.000000667572,10|10,0:0|0:0,0:0:0:0:
287,41,89762,2,0,L|209:59,1,70.000000667572,10|10,0:0|0:0,0:0:0:0:
26,109,90012,5,14,0:0:0:0:
26,109,90762,1,10,0:0:0:0:
49,29,91012,1,2,1:2:0:0:
52,39,91262,1,2,3:2:0:0:
50,67,91762,1,10,0:0:0:0:
107,116,92012,6,0,P|185:81|342:60,1,210.000002002716,10|8,0:0|0:0,0:0:0:0:
355,111,92512,2,0,P|272:88|208:49,1,140.000001335144,2|10,0:0|0:0,0:0:0:0:
233,55,92887,1,10,0:0:0:0:
244,65,93012,2,0,L|235:161,1,70.000000667572,2|0,1:2|0:0,0:0:0:0:
254,161,93512,2,0,L|245:257,1,70.000000667572,2|0,1:2|0:0,0:0:0:0:
234,340,93762,1,2,0:0:0:0:
255,324,93887,1,2,0:0:0:0:
302,358,94012,6,0,B|395:344|393:262|508:262,1,210.000008010865,14|0,0:0|0:0,0:0:0:0:
475,288,96012,6,0,L|464:222,1,60.0000022888184,2|0,0:0|0:0,0:0:0:0:
475,200,96762,1,2,0:0:0:0:
475,200,96887,1,2,0:0:0:0:
475,200,97012,2,0,L|399:218,1,60.0000022888184,2|0,0:0|0:0,0:0:0:0:
364,175,97512,2,0,L|288:157,1,60.0000022888184,2|0,0:0|0:0,0:0:0:0:
256,192,98012,5,14,0:0:0:0:
256,192,114012,5,10,0:0:0:0:
256,192,118012,5,10,0:0:0:0:
256,192,122012,5,10,0:0:0:0:
256,192,125970,5,2,0:0:0:0:
256,224,126220,1,0,0:0:0:0:
256,128,126470,1,2,0:0:0:0:
256,288,126970,1,2,0:0:0:0:
256,256,127470,1,0,0:0:0:0:
256,192,127970,5,2,0:0:0:0:
256,192,128928,1,0,0:0:0:0:
256,184,129011,2,0,L|256:120,1,40,2|0,0:0|0:0,0:0:0:0:
256,132,129512,2,0,L|256:68,1,40,2|0,0:0|0:0,0:0:0:0:
256,32,130012,5,2,0:0:0:0:
256,192,131012,1,2,0:0:0:0:
256,128,131512,1,0,0:0:0:0:
256,32,132012,5,2,0:0:0:0:
256,64,132512,1,0,0:0:0:0:
256,128,133012,1,2,0:0:0:0:
256,224,133512,1,0,0:0:0:0:
256,352,134012,5,2,0:0:0:0:
256,352,135512,1,2,0:0:0:0:
256,336,135762,1,2,0:0:0:0:
256,352,136012,5,2,0:0:0:0:
256,256,136512,1,0,0:0:0:0:
256,352,137012,1,2,0:0:0:0:
256,192,137512,1,0,0:0:0:0:
256,352,138012,5,10,0:0:0:0:
256,192,139012,1,2,0:0:0:0:
256,288,139512,1,0,0:0:0:0:
256,128,140012,5,2,0:0:0:0:
256,120,140512,1,0,0:0:0:0:
256,104,141012,1,2,0:0:0:0:
256,80,141512,1,2,0:0:0:0:
256,32,142012,5,2,0:0:0:0:
256,352,143512,1,2,0:0:0:0:
256,192,144012,5,14,0:0:0:0:
256,320,144262,1,8,0:0:0:0:
256,288,144762,1,10,0:0:0:0:
288,256,144887,1,10,0:0:0:0:
256,192,145012,5,6,1:2:0:0:
256,352,145262,1,14,0:0:0:0:
256,320,145762,1,8,0:0:0:0:
256,192,146012,5,12,0:0:0:0:
256,192,146762,1,10,0:0:0:0:
256,32,147012,1,6,1:2:0:0:
256,352,147512,1,2,0:0:0:0:
256,192,148012,5,14,0:0:0:0:
256,352,148262,1,8,0:0:0:0:
256,352,148762,1,10,0:0:0:0:
256,96,149012,1,6,1:2:0:0:
256,288,149262,1,10,0:0:0:0:
256,128,149762,1,8,0:0:0:0:
256,32,150012,5,12,0:0:0:0:
256,32,150762,1,10,0:0:0:0:
288,64,150887,1,10,0:0:0:0:
256,128,151012,5,6,1:2:0:0:
256,256,151512,1,2,0:0:0:0:
256,192,152012,5,10,3:2:0:0:
256,192,152512,1,2,3:2:0:0:
308,160,152762,1,2,3:2:0:0:
379,216,153012,2,0,L|366:310,1,80,2|0,3:2|3:0,0:0:0:0:
368,295,153387,1,0,3:0:0:0:
409,205,153512,2,0,L|390:95,1,80,2|0,3:2|3:0,0:0:0:0:
414,63,154012,5,2,3:2:0:0:
414,63,154512,1,2,3:2:0:0:
352,18,154762,1,2,3:2:0:0:
352,18,154887,1,2,3:2:0:0:
334,41,155012,2,0,L|230:59,1,80,2|0,3:2|3:0,0:0:0:0:
211,129,155512,1,2,3:2:0:0:
211,129,155637,1,2,3:2:0:0:
177,115,155762,1,10,3:2:0:0:
177,115,155887,1,10,3:2:0:0:
160,151,156012,6,0,L|264:133,1,80,10|0,3:2|3:0,0:0:0:0:
321,227,156512,1,2,3:2:0:0:
354,178,156762,1,2,3:2:0:0:
319,161,156887,1,2,3:2:0:0:
272,192,157012,1,2,3:2:0:0:
461,230,157387,1,2,3:2:0:0:
471,203,157512,2,0,L|453:135,1,40,2|0,3:2|0:0,0:0:0:0:
437,82,157762,1,2,3:2:0:0:
437,82,157887,1,2,3:2:0:0:
468,103,158012,5,10,3:2:0:0:
364,122,158262,1,0,3:0:0:0:
468,103,158512,1,2,3:2:0:0:
364,122,158762,1,0,3:0:0:0:
484,47,159012,5,2,3:2:0:0:
461,164,159262,1,0,3:0:0:0:
379,101,159512,1,2,3:2:0:0:
379,101,159637,1,2,3:2:0:0:
333,143,159762,1,10,3:2:0:0:
333,143,159887,1,10,3:2:0:0:
260,97,160012,6,0,L|147:119,1,80,10|0,3:2|3:0,0:0:0:0:
145,160,160512,1,2,3:2:0:0:
295,42,160762,1,2,3:2:0:0:
348,81,161012,2,0,L|340:176,1,80,2|0,3:2|3:0,0:0:0:0:
371,236,161387,1,0,3:0:0:0:
371,236,161512,2,0,L|272:206,1,80,2|0,3:2|3:0,0:0:0:0:
193,255,162012,6,0,L|241:173,1,80,10|0,3:2|3:0,0:0:0:0:
254,275,162387,1,0,3:0:0:0:
254,275,162512,2,0,L|275:363,1,80,2|2,3:2|3:2,0:0:0:0:
293,335,162887,1,2,3:2:0:0:
275,324,163012,2,0,L|202:373,1,80,10|0,3:2|3:0,0:0:0:0:
145,310,163387,1,0,3:0:0:0:
145,310,163512,2,0,L|60:293,1,80,2|10,3:2|3:2,0:0:0:0:
56,270,163887,1,10,3:2:0:0:
95,217,164012,6,0,L|76:117,1,80,10|0,3:2|3:0,0:0:0:0:
96,112,164387,1,0,3:0:0:0:
96,112,164512,2,0,L|77:12,1,80,2|0,3:2|3:0,0:0:0:0:
157,65,165012,2,0,L|252:33,1,80,10|0,3:2|3:0,0:0:0:0:
259,61,165387,1,0,3:0:0:0:
259,61,165512,2,0,L|316:72,1,40,2|0,3:2|0:0,0:0:0:0:
368,36,165762,1,2,3:2:0:0:
368,36,165887,1,2,3:2:0:0:
368,36,166012,6,0,L|355:139,1,80,10|0,3:2|3:0,0:0:0:0:
372,146,166512,2,0,L|359:249,1,80,10|0,3:2|3:0,0:0:0:0:
383,288,167012,1,10,3:2:0:0:
383,288,167512,5,10,3:2:0:0:
396,282,167637,1,10,3:2:0:0:
455,307,167762,1,10,3:2:0:0:
478,296,167887,1,10,3:2:0:0:
507,237,168012,6,0,P|459:195|473:151,1,100,14|0,0:0|3:0,0:0:0:0:
413,66,168512,2,0,P|351:83|345:129,1,100,10|0,0:0|3:0,0:0:0:0:
274,239,169012,2,0,P|337:212|442:227,1,150,10|0,0:0|0:0,0:0:0:0:
417,228,169512,2,0,P|350:205|316:170,1,100,10|0,0:0|3:0,0:0:0:0:
278,78,170012,6,0,P|200:63|131:122,1,150,10|0,0:0|0:0,0:0:0:0:
143,99,170512,1,10,0:0:0:0:
201,26,170762,1,2,3:2:0:0:
190,50,170887,1,2,3:2:0:0:
183,34,171012,2,0,L|298:55,1,100,10|0,0:0|3:0,0:0:0:0:
370,35,171387,1,0,3:0:0:0:
370,35,171512,5,10,0:0:0:0:
378,72,171637,1,10,0:0:0:0:
415,64,171762,1,10,0:0:0:0:
407,27,171887,1,10,0:0:0:0:
392,51,172012,6,0,L|414:165,1,100,14|0,0:0|3:0,0:0:0:0:
477,220,172512,2,0,L|455:334,1,100,10|2,0:0|3:2,0:0:0:0:
432,344,172887,1,2,3:2:0:0:
370,302,173012,2,0,L|250:329,1,100,10|0,0:0|3:0,0:0:0:0:
236,307,173387,1,0,3:0:0:0:
185,344,173512,1,10,0:0:0:0:
224,160,173762,1,2,3:2:0:0:
185,344,174012,6,0,P|198:260|158:191,1,150,10|0,0:0|0:0,0:0:0:0:
170,203,174512,1,10,0:0:0:0:
245,252,174762,2,0,P|301:260|315:256,1,50,2|0,3:2|0:0,0:0:0:0:
376,160,175012,2,0,P|327:160|284:185,1,100,10|0,0:0|3:0,0:0:0:0:
464,284,175512,5,10,0:0:0:0:
473,247,175637,1,10,0:0:0:0:
453,184,175762,1,10,0:0:0:0:
462,147,175887,1,10,0:0:0:0:
501,94,176012,6,0,L|386:108,1,100,14|0,0:0|3:0,0:0:0:0:
217,47,176512,1,10,0:0:0:0:
371,99,176762,1,2,3:2:0:0:
371,99,176887,1,2,3:2:0:0:
322,145,177012,6,0,L|334:275,1,100,14|2,0:0|3:2,0:0:0:0:
486,327,177387,1,2,3:2:0:0:
486,327,177512,2,0,L|474:197,1,100,10|0,0:0|3:0,0:0:0:0:
233,273,178012,6,0,L|180:374,1,100,10|0,0:0|3:0,0:0:0:0:
130,308,178387,1,0,3:0:0:0:
130,308,178512,2,0,L|117:217,1,50,10|0,0:0|0:0,0:0:0:0:
111,149,178762,1,2,3:2:0:0:
111,149,178887,1,2,3:2:0:0:
154,99,179012,2,0,L|99:1,1,100,14|0,0:0|3:0,0:0:0:0:
120,232,179512,5,10,3:2:0:0:
155,209,179637,1,10,3:2:0:0:
195,281,179762,1,10,3:2:0:0:
160,304,179887,1,10,3:2:0:0:
220,220,180012,6,0,L|349:247,1,100,14|0,0:0|3:0,0:0:0:0:
416,96,180512,2,0,L|287:123,1,100,10|2,0:0|3:2,0:0:0:0:
446,188,180887,1,2,3:2:0:0:
446,188,181012,1,10,0:0:0:0:
411,71,181262,1,0,3:0:0:0:
309,261,181512,1,10,0:0:0:0:
160,192,181762,1,2,3:2:0:0:
160,192,181887,1,2,3:2:0:0:
224,224,182012,6,0,L|199:97,1,100,14|0,0:0|3:0,0:0:0:0:
32,64,182512,2,0,L|57:191,1,100,10|0,0:0|3:0,0:0:0:0:
224,32,183012,1,10,0:0:0:0:
128,0,183262,1,0,3:0:0:0:
219,138,183512,5,10,3:2:0:0:
264,119,183637,1,10,3:2:0:0:
282,74,183762,1,10,3:2:0:0:
262,29,183887,1,10,3:2:0:0:
254,62,184012,6,0,P|309:112|394:85,1,120.000004577637,14|0,0:0|3:0,0:0:0:0:
193,200,184512,2,0,P|138:249|53:222,1,120.000004577637,10|2,0:0|3:2,0:0:0:0:
51,95,184887,1,2,3:2:0:0:
51,95,185012,2,0,L|182:120,1,120.000004577637,10|0,0:0|3:0,0:0:0:0:
169,321,185512,2,0,L|38:346,1,120.000004577637,10|0,0:0|3:0,0:0:0:0:
218,177,186012,6,0,B|261:217|261:217|228:354,1,180.000006866455,10|0,0:0|0:0,0:0:0:0:
224,365,186512,2,0,L|203:234,1,120.000004577637,10|2,0:0|3:2,0:0:0:0:
220,215,186887,1,2,3:2:0:0:
318,268,187012,2,0,L|419:238,1,60.0000022888184,10|0,0:0|0:0,0:0:0:0:
384,145,187262,2,0,L|452:59,1,60.0000022888184,2|0,3:2|0:0,0:0:0:0:
316,58,187512,2,0,L|294:-47,1,60.0000022888184,10|0,0:0|0:0,0:0:0:0:
355,223,187762,1,2,3:2:0:0:
355,223,188012,6,0,P|328:137|222:151,1,180.000006866455,10|0,0:0|0:0,0:0:0:0:
233,159,188512,1,10,0:0:0:0:
444,195,188762,1,2,3:2:0:0:
459,230,188887,1,2,3:2:0:0:
467,169,189012,2,0,L|482:43,1,120.000004577637,10|0,0:0|3:0,0:0:0:0:
334,213,189512,2,0,L|349:339,1,120.000004577637,10|2,0:0|3:2,0:0:0:0:
322,118,190012,6,0,B|283:134|283:134|181:115,1,120.000004577637,10|0,0:0|3:0,0:0:0:0:
100,15,190512,2,0,B|139:-1|139:-1|241:18,1,120.000004577637,10|2,0:0|3:2,0:0:0:0:
53,124,190887,1,2,3:2:0:0:
53,124,191012,2,0,L|73:262,1,120.000004577637,10|0,0:0|3:0,0:0:0:0:
88,366,191512,1,10,0:0:0:0:
328,311,191762,1,10,3:2:0:0:
277,263,191887,1,10,3:2:0:0:
324,207,192012,6,0,L|484:260,1,120.000004577637,14|2,0:0|3:2,0:0:0:0:
215,321,192387,1,2,3:2:0:0:
215,321,192512,2,0,L|192:376,1,60.0000022888184,10|0,0:0|0:0,0:0:0:0:
286,148,192762,1,2,3:2:0:0:
309,203,192887,1,2,3:2:0:0:
276,127,193012,6,0,B|309:105|309:105|285:219,1,120.000004577637,14|2,0:0|3:2,0:0:0:0:
95,247,193387,1,2,3:2:0:0:
95,247,193512,1,10,0:0:0:0:
38,235,193637,1,2,3:2:0:0:
12,184,193762,1,2,3:2:0:0:
37,131,193887,1,2,3:2:0:0:
80,182,194012,6,0,P|64:273|76:330,1,120.000004577637,14|2,0:0|3:2,0:0:0:0:
88,333,194387,1,2,3:2:0:0:
88,333,194512,1,10,0:0:0:0:
144,353,194637,1,2,3:2:0:0:
222,331,194762,1,2,3:2:0:0:
258,384,194887,1,2,3:2:0:0:
318,311,195012,6,0,P|380:251|454:210,1,120.000004577637,14|2,0:0|3:2,0:0:0:0:
407,232,195387,1,2,3:2:0:0:
259,221,195512,2,0,P|225:191|196:144,1,60.0000022888184,10|2,0:0|3:2,0:0:0:0:
148,108,195762,2,0,P|164:65|198:22,1,60.0000022888184,2|2,3:2|3:2,0:0:0:0:
367,31,196012,6,0,L|341:179,1,120.000004577637,14|2,0:0|3:2,0:0:0:0:
200,193,196345,1,2,3:2:0:0:
200,193,196428,1,2,3:2:0:0:
200,193,196512,2,0,L|219:297,1,60.0000022888184,10|2,0:0|3:2,0:0:0:0:
344,315,196762,2,0,L|325:211,1,60.0000022888184,2|2,3:2|3:2,0:0:0:0:
129,379,197012,6,0,P|62:357|3:288,1,120.000004577637,10|2,0:0|3:2,0:0:0:0:
92,246,197345,1,2,3:2:0:0:
92,246,197428,1,2,3:2:0:0:
92,246,197512,2,0,L|74:146,1,60.0000022888184,10|0,0:0|0:0,0:0:0:0:
155,32,197762,2,0,L|137:132,1,60.0000022888184,2|0,3:2|0:0,0:0:0:0:
342,169,198012,6,0,B|318:128|318:128|214:156,1,120.000004577637,10|0,0:0|3:0,0:0:0:0:
250,337,198512,2,0,B|319:355|319:355|343:314,1,120.000004577637,10|0,0:0|3:0,0:0:0:0:
413,119,199012,1,10,0:0:0:0:
480,288,199262,1,0,3:0:0:0:
256,192,199512,5,10,0:0:0:0:
256,180,199637,1,10,0:0:0:0:
256,152,199762,1,10,0:0:0:0:
256,112,199887,1,10,0:0:0:0:
255,48,200012,6,0,P|316:15|383:29,1,140.000001335144,14|0,0:0|3:0,0:0:0:0:
256,48,200512,2,0,P|195:15|128:29,1,140.000001335144,10|2,0:0|3:2,0:0:0:0:
72,159,200824,1,2,3:2:0:0:
72,159,200887,1,2,3:2:0:0:
72,159,200949,1,2,3:2:0:0:
72,159,201012,2,0,P|151:129|189:56,1,140.000001335144,10|0,0:0|3:0,0:0:0:0:
193,262,201512,2,0,P|236:315|302:335,1,140.000001335144,10|0,0:0|3:0,0:0:0:0:
415,140,202012,6,0,B|398:91|398:91|276:118,1,140.000001335144,10|0,0:0|3:0,0:0:0:0:
97,244,202512,2,0,B|113:292|113:292|236:266,1,140.000001335144,10|2,0:0|3:2,0:0:0:0:
415,244,203012,2,0,B|398:292|398:292|276:266,1,140.000001335144,10|0,0:0|3:0,0:0:0:0:
97,140,203512,2,0,B|113:91|113:91|236:118,1,140.000001335144,10|0,0:0|3:0,0:0:0:0:
512,155,204012,6,0,P|465:70|388:35,1,140.000001335144,10|0,0:0|3:0,0:0:0:0:
310,240,204512,2,0,P|369:275|438:279,1,140.000001335144,10|2,0:0|3:2,0:0:0:0:
414,264,204887,1,2,3:2:0:0:
254,302,205012,2,0,P|200:335|135:392,1,140.000001335144,10|0,0:0|3:0,0:0:0:0:
133,233,205512,2,0,P|79:160|25:122,1,140.000001335144,10|0,0:0|3:0,0:0:0:0:
272,143,206012,6,0,L|311:0,1,140.000001335144,10|0,0:0|3:0,0:0:0:0:
451,129,206512,2,0,L|412:272,1,140.000001335144,10|2,0:0|3:2,0:0:0:0:
435,329,206887,1,2,3:2:0:0:
435,329,207012,1,10,0:0:0:0:
192,256,207262,5,2,1:2:0:0:
208,224,207387,1,2,1:2:0:0:
320,192,207512,1,10,0:0:0:0:
304,160,207637,1,10,0:0:0:0:
200,128,207762,1,2,1:2:0:0:
216,96,207887,1,2,1:2:0:0:
256,16,208012,5,14,0:0:0:0:
256,368,208512,1,2,1:2:0:0:
256,368,208762,1,2,1:2:0:0:
296,344,208887,1,2,1:2:0:0:
316,284,209012,5,14,0:0:0:0:
196,284,209387,1,10,0:0:0:0:
196,284,209512,1,2,1:2:0:0:
185,241,209637,1,2,1:2:0:0:
175,198,209762,1,2,1:2:0:0:
201,162,209887,1,2,1:2:0:0:
244,170,210012,5,14,0:0:0:0:
312,152,210178,1,10,0:0:0:0:
380,134,210345,1,10,0:0:0:0:
380,206,210512,5,10,0:0:0:0:
312,188,210678,1,10,0:0:0:0:
244,170,210845,1,10,0:0:0:0:
383,137,211012,5,6,1:2:0:0:
383,137,211137,1,2,1:2:0:0:
405,120,211262,5,10,0:0:0:0:
400,106,211324,1,10,0:0:0:0:
395,93,211387,1,10,0:0:0:0:
390,80,211449,1,10,0:0:0:0:
385,67,211512,6,0,L|486:102,1,70.000000667572,10|10,0:0|0:0,0:0:0:0:
244,170,211762,2,0,L|143:204,1,70.000000667572,10|10,0:0|0:0,0:0:0:0:
27,66,212012,5,14,0:0:0:0:
27,66,212762,1,10,0:0:0:0:
135,40,213012,1,2,1:2:0:0:
138,50,213262,1,2,3:2:0:0:
136,78,213762,1,10,0:0:0:0:
193,127,214012,6,0,P|276:98|387:-4,1,210.000002002716,10|8,0:0|0:0,0:0:0:0:
364,10,214512,2,0,P|334:89|350:194,1,140.000001335144,2|8,0:0|0:0,0:0:0:0:
357,206,214887,1,8,0:0:0:0:
357,206,215012,2,0,P|313:180|253:217,1,70.000000667572,2|0,1:2|0:0,0:0:0:0:
273,208,215512,2,0,P|229:234|169:197,1,70.000000667572,2|0,1:2|0:0,0:0:0:0:
145,202,215762,1,2,0:0:0:0:
123,170,215887,1,2,0:0:0:0:
176,130,216012,6,0,B|269:116|267:34|382:34,1,210.000008010865,14|0,0:0|0:0,0:0:0:0:
381,16,218012,6,0,L|455:27,1,60.0000022888184,2|0,0:0|0:0,0:0:0:0:
427,48,218762,1,2,0:0:0:0:
427,48,218887,1,2,0:0:0:0:
427,48,219012,2,0,L|439:117,1,60.0000022888184,2|0,0:0|0:0,0:0:0:0:
400,162,219512,2,0,L|324:178,1,60.0000022888184,2|0,0:0|0:0,0:0:0:0:
252,189,220012,6,0,P|271:227|286:267,1,80,14|2,0:0|0:0,0:0:0:0:
258,322,220762,1,2,0:0:0:0:
258,322,221012,2,0,L|205:305,1,40,2|0,0:0|0:0,0:0:0:0:
160,336,221512,2,0,L|107:353,1,40,2|0,0:0|0:0,0:0:0:0:
32,319,222012,6,0,P|36:282|53:236,1,80,2|2,0:0|0:0,0:0:0:0:
96,193,222762,1,2,0:0:0:0:
79,132,223012,2,0,L|68:96,1,20,2|2,0:0|0:0,0:0:0:0:
73,112,223262,1,2,0:0:0:0:
73,112,223512,1,2,0:0:0:0:
199,133,224012,6,0,L|282:113,1,80,2|2,0:0|0:0,0:0:0:0:
319,63,224762,1,2,0:0:0:0:
319,63,225012,2,0,L|298:23,1,40,2|0,0:0|0:0,0:0:0:0:
275,132,225512,1,2,0:0:0:0:
275,132,225762,1,2,0:0:0:0:
393,123,226012,6,0,L|379:208,1,80,2|2,0:0|0:0,0:0:0:0:
399,290,226762,1,2,0:0:0:0:
464,273,227012,2,0,L|497:284,1,20,2|2,0:0|0:0,0:0:0:0:
482,279,227262,1,2,0:0:0:0:
482,279,227512,1,2,0:0:0:0:
292,311,228012,6,0,L|215:364,1,80,2|2,0:0|0:0,0:0:0:0:
160,346,228762,1,2,0:0:0:0:
71,377,229012,1,2,0:0:0:0:
18,333,229262,1,2,0:0:0:0:
18,333,229387,1,2,0:0:0:0:
18,333,229512,2,0,L|27:284,1,40,2|0,0:0|0:0,0:0:0:0:
44,266,230012,6,0,L|5:177,1,80,2|2,0:0|0:0,0:0:0:0:
51,143,230762,1,2,0:0:0:0:
123,181,231012,2,0,L|154:175,1,20,0|0,0:0|0:0,0:0:0:0:
142,177,231262,1,2,0:0:0:0:
142,177,231512,1,2,0:0:0:0:
247,106,232012,6,0,L|328:139,1,80,2|2,0:0|0:0,0:0:0:0:
384,109,232762,1,2,0:0:0:0:
422,190,233012,2,0,L|413:243,1,40,2|0,0:0|0:0,0:0:0:0:
423,269,233387,1,0,0:0:0:0:
423,269,233512,1,2,0:0:0:0:
372,311,233762,2,0,L|383:358,1,40,2|2,0:0|0:0,0:0:0:0:
224,288,234262,5,0,0:0:0:0:
256,192,234512,1,2,0:0:0:0:
288,96,234762,1,2,0:0:0:0:
224,32,235012,2,0,L|288:16,1,60,2|0,0:0|0:0,0:0:0:0:
266,38,235512,2,0,L|202:54,1,60,2|0,0:0|0:0,0:0:0:0:
207,52,236012,5,2,0:0:0:0:
288,192,236512,1,0,0:0:0:0:
301,115,236762,1,0,0:0:0:0:
178,145,237012,1,2,0:0:0:0:
185,116,237262,1,0,0:0:0:0:
262,176,237512,1,2,0:0:0:0:
262,176,237762,1,2,0:0:0:0:
213,277,238012,5,2,0:0:0:0:
275,317,238262,1,0,0:0:0:0:
275,317,238387,1,0,0:0:0:0:
275,317,238512,1,2,0:0:0:0:
328,290,238762,1,0,0:0:0:0:
316,227,239012,1,2,0:0:0:0:
324,233,239262,1,2,0:0:0:0:
318,256,239512,1,2,0:0:0:0:
318,256,240043,5,2,0:0:0:0:
352,192,240293,1,0,0:0:0:0:
416,224,240563,1,2,0:0:0:0:
416,224,240835,1,2,0:0:0:0:
480,160,241108,1,2,0:0:0:0:
416,96,241381,1,0,0:0:0:0:
448,32,241733,1,2,0:0:0:0:
448,32,242112,1,2,0:0:0:0:
256,64,242528,5,2,0:0:0:0:
256,160,242880,1,0,0:0:0:0:
256,128,243057,1,0,0:0:0:0:
256,192,243233,1,2,0:0:0:0:
256,288,243649,1,2,0:0:0:0:
256,128,244096,5,2,0:0:0:0:
256,288,244708,1,2,0:0:0:0:
256,160,246166,1,2,0:0:0:0:
256,224,246358,1,2,0:0:0:0:
256,192,246550,5,2,0:0:0:0:
