osu file format v14

[General]
AudioFilename: audio.mp3
AudioLeadIn: 0
PreviewTime: 78213
Countdown: 0
SampleSet: Soft
StackLeniency: 0.4
Mode: 0
LetterboxInBreaks: 0
WidescreenStoryboard: 1

[Editor]
Bookmarks: 11345,18924,27766,45450,53029,63134,70713,78292,98503,119976,125029,140818,150608
DistanceSpacing: 1
BeatDivisor: 4
GridSize: 16
TimelineZoom: 4.099998

[Metadata]
Title:Give Me a Nightmare
TitleUnicode:Give Me a Nightmare
Artist:Alice Schach and the Magic Orchestra
ArtistUnicode:アリスシャッハと魔法の楽団
Creator:Dudamesh
Version:Kimchi's Insomnia
Source:Arcaea
Tags:-Doodle Navyzeap09 Kimchi Sandwich Minami Yuni 南ゆに Akagawa Nene 赤川ねね Made Up Constructed Language Conlang Alician Electronic Video Game World Extend
BeatmapID:2612975
BeatmapSetID:1257490

[Difficulty]
HPDrainRate:6
CircleSize:3.7
OverallDifficulty:9
ApproachRate:9.3
SliderMultiplier:1.6
SliderTickRate:0.5

[Events]
//Background and Video events
0,0,"bg.jpg",0,0
//Break Periods
2,53229,62580
//Storyboard Layer 0 (Background)
//Storyboard Layer 1 (Fail)
//Storyboard Layer 2 (Pass)
//Storyboard Layer 3 (Foreground)
//Storyboard Layer 4 (Overlay)
//Storyboard Sound Samples

[TimingPoints]
1240,315.789473684211,4,2,99,70,1,0
1240,-200,4,2,99,70,0,0
1555,-200,4,2,98,70,0,0
1870,-200,4,1,97,70,0,0
2186,-200,4,1,99,70,0,0
2818,-200,4,1,97,70,0,0
3134,-200,4,2,95,70,0,0
3449,-200,4,1,99,70,0,0
4082,-200,4,2,98,70,0,0
4397,-200,4,2,97,70,0,0
4713,-200,4,2,99,70,0,0
5029,-200,4,2,96,70,0,0
5344,-200,4,2,99,70,0,0
5661,-200,4,2,96,70,0,0
5976,-200,4,2,95,70,0,0
6134,-200,4,2,96,70,0,0
6292,-200,4,2,97,70,0,0
6607,-200,4,2,99,70,0,0
6923,-200,4,2,96,70,0,0
7240,-200,4,2,95,70,0,0
7555,-200,4,2,97,70,0,0
8108,-200,4,2,95,70,0,0
8344,-200,4,2,98,70,0,0
8503,-200,4,3,97,70,0,0
8660,-200,4,3,94,70,0,0
8818,-200,4,3,95,70,0,0
9450,-200,4,3,99,70,0,0
10082,-200,4,3,98,70,0,0
10713,-200,4,3,95,70,0,0
11345,-153.846153846154,4,2,1,60,0,0
12055,-153.846153846154,4,2,1,40,0,0
12608,-153.846153846154,4,2,1,60,0,0
13318,-153.846153846154,4,2,1,40,0,0
13555,-153.846153846154,4,2,1,60,0,0
14582,-153.846153846154,4,2,1,40,0,0
14818,-153.846153846154,4,2,1,60,0,0
17108,-153.846153846154,4,2,1,40,0,0
18924,-200,4,2,1,70,0,0
27134,-200,4,2,1,60,0,0
27766,-100,4,2,1,80,0,0
46397,-125,4,2,1,80,0,0
52397,-100,4,2,1,80,0,0
53029,-100,4,2,1,70,0,0
63134,-100,4,2,1,80,0,0
77029,-66.6666666666667,4,2,1,80,0,0
78292,-76.9230769230769,4,2,1,90,0,1
96766,-50,4,2,1,90,0,1
98503,-76.9230769230769,4,2,1,90,0,1
116976,-50,4,2,1,90,0,1
117450,-76.9230769230769,4,2,1,90,0,1
119976,-76.9230769230769,4,2,1,90,0,0
125029,-166.666666666667,4,2,1,60,0,0
141450,-250,4,2,98,70,0,0
142082,-250,4,2,97,70,0,0
142397,-250,4,2,94,70,0,0
142713,-250,4,2,98,70,0,0
143266,-250,4,2,97,70,0,0
143345,-250,4,2,98,70,0,0
143660,-250,4,2,97,70,0,0
146345,-250,4,2,1,5,0,0
146503,-250,4,2,98,70,0,0
146818,-250,4,2,97,70,0,0
147449,-250,4,2,94,70,0,0
147766,-250,4,2,98,70,0,0
148318,-250,4,2,97,70,0,0
148397,-250,4,2,98,70,0,0
148712,-250,4,2,97,70,0,0

[Colours]
Combo1 : 168,81,255
Combo2 : 91,173,255
Combo3 : 0,118,236
Combo4 : 255,128,255

[HitObjects]
435,304,1240,5,2,2:1:0:0:
435,304,1555,2,0,P|439:259|447:211,2,80,2|2|2,2:2|2:1|2:3,0:0:0:0:
325,170,2503,2,0,P|330:209|334:249,1,80,2|2,2:1|2:1,0:0:0:0:
222,305,3134,2,0,P|227:265|231:225,1,80,2|2,2:2|2:3,0:0:0:0:
203,129,3608,1,0,2:0:0:0:
136,202,3766,5,2,2:1:0:0:
136,202,4082,2,0,P|95:201|53:196,2,80,2|2|2,2:2|2:1|2:3,0:0:0:0:
92,376,5029,2,0,L|83:280,1,80,2|2,2:3|2:3,0:0:0:0:
224,378,5661,1,2,2:1:0:0:
224,378,5976,1,2,2:2:0:0:
183,287,6134,1,2,2:1:0:0:
283,297,6292,6,0,P|324:298|366:303,2,80,2|2|2,2:1|2:3|2:1,0:0:0:0:
446,358,7240,1,2,2:2:0:0:
462,183,7555,2,0,L|455:262,1,80,2|0,2:1|0:0,0:0:0:0:
358,182,8029,1,2,2:1:0:0:
358,182,8108,1,2,2:3:0:0:
358,182,8187,2,0,P|353:161|344:137,1,40,2|2,2:2|2:3,0:0:0:0:
267,255,8503,2,0,P|260:273|255:293,1,40,2|2,2:3|2:2,0:0:0:0:
253,143,8818,1,2,2:1:0:0:
189,384,9371,5,2,2:2:0:0:
189,384,9450,1,2,2:2:0:0:
106,291,10003,5,2,2:2:0:0:
106,291,10082,1,2,2:3:0:0:
242,182,10634,5,2,2:3:0:0:
242,182,10713,1,2,2:1:0:0:
221,70,11345,6,0,P|272:74|323:83,1,103.999995239258,2|8,3:2|0:1,0:0:0:0:
350,173,11818,1,0,0:0:0:0:
417,84,11976,2,0,L|415:59,7,25.9999988098145
454,178,12608,6,0,P|402:170|350:174,1,103.999995239258,2|8,3:2|0:1,0:0:0:0:
309,262,13082,1,0,0:0:0:0:
412,266,13240,2,0,L|443:263,3,25.9999988098145
410,349,13555,2,0,L|349:339,1,51.999997619629,2|2,0:2|0:2,0:0:0:0:
226,270,13871,6,0,P|177:251|126:242,1,103.999995239258,2|0,3:2|0:0,0:0:0:0:
43,274,14345,1,8,0:1:0:0:
88,151,14503,2,0,L|119:153,3,25.9999988098145
6,155,14818,2,0,L|-5:91,2,34.6666650797527,2|0|0,0:2|0:0|0:0,0:0:0:0:
6,0,15134,5,2,3:2:0:0:
6,0,15450,2,0,L|-5:64,2,34.6666650797527,8|0|0,0:1|0:0|0:0,0:0:0:0:
115,50,15766,2,0,L|178:62,1,51.999997619629,2|0,3:2|0:0,0:0:0:0:
256,9,16082,2,0,L|319:-2,1,51.999997619629,2|0,0:2|0:0,0:0:0:0:
465,103,16397,6,0,P|432:65|372:54,1,103.999995239258,2|8,3:2|0:1,0:0:0:0:
298,94,16871,1,0,0:0:0:0:
353,169,17029,2,0,L|378:171,3,25.9999988098145
262,180,17345,2,0,L|264:205,3,25.9999988098145
334,257,17661,6,0,L|437:275,2,103.999995239258,2|8|2,3:2|0:1|3:2,0:0:0:0:
249,308,18450,1,8,0:1:0:0:
164,257,18608,2,0,L|112:267,1,51.999997619629,2|0,0:2|0:0,0:0:0:0:
0,384,18924,5,6,0:2:0:0:
0,384,19240,1,0,0:0:0:0:
183,307,19555,2,0,P|222:302|262:300,1,80,0|2,0:0|0:2,0:0:0:0:
444,314,20187,5,2,0:2:0:0:
444,314,20503,1,2,0:2:0:0:
263,200,20818,2,0,P|223:195|183:193,1,80,2|2,0:2|0:2,0:0:0:0:
0,237,21450,6,0,P|17:194|27:144,1,80,2|0,0:2|0:0,0:0:0:0:
156,22,22082,2,0,P|138:66|128:116,1,80,2|0,0:2|0:0,0:0:0:0:
268,279,22713,2,0,P|246:239|245:116,1,160,2|0,0:2|0:0,0:0:0:0:
241,127,23661,1,0,0:0:0:0:
346,0,23976,5,0,0:0:0:0:
346,0,24292,1,0,0:0:0:0:
367,125,24608,2,0,P|370:162|371:215,1,80
449,66,25240,6,0,L|457:19,1,40
506,151,25555,2,0,L|512:191,1,40
362,108,25871,2,0,P|323:109|282:114,1,80
376,15,26345,1,0,0:0:0:0:
512,191,26503,2,0,P|432:201|352:207,1,160,0|2,0:0|0:2,0:0:0:0:
20,169,27766,6,0,P|25:213|26:264,1,80,6|0,3:2|0:0,0:0:0:0:
23,56,28082,1,8,0:2:0:0:
130,156,28240,2,0,P|129:76|151:0,1,160,0|0,3:0|3:0,0:0:0:0:
234,175,28713,2,0,P|236:240|222:305,1,120,10|8,0:2|0:2,0:0:0:0:
149,343,29029,6,0,P|207:332|267:334,1,120,2|0,3:2|3:0,0:0:0:0:
342,373,29345,1,10,0:2:0:0:
495,265,29503,2,0,P|416:278|341:254,1,160,0|0,3:0|3:0,0:0:0:0:
512,156,29976,1,10,0:2:0:0:
413,112,30134,1,0,3:0:0:0:
495,265,30292,6,0,P|498:313|498:376,1,80,2|0,3:2|0:0,0:0:0:0:
321,224,30608,1,8,0:2:0:0:
398,320,30766,2,0,P|358:320|318:323,2,80,0|0|0,3:0|0:0|3:0,0:0:0:0:
395,125,31240,2,0,P|330:123|265:137,1,120,8|8,0:2|0:2,0:0:0:0:
227,210,31555,6,0,P|237:151|235:91,1,120,0|0,3:0|3:0,0:0:0:0:
197,17,31871,1,8,0:2:0:0:
343,4,32029,1,0,3:0:0:0:
329,13,32108,1,0,3:0:0:0:
315,22,32187,1,10,0:2:0:0:
204,125,32345,1,0,3:0:0:0:
6,0,32503,2,0,L|17:63,3,40,10|8|0|0,0:0|0:0|3:0|3:0,0:0:0:0:
79,157,32818,6,0,L|51:0,1,160,6|8,3:2|0:2,0:0:0:0:
179,134,33292,2,0,L|242:145,1,40,0|0,3:0|0:0,0:0:0:0:
361,40,33450,2,0,L|282:53,1,80,0|0,0:0|3:0,0:0:0:0:
465,25,33766,1,10,0:2:0:0:
391,179,33924,1,8,0:2:0:0:
391,179,34003,1,8,0:2:0:0:
391,179,34082,1,2,3:2:0:0:
469,333,34240,1,0,3:0:0:0:
469,333,34318,1,0,3:0:0:0:
469,333,34397,1,10,0:2:0:0:
293,225,34555,6,0,P|294:304|290:384,1,160,0|0,3:0|3:0,0:0:0:0:
202,168,35029,1,10,0:2:0:0:
302,120,35187,1,0,3:0:0:0:
159,0,35345,6,0,P|239:11|338:10,1,160,2|8,3:2|0:2,0:0:0:0:
36,118,35818,2,0,P|116:107|215:108,1,160,2|0,3:2|3:0,0:0:0:0:
368,184,36292,2,0,P|308:193|223:187,1,120,8|8,0:2|0:2,0:0:0:0:
195,106,36608,6,0,P|204:166|198:251,1,120,0|0,3:0|3:0,0:0:0:0:
270,281,36924,1,8,0:2:0:0:
355,102,37082,6,0,P|380:96|416:75,1,40,0|0,3:0|3:0,0:0:0:0:
506,183,37240,2,0,P|481:177|445:156,1,40,8|0,0:2|3:0,0:0:0:0:
355,264,37397,2,0,P|380:258|416:237,1,40,0|0,3:0|3:0,0:0:0:0:
506,374,37555,5,10,0:2:0:0:
482,362,37634,1,8,0:0:0:0:
456,357,37713,1,8,0:0:0:0:
429,358,37792,1,8,0:0:0:0:
404,367,37871,6,0,P|364:380|315:385,1,80,6|0,3:2|0:0,0:0:0:0:
70,276,38187,1,8,0:2:0:0:
195,379,38345,2,0,P|184:300|180:220,1,160,0|0,3:0|3:0,0:0:0:0:
84,380,38818,1,8,0:2:0:0:
189,229,38976,1,8,0:2:0:0:
189,229,39055,1,8,0:2:0:0:
189,229,39134,1,2,3:2:0:0:
110,28,39292,1,0,3:0:0:0:
110,28,39371,1,0,3:0:0:0:
110,28,39450,1,8,0:2:0:0:
246,120,39608,6,0,P|166:121|87:136,1,160,0|0,3:0|3:0,0:0:0:0:
273,21,40082,1,10,0:2:0:0:
353,104,40240,1,2,3:2:0:0:
512,0,40397,6,0,P|509:47|509:100,1,80,2|0,3:2|0:0,0:0:0:0:
375,232,40713,1,8,0:2:0:0:
468,186,40871,1,0,3:0:0:0:
436,384,41029,2,0,L|388:376,1,40,2|0,0:2|0:0,0:0:0:0:
288,302,41187,2,0,L|328:309,1,40,0|0,3:0|0:0,0:0:0:0:
491,292,41345,1,10,0:2:0:0:
408,105,41503,1,8,0:2:0:0:
408,105,41582,1,8,0:2:0:0:
408,105,41661,1,2,3:2:0:0:
375,232,41818,1,0,3:0:0:0:
375,232,41897,1,0,3:0:0:0:
375,232,41976,1,8,0:2:0:0:
334,352,42134,5,0,3:0:0:0:
136,291,42292,2,0,P|98:294|56:301,1,80,2|0,0:2|3:0,0:0:0:0:
176,184,42608,2,0,P|216:188|256:195,1,80,10|0,0:2|3:0,0:0:0:0:
11,0,42924,5,14,0:2:0:0:
59,143,43082,1,0,3:0:0:0:
223,9,43240,2,0,L|216:48,1,40,8|0,0:2|0:0,0:0:0:0:
287,174,43397,2,0,L|280:134,1,40,0|0,3:0|0:0,0:0:0:0:
493,133,43555,1,8,0:2:0:0:
361,0,43713,1,0,3:0:0:0:
365,23,43792,1,0,3:0:0:0:
369,47,43871,2,0,L|384:133,1,80,10|0,0:2|3:0,0:0:0:0:
417,332,44187,5,10,0:2:0:0:
292,231,44345,1,0,3:0:0:0:
313,234,44424,1,0,0:0:0:0:
334,237,44503,1,10,0:2:0:0:
166,244,44661,2,0,L|177:180,1,40,0|0,3:0|3:0,0:0:0:0:
194,89,44818,1,10,0:2:0:0:
77,131,44976,1,0,3:0:0:0:
234,334,45134,1,10,0:2:0:0:
209,347,45213,1,8,0:2:0:0:
182,354,45292,1,8,0:2:0:0:
154,355,45371,1,8,0:2:0:0:
127,349,45450,6,0,P|64:340|7:346,2,120,6|0|0,3:2|3:0|3:0,0:0:0:0:
0,246,46082,1,8,0:2:0:0:
0,246,46397,2,0,L|6:166,1,64,2|0,0:2|3:0,0:0:0:0:
97,51,46713,6,0,L|109:179,1,128,2|2,3:2|0:2,0:0:0:0:
121,275,47187,1,0,3:0:0:0:
212,192,47345,2,0,L|206:128,1,64,10|0,0:2|3:0,0:0:0:0:
290,72,47661,2,0,L|284:8,1,64,2|0,0:2|3:0,0:0:0:0:
309,171,47976,6,0,P|340:174|370:186,1,64,2|0,3:2|0:0,0:0:0:0:
442,259,48213,2,0,P|411:262|381:274,1,64,0|0,3:0|0:0,0:0:0:0:
364,356,48450,1,0,3:0:0:0:
224,320,48608,2,0,L|271:328,3,32,10|0|0|0,0:2|0:0|0:0|0:0,0:0:0:0:
180,236,48924,1,0,0:0:0:0:
87,301,49082,1,0,3:0:0:0:
255,182,49240,6,0,P|259:119|259:55,1,128,2|0,3:2|0:0,0:0:0:0:
356,28,49713,1,0,3:0:0:0:
164,81,49871,2,0,P|161:111|163:167,1,64,8|0,0:2|3:0,0:0:0:0:
64,3,50187,2,0,P|67:33|65:89,1,64,0|0,0:0|3:0,0:0:0:0:
3,228,50503,6,0,B|51:218|51:218|99:228,2,96,2|0|0,3:2|3:0|3:0,0:0:0:0:
181,349,51134,2,0,L|55:322,1,128,8|0,0:2|0:0,0:0:0:0:
290,376,51608,1,0,3:0:0:0:
290,376,51687,1,8,0:2:0:0:
290,376,51766,2,0,L|276:297,1,64,0|0,3:0|0:0,0:0:0:0:
217,248,52003,2,0,L|230:172,1,64,8|0,0:2|0:0,0:0:0:0:
172,120,52240,1,0,3:0:0:0:
429,81,52397,6,0,L|440:144,1,40,8|0,3:0|3:0,0:0:0:0:
313,207,52555,2,0,L|319:167,1,40,8|0,3:0|3:0,0:0:0:0:
488,276,52713,1,8,3:0:0:0:
494,303,52792,1,8,3:0:0:0:
494,331,52871,1,8,3:0:0:0:
487,358,52950,1,8,3:0:0:0:
475,384,53029,1,2,0:2:0:0:
265,199,63134,6,0,P|268:101|277:14,1,160,6|0,3:2|3:0,0:0:0:0:
273,39,63608,1,0,0:0:0:0:
174,87,63766,2,0,P|135:96|95:95,1,80,2|0,3:2|0:0,0:0:0:0:
22,8,64082,2,0,P|60:-1|100:0,1,80,2|0,3:2|0:0,0:0:0:0:
30,170,64397,1,2,3:2:0:0:
30,170,64713,1,2,3:2:0:0:
95,95,64871,1,0,0:0:0:0:
99,240,65029,2,0,P|136:248|190:252,1,80,2|0,3:2|0:0,0:0:0:0:
233,170,65345,2,0,P|270:162|324:158,1,80,0|0,3:0|0:0,0:0:0:0:
414,48,65661,6,0,P|410:126|410:241,1,160,2|2,3:2|3:2,0:0:0:0:
409,207,66134,1,0,0:0:0:0:
315,291,66292,2,0,P|355:293|408:304,1,80,2|0,3:2|0:0,0:0:0:0:
310,195,66608,2,0,P|270:193|217:182,1,80,2|0,3:2|0:0,0:0:0:0:
414,48,66924,1,2,3:2:0:0:
414,48,67240,1,0,3:0:0:0:
330,100,67397,1,0,0:0:0:0:
497,138,67555,2,0,P|457:139|417:147,1,80,2|0,3:2|0:0,0:0:0:0:
306,239,67871,2,0,P|390:241|495:256,1,160,0|2,3:0|0:2,0:0:0:0:
221,116,69450,5,0,3:0:0:0:
99,19,69687,1,0,3:0:0:0:
99,19,69766,2,0,L|146:27,2,40,8|8|0,0:2|0:2|3:0,0:0:0:0:
0,136,70082,1,0,3:0:0:0:
4,129,70161,1,8,0:2:0:0:
9,122,70240,1,8,0:2:0:0:
13,115,70318,1,8,0:2:0:0:
18,108,70397,5,8,3:3:0:0:
50,113,70476,1,8,0:3:0:0:
81,119,70555,1,8,0:3:0:0:
112,125,70634,1,8,0:3:0:0:
143,131,70713,6,0,L|221:117,1,80,6|0,3:2|0:0,0:0:0:0:
111,228,71029,1,8,0:2:0:0:
255,303,71187,2,0,L|97:330,1,160,0|0,3:0|3:0,0:0:0:0:
295,214,71661,2,0,L|314:103,1,80,8|0,0:2|0:0,0:0:0:0:
199,62,71897,1,8,0:2:0:0:
199,62,71976,6,0,L|212:140,1,80,2|0,3:2|0:0,0:0:0:0:
207,232,72213,1,0,3:0:0:0:
207,232,72292,1,8,0:2:0:0:
393,193,72450,2,0,L|487:176,1,80,0|2,3:0|0:2,0:0:0:0:
369,287,72766,1,0,3:0:0:0:
477,62,72924,1,8,0:2:0:0:
471,179,73082,1,0,3:0:0:0:
294,7,73240,6,0,B|353:-6|353:-6|422:7,1,120,6|8,3:2|0:0,0:0:0:0:
477,62,73555,1,0,0:0:0:0:
287,111,73713,5,12,0:2:0:0:
360,183,73871,1,0,3:0:0:0:
287,255,74029,2,0,L|298:318,1,40,0|0,0:0|3:0,0:0:0:0:
141,111,74187,5,12,0:2:0:0:
214,183,74345,1,0,3:0:0:0:
154,333,74503,1,0,3:0:0:0:
154,333,74582,1,0,3:0:0:0:
154,333,74661,6,0,L|140:254,1,80,12|0,0:2|0:0,0:0:0:0:
39,122,74976,1,8,0:3:0:0:
36,140,75055,1,8,0:3:0:0:
33,158,75134,1,0,3:0:0:0:
33,158,75608,5,0,3:0:0:0:
36,140,75687,1,0,3:0:0:0:
39,122,75766,2,0,L|133:105,1,80,4|0,0:2|3:0,0:0:0:0:
382,132,76082,1,12,0:2:0:0:
248,36,76240,1,0,3:0:0:0:
250,63,76318,1,0,0:0:0:0:
252,90,76397,1,12,0:2:0:0:
371,22,76555,2,0,L|434:10,1,40,0|0,3:0|0:0,0:0:0:0:
512,0,76713,1,12,0:2:0:0:
390,140,76871,1,0,3:0:0:0:
390,140,76950,1,0,3:0:0:0:
390,140,77029,6,0,P|393:172|406:211,1,60.0000022888184,8|8,3:2|0:2,0:0:0:0:
317,339,77187,2,0,P|320:307|333:267,1,60.0000022888184,8|8,0:2|0:2,0:0:0:0:
251,101,77345,2,0,P|254:133|267:172,1,60.0000022888184,8|8,3:2|0:0,0:0:0:0:
178,378,77503,2,0,P|181:346|194:306,1,60.0000022888184,8|8,0:0|0:0,0:0:0:0:
87,81,77661,5,8,3:3:0:0:
63,114,77740,1,8,0:0:0:0:
49,153,77818,1,8,0:3:0:0:
48,194,77897,1,8,0:0:0:0:
58,234,77976,1,8,3:0:0:0:
80,269,78055,1,8,0:0:0:0:
111,296,78134,1,8,0:3:0:0:
148,314,78213,1,8,0:0:0:0:
189,320,78292,6,0,P|243:329|289:345,1,103.999995239258,4|0,3:1|0:0,0:0:0:0:
399,216,78608,2,0,P|349:232|298:240,1,103.999995239258,10|0,0:2|0:0,0:0:0:0:
151,118,78924,1,2,0:2:0:0:
252,150,79082,1,0,3:0:0:0:
164,369,79240,2,0,B|189:319|189:319|172:219,1,155.999992858887,10|0,0:2|0:0,0:0:0:0:
74,197,79555,6,0,L|96:323,1,103.999995239258,2|0,3:2|0:0,0:0:0:0:
0,54,79871,1,10,0:2:0:0:
100,92,80029,2,0,P|151:93|203:86,1,103.999995239258,0|2,3:0|0:2,0:0:0:0:
74,197,80345,1,0,3:0:0:0:
298,148,80503,1,10,0:2:0:0:
271,258,80661,1,0,3:0:0:0:
383,372,80818,6,0,B|361:328|361:328|396:281|380:226,1,155.999992858887,6|0,3:2|0:0,0:0:0:0:
298,148,81134,2,0,P|294:96|315:49,1,103.999995239258,8|0,0:2|0:0,0:0:0:0:
410,118,81450,1,2,0:2:0:0:
380,227,81608,1,0,3:0:0:0:
511,98,81766,2,0,P|460:111|409:117,1,103.999995239258,8|0,0:2|0:0,0:0:0:0:
180,13,82082,6,0,P|253:38|330:49,1,155.999992858887,2|0,3:2|0:0,0:0:0:0:
414,33,82397,1,8,0:2:0:0:
326,133,82555,1,0,3:0:0:0:
465,265,82713,5,2,3:2:0:0:
446,265,82792,1,0,3:0:0:0:
428,263,82871,1,0,3:0:0:0:
409,262,82950,1,0,3:0:0:0:
368,235,83029,5,10,0:2:0:0:
337,236,83108,1,8,0:0:0:0:
306,238,83187,1,8,0:0:0:0:
275,240,83266,1,8,0:0:0:0:
234,267,83345,6,0,P|250:214|247:152,1,103.999995239258,6|0,3:2|0:0,0:0:0:0:
352,10,83661,2,0,P|336:59|336:111,1,103.999995239258,8|0,0:2|0:0,0:0:0:0:
133,199,83976,1,2,0:2:0:0:
166,71,84134,1,0,3:0:0:0:
292,331,84292,1,8,0:2:0:0:
249,165,84450,1,0,0:0:0:0:
18,308,84608,6,0,B|94:289|94:328|173:309,1,155.999992858887,2|0,3:2|0:0,0:0:0:0:
240,253,84924,1,8,0:2:0:0:
133,199,85082,1,0,3:0:0:0:
133,199,85161,1,0,0:0:0:0:
133,199,85240,1,0,0:0:0:0:
60,384,85397,1,0,3:0:0:0:
28,138,85555,1,8,0:2:0:0:
47,113,85634,1,0,3:0:0:0:
71,94,85713,1,0,3:0:0:0:
100,82,85792,1,0,3:0:0:0:
130,77,85871,6,0,P|190:75|249:64,1,103.999995239258,6|0,3:2|0:0,0:0:0:0:
341,174,86187,2,0,P|281:172|222:161,1,103.999995239258,10|0,0:2|0:0,0:0:0:0:
383,90,86503,1,2,0:2:0:0:
433,187,86661,1,0,3:0:0:0:
511,9,86818,2,0,P|459:1|407:0,1,103.999995239258,10|0,0:2|0:0,0:0:0:0:
186,111,87134,6,0,P|237:103|289:101,1,103.999995239258,2|0,3:2|0:0,0:0:0:0:
104,200,87450,1,8,0:2:0:0:
45,12,87608,1,8,0:0:0:0:
58,49,87687,1,8,0:0:0:0:
70,85,87766,1,2,3:2:0:0:
223,286,87924,5,0,3:0:0:0:
216,243,88003,1,0,3:0:0:0:
188,209,88082,1,8,0:2:0:0:
147,193,88161,1,8,0:2:0:0:
104,200,88240,1,8,0:2:0:0:
70,227,88318,1,8,0:2:0:0:
54,267,88397,6,0,P|48:326|25:389,1,103.999995239258,6|0,3:2|0:0,0:0:0:0:
11,384,88634,1,0,0:0:0:0:
11,384,88713,1,8,0:2:0:0:
152,343,88871,2,0,L|224:330,1,51.999997619629,0|0,3:0|0:0,0:0:0:0:
403,379,89029,2,0,B|355:387|355:387|289:372,1,103.999995239258,2|0,0:2|3:0,0:0:0:0:
506,357,89345,1,8,0:2:0:0:
378,182,89503,1,0,3:0:0:0:
378,182,89582,1,0,3:0:0:0:
378,182,89661,6,0,L|355:307,1,103.999995239258,2|0,3:2|0:0,0:0:0:0:
484,165,89976,2,0,L|470:86,1,51.999997619629,8|0,0:2|0:0,0:0:0:0:
370,69,90134,2,0,L|356:-9,1,51.999997619629,0|0,3:0|0:0,0:0:0:0:
267,219,90292,5,2,3:2:0:0:
237,234,90371,1,0,3:0:0:0:
203,234,90450,1,0,3:0:0:0:
172,220,90529,1,0,3:0:0:0:
140,174,90608,5,10,0:0:0:0:
110,159,90687,1,0,3:0:0:0:
76,159,90766,1,0,3:0:0:0:
45,173,90845,1,0,3:0:0:0:
92,237,90924,6,0,P|92:160|80:65,1,155.999992858887,2|0,3:2|0:0,0:0:0:0:
14,16,91240,1,8,0:2:0:0:
185,85,91397,2,0,P|237:91|289:84,1,103.999995239258,0|2,3:0|0:2,0:0:0:0:
135,0,91713,1,0,3:0:0:0:
361,7,91871,1,10,0:2:0:0:
380,31,91950,1,0,3:0:0:0:
392,59,92029,1,0,3:0:0:0:
395,90,92108,1,0,3:0:0:0:
388,121,92187,6,0,P|389:173|403:232,1,103.999995239258,2|0,3:2|0:0,0:0:0:0:
421,245,92424,1,0,0:0:0:0:
421,245,92503,1,10,0:2:0:0:
293,236,92661,2,0,L|229:247,1,51.999997619629,0|0,3:0|0:0,0:0:0:0:
153,258,92818,1,2,3:2:0:0:
353,328,92976,1,0,3:0:0:0:
274,63,93134,1,10,0:2:0:0:
360,144,93292,1,0,3:0:0:0:
227,384,93450,6,0,L|246:160,1,207.999990478516,6|8,3:2|0:2,0:0:0:0:
350,262,93924,2,0,P|401:266|453:267,1,103.999995239258,0|0,3:0|0:0,0:0:0:0:
402,171,94240,1,0,3:0:0:0:
512,366,94397,2,0,P|460:366|408:371,1,103.999995239258,10|0,0:2|0:0,0:0:0:0:
173,370,94713,5,2,3:2:0:0:
202,346,94792,1,0,3:0:0:0:
240,351,94871,1,0,3:0:0:0:
270,328,94950,1,0,3:0:0:0:
308,333,95029,2,0,L|333:190,1,103.999995239258,10|0,0:0|3:0,0:0:0:0:
403,369,95345,1,2,3:2:0:0:
435,183,95503,1,0,3:0:0:0:
429,219,95582,1,0,3:0:0:0:
423,255,95661,1,10,0:2:0:0:
321,149,95818,1,0,3:0:0:0:
512,61,95976,6,0,P|460:67|408:67,1,103.999995239258,2|0,3:2|0:0,0:0:0:0:
143,42,96292,1,8,0:2:0:0:
265,6,96450,1,0,3:0:0:0:
53,121,96608,1,8,0:2:0:0:
238,192,96766,6,0,P|243:161|235:106,1,80,0|0,3:0|3:0,0:0:0:0:
204,342,96924,2,0,P|227:362|279:382,1,80,8|0,0:2|0:0,0:0:0:0:
90,240,97082,2,0,P|60:250|17:284,1,80,0|0,3:0|0:0,0:0:0:0:
385,318,97240,1,12,0:0:0:0:
413,291,97318,1,0,3:0:0:0:
422,253,97397,1,0,3:0:0:0:
408,216,97476,1,0,3:0:0:0:
380,188,97555,1,8,0:0:0:0:
366,151,97634,1,0,3:0:0:0:
375,113,97713,1,0,3:0:0:0:
403,86,97792,1,0,3:0:0:0:
441,83,97871,5,8,0:2:0:0:
430,147,97950,1,8,0:2:0:0:
380,188,98029,1,8,0:2:0:0:
316,187,98108,1,8,0:2:0:0:
266,147,98187,1,8,0:2:0:0:
254,84,98266,1,8,0:2:0:0:
287,27,98345,1,8,0:2:0:0:
349,3,98424,1,8,0:2:0:0:
410,27,98503,6,0,P|470:18|537:0,1,103.999995239258,4|0,3:1|0:0,0:0:0:0:
287,27,98818,2,0,P|227:36|160:54,1,103.999995239258,10|0,0:2|0:0,0:0:0:0:
0,63,99134,1,2,0:0:0:0:
89,2,99292,1,0,3:0:0:0:
157,241,99450,2,0,B|116:202|116:202|98:102,1,155.999992858887,10|0,0:2|0:0,0:0:0:0:
184,46,99766,6,0,L|206:171,1,103.999995239258,2|0,3:2|0:0,0:0:0:0:
362,0,100082,1,10,0:2:0:0:
415,113,100240,2,0,P|363:105|312:103,1,103.999995239258,0|2,3:0|0:2,0:0:0:0:
474,22,100555,1,0,3:0:0:0:
375,284,100713,1,10,0:2:0:0:
467,216,100871,1,0,3:0:0:0:
293,59,101029,6,0,B|315:103|315:103|280:150|296:205,1,155.999992858887,6|0,3:2|0:0,0:0:0:0:
375,284,101345,2,0,P|379:336|358:383,1,103.999995239258,8|0,0:2|0:0,0:0:0:0:
263,314,101661,1,2,0:2:0:0:
295,204,101818,1,0,3:0:0:0:
125,86,101976,2,0,P|119:118|118:159,1,51.999997619629,8|0,0:2|0:0,0:0:0:0:
153,288,102134,2,0,P|159:256|160:215,1,51.999997619629
20,8,102292,6,0,P|7:92|-3:206,1,155.999992858887,2|0,3:2|0:0,0:0:0:0:
14,257,102608,1,8,0:2:0:0:
117,138,102766,1,0,3:0:0:0:
198,304,102924,5,2,3:2:0:0:
195,285,103003,1,0,3:0:0:0:
193,266,103082,1,0,3:0:0:0:
191,248,103161,1,0,3:0:0:0:
223,213,103240,5,10,0:2:0:0:
227,182,103319,1,8,0:0:0:0:
231,151,103398,1,8,0:0:0:0:
234,120,103477,1,8,0:0:0:0:
217,76,103555,6,0,P|270:92|332:89,1,103.999995239258,6|0,3:2|0:0,0:0:0:0:
444,198,103871,2,0,P|391:182|329:185,1,103.999995239258,8|0,0:2|0:0,0:0:0:0:
314,268,104108,1,0,0:0:0:0:
314,268,104187,1,2,0:2:0:0:
446,288,104345,1,0,3:0:0:0:
160,354,104503,1,8,0:2:0:0:
358,384,104661,1,0,0:0:0:0:
201,105,104818,6,0,B|182:181|221:181|202:260,1,155.999992858887,2|0,3:2|0:0,0:0:0:0:
160,354,105134,1,8,0:2:0:0:
95,220,105292,1,0,3:0:0:0:
95,220,105371,1,0,0:0:0:0:
95,220,105450,1,0,0:0:0:0:
19,347,105608,1,0,3:0:0:0:
54,101,105766,1,8,0:2:0:0:
84,94,105845,1,0,3:0:0:0:
114,95,105924,1,0,3:0:0:0:
143,104,106003,1,0,3:0:0:0:
171,120,106082,6,0,P|230:129|290:128,1,103.999995239258,6|0,3:2|0:0,0:0:0:0:
440,211,106397,2,0,P|388:212|336:221,1,103.999995239258,10|0,0:2|0:0,0:0:0:0:
512,115,106713,1,2,0:2:0:0:
399,78,106871,1,0,3:0:0:0:
408,324,107029,2,0,P|460:324|512:315,1,103.999995239258,10|0,0:2|0:0,0:0:0:0:
297,156,107345,6,0,P|245:157|193:166,1,103.999995239258,2|0,3:2|0:0,0:0:0:0:
399,78,107661,1,8,0:2:0:0:
218,12,107818,1,0,3:0:0:0:
251,23,107897,1,0,3:0:0:0:
286,34,107976,1,0,3:0:0:0:
373,249,108134,5,0,3:0:0:0:
366,206,108213,1,0,3:0:0:0:
338,172,108292,1,8,0:0:0:0:
297,156,108371,1,8,0:0:0:0:
254,163,108450,1,8,0:0:0:0:
220,190,108529,1,8,0:0:0:0:
204,230,108608,6,0,P|198:289|175:352,1,103.999995239258,6|0,3:2|0:0,0:0:0:0:
159,349,108845,1,0,0:0:0:0:
159,349,108924,1,8,0:2:0:0:
321,259,109082,2,0,L|393:246,1,51.999997619629,0|0,3:0|0:0,0:0:0:0:
430,380,109240,2,0,B|382:388|382:388|316:373,1,103.999995239258,2|0,0:2|3:0,0:0:0:0:
512,295,109555,1,8,0:0:0:0:
335,125,109713,1,0,3:0:0:0:
335,125,109792,1,0,3:0:0:0:
335,125,109871,6,0,L|460:148,1,103.999995239258,2|0,3:2|0:0,0:0:0:0:
129,151,110187,2,0,L|143:72,1,51.999997619629,8|0,0:2|0:0,0:0:0:0:
243,61,110345,2,0,L|257:-17,1,51.999997619629,0|0,3:0|0:0,0:0:0:0:
30,113,110503,5,2,3:2:0:0:
15,143,110582,1,0,3:0:0:0:
15,177,110661,1,0,3:0:0:0:
29,208,110740,1,0,3:0:0:0:
75,240,110818,5,10,0:2:0:0:
90,270,110897,1,0,3:0:0:0:
90,304,110976,1,0,3:0:0:0:
76,335,111055,1,0,3:0:0:0:
12,288,111134,6,0,P|88:295|182:315,1,155.999992858887,2|0,3:2|0:0,0:0:0:0:
244,365,111450,1,8,0:2:0:0:
185,218,111608,2,0,P|188:161|193:106,1,103.999995239258,0|2,3:0|0:2,0:0:0:0:
263,271,111924,1,0,3:0:0:0:
270,40,112082,1,10,0:0:0:0:
246,21,112161,1,0,3:0:0:0:
218,9,112240,1,0,3:0:0:0:
187,6,112318,1,0,3:0:0:0:
156,13,112397,6,0,P|104:22|44:18,1,103.999995239258,2|0,3:2|0:0,0:0:0:0:
29,0,112634,1,0,0:0:0:0:
29,0,112713,1,10,0:2:0:0:
113,122,112871,2,0,L|124:187,1,51.999997619629,0|0,3:0|0:0,0:0:0:0:
141,261,113029,1,2,3:2:0:0:
10,134,113187,1,0,3:0:0:0:
324,93,113345,1,10,0:2:0:0:
212,54,113503,1,0,3:0:0:0:
216,376,113661,6,0,L|234:168,1,207.999990478516,6|8,3:2|0:2,0:0:0:0:
388,274,114134,2,0,P|442:280|500:278,1,103.999995239258,0|0,3:0|0:0,0:0:0:0:
337,367,114450,1,0,3:0:0:0:
441,172,114608,2,0,P|386:167|328:169,1,103.999995239258,10|0,0:2|0:0,0:0:0:0:
120,139,114924,5,2,3:2:0:0:
149,115,115003,1,0,3:0:0:0:
187,120,115082,1,0,3:0:0:0:
217,97,115161,1,0,3:2:0:0:
255,102,115240,2,0,L|280:-41,1,103.999995239258,10|0,0:2|3:0,0:0:0:0:
337,169,115555,1,2,3:2:0:0:
380,0,115713,1,0,3:0:0:0:
374,24,115792,1,0,3:0:0:0:
368,48,115871,1,10,0:2:0:0:
488,0,116029,1,0,3:0:0:0:
272,0,116187,6,0,P|220:3|168:11,1,103.999995239258,2|0,3:2|0:0,0:0:0:0:
97,224,116503,1,8,0:2:0:0:
74,98,116661,1,0,3:0:0:0:
224,323,116818,1,8,0:2:0:0:
258,134,116976,6,0,P|227:131|173:144,1,80,0|0,3:0|0:0,0:0:0:0:
377,109,117134,2,0,P|399:76|411:38,1,80,8|0,0:2|0:0,0:0:0:0:
340,226,117292,2,0,P|357:261|386:290,1,80,0|0,3:0|0:0,0:0:0:0:
411,37,117450,5,12,0:2:0:0:
292,16,117608,1,0,3:0:0:0:
385,289,117766,5,8,0:0:0:0:
461,197,117924,1,0,3:0:0:0:
157,126,118082,5,8,0:0:0:0:
323,184,118240,5,0,3:0:0:0:
370,163,118318,1,0,3:0:0:0:
383,112,118397,1,8,0:0:0:0:
352,71,118476,1,0,3:0:0:0:
299,69,118555,1,0,3:0:0:0:
266,109,118634,1,0,3:0:0:0:
277,160,118713,6,0,L|265:228,1,51.999997619629,12|0,0:2|3:0,0:0:0:0:
121,349,118871,1,0,3:0:0:0:
130,302,118950,1,0,3:0:0:0:
139,255,119029,1,8,0:0:0:0:
148,208,119108,1,0,3:0:0:0:
158,161,119187,6,0,L|146:94,1,51.999997619629,0|0,3:0|3:0,0:0:0:0:
242,327,119345,2,0,L|235:361,4,34.6666650797527,8|0|0|8|0,0:0|3:0|3:0|0:0|3:0,0:0:0:0:
266,156,119661,2,0,L|257:125,7,25.9999988098145,8|0|0|0|8|0|0|0,0:2|3:0|3:0|3:0|0:2|3:0|3:0|3:0,0:0:0:0:
273,182,119976,6,0,L|306:58,1,103.999995239258,6|0,1:2|3:0,0:0:0:0:
261,0,120213,1,0,0:0:0:0:
261,0,120292,1,8,0:2:0:0:
384,124,120450,2,0,L|445:107,2,51.999997619629,0|0|8,3:0|3:0|0:2,0:0:0:0:
362,295,120766,1,0,3:0:0:0:
392,286,120845,1,0,3:0:0:0:
423,278,120924,1,8,0:2:0:0:
273,182,121082,2,0,L|211:198,1,51.999997619629,0|0,3:0|3:0,0:0:0:0:
146,250,121240,6,0,L|269:216,1,103.999995239258,10|0,0:2|3:0,0:0:0:0:
160,351,121476,1,0,3:0:0:0:
160,351,121555,2,0,L|36:384,1,103.999995239258,8|0,0:2|3:0,0:0:0:0:
46,127,121871,1,8,0:2:0:0:
146,250,122029,1,0,3:0:0:0:
115,242,122108,1,0,3:0:0:0:
85,233,122187,1,8,0:2:0:0:
212,165,122345,1,0,3:0:0:0:
242,174,122424,1,0,3:0:0:0:
273,182,122503,6,0,L|396:215,1,103.999995239258,8|0,0:2|3:0,0:0:0:0:
455,170,122740,1,0,3:0:0:0:
455,170,122819,1,8,0:2:0:0:
331,293,122977,2,0,L|347:354,2,51.999997619629,0|0|8,3:0|0:0|0:2,0:0:0:0:
170,250,123293,1,0,3:0:0:0:
179,280,123372,1,0,3:0:0:0:
187,311,123451,1,8,0:2:0:0:
294,172,123609,2,0,L|277:110,1,51.999997619629,0|0,3:0|3:0,0:0:0:0:
226,45,123767,6,0,L|259:168,1,103.999995239258,8|0,0:2|3:0,0:0:0:0:
121,100,124003,1,0,3:0:0:0:
121,100,124082,2,0,L|87:-23,1,103.999995239258,8|0,0:2|3:0,0:0:0:0:
326,51,124397,5,8,0:2:0:0:
316,91,124476,1,8,0:2:0:0:
305,132,124555,1,8,0:2:0:0:
294,172,124634,1,8,0:2:0:0:
283,213,124713,1,8,0:2:0:0:
272,253,124792,1,8,0:2:0:0:
261,294,124871,1,8,0:2:0:0:
250,334,124950,1,8,0:2:0:0:
238,374,125029,6,0,P|295:363|346:364,1,95.9999970703126,6|2,3:2|0:2,0:0:0:0:
471,252,125661,2,0,P|414:263|363:262,1,95.9999970703126,2|2,0:2|0:2,0:0:0:0:
287,77,126292,1,2,0:2:0:0:
287,77,126608,2,0,P|313:82|340:82,1,47.9999985351563,2|0,0:2|0:0,0:0:0:0:
417,160,126924,2,0,P|360:171|309:170,1,95.9999970703126,2|2,0:2|0:2,0:0:0:0:
103,64,127555,5,2,0:2:0:0:
179,189,127871,1,2,0:2:0:0:
103,314,128187,1,2,0:2:0:0:
103,314,128503,2,0,P|101:282|99:254,1,47.9999985351563,2|2,0:2|0:2,0:0:0:0:
11,219,128818,2,0,P|11:263|16:322,1,95.9999970703126,2|0,0:2|0:0,0:0:0:0:
109,126,129450,2,0,P|64:125|5:120,1,95.9999970703126,0|2,0:0|0:2,0:0:0:0:
250,124,130082,5,2,0:2:0:0:
98,33,130397,2,0,P|126:34|157:36,1,47.9999985351563,2|0,0:2|0:0,0:0:0:0:
235,36,130713,1,2,0:2:0:0:
186,187,131029,1,2,0:2:0:0:
235,338,131345,2,0,P|280:356|348:353,1,95.9999970703126,2|0,0:2|0:0,0:0:0:0:
327,357,131818,1,0,0:0:0:0:
275,255,131976,2,0,P|230:237|162:240,1,95.9999970703126,2|0,0:2|0:0,0:0:0:0:
400,264,132608,5,2,0:2:0:0:
346,111,132924,2,0,P|346:139|342:171,1,47.9999985351563,2|2,0:2|0:2,0:0:0:0:
433,105,133240,2,0,P|428:50|421:-10,1,95.9999970703126,2|0,0:2|0:0,0:0:0:0:
424,10,133713,1,0,0:0:0:0:
326,18,133871,5,0,0:0:0:0:
484,183,134187,1,0,0:0:0:0:
326,348,134503,2,0,P|326:297|332:240,1,95.9999970703126
0,17,135134,6,0,P|57:28|108:27,1,95.9999970703126,6|2,0:2|0:2,0:0:0:0:
233,139,135766,2,0,P|176:128|125:129,1,95.9999970703126,2|2,0:2|0:2,0:0:0:0:
29,309,136397,1,2,0:2:0:0:
29,309,136713,2,0,P|54:303|81:302,1,47.9999985351563,2|0,0:2|0:0,0:0:0:0:
159,226,137029,2,0,P|102:215|51:216,1,95.9999970703126,2|2,0:2|0:2,0:0:0:0:
269,271,137661,5,2,0:2:0:0:
233,136,137976,1,2,0:2:0:0:
269,1,138292,1,2,0:2:0:0:
57,67,138608,2,0,L|120:61,1,47.9999985351563,2|2,0:2|0:2,0:0:0:0:
191,54,138924,1,6,0:2:0:0:
256,192,139003,12,0,140818,0:0:0:0:
307,46,141450,6,0,L|301:109,1,64,2|2,0:3|0:3,0:0:0:0:
213,124,142082,2,0,L|208:187,1,64,2|2,0:3|0:2,0:0:0:0:
89,269,142713,2,0,P|120:256|158:253,1,64,2|0,0:3|0:0,0:0:0:0:
161,259,143108,1,0,0:0:0:0:
170,267,143187,1,2,0:1:0:0:
179,275,143266,1,2,0:3:0:0:
188,283,143345,2,0,L|251:288,1,64,2|2,0:1|0:2,0:0:0:0:
346,288,143976,2,0,L|361:286,2,16
256,192,145240,12,0,146345,0:0:0:0:
280,167,146503,6,0,L|217:172,1,64,2|2,0:1|0:2,0:0:0:0:
202,260,147135,2,0,L|139:265,1,64,2|2,0:3|0:2,0:0:0:0:
57,384,147766,2,0,P|70:353|73:315,1,64,2|0,0:3|0:0,0:0:0:0:
67,312,148161,1,0,0:0:0:0:
59,303,148240,1,2,0:3:0:0:
51,294,148319,1,2,0:3:0:0:
43,285,148398,2,0,L|38:222,1,64,2|2,0:3|0:2,0:0:0:0:
31,129,149029,1,0,0:0:0:0:
256,192,149108,12,0,150450,0:0:0:0:
