osu file format v14

[General]
AudioFilename: audio.mp3
AudioLeadIn: 0
PreviewTime: 78213
Countdown: 0
SampleSet: Soft
StackLeniency: 0.3
Mode: 0
LetterboxInBreaks: 0
WidescreenStoryboard: 1

[Editor]
Bookmarks: 11345,18924,27766,29818,45450,53029,63134,70713,78292,98503,119976,125029,140818,150608
DistanceSpacing: 1
BeatDivisor: 4
GridSize: 32
TimelineZoom: 4.399997

[Metadata]
Title:Give Me a Nightmare
TitleUnicode:Give Me a Nightmare
Artist:Alice Schach and the Magic Orchestra
ArtistUnicode:アリスシャッハと魔法の楽団
Creator:Dudamesh
Version:Doodle's Light Insane
Source:Arcaea
Tags:-Doodle Navyzeap09 Kimchi Sandwich Minami Yuni 南ゆに Akagawa Nene 赤川ねね Made Up Constructed Language Conlang Alician Electronic Video Game World Extend
BeatmapID:2640609
BeatmapSetID:1257490

[Difficulty]
HPDrainRate:4.4
CircleSize:3.8
OverallDifficulty:7
ApproachRate:8
SliderMultiplier:1.4
SliderTickRate:0.5

[Events]
//Background and Video events
0,0,"bg.jpg",0,0
//Break Periods
2,19123,24490
2,53228,62384
//Storyboard Layer 0 (Background)
//Storyboard Layer 1 (Fail)
//Storyboard Layer 2 (Pass)
//Storyboard Layer 3 (Foreground)
//Storyboard Layer 4 (Overlay)
//Storyboard Sound Samples

[TimingPoints]
1240,315.789473684211,4,2,99,70,1,0
1240,-200,4,2,99,70,0,0
1555,-200,4,2,98,70,0,0
1871,-200,4,2,97,70,0,0
2186,-200,4,2,99,70,0,0
2818,-200,4,2,97,70,0,0
3134,-200,4,2,95,70,0,0
3449,-200,4,2,99,70,0,0
4081,-200,4,2,98,70,0,0
4397,-200,4,2,97,70,0,0
4712,-200,4,2,99,70,0,0
5029,-200,4,2,96,70,0,0
5344,-200,4,2,99,70,0,0
5661,-200,4,2,96,70,0,0
5976,-200,4,2,95,70,0,0
6134,-200,4,2,96,70,0,0
6292,-200,4,2,97,70,0,0
6607,-200,4,2,99,70,0,0
6924,-200,4,2,96,70,0,0
7239,-200,4,2,95,70,0,0
7555,-200,4,2,97,70,0,0
8108,-200,4,2,95,70,0,0
8345,-200,4,2,98,70,0,0
8503,-200,4,2,97,70,0,0
8661,-200,4,2,94,70,0,0
8818,-200,4,2,95,70,0,0
9450,-200,4,2,99,70,0,0
10082,-200,4,2,98,70,0,0
10713,-200,4,2,95,70,0,0
11345,-133.333333333333,4,2,1,50,0,0
27766,-133.333333333333,4,2,1,60,0,0
35818,-100,4,2,1,60,0,0
36608,-133.333333333333,4,2,1,60,0,0
42924,-100,4,2,1,70,0,0
45450,-114.285714285714,4,2,1,60,0,0
45608,-144.927536231884,4,2,69,5,0,0
45687,-114.285714285714,4,2,1,60,0,0
45845,-144.927536231884,4,2,69,5,0,0
45924,-114.285714285714,4,2,1,60,0,0
46950,-144.927536231884,4,2,69,5,0,0
47029,-114.285714285714,4,2,1,60,0,0
49476,-144.927536231884,4,2,69,5,0,0
49555,-114.285714285714,4,2,1,60,0,0
50503,-100,4,2,1,70,0,0
51924,-144.927536231884,4,2,69,5,0,0
52003,-100,4,2,1,70,0,0
52161,-144.927536231884,4,2,69,5,0,0
52240,-100,4,2,1,70,0,0
63134,-114.285714285714,4,2,1,50,0,0
64003,-144.927536231884,4,2,69,5,0,0
64082,-114.285714285714,4,2,1,50,0,0
64634,-144.927536231884,4,2,69,5,0,0
64713,-114.285714285714,4,2,1,50,0,0
65897,-144.927536231884,4,2,69,5,0,0
65976,-114.285714285714,4,2,1,50,0,0
66529,-144.927536231884,4,2,69,5,0,0
66608,-114.285714285714,4,2,1,50,0,0
67555,-114.285714285714,4,2,1,60,0,0
67792,-144.927536231884,4,2,69,5,0,0
67871,-66.6666666666667,4,2,1,70,0,0
68108,-144.927536231884,4,2,69,5,0,0
68187,-1000,4,2,1,50,0,0
69371,-144.927536231884,4,2,69,5,0,0
69450,-100,4,2,1,70,0,0
70397,-66.6666666666667,4,2,1,70,0,0
70713,-100,4,2,1,70,0,0
73240,-80,4,2,1,70,0,0
73397,-144.927536231884,4,2,69,5,0,0
73476,-80,4,2,1,70,0,0
73555,-144.927536231884,4,2,69,5,0,0
73713,-80,4,2,1,70,0,0
73792,-144.927536231884,4,2,69,5,0,0
73871,-80,4,2,1,70,0,0
74897,-144.927536231884,4,2,69,5,0,0
74976,-66.6666666666667,4,2,1,70,0,0
75134,-133.333333333333,4,2,1,70,0,0
76082,-100,4,2,1,70,0,0
76397,-80,4,2,1,70,0,0
76713,-66.6666666666667,4,2,1,70,0,0
77029,-80,4,2,1,70,0,0
77661,-100,4,2,1,90,0,0
77818,-80,4,2,1,90,0,0
77976,-66.6666666666667,4,2,1,90,0,0
78134,-57.1428571428571,4,2,1,90,0,0
78292,-80,4,2,1,80,0,1
78529,-144.927536231884,4,2,69,5,0,1
78608,-100,4,2,1,80,0,1
78924,-80,4,2,1,80,0,1
79476,-144.927536231884,4,2,69,5,0,1
79555,-80,4,2,1,80,0,1
80029,-100,4,2,1,80,0,1
80818,-80,4,2,1,80,0,1
81055,-144.927536231884,4,2,69,5,0,1
81134,-100,4,2,1,80,0,1
81450,-80,4,2,1,80,0,1
81766,-100,4,2,1,80,0,1
82003,-144.927536231884,4,2,69,5,0,1
82082,-80,4,2,1,80,0,1
82713,-133.333333333333,4,2,1,80,0,1
83029,-100,4,2,1,80,0,1
83345,-80,4,2,1,80,0,1
83976,-100,4,2,1,80,0,1
84608,-80,4,2,1,80,0,1
84845,-144.927536231884,4,2,69,5,0,1
84924,-100,4,2,1,80,0,1
85871,-80,4,2,1,80,0,1
86108,-144.927536231884,4,2,69,5,0,1
86187,-100,4,2,1,80,0,1
87134,-80,4,2,1,80,0,1
87608,-100,4,2,1,80,0,1
88397,-100,4,2,1,70,0,0
89266,-144.927536231884,4,2,69,5,0,0
89345,-200,4,2,1,70,0,0
89661,-100,4,2,1,70,0,0
90292,-80,4,2,1,70,0,0
90529,-144.927536231884,4,2,69,5,0,0
90608,-100,4,2,1,70,0,0
94950,-144.927536231884,4,2,69,5,0,0
95029,-100,4,2,1,70,0,0
95582,-144.927536231884,4,2,69,5,0,0
95661,-100,4,2,1,70,0,0
96213,-144.927536231884,4,2,69,5,0,0
96292,-100,4,2,1,70,0,0
97240,-80,4,2,1,70,0,0
97555,-100,4,2,1,70,0,0
97871,-80,4,2,1,70,0,0
98503,-80,4,2,1,80,0,1
98740,-144.927536231884,4,2,69,5,0,1
98818,-100,4,2,1,80,0,1
99134,-80,4,2,1,80,0,1
99687,-144.927536231884,4,2,69,5,0,1
99766,-80,4,2,1,80,0,1
100240,-100,4,2,1,80,0,1
101029,-80,4,2,1,80,0,1
101266,-144.927536231884,4,2,69,5,0,1
101345,-100,4,2,1,80,0,1
101661,-80,4,2,1,80,0,1
101976,-100,4,2,1,80,0,1
102292,-80,4,2,1,80,0,1
102924,-100,4,2,1,80,0,1
103240,-80,4,2,1,80,0,1
104187,-100,4,2,1,80,0,1
104818,-80,4,2,1,80,0,1
105292,-100,4,2,1,80,0,1
106082,-80,4,2,1,80,0,1
106318,-144.927536231884,4,2,69,5,0,1
106397,-100,4,2,1,80,0,1
107345,-80,4,2,1,80,0,1
107818,-100,4,2,1,80,0,1
108608,-100,4,2,1,70,0,0
109476,-144.927536231884,4,2,69,5,0,0
109555,-100,4,2,1,70,0,0
110503,-80,4,2,1,70,0,0
110740,-144.927536231884,4,2,69,5,0,0
110818,-100,4,2,1,70,0,0
113582,-144.927536231884,4,2,69,5,0,0
113661,-100,4,2,1,70,0,0
115161,-144.927536231884,4,2,69,5,0,0
115240,-100,4,2,1,70,0,0
115792,-144.927536231884,4,2,69,5,0,0
115871,-100,4,2,1,70,0,0
116424,-144.927536231884,4,2,69,5,0,0
116503,-100,4,2,1,70,0,0
117371,-144.927536231884,4,2,69,5,0,0
117450,-100,4,2,1,70,0,0
119976,-114.285714285714,4,2,1,60,0,0
121713,-148.148148148148,4,2,1,50,0,0
122029,-133.333333333333,4,2,1,55,0,0
122345,-114.285714285714,4,2,1,60,0,0
122661,-100,4,2,1,65,0,0
122976,-88.8888888888889,4,2,1,70,0,0
123292,-80,4,2,1,75,0,0
123608,-72.7272727272727,4,2,1,80,0,0
123924,-66.6666666666667,4,2,1,85,0,0
124240,-57.1428571428571,4,2,1,90,0,0
124713,-80,4,2,1,90,0,0
125029,-133.333333333333,4,2,1,60,0,0
141450,-133.333333333333,4,2,98,70,0,0
142081,-133.333333333333,4,2,97,70,0,0
142397,-133.333333333333,4,2,94,70,0,0
142713,-133.333333333333,4,2,98,70,0,0
143265,-133.333333333333,4,2,97,70,0,0
143345,-133.333333333333,4,2,98,70,0,0
143660,-133.333333333333,4,2,97,70,0,0
146424,-144.927536231884,4,2,69,5,0,0
146503,-133.333333333333,4,2,98,70,0,0
146818,-133.333333333333,4,2,97,70,0,0
147449,-133.333333333333,4,2,94,70,0,0
147766,-133.333333333333,4,2,98,70,0,0
148318,-133.333333333333,4,2,97,70,0,0
148397,-133.333333333333,4,2,98,70,0,0
148712,-133.333333333333,4,2,97,70,0,0
149029,-133.333333333333,4,2,99,70,0,0
149108,-133.333333333333,4,2,99,40,0,0
149661,-133.333333333333,4,2,99,30,0,0
149976,-133.333333333333,4,2,99,20,0,0
150292,-133.333333333333,4,2,99,10,0,0
150450,-133.333333333333,4,2,99,30,0,0

[Colours]
Combo1 : 168,81,255
Combo2 : 91,173,255
Combo3 : 0,191,96
Combo4 : 196,196,196

[HitObjects]
39,128,1240,5,2,0:1:0:0:
116,153,1555,1,2,0:0:0:0:
191,124,1871,1,2,0:1:0:0:
224,51,2187,1,2,0:3:0:0:
373,89,2503,5,2,0:1:0:0:
438,137,2818,1,2,0:1:0:0:
458,214,3134,1,2,0:2:0:0:
436,291,3450,1,2,0:3:0:0:
308,351,3766,5,2,0:1:0:0:
275,278,4082,1,2,0:0:0:0:
200,249,4398,1,2,0:1:0:0:
123,274,4713,1,2,0:3:0:0:
58,110,5029,5,2,0:3:0:0:
135,85,5345,1,2,0:3:0:0:
58,110,5661,1,2,0:1:0:0:
219,156,5976,2,0,L|226:122,1,35,2|2,0:0|0:1,0:0:0:0:
358,40,6292,6,0,L|372:111,1,70,2|2,0:1|0:3,0:0:0:0:
387,187,6924,2,0,L|400:255,1,70,2|2,0:1|0:0,0:0:0:0:
415,333,7555,1,2,0:1:0:0:
244,241,8029,6,0,L|241:258,2,17.5,2|2|2,0:1|0:3|0:0,0:0:0:0:
165,196,8345,2,0,L|159:156,2,35,2|2|2,0:1|0:3|0:2,0:0:0:0:
57,384,8818,6,0,P|20:337|31:277,1,122.5,2|2,0:1|0:0,0:0:0:0:
42,265,9450,2,0,L|168:295,1,122.5,2|2,0:0|0:0,0:0:0:0:
175,278,10082,2,0,L|160:156,1,122.5,2|2,0:1|0:3,0:0:0:0:
158,138,10713,1,2,0:1:0:0:
11,107,11345,6,0,P|49:68|114:72,1,105.000004005432,2|8,3:2|0:1,0:0:0:0:
158,139,11818,1,8,0:1:0:0:
158,139,11976,2,0,P|181:166|304:162,1,157.500006008148,2|0,3:2|0:0,0:0:0:0:
306,88,12608,6,0,L|325:195,1,105.000004005432,2|8,3:2|0:1,0:0:0:0:
340,272,13082,1,8,0:1:0:0:
340,272,13240,1,0,3:0:0:0:
459,238,13555,2,0,L|448:295,1,52.5000020027161
497,354,13871,6,0,P|451:315|400:318,1,105.000004005432,2|0,3:2|0:0,0:0:0:0:
346,365,14345,1,8,0:1:0:0:
346,365,14503,2,0,P|325:380|285:380,1,52.5000020027161,2|0,3:2|0:0,0:0:0:0:
242,329,14818,2,0,L|253:263,1,52.5000020027161,2|0,0:0|0:0,0:0:0:0:
152,368,15134,5,2,3:2:0:0:
50,288,15450,2,0,L|5:300,2,35.0000013351441,8|8|8,0:1|0:1|0:1,0:0:0:0:
105,229,15766,2,0,P|107:177|76:136,1,105.000004005432,2|2,3:2|0:0,0:0:0:0:
133,42,16397,6,0,L|238:20,1,105.000004005432,2|8,3:2|0:1,0:0:0:0:
317,8,16871,1,8,0:1:0:0:
317,8,17029,1,0,3:0:0:0:
285,125,17345,1,2,0:0:0:0:
414,86,17661,6,0,P|459:94|500:150,1,105.000004005432,2|8,3:2|0:1,0:0:0:0:
414,325,18292,2,0,L|404:273,1,52.5000020027161,2|8,3:2|0:1,0:0:0:0:
461,217,18608,2,0,L|512:226,2,52.5000020027161,2|0|6,0:0|0:0|0:0,0:0:0:0:
256,192,25240,12,2,27134,0:2:0:0:
11,312,27766,6,0,L|132:285,1,105.000004005432,6|8,3:2|0:2,0:0:0:0:
213,269,28240,2,0,L|196:337,1,52.5000020027161,0|0,3:0|0:0,0:0:0:0:
147,201,28555,1,0,3:0:0:0:
147,201,28713,2,0,L|164:115,1,78.7500030040742,10|8,0:2|0:2,0:0:0:0:
167,104,29029,2,0,P|145:67|157:14,1,78.7500030040742,2|0,3:2|0:0,0:0:0:0:
166,16,29345,1,10,0:2:0:0:
251,54,29503,2,0,L|366:34,1,105.000004005432,0|0,3:0|3:0,0:0:0:0:
441,91,29976,2,0,L|428:141,1,52.5000020027161,10|0,0:2|3:0,0:0:0:0:
425,170,30213,5,0,0:0:0:0:
425,170,30292,2,0,L|447:291,1,105.000004005432,2|8,3:2|0:2,0:0:0:0:
374,337,30766,2,0,P|366:311|350:291,1,52.5000020027161,0|0,3:0|0:0,0:0:0:0:
258,284,31082,1,0,3:0:0:0:
258,284,31240,2,0,L|167:309,1,78.7500030040742,8|8,0:2|0:2,0:0:0:0:
171,320,31555,2,0,L|80:295,1,78.7500030040742,0|0,3:0|3:0,0:0:0:0:
71,292,31871,1,8,0:2:0:0:
27,210,32029,2,0,L|-6:220,2,26.2500010013581,0|0|10,3:0|3:0|0:2,0:0:0:0:
98,147,32345,1,0,3:0:0:0:
53,64,32503,2,0,L|20:54,3,26.2500010013581,10|0|0|0,0:2|3:0|3:0|3:0,0:0:0:0:
63,79,32818,6,0,L|177:51,1,105.000004005432,6|8,3:2|0:2,0:0:0:0:
254,36,33292,1,0,3:0:0:0:
370,219,33608,1,0,3:0:0:0:
370,219,33766,2,0,P|398:192|404:154,1,78.7500030040742,10|8,0:2|0:2,0:0:0:0:
392,136,34082,2,0,L|312:120,1,78.7500030040742,2|0,3:2|0:0,0:0:0:0:
297,116,34397,1,10,0:2:0:0:
254,36,34555,2,0,L|271:146,1,105.000004005432,0|0,3:0|3:0,0:0:0:0:
205,213,35029,2,0,L|142:196,1,52.5000020027161,10|0,0:2|3:0,0:0:0:0:
63,184,35345,6,0,P|26:224|27:276,1,105.000004005432,2|8,3:2|0:2,0:0:0:0:
75,351,35818,2,0,B|140:360|166:290|137:303|171:233|240:250,1,210,2|8,3:2|0:2,0:0:0:0:
410,346,36608,6,0,L|392:255,1,78.7500030040742,0|0,3:0|3:0,0:0:0:0:
393,250,36924,2,0,L|410:183,1,52.5000020027161,8|0,0:2|3:0,0:0:0:0:
415,180,37161,1,0,3:0:0:0:
415,180,37240,2,0,L|405:140,3,26.2500010013581,8|0|0|0,0:2|3:0|3:0|3:0,0:0:0:0:
504,104,37555,2,0,L|498:130,2,26.2500010013581,10|0|0,0:2|3:0|3:0,0:0:0:0:
422,60,37871,6,0,P|370:64|330:103,1,105.000004005432,6|8,3:2|0:2,0:0:0:0:
273,176,38345,2,0,P|258:161|224:147,1,52.5000020027161,0|2,3:0|0:2,0:0:0:0:
166,73,38661,1,0,3:0:0:0:
166,73,38818,2,0,L|83:93,1,78.7500030040742,8|8,0:2|0:2,0:0:0:0:
69,96,39134,2,0,P|90:132|85:177,1,78.7500030040742,2|0,3:2|3:0,0:0:0:0:
77,187,39450,1,8,0:2:0:0:
3,253,39608,2,0,L|104:279,1,105.000004005432,0|0,3:0|3:0,0:0:0:0:
184,331,40082,2,0,L|198:273,1,52.5000020027161,10|2,0:2|3:2,0:0:0:0:
330,158,40397,6,0,L|355:278,1,105.000004005432,2|8,3:2|0:2,0:0:0:0:
325,342,40871,1,0,3:0:0:0:
325,342,41029,2,0,L|267:328,1,52.5000020027161,2|0,0:2|3:0,0:0:0:0:
427,220,41345,2,0,L|508:241,1,78.7500030040742,10|8,0:2|0:2,0:0:0:0:
512,257,41661,2,0,P|483:285|473:327,1,78.7500030040742,2|0,3:2|3:0,0:0:0:0:
486,343,41976,1,8,0:2:0:0:
395,372,42134,1,0,3:0:0:0:
340,294,42292,2,0,L|288:306,1,52.5000020027161,2|0,0:2|3:0,0:0:0:0:
375,207,42608,2,0,L|426:219,1,52.5000020027161,10|0,0:2|3:0,0:0:0:0:
307,132,42924,6,0,L|294:63,1,70,14|0,0:2|3:0,0:0:0:0:
225,183,43240,2,0,L|212:114,1,70,8|0,0:2|3:0,0:0:0:0:
69,3,43555,1,8,0:2:0:0:
134,70,43713,2,0,L|124:108,2,35,0|0|10,3:0|3:0|0:2,0:0:0:0:
46,139,44029,1,0,3:0:0:0:
110,202,44187,1,10,0:2:0:0:
48,272,44345,2,0,L|58:310,2,35,0|0|10,3:0|0:0|0:2,0:0:0:0:
144,357,44661,2,0,L|154:319,2,35,0|0|10,3:0|3:0|0:2,0:0:0:0:
238,278,44976,1,0,3:0:0:0:
308,342,45134,1,10,0:2:0:0:
325,342,45212,1,8,0:2:0:0:
342,338,45291,1,8,0:2:0:0:
356,329,45370,1,8,0:2:0:0:
367,315,45450,6,0,L|464:348,2,91.8750008761883,6|0|0,3:2|3:0|3:0,0:0:0:0:
335,230,46082,1,8,0:2:0:0:
269,62,46397,2,0,P|239:67|215:86,1,61.2500005841255,0|0,0:0|3:0,0:0:0:0:
138,38,46713,2,0,L|114:154,1,91.8750008761883,2|0,3:2|0:0,0:0:0:0:
106,140,47029,2,0,L|121:213,1,61.2500005841255,2|0,0:2|3:0,0:0:0:0:
81,272,47345,1,10,0:2:0:0:
81,272,47503,1,0,3:0:0:0:
156,336,47661,2,0,L|168:276,1,61.2500005841255,2|0,0:2|3:0,0:0:0:0:
316,198,47976,6,0,L|421:224,2,91.8750008761883,2|0|0,3:2|3:0|3:0,0:0:0:0:
251,286,48608,2,0,P|285:259|285:171,1,122.500001168251,10|0,0:2|0:0,0:0:0:0:
231,132,49082,1,0,3:0:0:0:
289,37,49240,2,0,P|295:81|330:109,1,91.8750008761883,2|0,3:2|0:0,0:0:0:0:
354,105,49555,2,0,L|413:92,1,61.2500005841255,0|0,0:0|3:0,0:0:0:0:
496,187,49871,1,8,0:2:0:0:
496,187,50029,2,0,L|483:246,1,61.2500005841255,0|0,3:0|0:0,0:0:0:0:
353,305,50345,1,0,3:0:0:0:
409,361,50503,2,0,L|383:248,2,105,2|0|0,3:2|3:0|3:0,0:0:0:0:
487,328,51134,5,8,0:2:0:0:
301,289,51450,2,0,P|278:317|231:331,1,70,0|0,0:0|3:0,0:0:0:0:
238,349,51687,1,8,0:2:0:0:
238,349,51766,2,0,L|150:331,1,70,0|0,3:0|0:0,0:0:0:0:
153,320,52003,2,0,L|171:232,1,70,8|0,0:0|0:0,0:0:0:0:
155,230,52240,1,0,3:0:0:0:
92,163,52397,2,0,L|55:172,2,35,8|0|8,0:3|3:0|0:3,0:0:0:0:
157,87,52713,5,8,3:0:0:0:
152,71,52791,1,8,0:3:0:0:
148,54,52870,1,8,0:3:0:0:
143,37,52949,1,8,0:3:0:0:
139,20,53028,1,6,3:2:0:0:
41,291,63134,6,0,B|116:314|77:338|142:358,1,122.500001168251,6|0,3:2|3:0,0:0:0:0:
224,287,63766,2,0,L|204:194,1,91.8750008761883,2|0,3:2|0:0,0:0:0:0:
205,198,64082,2,0,L|218:132,1,61.2500005841255,2|0,3:2|0:0,0:0:0:0:
150,11,64397,6,0,P|120:53|76:66,1,91.8750008761883,2|0,3:2|0:0,0:0:0:0:
84,66,64713,2,0,L|18:48,1,61.2500005841255,2|0,3:2|0:0,0:0:0:0:
97,166,65029,2,0,L|232:134,1,122.500001168251,2|0,3:2|3:0,0:0:0:0:
316,28,65661,6,0,P|339:56|330:126,1,91.8750008761883,2|0,3:2|0:0,0:0:0:0:
340,110,65976,2,0,L|358:181,1,61.2500005841255,2|0,3:2|0:0,0:0:0:0:
458,342,66292,2,0,L|483:240,1,91.8750008761883,2|0,3:2|0:0,0:0:0:0:
480,253,66608,2,0,L|421:238,1,61.2500005841255,2|0,3:2|0:0,0:0:0:0:
351,311,66924,2,0,L|213:338,1,122.500001168251,2|0,3:2|3:0,0:0:0:0:
107,203,67397,5,2,0:0:0:0:
114,212,67476,1,2,0:0:0:0:
118,224,67555,2,0,P|86:194|85:149,1,91.8750008761883,2|0,3:2|0:0,0:0:0:0:
85,148,67871,2,2,P|131:185|128:286,1,157.500006008148,0|0,3:0|0:0,0:0:0:0:
49,346,68187,6,0,L|35:294,1,52.5,2|0,0:2|0:0,0:0:0:0:
30,274,69450,1,0,3:0:0:0:
103,217,69687,5,0,3:0:0:0:
103,217,69766,2,0,L|139:228,2,35,8|8|0,0:2|0:2|3:0,0:0:0:0:
50,134,70082,1,0,3:0:0:0:
50,134,70161,2,0,L|15:145,2,35,8|8|8,0:2|0:2|0:2,0:0:0:0:
118,62,70397,6,0,B|103:39|103:39|111:8,3,52.5000020027161,8|8|8|8,3:3|0:3|0:3|0:3,0:0:0:0:
181,115,70713,6,0,B|266:93|212:60|303:35,1,140,6|8,3:2|0:2,0:0:0:0:
373,74,71187,1,0,3:0:0:0:
373,74,71345,2,0,L|393:168,1,70,2|0,0:2|3:0,0:0:0:0:
443,290,71661,2,0,L|464:177,1,105,8|8,0:2|0:2,0:0:0:0:
387,142,71976,6,0,P|330:155|301:210,1,105,2|0,3:2|3:0,0:0:0:0:
246,246,72292,2,0,P|212:238|186:213,1,70,8|0,0:2|3:0,0:0:0:0:
85,145,72608,1,2,0:2:0:0:
85,145,72766,1,0,3:0:0:0:
94,224,72924,2,0,L|115:135,1,70,8|0,0:2|3:0,0:0:0:0:
13,35,73240,6,0,B|36:50|36:50|123:31,1,87.5,6|0,3:2|0:0,0:0:0:0:
94,37,73476,2,0,L|157:54,1,43.75,0|0,3:0|0:0,0:0:0:0:
210,130,73713,6,0,L|273:113,1,43.75,12|0,0:2|0:0,0:0:0:0:
273,113,73871,1,0,3:0:0:0:
462,83,74187,6,0,B|485:55|485:55|436:76,1,87.5,12|0,0:2|3:0,0:0:0:0:
377,20,74503,5,0,3:0:0:0:
377,20,74582,1,0,3:0:0:0:
377,20,74661,2,0,B|348:53|348:53|368:142,1,131.25,12|0,0:2|0:0,0:0:0:0:
446,192,74976,2,0,B|430:198|430:198|425:233,1,52.5000020027161,8|8,0:3|0:3,0:0:0:0:
475,315,75134,6,0,B|397:290|443:251|349:223,1,157.500006008148,0|0,3:0|3:0,0:0:0:0:
342,229,75687,1,0,3:0:0:0:
335,237,75766,2,0,L|312:305,1,52.5000020027161,4|0,0:2|3:0,0:0:0:0:
235,205,76082,2,0,L|230:299,1,70,12|0,0:2|3:0,0:0:0:0:
122,211,76397,2,0,L|146:311,1,87.5,12|0,0:2|3:0,0:0:0:0:
15,252,76713,2,0,L|68:353,1,105.000004005432,12|0,0:2|3:0,0:0:0:0:
122,211,77029,6,0,L|135:146,3,43.75,12|0|0|0,0:0|3:0|3:0|3:0,0:0:0:0:
40,91,77345,2,0,L|31:133,3,43.75,12|0|0|0,0:2|3:0|3:0|3:0,0:0:0:0:
127,62,77661,6,0,P|120:45|110:31,1,35,8|0,0:3|3:0,0:0:0:0:
202,43,77818,6,0,P|203:21|200:-1,1,43.75,8|0,0:3|3:0,0:0:0:0:
281,72,77976,6,0,P|297:52|309:20,1,52.5000020027161,8|0,0:3|3:0,0:0:0:0:
330,146,78134,6,0,P|356:136|393:103,1,61.2500005841255,8|0,0:3|3:0,0:0:0:0:
413,40,78292,6,0,P|412:103|462:145,1,131.25,4|0,3:1|0:0,0:0:0:0:
460,144,78608,2,0,L|476:227,1,70,10|0,0:2|0:0,0:0:0:0:
291,355,78924,2,0,P|289:318|322:275,1,87.5,2|0,0:2|3:0,0:0:0:0:
397,270,79240,2,0,L|270:236,1,131.25,10|0,0:2|0:0,0:0:0:0:
259,219,79555,6,0,P|285:184|284:141,1,87.5,2|0,3:2|0:0,0:0:0:0:
78,163,79871,1,10,0:2:0:0:
143,28,80029,2,0,L|156:96,1,70,0|2,3:0|0:2,0:0:0:0:
185,245,80345,1,0,3:0:0:0:
78,163,80503,2,0,L|64:231,1,70,10|0,0:2|3:0,0:0:0:0:
168,329,80818,6,0,P|198:278|273:266,1,131.25,6|0,3:2|0:0,0:0:0:0:
276,276,81134,2,0,P|303:297|337:303,1,70,8|0,0:2|0:0,0:0:0:0:
418,233,81450,2,0,L|397:126,1,87.5,2|0,0:2|3:0,0:0:0:0:
294,85,81766,2,0,B|327:58|327:58|306:117,1,105,8|0,0:2|0:0,0:0:0:0:
291,129,82082,6,0,B|245:133|224:87|228:78|234:76|209:32|157:37,1,175,2|8,3:2|0:2,0:0:0:0:
67,96,82555,1,0,3:0:0:0:
146,159,82713,2,0,L|152:185,3,26.2500010013581,2|0|0|0,3:2|3:0|3:0|3:0,0:0:0:0:
129,145,83029,5,8,0:0:0:0:
102,145,83107,1,8,0:0:0:0:
79,156,83186,1,8,0:0:0:0:
62,175,83265,1,8,0:0:0:0:
55,201,83345,2,0,P|128:206|189:302,1,175,6|8,3:2|0:2,0:0:0:0:
288,340,83818,1,0,0:0:0:0:
288,340,83897,1,0,0:0:0:0:
288,340,83976,2,0,L|304:245,1,70,2|0,0:2|3:0,0:0:0:0:
427,185,84292,2,0,L|433:150,3,35,8|0|0|0,0:2|0:0|0:0|0:0,0:0:0:0:
457,260,84608,6,0,P|415:206|337:208,1,131.25,2|0,3:2|0:0,0:0:0:0:
339,210,84924,1,8,0:2:0:0:
281,134,85082,2,0,L|266:50,1,70,0|0,3:0|0:0,0:0:0:0:
346,9,85397,1,0,3:0:0:0:
182,106,85555,5,8,0:0:0:0:
164,105,85633,1,0,3:0:0:0:
148,99,85712,1,0,3:0:0:0:
134,88,85791,1,0,3:0:0:0:
124,74,85871,2,0,B|94:102|94:102|114:196,1,131.25,6|0,3:2|0:0,0:0:0:0:
113,209,86187,2,0,P|110:243|90:275,1,70,10|0,0:2|0:0,0:0:0:0:
138,358,86503,2,0,L|205:375,1,70,2|0,0:2|3:0,0:0:0:0:
301,324,86818,6,0,P|313:304|318:282,2,46.6666666666667,10|0|0,0:2|0:0|0:0,0:0:0:0:
235,279,87134,2,0,L|427:232,1,175,2|8,3:2|0:2,0:0:0:0:
500,189,87608,6,0,L|490:223,2,35,8|0|2,0:0|3:0|3:2,0:0:0:0:
444,86,87924,2,0,L|454:52,2,35,8|0|0,0:0|3:0|1:0,0:0:0:0:
328,111,88240,5,8,0:2:0:0:
328,111,88318,1,8,0:2:0:0:
328,111,88397,2,0,P|290:54|223:46,1,140,6|8,3:2|0:2,0:0:0:0:
172,123,88871,1,0,3:0:0:0:
81,94,89029,2,0,L|65:198,1,105,2|0,0:0|0:0,0:0:0:0:
59,220,89345,2,0,L|39:224,2,17.5,8|0|0,0:0|3:0|3:0,0:0:0:0:
162,210,89661,6,0,B|242:235|193:271|282:296,1,140,2|8,3:2|0:2,0:0:0:0:
351,256,90134,1,0,3:0:0:0:
438,133,90292,6,0,P|428:196|468:245,1,131.25,2|0,3:2|0:0,0:0:0:0:
468,245,90608,2,0,P|446:271|443:306,1,70,10|0,0:0|3:0,0:0:0:0:
327,360,90924,6,0,L|298:217,1,140,2|8,3:2|0:2,0:0:0:0:
371,112,91397,2,0,L|438:133,1,70,0|2,3:0|0:2,0:0:0:0:
512,90,91713,1,0,3:0:0:0:
441,38,91871,2,0,L|432:-3,3,35,10|0|0|0,0:0|3:0|3:0|3:0,0:0:0:0:
428,51,92187,6,0,B|351:76|404:100|314:127,1,140,2|10,3:2|0:2,0:0:0:0:
218,80,92661,2,0,L|236:5,1,70,0|2,3:0|0:2,0:0:0:0:
124,106,92976,1,0,3:0:0:0:
124,106,93134,2,0,L|147:204,1,70,10|0,0:0|3:0,0:0:0:0:
242,181,93450,6,0,L|83:220,1,140,6|8,3:2|0:2,0:0:0:0:
140,309,93924,2,0,L|221:328,1,70,0|0,3:0|0:0,0:0:0:0:
282,256,94240,1,0,3:0:0:0:
282,256,94397,2,0,P|265:236|262:178,1,70,10|0,0:2|0:0,0:0:0:0:
410,32,94713,6,0,L|383:143,1,105,2|0,3:2|0:0,0:0:0:0:
385,134,95029,2,0,L|293:112,1,70,10|0,0:2|3:0,0:0:0:0:
378,271,95345,2,0,P|412:233|463:228,1,105,2|0,3:2|0:0,0:0:0:0:
463,228,95661,2,0,L|481:325,1,70,10|0,0:2|3:0,0:0:0:0:
307,217,95976,2,0,L|287:109,1,105,2|0,3:2|0:0,0:0:0:0:
283,90,96292,5,8,0:2:0:0:
201,140,96450,1,0,3:0:0:0:
151,60,96608,2,0,L|74:39,1,70,8|0,0:2|3:0,0:0:0:0:
70,58,96845,1,0,3:0:0:0:
70,58,96924,2,0,L|25:71,2,35,8|0|0,0:2|0:0|3:0,0:0:0:0:
107,144,97240,6,0,P|104:189|73:220,1,87.5,4|0,3:2|3:0,0:0:0:0:
65,236,97476,1,0,3:0:0:0:
65,236,97555,2,0,L|78:281,2,35,8|0|0,0:0|3:0|3:0,0:0:0:0:
158,319,97871,2,0,L|171:274,2,43.75,8|8|8,0:2|0:2|0:2,0:0:0:0:
234,228,98187,1,8,0:2:0:0:
255,228,98265,1,8,0:2:0:0:
276,235,98344,1,8,0:2:0:0:
293,249,98423,1,8,0:2:0:0:
304,268,98503,6,0,P|365:275|412:211,1,131.25,4|0,3:1|0:0,0:0:0:0:
409,227,98818,2,0,L|391:139,1,70,10|0,0:2|0:0,0:0:0:0:
295,81,99134,2,0,P|264:111|222:116,1,87.5,2|0,0:0|3:0,0:0:0:0:
127,56,99450,2,0,B|98:91|98:91|126:188,1,131.25,10|0,0:2|0:0,0:0:0:0:
106,189,99766,6,0,P|75:158|33:153,1,87.5,2|0,3:2|0:0,0:0:0:0:
150,320,100082,1,10,0:2:0:0:
55,315,100240,2,0,L|123:298,1,70,0|2,3:0|0:2,0:0:0:0:
258,272,100555,1,0,3:0:0:0:
162,143,100713,2,0,L|178:211,1,70,10|0,0:2|3:0,0:0:0:0:
271,351,101029,6,0,L|299:223,1,131.25,6|0,3:2|0:0,0:0:0:0:
299,222,101345,2,0,L|367:205,1,70,8|0,0:2|0:0,0:0:0:0:
441,129,101661,2,0,P|410:98|405:55,1,87.5,2|0,0:2|3:0,0:0:0:0:
464,0,101976,2,0,L|504:10,3,35,8|0|0|0,0:2|0:0|0:0|0:0,0:0:0:0:
451,9,102292,6,0,B|382:-3|382:-3|352:19|352:19|280:8,1,175,2|8,3:2|0:2,0:0:0:0:
215,87,102766,1,0,3:0:0:0:
137,34,102924,6,0,P|123:22|108:15,3,35,2|0|0|0,3:2|3:0|3:0|3:0,0:0:0:0:
77,91,103240,2,0,P|56:95|37:107,3,43.75,10|8|8|8,0:2|0:0|0:0|0:0,0:0:0:0:
157,145,103555,6,0,B|255:179|189:214|288:252,1,175,6|8,3:2|0:2,0:0:0:0:
376,88,104029,1,0,0:0:0:0:
376,88,104108,1,0,0:0:0:0:
376,88,104187,2,0,L|309:108,1,70,2|0,0:2|3:0,0:0:0:0:
399,202,104503,2,0,L|445:214,3,35,8|0|0|0,0:2|0:0|0:0|0:0,0:0:0:0:
382,187,104818,6,0,L|410:327,1,131.25,2|0,3:2|0:0,0:0:0:0:
411,337,105134,1,8,0:2:0:0:
326,384,105292,2,0,P|284:375|255:343,1,70,0|0,3:0|0:0,0:0:0:0:
262,270,105608,1,0,3:0:0:0:
120,357,105766,5,8,0:2:0:0:
61,303,105924,1,0,3:0:0:0:
97,231,106082,2,0,B|123:199|123:199|100:111,1,131.25,6|0,3:2|0:0,0:0:0:0:
85,106,106397,6,0,P|64:78|62:44,1,70,10|0,0:2|0:0,0:0:0:0:
158,42,106713,2,0,L|242:59,1,70,2|0,0:2|3:0,0:0:0:0:
305,3,107029,2,0,L|322:87,1,70,10|0,0:2|0:0,0:0:0:0:
487,135,107345,6,0,P|398:142|359:226,1,175,2|8,3:2|0:2,0:0:0:0:
374,289,107818,2,0,L|382:323,2,35,0|0|0,3:0|3:0|3:0,0:0:0:0:
294,381,108134,5,0,3:0:0:0:
294,381,108213,1,0,3:0:0:0:
294,381,108292,2,0,L|285:346,3,35,8|8|8|8,0:0|0:0|0:0|0:0,0:0:0:0:
294,330,108608,6,0,B|218:308|267:272|185:250,1,140,6|8,3:2|0:2,0:0:0:0:
17,337,109082,1,0,1:0:0:0:
17,337,109240,2,0,P|71:333|104:281,1,105,2|0,0:0|0:0,0:0:0:0:
99,276,109555,2,0,L|91:233,2,35,8|0|0,0:2|3:0|3:0,0:0:0:0:
2,204,109871,6,0,L|32:54,1,140,2|8,3:2|0:2,0:0:0:0:
34,46,110345,1,0,3:0:0:0:
130,146,110503,6,0,P|193:144|238:98,1,131.25,2|0,3:2|0:0,0:0:0:0:
238,98,110818,2,0,P|219:70|217:35,1,70,10|0,3:2|3:0,0:0:0:0:
372,61,111134,6,0,B|406:92|406:92|387:206,1,140,2|8,3:2|0:2,0:0:0:0:
454,313,111608,1,0,3:0:0:0:
510,257,111766,2,0,L|442:274,1,70,2|0,0:2|3:0,0:0:0:0:
364,351,112082,2,0,L|372:384,3,35,10|0|0|0,0:2|3:0|3:0|3:0,0:0:0:0:
348,339,112397,6,0,B|271:319|317:285|238:259,1,140,2|10,3:2|0:2,0:0:0:0:
75,278,112871,2,0,P|93:307|125:319,1,70,0|2,3:0|3:2,0:0:0:0:
155,230,113187,1,0,3:0:0:0:
155,230,113345,2,0,L|136:113,1,105,10|0,0:2|0:0,0:0:0:0:
124,107,113661,6,0,P|190:115|237:66,1,140,6|8,3:2|0:2,0:0:0:0:
337,36,114134,2,0,L|323:119,1,70,0|0,3:0|0:0,0:0:0:0:
463,141,114450,1,0,3:0:0:0:
463,141,114608,2,0,P|450:115|395:91,1,70,10|0,0:2|0:0,0:0:0:0:
264,176,114924,6,0,L|290:291,1,105,2|0,3:2|0:2,0:0:0:0:
287,278,115240,2,0,L|371:258,1,70,10|0,0:2|3:0,0:0:0:0:
220,384,115555,2,0,P|192:341|131:327,1,105,2|0,3:2|0:0,0:0:0:0:
142,325,115871,2,0,L|162:241,1,70,10|0,0:2|3:0,0:0:0:0:
63,171,116187,2,0,L|194:143,1,105,2|0,3:2|0:0,0:0:0:0:
186,145,116503,5,8,0:2:0:0:
230,66,116661,1,0,3:0:0:0:
320,104,116818,2,0,L|335:24,1,70,8|0,0:2|3:0,0:0:0:0:
420,89,117134,2,0,L|442:202,1,105,8|0,0:2|0:0,0:0:0:0:
450,218,117450,5,4,3:2:0:0:
450,218,117608,1,0,3:0:0:0:
354,195,117766,1,8,0:0:0:0:
308,282,117924,1,0,3:0:0:0:
212,250,118082,2,0,L|195:334,1,70,8|0,0:0|3:0,0:0:0:0:
205,329,118318,1,0,3:0:0:0:
210,340,118397,2,0,L|201:385,2,35,8|0|0,0:0|3:0|3:0,0:0:0:0:
104,338,118713,6,0,L|95:293,4,35,12|0|0|0|8,0:2|3:0|3:0|3:0|0:2,0:0:0:0:
79,226,119187,1,0,3:0:0:0:
163,201,119345,2,0,L|155:167,4,23.3333333333333,8|0|0|8|0,0:2|3:0|3:0|0:0|3:0,0:0:0:0:
150,149,119661,2,0,L|143:119,6,17.5,8|0|0|0|8|0|0,0:0|3:0|3:0|3:0|0:0|3:0|3:0,0:0:0:0:
137,102,119976,5,6,3:2:0:0:
61,69,120134,1,0,3:0:0:0:
132,13,120292,2,0,L|202:37,1,61.2500005841255,8|0,0:2|3:0,0:0:0:0:
255,113,120608,2,0,L|329:97,1,61.2500005841255,8|0,0:2|3:0,0:0:0:0:
338,100,120845,1,0,3:2:0:0:
338,100,120924,1,8,0:2:0:0:
435,72,121082,1,0,3:0:0:0:
435,72,121161,1,0,3:0:0:0:
435,72,121240,2,0,P|428:119|454:159,1,91.8750008761883,10|0,0:2|3:0,0:0:0:0:
469,164,121555,1,8,0:2:0:0:
496,260,121713,6,0,L|519:283,2,23.6250000901222,0|0|8,3:0|3:0|0:0,0:0:0:0:
437,311,122029,2,0,L|461:355,2,26.2500010013581,0|0|8,3:0|3:0|0:2,0:0:0:0:
364,341,122345,2,0,L|376:385,2,30.6250002920628,0|0|8,3:0|3:0|0:0,0:0:0:0:
283,349,122661,2,0,L|280:399,2,35,0|0|8,3:0|3:0|0:2,0:0:0:0:
202,325,122976,1,0,3:0:0:0:
193,342,123054,1,0,3:0:0:0:
185,360,123133,1,8,0:0:0:0:
135,269,123292,2,0,L|92:309,2,43.75,0|0|8,3:0|3:0|0:2,0:0:0:0:
89,193,123608,5,0,3:0:0:0:
66,202,123686,1,0,3:0:0:0:
44,211,123765,1,8,0:0:0:0:
74,103,123924,2,0,L|8:106,2,52.5000020027161,0|0|8,3:0|3:0|0:2,0:0:0:0:
112,16,124240,1,0,3:0:0:0:
82,8,124318,1,0,3:0:0:0:
52,0,124397,1,8,0:0:0:0:
187,92,124555,1,8,0:0:0:0:
187,92,124634,1,8,0:2:0:0:
187,92,124713,2,0,P|234:47|299:36,1,131.25,8|0,0:2|0:0,0:0:0:0:
374,78,125029,6,0,L|389:12,1,52.5000020027161,6|0,1:2|0:0,0:0:0:0:
452,99,125345,2,0,L|467:33,1,52.5000020027161,2|0,0:2|0:0,0:0:0:0:
379,225,125661,6,0,L|364:159,1,52.5000020027161,2|0,0:2|0:0,0:0:0:0:
301,246,125977,2,0,L|286:180,1,52.5000020027161,2|0,0:2|0:0,0:0:0:0:
411,331,126292,5,2,0:2:0:0:
411,331,126608,2,0,P|427:313|467:301,1,52.5000020027161,2|0,0:2|0:0,0:0:0:0:
473,305,126924,2,0,L|494:182,1,105.000004005432,2|0,0:0|0:0,0:0:0:0:
396,104,127555,5,2,0:2:0:0:
396,104,127871,2,0,L|384:163,1,52.5000020027161,2|0,0:0|0:0,0:0:0:0:
325,211,128187,5,2,0:2:0:0:
325,211,128503,1,2,0:2:0:0:
295,128,128660,1,2,0:2:0:0:
234,190,128818,1,2,0:2:0:0:
97,201,129134,6,0,L|87:155,2,35.0000013351441
45,264,129450,1,0,0:0:0:0:
45,264,129766,2,0,L|35:332,1,52.5000020027161,2|0,0:0|0:0,0:0:0:0:
103,370,130082,6,0,P|135:329|185:319,1,105.000004005432,2|2,0:2|0:2,0:0:0:0:
249,367,130555,1,0,0:0:0:0:
304,311,130713,2,0,L|289:244,1,52.5000020027161,2|0,0:2|0:0,0:0:0:0:
288,236,131029,1,2,0:2:0:0:
419,176,131345,5,2,0:2:0:0:
419,176,131661,1,0,0:0:0:0:
438,100,131818,1,0,0:0:0:0:
454,23,131976,2,0,P|406:16|355:60,1,105.000004005432,2|0,0:0|0:0,0:0:0:0:
291,150,132608,6,0,P|243:157|192:113,1,105.000004005432,2|2,0:0|0:0,0:0:0:0:
174,52,133082,1,2,0:2:0:0:
98,76,133240,2,0,L|83:149,1,52.5000020027161,2|0,0:2|0:0,0:0:0:0:
67,203,133555,1,0,0:0:0:0:
67,203,133713,1,0,0:0:0:0:
122,262,133871,2,0,L|143:387,2,105.000004005432
278,269,135134,6,0,L|348:290,1,52.5000020027161,6|0,3:2|0:0,0:0:0:0:
353,208,135450,2,0,L|302:192,1,52.5000020027161,2|0,0:2|0:0,0:0:0:0:
367,110,135766,6,0,L|418:95,1,52.5000020027161,2|0,0:2|0:0,0:0:0:0:
393,18,136082,2,0,L|343:34,1,52.5000020027161,2|0,0:2|0:0,0:0:0:0:
203,212,136397,5,2,0:2:0:0:
110,56,136713,1,2,0:2:0:0:
201,116,137029,1,2,0:2:0:0:
17,89,137345,2,0,L|3:20,1,52.5000020027161,2|0,0:0|0:0,0:0:0:0:
84,140,137661,2,0,L|71:206,1,52.5000020027161,2|0,0:2|0:0,0:0:0:0:
57,276,137976,2,0,L|5:286,1,52.5000020027161,2|0,0:2|0:0,0:0:0:0:
121,333,138292,2,0,L|187:346,1,52.5000020027161,2|0,0:2|0:0,0:0:0:0:
255,278,138608,5,2,0:2:0:0:
311,347,138766,1,2,0:2:0:0:
340,260,138924,1,6,0:2:0:0:
256,192,139003,12,0,140818,0:0:0:0:
370,48,141450,5,2,0:1:0:0:
447,76,141766,1,2,2:1:0:0:
358,172,142081,5,2,2:3:0:0:
281,144,142397,1,2,2:2:0:0:
389,307,142713,5,2,2:1:0:0:
471,278,143029,2,0,L|456:228,3,26.2500010013581,0|0|2|2,0:0|0:0|2:1|2:3,0:0:0:0:
399,322,143345,2,0,L|295:291,1,105.000004005432,2|2,2:1|2:2,0:0:0:0:
256,192,143976,5,0,0:0:0:0:
256,192,145240,12,0,146424,0:0:0:0:
256,192,146503,5,2,2:1:0:0:
234,109,146818,1,2,2:2:0:0:
102,42,147134,5,2,2:3:0:0:
124,125,147449,1,2,2:2:0:0:
48,224,147766,5,2,2:3:0:0:
26,312,148082,2,0,L|-5:303,3,26.2500010013581,0|0|2|2,0:0|0:0|2:3|2:3,0:0:0:0:
63,237,148397,2,0,L|175:214,1,105.000004005432,2|2,2:3|2:2,0:0:0:0:
256,192,149029,5,0,0:0:0:0:
256,192,149108,12,0,150450,0:0:0:0:
