osu file format v14

[General]
AudioFilename: audio.mp3
AudioLeadIn: 0
PreviewTime: 78213
Countdown: 0
SampleSet: Soft
StackLeniency: 0.5
Mode: 0
LetterboxInBreaks: 0
WidescreenStoryboard: 1

[Editor]
Bookmarks: 27766,63134
DistanceSpacing: 0.8
BeatDivisor: 4
GridSize: 32
TimelineZoom: 1.9

[Metadata]
Title:Give Me a Nightmare
TitleUnicode:Give Me a Nightmare
Artist:Alice Schach and the Magic Orchestra
ArtistUnicode:アリスシャッハと魔法の楽団
Creator:Aeril
Version:PRESENT
Source:Arcaea
Tags:co2021 corsace open co21 sf semifinals hr2 yuni minami 南ゆに nene akagawa 赤川ねね lowiro rhythm video game alician アリス語 -akamatsukaede- shijie other electronic
BeatmapID:3378675
BeatmapSetID:1569814

[Difficulty]
HPDrainRate:5
CircleSize:4
OverallDifficulty:6
ApproachRate:7.5
SliderMultiplier:1.5
SliderTickRate:1

[Events]
//Background and Video events
0,0,"nightmare.jpg",0,0
//Break Periods
2,53236,61878
2,144183,145685
//Storyboard Layer 0 (Background)
//Storyboard Layer 1 (Fail)
//Storyboard Layer 2 (Pass)
//Storyboard Layer 3 (Foreground)
//Storyboard Layer 4 (Overlay)
//Storyboard Sound Samples

[TimingPoints]
1247,315.789473684211,4,2,1,45,1,0
1247,-125,4,2,1,45,0,0
11352,-125,4,2,1,50,0,0
11983,-125,4,2,1,35,0,0
12062,-125,4,2,1,25,0,0
12615,-125,4,2,1,50,0,0
13247,-125,4,2,1,35,0,0
13325,-125,4,2,1,25,0,0
13878,-125,4,2,1,50,0,0
14510,-125,4,2,1,35,0,0
14589,-125,4,2,1,25,0,0
15141,-125,4,2,1,50,0,0
15773,-125,4,2,1,35,0,0
15852,-125,4,2,1,25,0,0
16404,-125,4,2,1,50,0,0
17036,-125,4,2,1,35,0,0
17115,-125,4,2,1,25,0,0
17668,-125,4,2,1,50,0,0
18299,-125,4,2,1,35,0,0
18615,-125,4,2,1,50,0,0
19247,-166.666666666667,4,2,1,45,0,0
22720,-250,4,2,1,45,0,0
23036,-250,4,2,1,25,0,0
23352,-250,4,2,1,35,0,0
23668,-250,4,2,1,45,0,0
25247,-125,4,2,1,30,0,0
25878,-125,4,2,1,40,0,0
26510,-125,4,2,1,50,0,0
27141,-125,4,2,1,5,0,0
27773,-100,4,2,1,60,0,0
45457,-100,4,2,1,50,0,0
52404,-100,4,2,1,60,0,0
53036,-100,4,2,1,35,0,0
63062,-100,4,2,1,5,0,0
63141,-100,4,2,1,45,0,0
68194,-125,4,2,1,40,0,0
68825,-100,4,2,1,5,0,0
69457,-100,4,2,1,50,0,0
70720,-100,4,2,1,60,0,0
75773,-125,4,2,1,60,0,0
77036,-100,4,2,1,60,0,0
77668,-90.9090909090909,4,2,1,60,0,0
78299,-83.3333333333333,4,2,1,70,0,1
88404,-100,4,2,1,60,0,0
97247,-100,4,2,1,65,0,0
97878,-90.9090909090909,4,2,1,65,0,0
98510,-83.3333333333333,4,2,1,70,0,1
108615,-100,4,2,1,60,0,0
118720,-90.9090909090909,4,2,1,55,0,0
119352,-83.3333333333333,4,2,1,65,0,0
119983,-83.3333333333333,4,2,1,60,0,0
125036,-125,4,2,1,45,0,0
125352,-125,4,2,1,25,0,0
125668,-125,4,2,1,35,0,0
126615,-125,4,2,1,25,0,0
126931,-125,4,2,1,35,0,0
127878,-125,4,2,1,25,0,0
128194,-125,4,2,1,35,0,0
130404,-125,4,2,1,25,0,0
130720,-125,4,2,1,35,0,0
134194,-125,4,2,1,25,0,0
134510,-125,4,2,1,35,0,0
135457,-125,4,2,1,25,0,0
135773,-125,4,2,1,35,0,0
136720,-125,4,2,1,25,0,0
137668,-125,4,2,1,35,0,0
137983,-125,4,2,1,25,0,0
138299,-125,4,2,1,35,0,0
138931,-125,4,2,1,45,0,0
140115,-125,4,2,1,5,0,0
140194,-125,4,2,1,45,0,0
141457,-125,4,2,1,35,0,0
149036,-178.571428571429,4,2,1,35,0,0

[Colours]
Combo1 : 250,122,170
Combo2 : 154,252,216
Combo3 : 130,14,180
Combo4 : 150,250,250

[HitObjects]
353,98,1247,6,0,P|376:70|469:65,2,120,2|0|0,0:0|0:0|0:0,0:0:0:0:
262,130,2194,2,0,P|264:173|284:206,1,60,2|0,0:0|0:3,0:0:0:0:
277,197,2431,1,0,0:3:0:0:
284,205,2510,2,0,L|147:176,1,120,2|0,0:0|0:0,0:0:0:0:
114,261,3141,2,0,P|135:306|120:377,1,120,2|2,0:0|0:0,0:0:0:0:
42,323,3773,6,0,P|122:289|257:384,1,240,2|2,0:0|0:0,0:0:0:0:
267,241,4720,1,0,0:0:0:0:
267,241,5036,2,0,P|254:303|359:254,1,240,2|2,0:0|0:0,0:0:0:0:
339,177,5983,1,2,0:0:0:0:
402,104,6299,6,0,P|367:63|297:42,1,120,2|0,0:0|0:0,0:0:0:0:
213,15,6931,2,0,P|159:24|106:74,1,120,0|2,0:0|0:0,0:0:0:0:
33,123,7562,2,0,P|30:189|106:275,1,180,2|0,0:0|0:0,0:0:0:0:
110,277,8115,1,0,0:0:0:0:
120,281,8194,2,0,P|111:252|121:207,1,60,2|0,0:0|0:0,0:0:0:0:
181,182,8510,2,0,P|201:159|245:145,1,60,2|0,0:0|0:0,0:0:0:0:
303,172,8825,1,2,0:0:0:0:
472,48,9457,5,2,0:0:0:0:
381,317,10089,1,2,0:0:0:0:
136,67,10720,1,2,0:0:0:0:
48,341,11352,6,0,L|170:324,1,120,0|0,1:1|1:1,0:0:0:0:
228,373,11825,1,0,1:1:0:0:
305,361,11983,2,0,L|335:356,7,30,4|8|8|8|8|8|8|8,1:1|0:1|0:1|0:1|0:1|0:1|0:1|0:1,0:1:0:0:
367,380,12615,6,0,L|397:263,1,120,0|0,1:1|1:1,0:0:0:0:
339,186,13089,1,0,1:1:0:0:
378,98,13247,2,0,L|370:68,7,30,4|8|8|8|8|8|8|8,1:1|0:1|0:1|0:1|0:1|0:1|0:1|0:1,0:1:0:0:
402,46,13878,6,0,L|280:29,1,120,0|0,1:1|1:1,0:0:0:0:
222,78,14352,1,0,1:1:0:0:
145,64,14510,2,0,L|114:59,7,30,4|8|8|8|8|8|8|8,1:1|0:1|0:1|0:1|0:1|0:1|0:1|0:1,0:1:0:0:
85,84,15141,5,0,1:1:0:0:
148,280,15457,2,0,L|155:323,2,40,8|8|8,0:1|0:1|0:1,0:0:0:0:
131,267,15773,2,0,L|253:250,1,120,4|8,1:1|0:1,0:1:0:0:
181,110,16404,5,0,1:1:0:0:
294,3,16720,2,0,L|361:10,1,60,0|0,1:1|1:1,0:0:0:0:
418,54,17036,2,0,L|448:57,7,30,4|8|8|8|8|8|8|8,1:1|0:1|0:1|0:1|0:1|0:1|0:1|0:1,0:1:0:0:
485,45,17668,6,0,L|466:164,1,120,0|0,1:1|1:1,0:0:0:0:
333,302,18299,2,0,L|324:361,1,60,4|0,1:1|1:1,0:1:0:0:
249,383,18615,2,0,P|214:337|246:264,1,120,2|4,0:0|0:0,0:0:0:0:
126,359,19247,5,0,0:0:0:0:
126,359,19562,2,0,P|158:308|143:184,1,179.999994506836,2|2,0:0|0:0,0:0:0:0:
80,132,20510,1,2,0:0:0:0:
115,48,20825,1,2,0:0:0:0:
206,56,21141,1,0,0:0:0:0:
227,145,21457,5,2,0:0:0:0:
115,48,22089,1,2,0:0:0:0:
149,192,22720,2,0,B|171:241|165:301|136:345|136:345|102:392|40:370|21:306|88:258|132:306,1,360,2|8,0:0|0:1,0:0:0:0:
123,298,25247,5,2,0:0:0:0:
256,192,25325,12,0,27141,0:0:0:0:
274,248,27773,6,0,P|191:238|179:167,1,150,4|8,3:2|0:0,0:0:0:0:
104,138,28247,2,0,L|268:119,1,150,0|0,3:0|3:0,0:0:0:0:
309,49,28720,1,8,0:0:0:0:
443,71,28957,1,0,1:0:0:0:
432,87,29036,2,0,P|414:146|446:205,1,112.5,0|0,3:0|1:0,0:0:0:0:
432,191,29352,2,0,L|520:181,1,75,8|2,0:0|3:2,0:0:0:0:
466,286,29668,2,0,L|391:277,1,75,2|0,0:2|3:0,0:0:0:0:
314,324,29983,2,0,L|239:315,1,75,8|4,0:0|0:3,0:0:0:0:
167,259,30299,6,0,P|136:298|133:345,1,75,0|0,3:0|0:0,0:0:0:0:
131,321,30536,1,2,0:0:0:0:
131,321,30615,1,8,0:0:0:0:
48,356,30773,1,0,3:0:0:0:
13,273,30931,2,0,P|9:214|70:127,1,150,2|8,0:0|0:0,0:0:0:0:
27,5,31483,5,0,1:0:0:0:
22,23,31562,2,0,B|49:17|49:17|156:34,1,112.5,2|0,3:2|1:0,0:0:0:0:
152,34,31878,1,8,0:0:0:0:
186,117,32036,2,0,L|130:127,2,37.5,8|8|2,0:1|0:1|3:2,0:0:0:0:
284,105,32352,1,0,3:0:0:0:
388,98,32510,1,8,1:2:0:0:
388,98,32589,1,0,1:0:0:0:
388,98,32668,1,0,1:0:0:0:
490,37,32825,6,0,B|468:79|468:79|484:189,1,150,4|8,3:2|0:0,0:0:0:0:
420,238,33299,1,2,3:2:0:0:
465,310,33457,2,0,B|482:359|482:359|380:314,1,150,2|8,0:0|0:0,0:0:0:0:
271,364,34010,1,0,1:0:0:0:
286,375,34089,2,0,B|300:350|300:350|273:221,1,150,0|8,3:0|0:0,0:0:0:0:
323,156,34562,2,0,L|164:125,1,150,2|0,3:2|3:0,0:0:0:0:
93,161,35036,1,8,0:0:0:0:
93,161,35194,1,4,0:3:0:0:
14,204,35352,6,0,P|61:207|115:311,1,150,2|8,3:2|0:0,0:0:0:0:
135,365,35825,2,0,P|168:300|239:284,1,150,0|0,3:0|3:0,0:0:0:0:
209,211,36299,2,0,P|161:186|140:117,1,112.5,8|0,0:0|1:0,0:0:0:0:
139,134,36615,6,0,P|196:101|191:26,1,112.5,2|0,3:2|3:0,0:0:0:0:
246,40,36931,2,0,L|257:135,1,75,8|0,0:0|3:0,0:0:0:0:
262,123,37168,1,2,0:2:0:0:
269,132,37247,2,0,B|292:117|292:117|346:110,1,75,2|2,0:0|3:2,0:0:0:0:
414,159,37562,2,0,L|402:210,3,37.5,10|0|8|8,0:2|0:0|0:1|0:1,0:0:0:0:
439,225,37878,6,0,P|485:274|463:365,1,150,4|8,3:2|0:0,0:0:0:0:
386,370,38352,2,0,L|210:348,1,150,0|0,3:0|3:0,0:0:0:0:
216,264,38825,2,0,L|304:252,1,75,8|0,0:0|0:0,0:0:0:0:
330,229,39062,1,0,1:0:0:0:
330,229,39141,2,0,P|329:170|271:129,1,112.5,2|0,3:2|1:0,0:0:0:0:
292,134,39457,2,0,P|252:157|234:192,1,75,8|2,0:0|3:2,0:0:0:0:
173,117,39773,2,0,L|11:102,1,150,2|8,0:0|0:0,0:0:0:0:
83,36,40247,5,4,0:3:0:0:
83,36,40404,2,0,B|69:66|69:66|85:192,1,150,0|8,3:0|0:0,0:0:0:0:
34,259,40878,1,2,3:2:0:0:
34,259,40957,1,2,0:0:0:0:
34,259,41036,2,0,L|-16:238,2,37.5,2|2|0,0:0|0:0|3:0,0:0:0:0:
76,338,41352,2,0,B|101:314|101:314|207:293,1,112.5,8|0,0:0|1:0,0:0:0:0:
216,322,41668,6,0,P|281:288|283:231,1,112.5,0|0,3:0|1:0,0:0:0:0:
273,212,41983,2,0,L|281:127,1,75,8|0,0:0|3:0,0:0:0:0:
342,71,42299,2,0,L|384:75,3,37.5,2|2|2|2,0:0|0:0|3:2|0:0,0:0:0:0:
421,56,42615,2,0,L|431:161,1,75,8|4,0:0|0:3,0:0:0:0:
392,213,42931,6,0,L|472:242,1,75,12|0,0:2|3:0,0:0:0:0:
400,304,43247,2,0,L|454:369,1,75,8|0,0:0|3:0,0:0:0:0:
311,306,43562,2,0,L|325:390,1,75,8|0,0:0|3:0,0:0:0:0:
323,379,43799,1,0,3:1:0:0:
323,379,43878,1,8,0:0:0:0:
236,355,44036,1,0,3:0:0:0:
149,378,44194,6,0,L|163:293,1,75,8|0,0:0|3:0,0:0:0:0:
76,272,44510,2,0,L|130:206,1,75,8|0,0:0|3:0,0:0:0:0:
122,215,44747,1,0,3:1:0:0:
122,215,44825,1,8,0:0:0:0:
24,79,45141,2,0,L|20:41,3,37.5,8|8|8|8,0:0|0:1|0:1|0:1,0:0:0:0:
64,99,45457,6,0,B|104:80|104:80|152:16,2,112.5,4|0|0,0:0|3:0|3:0,0:0:0:0:
50,189,46089,2,0,L|225:165,1,150,2|2,1:2|0:0,0:0:0:0:
289,194,46562,1,2,0:0:0:0:
289,194,46720,2,0,L|464:170,1,150,0|2,3:0|0:0,0:0:0:0:
478,92,47194,2,0,L|487:14,2,75,0|0|0,3:0|1:0|3:0,0:0:0:0:
460,275,47825,5,0,3:0:0:0:
460,275,47983,2,0,B|472:317|472:317|457:395,2,112.5,2|0|0,0:0|3:0|3:0,0:0:0:0:
390,320,48615,2,0,L|215:296,1,150,2|0,1:2|0:0,0:0:0:0:
292,225,49089,1,4,0:3:0:0:
292,225,49247,2,0,L|117:201,1,150,0|0,3:0|0:0,0:0:0:0:
161,116,49720,1,0,3:0:0:0:
73,137,49878,2,0,L|-21:124,1,75,0|0,1:0|3:0,0:0:0:0:
95,285,50352,5,0,3:0:0:0:
95,285,50510,2,0,P|43:321|22:379,2,112.5,2|0|0,0:0|3:0|3:0,0:0:0:0:
183,299,51141,2,0,L|358:275,1,150,2|0,1:2|0:0,0:0:0:0:
409,342,51615,1,8,0:1:0:0:
409,342,51694,1,8,0:1:0:0:
409,342,51773,2,0,B|427:382|427:382|345:355,2,112.5,8|0|0,0:1|1:0|3:0,0:0:0:0:
463,269,52404,5,0,1:1:0:0:
450,187,52562,1,0,1:1:0:0:
437,105,52720,1,4,0:3:0:0:
440,98,52799,1,8,0:1:0:0:
443,91,52878,2,0,L|433:24,1,37.5,8|8,0:1|0:1,0:0:0:0:
500,0,53036,5,6,0:2:0:0:
442,41,63141,5,4,3:2:0:0:
463,159,63457,1,0,3:0:0:0:
345,180,63773,1,0,3:0:0:0:
324,62,64089,1,0,3:0:0:0:
227,201,64404,5,0,3:0:0:0:
206,319,64720,1,0,3:0:0:0:
324,340,65036,1,0,3:0:0:0:
442,361,65352,1,0,3:0:0:0:
324,340,65668,5,0,3:0:0:0:
206,319,65983,1,0,3:0:0:0:
227,201,66299,1,0,3:0:0:0:
109,180,66615,1,0,3:0:0:0:
3,16,66931,5,0,3:0:0:0:
24,134,67247,1,0,3:0:0:0:
45,252,67562,1,0,3:0:0:0:
66,370,67878,1,0,3:0:0:0:
45,252,68194,6,0,L|41:284,2,30
41,281,69457,5,0,3:0:0:0:
155,351,69694,1,0,3:0:0:0:
163,342,69773,2,0,L|158:303,2,37.5,0|0|0,1:0|1:0|3:0,0:0:0:0:
252,330,70089,1,0,3:0:0:0:
260,321,70168,2,0,L|255:282,2,37.5,0|0|0,1:0|1:0|1:0,0:0:0:0:
304,319,70404,2,0,L|299:358,3,37.5,8|8|8|8,3:1|0:1|0:1|0:1,0:0:0:0:
336,383,70720,6,0,P|385:358|364:256,1,150,4|8,3:2|0:0,0:0:0:0:
416,187,71194,2,0,L|441:5,1,150,0|0,3:0|3:0,0:0:0:0:
351,5,71668,2,0,P|329:48|247:52,1,112.5,8|0,0:0|1:0,0:0:0:0:
236,85,71983,2,0,P|201:61|145:56,1,75,0|0,3:0|0:0,0:0:0:0:
169,54,72220,1,0,1:0:0:0:
169,54,72299,1,8,0:0:0:0:
87,15,72457,2,0,B|94:45|94:45|67:185,1,150,2|0,3:2|3:0,0:0:0:0:
53,253,72931,1,8,0:0:0:0:
53,253,73089,1,4,0:3:0:0:
127,303,73247,6,0,P|100:297|14:361,2,112.5,12|4|8,0:2|0:3|0:0,0:0:0:0:
204,348,73878,2,0,L|340:370,1,112.5,0|0,3:0|1:0,0:0:0:0:
352,384,74194,2,0,L|338:300,1,75,8|0,0:0|3:0,0:0:0:0:
418,261,74510,5,0,3:0:0:0:
418,261,74589,1,0,3:0:0:0:
418,261,74668,2,0,L|433:178,1,75,8|0,0:0|0:0,0:0:0:0:
398,103,74983,2,0,L|389:50,2,37.5,8|8|8,0:1|0:1|0:1,0:0:0:0:
38,231,75615,5,0,3:0:0:0:
38,231,75694,1,0,3:0:0:0:
38,231,75773,2,0,L|15:315,1,60,12|0,0:0|3:0,0:0:0:0:
84,347,76089,2,0,L|168:323,1,60,8|0,0:0|3:0,0:0:0:0:
166,250,76404,2,0,L|103:188,1,60,8|0,0:0|3:0,0:0:0:0:
62,149,76720,2,0,P|68:120|98:87,1,60,8|0,0:0|1:0,0:0:0:0:
126,77,76957,1,0,1:0:0:0:
126,77,77036,6,0,L|113:16,3,37.5,0|0|0|0,1:0|1:0|1:0|1:0,0:0:0:0:
199,60,77352,2,0,L|186:-1,3,37.5,0|0|0|0,1:0|1:0|1:0|1:0,0:0:0:0:
272,75,77668,6,0,L|259:136,3,41.2500012588501,8|8|8|8,3:1|0:1|3:1|0:1,0:0:0:0:
348,73,77983,2,0,L|335:134,3,41.2500012588501,8|8|8|8,3:1|0:1|3:1|0:1,0:0:0:0:
392,12,78299,6,0,P|379:70|488:117,1,179.999994506836,6|10,3:2|0:0,0:0:0:0:
446,215,78773,1,0,0:0:0:0:
446,215,78931,2,0,L|465:319,1,89.9999972534181,2|0,0:0|3:0,0:0:0:0:
354,229,79247,2,0,L|373:125,1,89.9999972534181,10|0,0:0|0:0,0:0:0:0:
287,291,79562,6,0,L|183:310,1,89.9999972534181,2|0,3:2|0:0,0:0:0:0:
108,294,79878,2,0,L|212:275,1,89.9999972534181,10|0,0:0|3:0,0:0:0:0:
222,190,80194,2,0,L|118:209,1,89.9999972534181,2|0,0:0|3:0,0:0:0:0:
43,193,80510,2,0,L|147:174,1,89.9999972534181,10|4,0:0|0:3,0:0:0:0:
168,94,80825,6,0,P|141:38|31:41,2,179.999994506836,2|8|2,3:2|0:0|0:0,0:0:0:0:
131,176,81615,1,0,3:0:0:0:
163,259,81773,2,0,P|179:315|152:380,1,89.9999972534181,8|0,0:0|0:0,0:0:0:0:
257,379,82089,2,0,L|280:175,1,179.999994506836,2|8,3:2|0:0,0:0:0:0:
363,239,82562,1,0,3:0:0:0:
363,239,82720,2,0,P|362:277|399:330,1,89.9999972534181,2|0,0:0|3:0,0:0:0:0:
422,174,83036,2,0,P|423:136|386:83,1,89.9999972534181,8|4,0:0|0:3,0:0:0:0:
387,86,83273,1,2,0:0:0:0:
377,79,83352,6,0,P|304:141|202:88,2,179.999994506836,6|8|2,3:2|0:0|0:0,0:0:0:0:
439,14,84141,1,0,3:0:0:0:
494,85,84299,2,0,L|503:192,1,89.9999972534181,10|2,0:0|0:0,0:0:0:0:
495,186,84536,1,0,0:0:0:0:
488,197,84615,2,0,P|430:244|444:353,1,179.999994506836,2|8,3:2|0:0,0:0:0:0:
508,288,85089,1,0,3:0:0:0:
333,245,85404,5,0,3:0:0:0:
287,325,85562,1,10,0:0:0:0:
287,325,85641,1,2,0:0:0:0:
287,325,85720,2,0,L|226:333,1,44.999998626709,4|2,0:3|0:0,0:0:0:0:
206,302,85878,2,0,P|157:335|114:336,1,89.9999972534181,6|0,3:2|0:0,0:0:0:0:
51,288,86194,2,0,P|46:229|67:191,1,89.9999972534181,10|0,0:0|0:0,0:0:0:0:
8,126,86510,2,0,P|57:159|100:160,1,89.9999972534181,2|0,0:0|3:0,0:0:0:0:
163,112,86825,2,0,P|168:53|147:15,1,89.9999972534181,10|0,0:0|0:0,0:0:0:0:
245,15,87141,6,0,B|261:44|261:44|240:209,1,179.999994506836,2|8,3:2|0:0,0:0:0:0:
309,250,87615,1,2,3:2:0:0:
300,260,87694,1,2,0:2:0:0:
291,270,87773,2,0,L|302:335,3,44.999998626709,2|2|2|2,3:2|0:2|3:2|0:2,0:0:0:0:
335,340,88089,2,0,L|346:405,3,44.999998626709,8|8|8|8,3:1|0:1|3:1|0:1,0:0:0:0:
384,368,88404,6,0,P|461:377|499:295,1,150,4|0,0:0|1:0,0:0:0:0:
434,275,88878,1,2,0:0:0:0:
434,275,88957,1,2,0:0:0:0:
434,275,89036,2,0,P|437:234|414:182,1,75,2|0,0:0|0:0,0:0:0:0:
512,173,89352,2,0,P|498:135|503:83,1,75,0|0,1:0|0:0,0:0:0:0:
455,23,89668,6,0,B|435:48|435:48|310:65,1,150,2|0,3:2|1:0,0:0:0:0:
242,17,90141,2,0,P|286:65|261:172,1,150,0|2,3:0|0:0,0:0:0:0:
323,227,90615,1,2,1:2:0:0:
262,296,90773,2,0,L|271:354,1,37.5,4|0,0:3|1:0,0:0:0:0:
243,371,90931,6,0,B|223:346|223:346|98:329,1,150,2|0,3:2|1:0,0:0:0:0:
32,286,91404,1,0,3:0:0:0:
32,286,91562,2,0,L|19:195,1,75,2|0,0:0|3:0,0:0:0:0:
104,172,91878,2,0,L|117:263,1,75,2|0,1:2|0:0,0:0:0:0:
204,258,92194,2,0,P|274:258|309:179,1,150,0|2,3:0|1:2,0:0:0:0:
360,117,92668,1,0,0:0:0:0:
360,117,92825,2,0,P|324:54|253:53,1,150,2|0,0:0|1:0,0:0:0:0:
172,93,93299,1,4,0:3:0:0:
116,22,93457,5,4,3:2:0:0:
14,171,93773,1,0,1:0:0:0:
14,171,93931,2,0,L|-3:343,1,150,0|0,3:0|0:0,0:0:0:0:
64,383,94404,1,2,1:2:0:0:
224,298,94720,2,0,L|317:310,1,75,0|2,3:0|0:0,0:0:0:0:
381,346,95036,2,0,L|474:358,1,75,0|0,1:0|0:0,0:0:0:0:
495,274,95352,2,0,L|402:262,1,75,2|0,0:0|3:0,0:0:0:0:
338,226,95668,2,0,L|245:214,1,75,2|4,1:2|0:3,0:0:0:0:
232,133,95983,6,0,P|230:81|324:31,1,150,2|0,3:2|1:0,0:0:0:0:
392,6,96457,1,0,3:0:0:0:
460,64,96615,2,0,L|470:166,1,75,0|0,1:0|3:0,0:0:0:0:
467,139,96852,1,0,3:0:0:0:
467,139,96931,1,0,1:0:0:0:
426,222,97089,1,0,3:0:0:0:
487,287,97247,6,0,L|500:348,3,37.5,4|0|0|0,1:2|1:0|1:0|1:0,0:0:0:0:
417,307,97562,2,0,L|430:368,3,37.5,0|0|0|0,1:0|1:0|1:0|1:0,0:0:0:0:
363,258,97878,6,0,L|376:197,3,41.2500012588501,8|8|8|8,3:1|0:1|3:1|0:1,0:0:0:0:
293,242,98194,2,0,L|306:181,3,41.2500012588501,8|8|8|8,3:1|0:1|3:1|0:1,0:1:0:0:
233,180,98510,6,0,P|166:153|106:231,1,179.999994506836,6|10,3:2|0:0,0:0:0:0:
43,285,98983,1,0,0:0:0:0:
43,285,99141,2,0,L|57:402,1,89.9999972534181,2|0,0:0|3:0,0:0:0:0:
0,202,99457,2,0,L|14:85,1,89.9999972534181,10|0,0:0|0:0,0:0:0:0:
67,41,99773,6,0,P|121:44|159:14,1,89.9999972534181,2|0,3:2|0:0,0:0:0:0:
235,54,100089,2,0,P|181:51|143:81,1,89.9999972534181,10|0,0:0|3:0,0:0:0:0:
172,157,100404,2,0,P|226:160|264:130,1,89.9999972534181,2|0,0:0|3:0,0:0:0:0:
340,170,100720,2,0,P|286:167|248:197,1,89.9999972534181,10|4,0:0|0:3,0:0:0:0:
227,271,101036,6,0,P|190:327|88:314,2,179.999994506836,2|8|2,3:2|0:0|0:0,0:0:0:0:
293,331,101825,1,0,3:0:0:0:
380,310,101983,2,0,L|478:332,1,89.9999972534181,8|0,0:0|0:0,0:0:0:0:
507,248,102299,2,0,L|291:197,1,179.999994506836,2|8,3:2|0:0,0:0:0:0:
259,151,102773,1,0,3:0:0:0:
259,151,102931,2,0,P|206:186|154:181,1,89.9999972534181,2|0,0:0|3:0,0:0:0:0:
107,134,103247,2,0,P|50:106|29:58,1,89.9999972534181,8|4,0:0|0:3,0:0:0:0:
25,76,103483,1,2,0:0:0:0:
17,68,103562,6,0,L|30:249,2,179.999994506836,6|8|2,3:2|0:0|0:0,0:0:0:0:
86,9,104352,1,0,3:0:0:0:
162,57,104510,2,0,P|210:58|254:17,1,89.9999972534181,10|2,0:0|0:0,0:0:0:0:
257,32,104747,1,0,0:0:0:0:
270,31,104825,2,0,P|333:42|331:165,1,179.999994506836,2|8,3:2|0:0,0:0:0:0:
272,185,105299,2,0,L|249:370,1,179.999994506836,0|0,3:0|3:0,0:0:0:0:
338,344,105773,5,10,0:0:0:0:
338,344,105931,1,4,0:3:0:0:
338,344,106089,2,0,L|431:357,1,89.9999972534181,6|0,3:2|0:0,0:0:0:0:
494,297,106404,2,0,L|507:204,1,89.9999972534181,10|0,0:0|0:0,0:0:0:0:
444,141,106720,2,0,L|351:128,1,89.9999972534181,2|0,0:0|3:0,0:0:0:0:
288,188,107036,2,0,L|275:281,1,89.9999972534181,10|0,0:0|0:0,0:0:0:0:
343,338,107352,6,0,B|367:311|367:311|385:158,1,179.999994506836,2|8,3:2|0:0,0:0:0:0:
430,91,107825,1,2,3:2:0:0:
420,82,107904,1,2,0:2:0:0:
410,73,107983,2,0,L|345:84,3,44.999998626709,2|2|2|2,3:2|0:2|3:2|0:2,0:0:0:0:
324,60,108299,2,0,L|259:71,3,44.999998626709,8|8|8|8,3:1|0:1|3:1|0:1,0:0:0:0:
240,90,108615,6,0,P|218:40|118:31,1,150,4|0,0:0|1:0,0:0:0:0:
62,80,109089,1,2,0:0:0:0:
62,80,109168,1,2,0:0:0:0:
62,80,109247,2,0,L|74:179,1,75,2|0,0:0|0:0,0:0:0:0:
47,242,109562,2,0,L|59:341,1,75,0|0,1:0|0:0,0:0:0:0:
133,363,109878,6,0,L|151:192,1,150,2|0,3:2|1:0,0:0:0:0:
227,168,110352,2,0,P|282:176|295:276,1,150,0|2,3:0|0:0,0:0:0:0:
329,344,110825,1,2,1:2:0:0:
418,334,110983,2,0,L|463:345,1,37.5,4|0,0:3|1:0,0:0:0:0:
485,377,111141,6,0,B|504:338|504:338|488:216,1,150,2|0,3:2|1:0,0:0:0:0:
433,162,111615,1,0,3:0:0:0:
433,162,111773,2,0,P|458:109|451:63,1,75,2|0,0:0|1:0,0:0:0:0:
393,30,112089,2,0,P|368:83|375:129,1,75,2|0,3:2|0:0,0:0:0:0:
308,167,112404,2,0,P|328:248|280:321,1,150,0|2,3:0|1:2,0:0:0:0:
231,362,112878,1,0,0:0:0:0:
231,362,113036,2,0,P|185:321|71:327,1,150,2|0,0:0|1:0,0:0:0:0:
13,339,113510,1,4,0:3:0:0:
33,252,113668,5,4,3:2:0:0:
1,80,113983,1,0,1:0:0:0:
1,80,114141,2,0,B|27:101|27:101|160:88,1,150,0|0,3:0|0:0,0:0:0:0:
199,17,114615,1,2,1:2:0:0:
358,94,114931,2,0,P|363:133|343:185,1,75,0|2,3:0|0:0,0:0:0:0:
309,246,115247,2,0,P|277:269|222:278,1,75,0|0,1:0|0:0,0:0:0:0:
285,360,115562,2,0,P|316:336|371:327,1,75,2|0,0:0|3:0,0:0:0:0:
441,326,115878,2,0,P|477:341|512:384,1,75,2|4,1:2|0:3,0:0:0:0:
501,259,116194,6,0,L|486:86,1,150,2|0,3:2|1:0,0:0:0:0:
428,49,116668,1,0,3:0:0:0:
428,49,116825,2,0,L|323:34,1,75,0|0,1:0|3:0,0:0:0:0:
314,120,117141,2,0,L|209:135,1,75,0|0,1:0|3:0,0:0:0:0:
180,61,117457,6,0,L|75:46,1,75,4|0,1:2|1:0,0:0:0:0:
22,16,117773,1,0,1:0:0:0:
0,108,117931,1,0,1:0:0:0:
0,108,118010,1,0,1:0:0:0:
0,108,118089,2,0,L|12:173,7,37.5,8|8|8|8|8|8|8|8,3:1|0:1|3:1|0:1|3:1|0:1|3:1|0:1,0:0:0:0:
45,219,118720,6,0,L|57:154,7,41.2500012588501,4|0|0|0|0|0|0|0,1:2|1:0|1:0|1:0|1:0|1:0|1:0|1:0,0:0:0:0:
68,298,119352,2,0,L|56:363,7,44.999998626709,8|8|8|8|8|8|8|8,3:1|0:1|3:1|0:1|3:1|0:1|3:1|0:1,0:0:0:0:
143,384,119983,6,0,L|240:371,1,89.9999972534181,4|0,3:2|3:3,0:0:0:0:
232,372,120220,1,0,3:3:0:0:
232,372,120299,2,0,P|258:312|196:225,1,179.999994506836,2|2,3:2|3:2,0:0:0:0:
238,145,120773,2,0,L|229:91,2,44.999998626709,0|0|2,3:0|3:0|3:2,0:0:0:0:
325,169,121089,2,0,L|316:223,2,44.999998626709,0|0|2,3:0|3:0|3:2,0:0:0:0:
329,86,121404,1,0,3:0:0:0:
329,86,121483,1,0,3:0:0:0:
329,86,121562,2,0,B|351:53|351:53|512:23,1,179.999994506836,2|2,3:2|3:2,0:0:0:0:
468,115,122036,6,0,L|519:127,2,44.999998626709,0|0|2,3:0|3:0|3:2,0:0:0:0:
445,202,122352,2,0,L|394:214,2,44.999998626709,0|0|2,3:0|3:0|3:2,0:0:0:0:
512,277,122668,1,0,3:0:0:0:
512,277,122747,1,0,3:0:0:0:
512,277,122825,2,0,P|489:338|362:324,1,179.999994506836,2|2,3:2|3:2,0:0:0:0:
301,313,123299,6,0,L|244:340,2,44.999998626709,0|0|2,3:0|3:0|3:2,0:0:0:0:
240,245,123615,2,0,L|183:218,2,44.999998626709,0|0|10,3:0|3:0|0:2,0:0:0:0:
310,187,123931,1,0,3:0:0:0:
310,187,124010,1,0,3:0:0:0:
310,187,124089,2,0,L|291:5,1,179.999994506836,10|10,0:2|0:2,0:0:0:0:
208,42,124562,6,0,L|202:109,2,44.999998626709,0|0|10,3:0|3:0|0:2,0:0:0:0:
132,13,124878,1,0,3:0:0:0:
132,13,124957,1,0,3:0:0:0:
132,13,125036,1,4,0:0:0:0:
78,146,125352,6,0,L|45:152,3,30,8|8|8|8,0:1|0:1|0:1|0:1,0:1:0:0:
15,136,125668,2,0,L|37:278,1,120,2|2,1:2|0:0,0:0:0:0:
110,376,126299,1,2,1:2:0:0:
243,321,126615,2,0,L|276:327,3,30,8|8|8|8,0:1|0:1|0:1|0:1,0:1:0:0:
297,352,126931,2,0,L|434:336,1,120,2|2,1:2|0:0,0:0:0:0:
504,224,127562,5,2,1:2:0:0:
368,176,127878,2,0,L|335:182,3,30,8|8|8|8,0:1|0:1|0:1|0:1,0:0:0:0:
314,207,128194,2,0,L|177:191,1,120,2|2,1:2|0:0,0:0:0:0:
142,145,128668,1,2,0:0:0:0:
142,145,128825,2,0,L|158:8,1,120,2|0,1:2|0:0,0:0:0:0:
290,78,129457,1,0,1:0:0:0:
430,35,129773,5,2,0:0:0:0:
430,35,130089,2,0,L|445:182,1,120,2|8,1:2|0:1,0:0:0:0:
493,211,130562,1,8,0:1:0:0:
493,211,130720,2,0,P|453:232|425:302,1,120,2|2,1:2|0:0,0:0:0:0:
280,308,131352,2,0,P|230:357|181:349,1,120,2|0,1:2|1:0,0:0:0:0:
155,285,131825,1,0,1:0:0:0:
155,285,131983,2,0,P|259:265|363:364,1,240,2|2,1:2|1:2,0:0:0:0:
433,220,132931,6,0,L|504:209,2,60,0|0|2,1:0|1:0|1:2,0:0:0:0:
377,86,133562,2,0,L|306:75,1,60,0|0,1:0|1:0,0:0:0:0:
265,26,133878,2,0,L|138:43,1,120,0|8,1:0|0:1,0:0:0:0:
7,1,134510,1,0,1:0:0:0:
25,288,135141,5,4,1:2:0:0:
149,360,135457,2,0,L|146:302,3,30,8|8|8|0,0:1|0:1|0:1|0:0,0:0:0:0:
178,310,135773,2,0,L|197:166,1,120,2|2,1:2|0:0,0:0:0:0:
212,48,136404,1,2,1:2:0:0:
212,48,136720,1,8,0:1:0:0:
343,107,137036,2,0,L|382:113,3,30,8|8|8|8,0:1|0:1|0:1|0:1,0:1:0:0:
404,94,137352,2,0,L|443:100,3,30,8|8|8|8,0:1|0:1|0:1|0:1,0:1:0:0:
464,78,137668,6,0,L|483:222,1,120,2|8,1:2|0:1,0:0:0:0:
502,339,138299,1,2,1:2:0:0:
358,354,138615,2,0,L|364:294,2,60,2|2|4,0:2|0:2|0:0,0:0:0:0:
256,192,139010,12,0,140825,0:0:0:0:
138,338,141457,6,0,P|72:341|27:289,1,120,2|0,0:0|0:0,0:0:0:0:
59,215,142089,2,0,P|125:212|170:264,1,120,2|0,0:0|0:0,0:0:0:0:
253,279,142720,2,0,P|217:246|177:120,1,180,2|2,0:0|0:0,0:0:0:0:
182,115,143273,1,2,0:0:0:0:
187,107,143352,2,0,P|229:79|256:2,2,120,2|0|2,0:0|0:0|0:0,0:0:0:0:
374,338,146510,6,0,P|440:341|485:289,1,120,2|0,0:0|0:0,0:0:0:0:
453,215,147141,2,0,P|387:212|342:264,1,120,2|0,0:0|0:0,0:0:0:0:
259,279,147773,2,0,P|294:246|334:120,1,180,2|2,0:0|0:0,0:0:0:0:
330,115,148325,1,2,0:0:0:0:
325,107,148404,2,0,P|283:79|256:1,1,120,2|0,0:0|0:0,0:0:0:0:
348,14,149036,6,0,P|264:146|166:9,1,378.000004614258,2|2,0:0|0:0,0:0:0:0:
