osu file format v14

[General]
AudioFilename: audio.mp3
AudioLeadIn: 0
PreviewTime: 78213
Countdown: 0
SampleSet: Soft
StackLeniency: 0.7
Mode: 0
LetterboxInBreaks: 0
WidescreenStoryboard: 1

[Editor]
Bookmarks: 27766,63134
DistanceSpacing: 1
BeatDivisor: 4
GridSize: 32
TimelineZoom: 1.9

[Metadata]
Title:Give Me a Nightmare
TitleUnicode:Give Me a Nightmare
Artist:Alice Schach and the Magic Orchestra
ArtistUnicode:アリスシャッハと魔法の楽団
Creator:Aeril
Version:PAST
Source:Arcaea
Tags:co2021 corsace open co21 sf semifinals hr2 yuni minami 南ゆに nene akagawa 赤川ねね lowiro rhythm video game alician アリス語 -akamatsukaede- shijie other electronic
BeatmapID:3205653
BeatmapSetID:1569814

[Difficulty]
HPDrainRate:4
CircleSize:3
OverallDifficulty:4
ApproachRate:5
SliderMultiplier:1.3
SliderTickRate:1

[Events]
//Background and Video events
0,0,"nightmare.jpg",0,0
//Break Periods
2,22920,24047
2,53236,61878
2,144183,145310
//Storyboard Layer 0 (Background)
//Storyboard Layer 1 (Fail)
//Storyboard Layer 2 (Pass)
//Storyboard Layer 3 (Foreground)
//Storyboard Layer 4 (Overlay)
//Storyboard Sound Samples

[TimingPoints]
1247,315.789473684211,4,2,1,45,1,0
1247,-133.333333333333,4,2,1,45,0,0
11352,-133.333333333333,4,2,1,50,0,0
11983,-133.333333333333,4,2,1,35,0,0
12062,-133.333333333333,4,2,1,25,0,0
12615,-133.333333333333,4,2,1,50,0,0
13247,-133.333333333333,4,2,1,35,0,0
13325,-133.333333333333,4,2,1,25,0,0
13878,-133.333333333333,4,2,1,50,0,0
14510,-133.333333333333,4,2,1,35,0,0
14589,-133.333333333333,4,2,1,25,0,0
15141,-133.333333333333,4,2,1,50,0,0
15773,-133.333333333333,4,2,1,35,0,0
15852,-133.333333333333,4,2,1,25,0,0
16404,-133.333333333333,4,2,1,50,0,0
17036,-133.333333333333,4,2,1,35,0,0
17115,-133.333333333333,4,2,1,25,0,0
17668,-133.333333333333,4,2,1,50,0,0
18299,-133.333333333333,4,2,1,35,0,0
18615,-133.333333333333,4,2,1,50,0,0
19247,-133.333333333333,4,2,1,45,0,0
23036,-133.333333333333,4,2,1,25,0,0
23352,-133.333333333333,4,2,1,35,0,0
23668,-133.333333333333,4,2,1,45,0,0
25247,-133.333333333333,4,2,1,30,0,0
25878,-133.333333333333,4,2,1,40,0,0
26510,-133.333333333333,4,2,1,50,0,0
27141,-133.333333333333,4,2,1,5,0,0
27773,-100,4,2,1,60,0,0
45457,-100,4,2,1,50,0,0
52404,-100,4,2,1,60,0,0
53036,-100,4,2,1,35,0,0
63062,-100,4,2,1,5,0,0
63141,-100,4,2,1,45,0,0
68194,-100,4,2,1,40,0,0
68825,-100,4,2,1,5,0,0
69457,-100,4,2,1,50,0,0
70720,-100,4,2,1,60,0,0
78299,-100,4,2,1,70,0,1
88404,-100,4,2,1,60,0,0
97247,-100,4,2,1,65,0,0
98510,-100,4,2,1,70,0,1
108615,-100,4,2,1,60,0,0
118720,-100,4,2,1,55,0,0
119352,-100,4,2,1,65,0,0
119983,-100,4,2,1,60,0,0
125036,-100,4,2,1,45,0,0
125352,-100,4,2,1,25,0,0
125668,-100,4,2,1,35,0,0
126615,-100,4,2,1,25,0,0
126931,-100,4,2,1,35,0,0
127878,-100,4,2,1,25,0,0
128194,-100,4,2,1,35,0,0
130404,-100,4,2,1,25,0,0
130720,-100,4,2,1,35,0,0
134194,-100,4,2,1,25,0,0
134510,-100,4,2,1,35,0,0
135457,-100,4,2,1,25,0,0
135773,-100,4,2,1,35,0,0
136720,-100,4,2,1,25,0,0
137668,-100,4,2,1,35,0,0
137983,-100,4,2,1,25,0,0
138299,-100,4,2,1,35,0,0
138931,-100,4,2,1,45,0,0
140115,-100,4,2,1,5,0,0
140194,-100,4,2,1,45,0,0
141457,-133.333333333333,4,2,1,35,0,0
149036,-192.307692307692,4,2,1,35,0,0

[Colours]
Combo1 : 250,122,170
Combo2 : 154,252,216
Combo3 : 130,14,180
Combo4 : 150,250,250

[HitObjects]
469,341,1247,6,0,P|446:291|308:282,1,195.00000743866,2|0,0:0|0:0,0:0:0:0:
249,340,2194,1,2,0:0:0:0:
157,305,2510,2,0,L|44:317,1,97.50000371933,2|0,0:0|0:0,0:0:0:0:
19,226,3141,2,0,L|132:214,1,97.50000371933,2|2,0:0|0:0,0:0:0:0:
180,141,3773,2,0,B|248:137|263:176|265:176|268:176|306:224|366:199,1,195.00000743866,2|2,0:0|0:0,0:0:0:0:
68,39,5668,5,2,0:0:0:0:
68,39,5983,1,2,0:0:0:0:
68,39,6299,2,0,P|125:33|173:154,1,195.00000743866,2|0,0:0|0:0,0:0:0:0:
113,212,7247,1,2,0:0:0:0:
188,273,7562,2,0,P|220:313|220:373,1,97.50000371933,2|0,0:0|0:0,0:0:0:0:
318,383,8194,2,0,L|424:361,1,97.50000371933,2|2,0:0|0:0,0:0:0:0:
479,291,8825,2,0,B|495:225|460:202|460:200|461:197|421:151|457:97,2,195.00000743866,2|2|2,0:0|0:0|0:0,0:0:0:0:
441,0,11036,5,2,0:0:0:0:
344,14,11352,2,0,P|317:49|323:117,1,97.50000371933,0|0,1:1|1:1,0:0:0:0:
337,144,11825,1,0,1:1:0:0:
337,144,11983,2,0,L|322:258,1,97.50000371933,4|8,1:1|0:1,0:1:0:0:
371,326,12615,2,0,P|339:325|279:382,1,97.50000371933,0|0,1:1|1:1,0:0:0:0:
252,336,13089,1,0,1:1:0:0:
252,336,13247,1,4,1:1:0:0:
155,348,13562,6,0,L|88:339,1,48.750001859665,8|8,0:1|0:1,0:0:0:0:
58,334,13878,1,0,1:1:0:0:
42,237,14194,2,0,L|35:177,1,48.750001859665,0|0,1:1|1:1,0:0:0:0:
60,145,14510,2,0,P|125:157|159:194,1,97.50000371933,4|8,1:1|0:1,0:1:0:0:
244,167,15141,2,0,P|296:231|410:216,1,195.00000743866,0|4,1:1|1:1,0:0:0:0:
466,164,16089,1,8,0:1:0:0:
488,69,16404,6,0,P|431:69|387:105,1,97.50000371933,0|0,1:1|1:1,0:0:0:0:
361,66,16878,1,0,1:1:0:0:
361,66,17036,2,0,L|254:55,1,97.50000371933,4|8,1:1|0:1,0:1:0:0:
185,114,17668,2,0,P|152:65|155:7,1,97.50000371933,0|0,1:1|1:1,0:0:0:0:
52,19,18299,2,0,P|45:66|16:105,1,97.50000371933,4|2,1:1|0:0,0:1:0:0:
94,162,18931,1,4,0:0:0:0:
209,324,19878,5,0,0:0:0:0:
162,239,20194,1,2,0:0:0:0:
228,167,20510,1,2,0:0:0:0:
316,208,20825,1,2,0:0:0:0:
305,305,21141,1,0,0:0:0:0:
381,366,21457,6,0,P|455:338|453:203,2,195.00000743866,2|2|2,0:0|0:0|0:0,0:0:0:0:
256,192,25247,12,0,27141,0:0:0:0:
477,99,27773,6,0,L|311:114,1,130,4|8,3:2|0:0,0:0:0:0:
288,82,28247,2,0,L|122:97,1,130,0|0,3:0|3:0,0:0:0:0:
96,73,28720,1,8,0:0:0:0:
12,172,29036,2,0,B|73:194|73:194|106:252,1,130,0|8,3:0|0:0,0:0:0:0:
139,314,29510,1,2,3:2:0:0:
139,314,29668,2,0,P|194:270|272:281,1,130,2|8,0:2|0:0,0:0:0:0:
346,359,30299,6,0,B|379:327|379:327|398:206,1,130,0|8,3:0|0:0,0:0:0:0:
450,215,30773,2,0,B|417:183|417:183|398:62,1,130,0|0,3:0|3:0,0:0:0:0:
398,34,31247,1,8,0:0:0:0:
271,3,31562,2,0,L|258:177,1,130,2|8,3:2|0:0,0:0:0:0:
308,185,32036,1,8,0:1:0:0:
308,185,32194,2,0,P|256:235|261:320,1,130,2|8,3:2|1:2,0:0:0:0:
134,349,32825,6,0,B|72:380|72:380|101:251,1,195,4|2,3:2|3:2,0:0:0:0:
158,228,33457,2,0,B|129:199|129:199|117:83,1,130,2|8,0:0|0:0,0:0:0:0:
229,40,34089,2,0,P|305:63|330:133,1,130,0|8,3:0|0:0,0:0:0:0:
395,95,34562,1,2,3:2:0:0:
395,95,34720,2,0,L|376:232,1,130,2|8,0:0|0:0,0:0:0:0:
445,333,35352,6,0,L|308:352,1,130,2|8,3:2|0:0,0:0:0:0:
261,315,35825,2,0,P|251:247|291:189,1,130,0|0,3:0|3:0,0:0:0:0:
259,135,36299,1,8,0:0:0:0:
212,13,36615,1,2,3:2:0:0:
90,60,36931,1,8,0:0:0:0:
137,182,37247,2,0,L|119:267,1,65,2|2,0:0|3:2,0:0:0:0:
163,296,37562,2,0,L|145:380,1,65,10|8,0:2|0:1,0:0:0:0:
212,379,37878,6,0,B|255:297|337:300|337:300|329:323|340:350,1,195,4|0,3:2|3:0,0:0:0:0:
397,358,38510,2,0,P|434:289|406:232,1,130,0|8,0:0|0:0,0:0:0:0:
397,114,39141,2,0,L|515:85,2,97.5,2|0|2,3:2|1:0|3:2,0:0:0:0:
336,139,39773,2,0,P|294:102|288:26,1,130,2|8,0:0|0:0,0:0:0:0:
159,59,40404,6,0,L|143:268,1,195,0|2,3:0|3:2,0:0:0:0:
86,285,41036,2,0,P|141:321|160:400,1,130,2|8,0:0|0:0,0:0:0:0:
286,342,41668,2,0,P|358:353|403:318,1,130,0|8,3:0|0:0,0:0:0:0:
425,263,42141,1,0,3:0:0:0:
425,263,42299,2,0,P|371:228|309:242,1,130,2|8,0:0|0:0,0:0:0:0:
200,312,42931,5,12,0:2:0:0:
72,285,43247,1,8,0:0:0:0:
99,157,43562,2,0,L|86:85,2,65,8|0|8,0:0|3:0|0:0,0:0:0:0:
227,184,44194,5,8,0:0:0:0:
252,311,44510,2,0,L|240:374,2,65,8|0|8,0:0|3:0|0:0,0:0:0:0:
356,234,45141,2,0,L|344:170,1,65,8|8,0:0|0:1,0:0:0:0:
330,106,45457,6,0,B|328:83|328:83|358:-3,2,97.5,4|0|0,0:0|3:0|3:0,0:0:0:0:
391,129,46089,1,2,1:2:0:0:
511,289,46562,5,2,0:0:0:0:
511,289,46720,2,0,P|447:291|394:360,1,130,0|2,3:0|0:0,0:0:0:0:
340,340,47194,1,0,3:0:0:0:
340,340,47352,2,0,L|316:197,1,130,0|2,1:0|0:0,0:0:0:0:
236,110,47983,6,0,B|213:112|213:112|127:82,2,97.5,2|0|0,0:0|3:0|3:0,0:0:0:0:
279,61,48615,1,2,1:2:0:0:
126,182,49089,5,4,0:3:0:0:
126,182,49247,2,0,P|158:230|117:306,1,130,0|0,3:0|0:0,0:0:0:0:
86,336,49720,2,0,L|7:349,2,65,0|0|0,3:0|1:0|3:0,0:0:0:0:
218,361,50352,5,0,3:0:0:0:
218,361,50510,2,0,B|241:359|241:359|327:389,2,97.5,2|0|0,0:0|3:0|3:0,0:0:0:0:
250,304,51141,2,0,L|263:148,1,130,2|0,1:2|0:0,0:0:0:0:
370,103,51773,2,0,L|357:259,1,130,8|0,0:1|0:0,0:0:0:0:
394,367,52404,5,0,1:1:0:0:
394,367,52562,1,0,1:1:0:0:
394,367,52720,2,0,L|477:380,1,65,4|8,0:3|0:1,0:0:0:0:
508,335,53036,1,6,0:2:0:0:
70,371,63141,6,0,L|57:230,1,130,4|0,3:2|3:0,0:0:0:0:
141,140,63773,2,0,L|128:-1,1,130,0|0,3:0|3:0,0:0:0:0:
242,74,64404,6,0,L|229:215,1,130,0|0,3:0|3:0,0:0:0:0:
349,255,65036,2,0,L|336:396,1,130,0|0,3:0|3:0,0:0:0:0:
460,343,65668,6,0,L|448:213,2,130,0|0|0,3:0|3:0|3:0,0:0:0:0:
337,384,66615,1,0,3:0:0:0:
249,295,66931,5,0,3:0:0:0:
249,295,67247,1,0,3:0:0:0:
312,182,67562,1,0,3:0:0:0:
254,65,67878,2,0,P|313:75|368:18,1,130,0|0,3:0|0:0,0:0:0:0:
363,32,70720,6,0,P|423:74|430:135,1,130,4|8,3:2|0:0,0:0:0:0:
485,173,71194,1,0,3:0:0:0:
485,173,71352,2,0,P|428:182|390:247,1,130,2|8,0:0|0:0,0:0:0:0:
336,357,71983,2,0,L|190:340,1,130,0|8,3:0|0:0,0:0:0:0:
148,371,72457,2,0,P|123:306|147:246,1,130,2|0,3:2|3:0,0:0:0:0:
101,200,72931,1,8,0:0:0:0:
197,113,73247,6,0,L|182:-4,2,97.5,12|4|8,0:2|0:3|0:0,0:0:0:0:
261,101,73878,2,0,L|411:126,1,130,0|8,3:0|0:0,0:0:0:0:
463,236,74510,1,0,3:0:0:0:
463,236,74668,2,0,L|313:261,1,130,8|8,0:0|0:1,0:0:0:0:
299,311,75141,1,8,0:1:0:0:
199,70,75773,5,12,0:0:0:0:
182,199,76089,1,8,0:0:0:0:
53,183,76404,1,8,0:0:0:0:
69,53,76720,1,8,0:0:0:0:
199,70,77036,6,0,L|207:144,1,65,0|0,1:0|1:0,0:0:0:0:
181,195,77352,2,0,L|189:269,1,65,0|0,1:0|1:0,0:0:0:0:
230,309,77668,2,0,L|304:317,1,65,8|8,3:1|3:1,0:0:0:0:
352,285,77983,2,0,L|426:293,1,65,8|8,3:1|3:1,0:0:0:0:
469,330,78299,6,0,P|465:263|513:210,1,130,6|10,3:2|0:0,0:0:0:0:
467,90,78931,2,0,P|429:116|385:117,1,65,2|0,0:0|3:0,0:0:0:0:
354,86,79247,2,0,L|195:104,1,130,10|2,0:0|3:2,0:0:0:0:
100,86,79878,1,10,0:0:0:0:
100,86,80036,2,0,P|122:138|104:212,1,130,0|0,3:0|3:0,0:0:0:0:
146,259,80510,2,0,L|137:349,1,65,10|4,0:0|0:3,0:0:0:0:
201,342,80825,6,0,P|242:295|239:215,1,130,2|8,3:2|0:0,0:0:0:0:
279,103,81457,2,0,P|304:69|342:52,1,65,2|0,0:0|3:0,0:0:0:0:
387,44,81773,2,0,L|371:188,1,130,8|2,0:0|3:2,0:0:0:0:
464,273,82404,1,8,0:0:0:0:
464,273,82562,2,0,P|409:289|365:368,1,130,0|0,3:0|3:0,0:0:0:0:
311,314,83036,2,0,L|230:330,1,65,8|4,0:0|0:3,0:0:0:0:
182,332,83352,2,0,P|143:285|134:210,1,130,6|8,3:2|0:0,0:0:0:0:
35,131,83983,6,0,P|81:120|105:97,1,65,2|0,0:0|3:0,0:0:0:0:
132,56,84299,1,10,0:0:0:0:
257,20,84615,2,0,P|318:17|390:69,1,130,2|8,3:2|0:0,0:0:0:0:
427,90,85089,2,0,L|402:230,1,130,0|0,3:0|3:0,0:0:0:0:
454,259,85562,1,10,0:0:0:0:
349,335,85878,6,0,P|316:293|315:201,1,130,6|10,3:2|0:0,0:0:0:0:
185,178,86510,2,0,P|204:152|212:121,2,65,2|0|10,0:0|3:0|0:0,0:0:0:0:
133,300,87141,2,0,P|76:270|12:276,1,130,2|8,3:2|0:0,0:0:0:0:
7,215,87615,1,2,3:2:0:0:
7,215,87773,2,0,L|18:142,1,65,2|2,3:2|3:2,0:0:0:0:
68,110,88089,2,0,L|79:37,1,65,8|8,3:1|3:1,0:0:0:0:
130,8,88404,5,4,0:0:0:0:
199,117,88720,2,0,P|170:153|163:177,1,65,0|2,1:0|0:0,0:0:0:0:
111,209,89036,2,0,P|154:278|145:341,1,130,2|0,0:0|1:0,0:0:0:0:
273,369,89668,2,0,P|342:367|378:308,1,130,2|0,3:2|1:0,0:0:0:0:
438,342,90141,2,0,P|415:283|470:169,1,195,0|2,3:0|1:2,0:0:0:0:
451,40,90931,6,0,L|296:26,1,130,2|0,3:2|1:0,0:0:0:0:
266,63,91404,2,0,L|111:49,1,130,0|0,3:0|3:0,0:0:0:0:
80,17,91878,1,2,1:2:0:0:
6,124,92194,2,0,P|54:141|75:218,1,130,0|2,3:0|1:2,0:0:0:0:
69,341,92825,2,0,L|-4:372,2,65,2|0|0,0:0|3:0|1:0,0:0:0:0:
120,300,93299,1,4,0:3:0:0:
120,300,93457,6,0,P|143:338|242:353,1,130,4|0,3:2|1:0,0:0:0:0:
261,307,93931,2,0,L|239:103,1,195,0|2,3:0|1:2,0:0:0:0:
338,27,94720,2,0,P|380:28|455:87,1,130,0|0,3:0|1:0,0:0:0:0:
492,200,95352,2,0,P|448:211|416:243,1,65,2|0,0:0|3:0,0:0:0:0:
442,291,95668,2,0,P|429:334|441:378,1,65,2|4,1:2|0:3,0:0:0:0:
372,382,95983,5,2,3:2:0:0:
259,335,96299,1,0,1:0:0:0:
259,335,96457,1,0,3:0:0:0:
259,335,96615,2,0,L|182:345,1,65,0|0,1:0|3:0,0:0:0:0:
147,297,96931,2,0,L|176:225,1,65,0|0,1:0|3:0,0:0:0:0:
179,171,97247,6,0,B|142:194|142:194|30:209,1,130,4|0,1:2|1:0,0:0:0:0:
2,87,97878,2,0,L|66:95,1,65,8|8,3:1|3:1,0:0:0:0:
115,51,98194,2,0,L|179:42,1,65,8|8,3:1|3:1,0:1:0:0:
233,4,98510,6,0,P|245:66|310:100,1,130,6|10,3:2|0:0,0:0:0:0:
393,188,99141,2,0,P|415:166|460:150,1,65,2|0,0:0|3:0,0:0:0:0:
506,176,99457,2,0,L|486:320,1,130,10|2,0:0|3:2,0:0:0:0:
374,369,100089,1,10,0:0:0:0:
374,369,100247,2,0,P|319:355|267:283,1,130,0|0,3:0|3:0,0:0:0:0:
209,319,100720,2,0,L|122:304,1,65,10|4,0:0|0:3,0:0:0:0:
84,332,101036,6,0,P|98:284|56:203,1,130,2|8,3:2|0:0,0:0:0:0:
72,82,101668,2,0,P|85:44|117:18,1,65,2|0,0:0|3:0,0:0:0:0:
165,13,101983,2,0,L|179:169,1,130,8|2,0:0|3:2,0:0:0:0:
292,202,102615,1,8,0:0:0:0:
292,202,102773,2,0,P|267:242|273:345,1,130,0|0,3:0|3:0,0:0:0:0:
321,354,103247,2,0,L|386:344,1,65,8|4,0:0|0:3,0:0:0:0:
446,367,103562,2,0,P|471:327|465:224,1,130,6|8,3:2|0:0,0:0:0:0:
392,143,104194,6,0,P|396:99|421:66,1,65,2|0,0:0|3:0,0:0:0:0:
453,36,104510,1,10,0:0:0:0:
327,3,104825,2,0,L|184:33,1,130,2|8,3:2|0:0,0:0:0:0:
161,82,105299,2,0,L|18:112,1,130,0|0,3:0|3:0,0:0:0:0:
1,165,105773,1,10,0:0:0:0:
61,280,106089,6,0,P|119:293|179:366,1,130,6|10,3:2|0:0,0:0:0:0:
293,306,106720,2,0,P|293:338|305:368,2,65,2|0|10,0:0|3:0|0:0,0:0:0:0:
225,194,107352,2,0,P|265:150|358:134,1,130,2|8,3:2|0:0,0:0:0:0:
395,110,107825,1,2,3:2:0:0:
395,110,107983,2,0,L|406:183,1,65,2|2,3:2|3:2,0:0:0:0:
443,226,108299,2,0,L|454:299,1,65,8|8,3:1|3:1,0:0:0:0:
491,342,108615,5,4,0:0:0:0:
366,381,108931,2,0,P|341:348|303:334,1,65,0|2,1:0|0:0,0:0:0:0:
281,284,109247,2,0,P|225:314|138:303,1,130,2|0,0:0|1:0,0:0:0:0:
36,353,109878,2,0,P|29:306|73:221,1,130,2|0,3:2|1:0,0:0:0:0:
14,186,110352,2,0,P|77:182|137:54,1,195,0|2,3:0|1:2,0:0:0:0:
254,12,111141,6,0,L|264:169,1,130,2|0,3:2|1:0,0:0:0:0:
304,191,111615,2,0,L|314:348,1,130,0|0,3:0|1:0,0:0:0:0:
351,372,112089,1,2,3:2:0:0:
478,350,112404,2,0,P|491:299|436:232,1,130,0|2,3:0|1:2,0:0:0:0:
407,188,112878,2,0,L|423:47,1,130,0|0,0:0|3:0,0:0:0:0:
380,8,113352,1,0,1:0:0:0:
251,27,113668,6,0,P|215:60|128:56,1,130,4|0,3:2|1:0,0:0:0:0:
85,20,114141,2,0,L|106:167,1,130,0|0,3:0|0:0,0:0:0:0:
106,214,114615,1,2,1:2:0:0:
55,334,114931,2,0,P|100:331|171:398,1,130,0|0,3:0|1:0,0:0:0:0:
295,371,115562,2,0,P|317:336|321:304,1,65,2|0,0:0|3:0,0:0:0:0:
347,253,115878,2,0,P|327:216|301:196,1,65,2|4,1:2|0:3,0:0:0:0:
258,161,116194,6,0,L|271:11,1,130,2|0,3:2|1:0,0:0:0:0:
394,65,116825,2,0,L|383:-10,2,65,0|0|0,1:0|3:0|1:0,0:0:0:0:
481,162,117457,2,0,L|471:226,1,65,4|0,1:2|1:0,0:0:0:0:
493,288,117773,2,0,L|483:352,1,65,0|0,1:0|1:0,0:0:0:0:
419,367,118089,2,0,L|263:388,1,130,8|8,3:1|3:1,0:0:0:0:
179,316,118720,5,4,1:2:0:0:
57,361,119036,1,0,1:0:0:0:
89,241,119352,1,8,3:1:0:0:
89,241,119510,1,8,3:1:0:0:
89,241,119668,2,0,L|99:177,1,65,8|8,3:1|3:1,0:1:0:0:
44,141,119983,6,0,B|75:86|75:86|57:-3,1,130,4|2,3:2|3:2,0:0:0:0:
190,41,120615,2,0,L|272:56,1,65,2|0,3:2|3:0,0:0:0:0:
315,31,120931,1,2,3:2:0:0:
289,158,121247,2,0,B|234:190|234:190|205:276,1,130,2|2,3:2|3:2,0:0:0:0:
283,363,121878,2,0,L|365:378,1,65,2|0,3:2|3:0,0:0:0:0:
392,328,122194,2,0,L|363:249,1,65,2|0,3:2|3:0,0:0:0:0:
409,214,122510,6,0,L|436:66,1,130,2|2,3:2|3:2,0:0:0:0:
331,3,123141,2,0,L|267:14,1,65,2|0,3:2|3:0,0:0:0:0:
212,51,123457,2,0,L|148:62,1,65,2|0,3:2|3:0,0:0:0:0:
87,38,123773,6,0,B|100:103|100:103|69:158,1,130,10|10,0:2|0:2,0:0:0:0:
28,287,124404,1,10,0:2:0:0:
28,287,124562,1,0,3:0:0:0:
28,287,124720,2,0,L|37:361,1,65,10|0,0:2|3:0,0:0:0:0:
92,383,125036,6,0,P|153:354|176:281,1,130,4|8,0:0|0:1,0:0:0:0:
163,241,125510,1,8,0:1:0:0:
163,241,125668,2,0,L|303:271,1,130,2|2,1:2|0:0,0:0:0:0:
384,357,126299,2,0,P|409:298|467:272,1,130,2|8,1:2|0:1,0:0:0:0:
503,222,126773,1,8,0:1:0:0:
503,222,126931,2,0,L|479:74,1,130,2|2,1:2|0:0,0:0:0:0:
353,76,127562,6,0,P|287:117|221:112,1,130,2|8,1:2|0:1,0:0:0:0:
184,86,128036,1,8,0:1:0:0:
184,86,128194,1,2,1:2:0:0:
53,124,128510,2,0,L|45:190,1,65,2|2,0:0|0:0,0:0:0:0:
89,235,128825,1,2,1:2:0:0:
76,364,129141,2,0,L|-1:379,2,65,0|0|0,0:0|0:0|1:0,0:0:0:0:
336,375,130089,6,0,P|307:336|310:240,1,130,2|8,1:2|0:1,0:0:0:0:
354,216,130562,1,8,0:1:0:0:
354,216,130720,2,0,P|429:229|474:277,2,130,2|2|2,1:2|0:0|1:2,0:0:0:0:
255,130,131668,2,0,L|270:52,2,65,0|0|2,1:0|1:0|1:2,0:0:0:0:
20,18,132615,6,0,L|33:158,1,130,2|0,1:2|1:0,0:0:0:0:
32,147,133089,1,0,1:0:0:0:
32,147,133247,1,2,1:2:0:0:
53,275,133562,2,0,L|37:347,2,65,0|0|0,1:0|1:0|1:0,0:0:0:0:
180,248,134194,1,8,0:1:0:0:
260,350,134510,1,0,1:0:0:0:
510,279,135141,6,0,P|487:210|416:172,1,130,4|8,1:2|0:1,0:0:0:0:
486,130,135615,1,8,0:1:0:0:
486,130,135773,2,0,L|470:-24,1,130,2|2,1:2|0:0,0:0:0:0:
361,68,136404,1,2,1:2:0:0:
248,3,136720,1,8,0:1:0:0:
220,129,137036,2,0,L|150:140,1,65,8|8,0:1|0:1,0:1:0:0:
107,95,137352,2,0,L|37:106,1,65,8|8,0:1|0:1,0:1:0:0:
1,155,137668,5,2,1:2:0:0:
23,282,137983,2,0,L|12:352,2,65,8|8|2,0:1|0:1|1:2,0:0:0:0:
159,265,138615,1,2,0:2:0:0:
159,265,138773,1,2,0:2:0:0:
159,265,138931,5,4,0:0:0:0:
256,192,139010,12,0,140825,0:0:0:0:
415,37,141457,6,0,P|447:88|444:141,1,97.50000371933,2|0,0:0|0:0,0:0:0:0:
503,204,142089,2,0,P|474:257|427:281,1,97.50000371933,2|0,0:0|0:0,0:0:0:0:
402,363,142720,2,0,P|341:365|297:336,1,97.50000371933,2|2,0:0|0:0,0:0:0:0:
282,314,143194,1,2,0:0:0:0:
282,314,143352,2,0,P|279:253|308:209,2,97.50000371933,2|0|2,0:0|0:0|0:0,0:0:0:0:
97,37,146510,6,0,P|65:88|68:141,1,97.50000371933,2|0,0:0|0:0,0:0:0:0:
9,204,147141,2,0,P|37:257|84:281,1,97.50000371933,2|0,0:0|0:0,0:0:0:0:
110,363,147773,2,0,P|170:365|214:336,1,97.50000371933,2|2,0:0|0:0,0:0:0:0:
230,314,148247,1,2,0:0:0:0:
230,314,148404,2,0,P|232:253|203:209,1,97.50000371933,2|0,0:0|0:0,0:0:0:0:
178,131,149036,6,0,P|252:26|333:133,1,304.199998143311,2|2,0:0|0:0,0:0:0:0:
