osu file format v14

[General]
AudioFilename: audio.mp3
AudioLeadIn: 0
PreviewTime: 49613
Countdown: 0
SampleSet: Soft
StackLeniency: 0.4
Mode: 0
LetterboxInBreaks: 0
WidescreenStoryboard: 0

[Editor]
Bookmarks: 815,6148,11481,14148,24814,32814,36814,44814,50148,60814,68814,71481,75481,86148,94148,96814,104814,110148,112814,118148,123481,131481,134148,138148,142148
DistanceSpacing: 1
BeatDivisor: 4
GridSize: 32
TimelineZoom: 1.5

[Metadata]
Title:Flyburg and Endroll
TitleUnicode:フライブルクとエンドロウル
Artist:Alice Schach and the Magic Orchestra
ArtistUnicode:アリスシャッハと魔法の楽団
Creator:Hytex
Version:Ix's Hard
Source:Arcaea
Tags:nene akagawa 赤川ねね yuni minami 南ゆに alice schach and the reminiscent bibliotheca video game lowiro crimson solace made up constructed language alician ixcors anfeargorm ABSOLUTE_EPIC_4 ABSOLUTE EPIC 4
BeatmapID:2503050
BeatmapSetID:1201328

[Difficulty]
HPDrainRate:4.5
CircleSize:4
OverallDifficulty:6
ApproachRate:7.5
SliderMultiplier:1.3
SliderTickRate:1

[Events]
//Background and Video events
0,0,"bg.jpg",0,0
//Break Periods
//Storyboard Layer 0 (Background)
//Storyboard Layer 1 (Fail)
//Storyboard Layer 2 (Pass)
//Storyboard Layer 3 (Foreground)
//Storyboard Layer 4 (Overlay)
//Storyboard Sound Samples

[TimingPoints]
611,333.333333333333,4,2,1,50,1,0
611,-133.333333333333,4,2,1,50,0,0
4610,-117.647058823529,4,2,1,75,0,0
5944,-111.111111111111,4,2,1,70,0,0
8610,-133.333333333333,4,2,1,70,0,0
11277,-133.333333333333,4,2,1,50,0,0
11777,-200,4,2,1,50,0,0
12777,-200,4,2,1,55,0,0
12944,-200,4,2,1,60,0,0
13110,-200,4,2,1,65,0,0
13277,-200,4,2,1,70,0,0
13444,-200,4,2,1,75,0,0
13610,-200,4,2,1,80,0,0
13777,-200,4,2,1,85,0,0
13944,-133.333333333333,4,2,1,50,0,0
23944,-166.666666666667,4,2,1,60,0,0
24610,-117.647058823529,4,2,1,60,0,0
32610,-100,4,2,1,60,0,0
33610,-117.647058823529,4,2,1,60,0,0
33944,-117.647058823529,4,2,1,20,0,0
34110,-117.647058823529,4,2,1,25,0,0
34277,-117.647058823529,4,2,1,30,0,0
34444,-117.647058823529,4,2,1,35,0,0
34610,-117.647058823529,4,2,1,40,0,0
34777,-117.647058823529,4,2,1,45,0,0
34944,-117.647058823529,4,2,1,50,0,0
35110,-117.647058823529,4,2,1,55,0,0
35277,-117.647058823529,4,2,1,60,0,0
35444,-117.647058823529,4,2,1,70,0,0
35610,-117.647058823529,4,2,1,75,0,0
35777,-117.647058823529,4,2,1,80,0,0
36110,-117.647058823529,4,2,1,60,0,0
36610,-133.333333333333,4,2,1,70,0,0
39277,-117.647058823529,4,2,1,70,0,0
47277,-100,4,2,1,70,0,0
49277,-100,4,2,1,80,0,0
49944,-100,4,2,1,80,0,1
68610,-111.111111111111,4,2,1,80,0,0
71277,-100,4,2,1,80,0,1
72777,-133.333333333333,4,2,1,80,0,1
74527,-200,4,2,1,80,0,1
74610,-200,4,2,1,75,0,1
74777,-200,4,2,1,70,0,1
74944,-200,4,2,1,65,0,1
75110,-200,4,2,1,60,0,1
75277,-133.333333333333,4,2,1,70,0,0
95944,-133.333333333333,4,2,1,50,0,0
104610,-117.647058823529,4,2,1,60,0,0
109944,-100,4,2,1,65,0,0
112277,-100,4,2,1,80,0,0
112610,-95.2380952380952,4,2,1,70,0,0
117277,-111.111111111111,4,2,1,70,0,0
117610,-125,4,2,1,60,0,0
117944,-133.333333333333,4,2,1,60,0,0
121944,-100,4,2,1,60,0,0
123277,-90.9090909090909,4,2,1,80,0,1
135444,-133.333333333333,4,2,1,80,0,1
137194,-200,4,2,1,70,0,1
137610,-200,4,2,1,60,0,1
137944,-200,4,2,1,50,0,0
139444,-285.714285714286,4,2,1,50,0,0

[Colours]
Combo1 : 188,188,116
Combo2 : 187,151,108
Combo3 : 225,203,153
Combo4 : 195,178,148

[HitObjects]
134,89,611,6,0,L|144:200,1,97.50000371933,2|0,0:0|0:0,0:0:0:0:
209,231,1110,1,2,0:0:0:0:
209,231,1277,2,0,P|246:214|307:216,1,97.50000371933,2|2,0:0|0:0,0:0:0:0:
385,334,1944,6,0,P|348:351|287:349,1,97.50000371933,2|2,0:0|0:0,0:0:0:0:
221,305,2444,1,2,0:0:0:0:
153,357,2610,2,0,L|48:374,1,97.50000371933,2|2,0:0|0:0,0:0:0:0:
0,204,3277,6,0,L|105:221,1,97.50000371933,2|0,0:0|0:0,0:0:0:0:
254,247,3944,1,2,0:0:0:0:
198,94,4277,2,0,L|171:98,3,24.3750009298325,0|0|0|0,0:0|0:0|0:0|0:0,0:0:0:0:
139,115,4610,2,0,L|20:102,1,110.50000210762,2|0,0:0|0:0,0:0:0:0:
16,19,5110,1,2,0:0:0:0:
16,19,5194,1,2,0:0:0:0:
16,19,5277,2,0,P|38:12|86:15,1,55.2500010538101,2|2,0:0|0:0,0:0:0:0:
142,41,5610,2,0,P|164:48|211:46,1,55.2500010538101,2|2,0:0|0:0,0:0:0:0:
288,23,5944,6,0,B|319:45|319:45|315:139,1,116.999996429443,4|2,3:0|0:0,0:0:0:0:
310,206,6444,1,2,0:0:0:0:
302,287,6610,2,0,L|224:293,1,58.4999982147217,10|0,0:0|0:0,0:0:0:0:
169,243,6944,2,0,L|110:238,1,58.4999982147217,2|0,0:0|0:0,0:0:0:0:
61,167,7277,6,0,P|122:142|189:170,2,116.999996429443,2|2|10,3:2|0:0|0:0,0:0:0:0:
61,167,8277,1,0,0:0:0:0:
14,238,8444,1,0,0:0:0:0:
65,303,8610,6,0,L|265:283,1,195.00000743866,4|8,3:0|0:0,0:0:0:0:
449,88,9944,2,0,L|249:68,1,195.00000743866,2|8,3:2|0:0,0:0:0:0:
65,303,11277,5,4,0:3:0:0:
65,303,11777,6,0,L|60:333,2,16.25,2|2|2,0:0|0:0|0:0,0:0:0:0:
256,192,12110,12,4,13944,0:3:0:0:
280,115,14944,6,0,L|178:105,1,97.50000371933,2|2,0:0|0:0,0:0:0:0:
48,87,15610,1,2,0:0:0:0:
51,162,15777,2,0,P|95:194|152:185,2,97.50000371933,2|2|2,0:0|0:0|0:0,0:0:0:0:
117,118,16610,6,0,B|139:93|139:93|222:85,1,97.50000371933,2|0,0:0|0:0,0:0:0:0:
207,244,17277,2,0,B|185:269|185:269|102:277,1,97.50000371933,0|2,0:0|0:0,0:0:0:0:
257,161,17944,6,0,L|373:173,1,97.50000371933,2|2,0:0|0:0,0:0:0:0:
304,255,18444,2,0,L|188:267,2,97.50000371933,2|2|2,0:0|0:0|0:0,0:0:0:0:
376,298,19277,6,0,B|404:280|404:280|417:207,1,97.50000371933,4|0,0:3|0:0,0:0:0:0:
369,147,19777,1,0,0:0:0:0:
369,147,19944,2,0,L|272:136,1,97.50000371933,2|2,0:0|0:0,0:0:0:0:
198,228,20610,6,0,L|294:217,1,97.50000371933,2|0,0:0|0:0,0:0:0:0:
251,60,21277,2,0,L|154:49,1,97.50000371933,2|2,0:0|0:0,0:0:0:0:
108,239,21944,6,0,B|126:221|126:221|207:229,1,97.50000371933,2|0,0:0|0:0,0:0:0:0:
253,285,22444,1,0,0:0:0:0:
324,246,22610,2,0,L|332:137,1,97.50000371933,2|0,0:0|0:0,0:0:0:0:
210,177,23277,2,0,L|217:274,1,97.50000371933,2|0,0:0|0:0,0:0:0:0:
343,323,23944,1,2,0:0:0:0:
324,246,24110,2,0,P|300:243|271:246,2,38.9999988098145,8|0|0,0:0|3:0|3:0,0:0:0:0:
400,208,24610,6,0,P|408:167|412:90,1,110.50000210762,4|0,3:0|3:0,0:0:0:0:
346,30,25110,1,0,0:0:0:0:
346,30,25277,2,0,P|308:35|281:36,1,55.2500010538101,0|0,3:0|0:0,0:0:0:0:
210,5,25610,2,0,P|172:0|145:-1,1,55.2500010538101,2|0,3:2|0:0,0:0:0:0:
87,61,25944,6,0,L|92:182,1,110.50000210762,2|2,3:2|3:2,0:0:0:0:
154,230,26444,2,0,P|211:211|259:258,2,110.50000210762,2|2|2,0:0|0:0|0:0,0:0:0:0:
175,316,27277,6,0,B|202:333|202:333|303:319,1,110.50000210762,0|0,3:0|3:0,0:0:0:0:
347,268,27777,1,0,0:0:0:0:
426,313,27944,2,0,L|439:254,1,55.2500010538101,0|0,3:0|0:0,0:0:0:0:
374,185,28277,2,0,L|361:126,1,55.2500010538101,2|0,3:2|0:0,0:0:0:0:
410,58,28610,6,0,P|375:41|293:42,1,110.50000210762,2|2,3:2|3:2,0:0:0:0:
223,91,29110,2,0,L|105:75,2,110.50000210762,2|2|2,0:0|0:0|0:0,0:0:0:0:
203,185,29944,6,0,P|160:193|129:190,1,55.2500010538101,4|0,3:0|0:0,0:0:0:0:
73,148,30277,1,0,3:0:0:0:
73,148,30444,1,0,0:0:0:0:
71,232,30610,2,0,L|71:349,1,110.50000210762,2|2,3:2|3:2,0:0:0:0:
218,373,31277,6,0,L|218:262,1,110.50000210762,2|0,3:2|3:0,0:0:0:0:
219,168,31777,1,0,0:0:0:0:
219,168,31944,1,0,3:0:0:0:
304,206,32110,2,0,P|341:196|372:197,2,55.2500010538101,2|2|2,0:0|3:2|0:0,0:0:0:0:
266,319,32610,6,0,L|127:305,1,130,6|8,3:2|0:0,0:0:0:0:
65,227,33110,2,0,B|88:201|88:201|194:192,1,130,6|8,3:2|0:0,0:0:0:0:
255,122,33610,5,4,3:0:0:0:
255,122,33944,1,0,3:0:0:0:
327,188,34110,2,0,L|329:251,1,55.2500010538101,8|8,0:0|0:0,0:0:0:0:
232,271,34444,1,8,0:0:0:0:
232,271,34610,2,0,L|230:215,1,55.2500010538101,8|8,0:0|0:0,0:0:0:0:
315,339,34944,1,8,0:0:0:0:
407,281,35110,6,0,P|440:283|477:304,2,55.2500010538101,8|8|8,0:0|0:0|0:0,0:0:0:0:
320,354,35610,1,8,0:0:0:0:
234,268,35777,1,8,0:0:0:0:
176,351,35944,2,0,P|150:360|122:361,1,55.2500010538101,10|0,0:0|3:0,0:0:0:0:
55,311,36277,2,0,P|29:301|1:300,1,55.2500010538101,2|0,3:2|3:0,0:0:0:0:
0,196,36610,6,0,B|22:177|22:177|112:187,1,97.50000371933,4|0,3:0|0:0,0:0:0:0:
164,58,37277,2,0,L|107:63,2,48.750001859665,8|2|2,0:0|0:0|0:0,0:0:0:0:
233,17,37777,6,0,P|291:2|331:20,2,97.50000371933,10|10|2,0:0|0:0|0:0,0:0:0:0:
249,95,38610,2,0,P|285:88|319:91,1,48.750001859665,8|0,0:0|0:0,0:0:0:0:
369,120,38944,2,0,P|392:125|436:122,1,48.750001859665,2|8,0:0|0:0,0:0:0:0:
437,120,39194,1,8,0:0:0:0:
458,108,39277,6,0,B|473:145|473:145|458:226,1,110.50000210762,4|10,3:2|0:0,0:0:0:0:
399,277,39777,2,0,L|342:267,1,55.2500010538101,4|0,3:2|0:0,0:0:0:0:
268,317,40110,2,0,L|213:326,1,55.2500010538101,2|0,3:2|3:0,0:0:0:0:
146,248,40444,6,0,L|132:128,1,110.50000210762,4|8,3:0|0:0,0:0:0:0:
121,38,40944,1,0,0:0:0:0:
206,81,41110,1,0,3:0:0:0:
206,81,41194,1,0,0:0:0:0:
206,81,41277,2,0,L|280:71,1,55.2500010538101,10|0,0:0|0:0,0:0:0:0:
336,17,41610,2,0,P|380:15|408:24,1,55.2500010538101,10|0,0:0|0:0,0:0:0:0:
423,127,41944,6,0,L|412:249,1,110.50000210762,4|0,3:0|0:0,0:0:0:0:
371,319,42444,1,0,0:0:0:0:
371,319,42610,2,0,P|335:300|297:301,1,55.2500010538101,8|0,0:0|0:0,0:0:0:0:
258,357,42944,1,2,0:0:0:0:
198,286,43110,6,0,L|192:222,1,55.2500010538101,10|0,0:0|3:0,0:0:0:0:
110,249,43444,2,0,L|115:304,1,55.2500010538101,10|0,0:0|3:0,0:0:0:0:
175,363,43777,1,2,0:0:0:0:
247,335,43944,2,0,L|301:341,1,55.2500010538101,10|0,0:0|0:0,0:0:0:0:
373,376,44277,2,0,L|437:369,1,55.2500010538101,2|8,0:0|0:0,0:0:0:0:
450,254,44610,6,0,B|401:229|401:229|343:237,1,110.50000210762,4|0,3:0|0:0,0:0:0:0:
262,181,45110,1,0,0:0:0:0:
208,268,45277,2,0,L|85:254,1,110.50000210762,10|0,0:0|0:0,0:0:0:0:
23,190,45777,1,8,0:0:0:0:
100,123,45944,6,0,L|93:61,1,55.2500010538101,0|8,3:0|0:0,0:0:0:0:
176,51,46277,2,0,L|182:105,1,55.2500010538101,0|0,3:0|0:0,0:0:0:0:
137,197,46610,1,8,0:0:0:0:
137,197,46944,1,2,0:0:0:0:
224,264,47110,1,8,0:0:0:0:
224,264,47194,1,8,0:0:0:0:
224,264,47277,6,0,P|263:246|299:242,1,65,4|0,3:0|0:0,0:0:0:0:
342,311,47610,2,0,P|370:325|402:332,1,65,2|0,0:0|0:0,0:0:0:0:
482,283,47944,2,0,P|493:199|494:135,1,130,10|2,0:0|0:0,0:0:0:0:
437,89,48444,1,8,0:0:0:0:
357,141,48610,6,0,P|319:136|286:127,1,65,4|0,3:2|3:0,0:0:0:0:
235,50,48944,1,4,3:0:0:0:
235,50,49110,1,0,0:0:0:0:
178,148,49277,2,0,L|183:201,2,32.5,8|8|8,0:0|0:0|0:0,0:0:0:0:
105,60,49610,1,8,0:0:0:0:
105,60,49694,1,8,0:0:0:0:
105,60,49777,1,8,0:0:0:0:
27,152,49944,6,0,P|19:208|20:302,1,130,4|8,3:0|0:0,0:0:0:0:
130,315,50444,1,0,0:0:0:0:
130,315,50610,2,0,P|175:304|200:304,1,65,0|0,3:0|3:0,0:0:0:0:
282,354,50944,2,0,L|352:365,1,65,10|0,0:0|0:0,0:0:0:0:
432,320,51277,6,0,L|417:176,2,130,2|10|0,3:2|0:0|3:0,0:0:0:0:
331,354,52110,2,0,L|261:365,1,65,2|8,3:2|0:0,0:0:0:0:
195,299,52444,1,0,0:0:0:0:
92,336,52610,2,0,P|76:298|77:184,1,130,2|10,3:2|0:0,0:0:0:0:
159,133,53110,1,2,0:0:0:0:
159,133,53277,2,0,P|201:144|228:144,1,65,0|0,3:0|3:0,0:0:0:0:
311,85,53610,6,0,P|353:74|458:83,1,130,10|0,0:0|3:0,0:0:0:0:
512,27,54110,1,0,0:0:0:0:
492,149,54277,2,0,L|481:221,1,65,8|0,0:0|0:0,0:0:0:0:
471,318,54610,1,0,3:0:0:0:
471,318,54777,1,0,3:0:0:0:
399,224,54944,2,0,P|357:220|323:222,1,65,10|0,0:0|0:0,0:0:0:0:
250,306,55277,6,0,L|91:291,1,130,4|10,3:0|0:0,0:0:0:0:
43,216,55777,2,0,P|33:167|38:131,1,65,2|0,0:0|3:0,0:0:0:0:
91,64,56110,1,2,3:2:0:0:
139,148,56277,2,0,P|164:174|194:194,1,65,10|0,0:0|0:0,0:0:0:0:
271,128,56610,5,0,3:0:0:0:
271,128,56777,1,0,0:0:0:0:
347,196,56944,2,0,P|376:176|401:150,1,65,10|0,0:2|0:0,0:0:0:0:
361,67,57277,2,0,P|336:41|306:21,1,65,2|0,3:2|3:0,0:0:0:0:
219,42,57610,2,0,P|184:31|149:28,1,65,10|0,0:0|0:0,0:0:0:0:
47,12,57944,5,0,3:0:0:0:
75,97,58110,1,0,0:0:0:0:
31,177,58277,2,0,L|38:260,1,65,10|0,0:0|0:0,0:0:0:0:
50,340,58610,1,0,3:0:0:0:
50,340,58777,1,0,3:0:0:0:
129,268,58944,2,0,P|175:259|219:261,1,65,10|0,0:0|0:0,0:0:0:0:
279,305,59277,6,0,P|324:314|368:312,1,65,0|0,3:0|0:0,0:0:0:0:
436,260,59610,2,0,B|462:166|462:166|446:109,1,130,10|0,0:0|3:0,0:0:0:0:
382,68,60110,1,0,3:0:0:0:
382,68,60194,1,0,3:0:0:0:
382,68,60277,2,0,L|373:116,2,32.5,10|8|8,0:0|0:0|0:0,0:0:0:0:
262,24,60610,6,0,P|218:5|120:10,1,130,4|8,3:0|0:0,0:0:0:0:
58,65,61110,1,0,0:0:0:0:
58,65,61277,2,0,L|71:146,1,65,0|0,3:0|3:0,0:0:0:0:
24,206,61610,2,0,L|11:287,1,65,10|0,0:0|0:0,0:0:0:0:
92,333,61944,6,0,B|158:318|158:318|230:331,2,130,2|10|0,3:2|0:0|3:0,0:0:0:0:
23,258,62777,1,2,3:2:0:0:
104,199,62944,2,0,P|148:189|188:190,1,65,8|0,0:0|0:0,0:0:0:0:
275,242,63277,6,0,P|337:265|413:268,1,130,2|8,3:2|0:0,0:0:0:0:
469,191,63777,2,0,L|464:107,1,65,2|0,0:0|3:0,0:0:0:0:
360,94,64110,1,0,3:0:0:0:
360,94,64277,2,0,L|355:165,1,65,10|0,0:0|0:0,0:0:0:0:
275,242,64610,6,0,P|213:219|126:222,1,130,2|8,3:2|0:0,0:0:0:0:
62,157,65110,1,0,0:0:0:0:
62,157,65277,2,0,P|54:113|56:71,1,65,0|0,3:0|3:0,0:0:0:0:
121,22,65610,2,0,L|196:31,1,65,10|0,0:0|0:0,0:0:0:0:
288,113,65944,6,0,P|333:88|423:89,1,130,4|8,3:0|0:0,0:0:0:0:
468,171,66444,2,0,P|472:228|466:263,1,65,2|0,0:0|3:0,0:0:0:0:
379,260,66777,1,2,3:2:0:0:
379,260,66944,2,0,P|375:317|381:352,1,65,10|0,0:0|0:0,0:0:0:0:
277,384,67277,6,0,P|231:372|183:371,1,65,0|0,3:0|0:0,0:0:0:0:
128,324,67610,2,0,L|118:238,1,65,10|0,0:0|0:0,0:0:0:0:
208,188,67944,2,0,L|199:259,1,65,10|0,0:0|3:0,0:0:0:0:
110,171,68277,1,10,0:0:0:0:
96,88,68444,1,0,3:0:0:0:
198,97,68610,6,0,P|253:68|321:66,2,116.999996429443,4|0|8,3:0|0:0|0:0,0:0:0:0:
203,101,69610,1,0,0:0:0:0:
203,101,69777,1,0,0:0:0:0:
221,183,69944,5,0,3:0:0:0:
301,146,70110,2,0,L|440:161,1,116.999996429443,8|0,0:0|3:0,0:0:0:0:
509,171,70610,1,8,0:0:0:0:
509,171,70944,2,0,P|520:220|519:251,1,58.4999982147217,2|0,0:0|3:0,0:0:0:0:
453,306,71277,6,0,P|403:279|302:278,1,130,4|8,3:2|0:0,0:0:0:0:
242,333,71777,2,0,P|192:360|91:361,1,130,4|8,3:2|0:0,0:0:0:0:
35,301,72277,2,0,B|27:190|27:190|58:218,1,130,4|8,3:2|0:0,0:0:0:0:
123,263,72777,6,0,B|189:235|203:157|203:157|260:229|319:239|319:239|408:223|462:277,1,438.750016736985,4|0,3:0|0:0,0:0:0:0:
465,292,74527,6,0,L|468:318,3,16.25,0|0|0|0,3:0|3:0|3:0|3:0,0:0:0:0:
504,218,74944,2,0,L|510:172,1,32.5,0|0,3:0|3:0,0:0:0:0:
452,132,75277,6,0,P|394:115|340:113,1,97.50000371933,4|0,3:0|0:0,0:0:0:0:
286,168,75777,1,0,0:0:0:0:
225,104,75944,2,0,L|156:98,1,48.750001859665,8|0,0:0|0:0,0:0:0:0:
109,131,76277,2,0,L|60:135,1,48.750001859665,0|8,0:0|0:0,0:0:0:0:
1,189,76610,5,0,3:0:0:0:
1,189,76777,1,8,0:0:0:0:
44,252,76944,2,0,L|40:301,1,48.750001859665,0|0,3:0|0:0,0:0:0:0:
21,372,77277,2,0,P|61:381|84:379,1,48.750001859665,10|0,0:0|0:0,0:0:0:0:
135,333,77610,2,0,P|175:324|198:326,1,48.750001859665,0|0,0:0|0:0,0:0:0:0:
255,367,77944,5,2,3:2:0:0:
255,367,78277,2,0,L|295:361,2,24.3750009298325
266,289,78610,2,0,P|274:261|274:233,1,48.750001859665,8|0,0:0|0:0,0:0:0:0:
342,200,78944,1,0,0:0:0:0:
397,137,79110,6,0,L|393:91,2,24.3750009298325,10|2|2,0:0|0:0|3:2,0:0:0:0:
473,156,79444,1,10,0:0:0:0:
430,223,79610,2,0,L|366:230,1,48.750001859665,2|2,3:2|0:0,0:0:0:0:
359,232,79860,1,2,0:0:0:0:
336,234,79944,2,0,B|318:263|318:263|331:333,1,97.50000371933,10|2,0:0|3:2,0:0:0:0:
267,373,80444,1,0,0:0:0:0:
204,323,80610,6,0,L|144:319,1,48.750001859665,2|0,3:2|0:0,0:0:0:0:
109,249,80944,2,0,L|169:245,1,48.750001859665,0|2,0:0|0:0,0:0:0:0:
179,243,81194,1,2,0:0:0:0:
200,240,81277,2,0,P|222:196|197:140,1,97.50000371933,10|0,0:0|0:0,0:0:0:0:
164,87,81777,1,8,0:0:0:0:
205,23,81944,5,2,3:2:0:0:
205,23,82110,1,8,0:0:0:0:
278,60,82277,2,0,L|336:56,1,48.750001859665,0|2,3:0|0:0,0:0:0:0:
281,140,82610,2,0,L|223:136,1,48.750001859665,10|0,0:0|0:0,0:0:0:0:
155,131,82944,1,0,0:0:0:0:
155,131,83277,6,0,P|147:169|147:247,1,97.50000371933,2|0,3:2|0:0,0:0:0:0:
206,293,83777,1,2,0:0:0:0:
206,293,83860,1,2,0:0:0:0:
206,293,83944,2,0,P|241:284|273:287,1,48.750001859665,10|2,0:0|0:0,0:0:0:0:
318,336,84277,2,0,P|353:345|385:342,1,48.750001859665,2|10,0:0|0:0,0:0:0:0:
426,293,84610,5,2,3:2:0:0:
426,293,84777,1,8,0:0:0:0:
381,226,84944,2,0,L|386:166,1,48.750001859665,0|0,3:0|0:0,0:0:0:0:
302,145,85277,2,0,L|306:193,1,48.750001859665,8|0,0:0|0:0,0:0:0:0:
315,271,85610,1,0,3:0:0:0:
315,271,85944,6,0,P|273:237|221:239,1,97.50000371933,4|0,3:0|0:0,0:0:0:0:
137,259,86444,1,0,0:0:0:0:
137,259,86528,1,0,0:0:0:0:
137,259,86611,2,0,P|126:222|127:195,1,48.750001859665,8|0,0:0|0:0,0:0:0:0:
51,170,86944,2,0,P|62:133|61:106,1,48.750001859665,0|10,0:0|0:0,0:0:0:0:
107,55,87277,6,0,B|178:45|178:45|201:64,1,97.50000371933,2|0,3:2|3:0,0:0:0:0:
279,33,87777,1,0,0:0:0:0:
345,87,87944,2,0,P|380:85|397:78,1,48.750001859665,8|0,0:0|0:0,0:0:0:0:
444,20,88277,2,0,P|479:22|496:29,1,48.750001859665
501,104,88610,6,0,L|495:171,1,48.750001859665,2|0,3:2|0:0,0:0:0:0:
431,208,88944,2,0,L|401:202,2,24.3750009298325,0|0|0,0:0|0:0|0:0,0:0:0:0:
477,276,89277,2,0,P|447:315|388:293,1,97.50000371933,8|0,0:0|0:0,0:0:0:0:
327,313,89777,1,8,0:0:0:0:
270,369,89944,6,0,P|227:350|217:348,1,48.750001859665,2|8,3:2|0:0,0:0:0:0:
148,364,90277,2,0,P|105:383|95:385,1,48.750001859665,0|0,3:2|0:0,0:0:0:0:
39,333,90610,1,8,0:0:0:0:
39,333,90777,2,0,L|30:276,2,48.750001859665,0|0|2,0:0|3:2|0:0,0:0:0:0:
116,276,91277,6,0,L|132:171,1,97.50000371933,2|0,3:2|0:0,0:0:0:0:
146,100,91777,1,0,0:0:0:0:
207,151,91944,2,0,P|244:140|274:140,1,48.750001859665,8|0,0:0|0:0,0:0:0:0:
314,190,92277,2,0,P|351:201|381:201,1,48.750001859665,0|8,0:0|0:0,0:0:0:0:
432,152,92610,5,2,3:2:0:0:
432,152,92777,1,8,0:0:0:0:
476,231,92944,2,0,L|468:293,1,48.750001859665,0|0,3:0|0:0,0:0:0:0:
401,320,93277,2,0,L|409:382,1,48.750001859665,8|0,0:0|0:0,0:0:0:0:
480,384,93610,1,2,0:0:0:0:
480,384,93944,5,2,0:0:0:0:
479,363,96610,6,0,B|443:336|443:336|285:352,1,195.00000743866,2|2,0:0|0:0,0:0:0:0:
216,337,97444,2,0,L|147:328,1,48.750001859665,2|2,0:0|0:0,0:0:0:0:
184,254,97777,2,0,L|301:247,1,97.50000371933,2|2,0:0|0:0,0:0:0:0:
430,243,98444,2,0,P|442:215|446:130,1,97.50000371933,2|0,0:0|0:0,0:0:0:0:
370,111,98944,1,2,0:0:0:0:
370,111,99277,6,0,P|316:108|271:118,1,97.50000371933,2|2,0:0|0:0,0:0:0:0:
215,186,99777,2,0,P|161:189|116:179,1,97.50000371933,2|2,0:0|0:0,0:0:0:0:
50,129,100277,1,0,0:0:0:0:
50,129,100444,6,0,L|41:233,1,97.50000371933,2|2,0:0|0:0,0:0:0:0:
179,330,101277,1,2,0:0:0:0:
179,330,101444,1,0,0:0:0:0:
123,262,101610,2,0,L|118:213,1,48.750001859665,2|0,0:0|0:0,0:0:0:0:
150,139,101944,6,0,B|178:123|178:123|256:131,1,97.50000371933,2|0,0:0|0:0,0:0:0:0:
378,143,102610,1,2,0:0:0:0:
237,218,102944,1,2,0:0:0:0:
203,291,103110,6,0,P|241:302|266:304,1,48.750001859665,2|0,0:0|0:0,0:0:0:0:
306,251,103444,2,0,P|350:245|410:262,2,97.50000371933,2|2|0,0:0|0:0|0:0,0:0:0:0:
251,304,104277,2,0,P|254:328|260:351,1,48.750001859665,2|0,0:0|0:0,0:0:0:0:
354,367,104610,6,0,P|406:331|457:355,1,110.50000210762,4|0,3:0|3:0,0:0:0:0:
489,268,105110,1,0,0:0:0:0:
424,211,105277,2,0,P|411:162|409:85,1,110.50000210762,2|0,3:2|3:0,0:0:0:0:
446,24,105777,1,0,0:0:0:0:
446,24,105860,1,0,0:0:0:0:
446,24,105944,6,0,P|386:6|323:8,1,110.50000210762,0|0,3:0|3:0,0:0:0:0:
254,61,106444,1,0,0:0:0:0:
254,61,106610,2,0,P|224:70|192:69,1,55.2500010538101,0|0,3:0|0:0,0:0:0:0:
114,27,106944,1,6,3:2:0:0:
114,27,107277,6,0,P|99:63|95:89,1,55.2500010538101,4|0,3:0|0:0,0:0:0:0:
142,157,107611,2,0,P|157:193|161:217,1,55.2500010538101,0|0,3:0|0:0,0:0:0:0:
97,274,107944,1,2,3:2:0:0:
97,274,108110,1,0,0:0:0:0:
154,333,108277,2,0,P|191:321|231:320,1,55.2500010538101,0|0,3:0|0:0,0:0:0:0:
306,362,108610,6,0,P|359:367|433:347,1,110.50000210762,2|0,3:2|3:0,0:0:0:0:
414,355,109110,1,0,0:0:0:0:
483,281,109277,2,0,L|477:217,1,55.2500010538101,2|0,3:2|0:0,0:0:0:0:
408,169,109610,2,0,L|412:105,1,55.2500010538101,0|0,3:0|0:0,0:0:0:0:
393,15,109944,6,0,P|345:5|249:18,1,130,4|0,3:0|3:0,0:0:0:0:
197,67,110444,1,2,0:0:0:0:
129,17,110610,2,0,P|90:11|53:12,1,65,0|2,3:0|0:0,0:0:0:0:
9,79,110944,1,0,3:0:0:0:
9,79,111110,1,8,0:0:0:0:
88,141,111277,6,0,L|82:212,1,65,4|8,3:0|0:0,0:0:0:0:
35,271,111610,2,0,L|41:342,1,65,0|2,3:0|0:0,0:0:0:0:
133,370,111944,2,0,P|172:358|208:359,1,65,0|0,3:0|3:0,0:0:0:0:
40,335,112277,2,0,P|18:330|-1:322,2,32.5,8|8|8,0:0|0:0|0:0,0:0:0:0:
133,278,112610,6,0,P|172:246|262:234,1,136.499995834351,4|0,3:0|0:0,0:0:0:0:
337,186,113110,1,0,0:0:0:0:
417,236,113277,2,0,P|428:202|433:158,1,68.2499979171754,8|0,0:0|3:0,0:0:0:0:
372,110,113610,2,0,P|361:76|356:32,1,68.2499979171754,10|0,0:0|3:0,0:0:0:0:
255,103,113944,6,0,B|224:82|224:82|110:93,2,136.499995834351,4|10|0,3:0|0:0|3:0,0:0:0:0:
336,73,114777,1,2,0:0:0:0:
367,150,114944,2,0,L|358:222,1,68.2499979171754,0|0,3:0|3:0,0:0:0:0:
342,331,115277,6,0,P|311:299|206:316,1,136.499995834351,4|2,3:0|0:0,0:0:0:0:
136,334,115777,2,0,P|96:330|59:305,1,68.2499979171754,2|0,3:2|0:0,0:0:0:0:
33,231,116110,1,0,3:0:0:0:
113,182,116277,2,0,L|121:105,1,68.2499979171754,10|8,0:0|0:0,0:0:0:0:
196,59,116610,6,0,L|211:204,1,136.499995834351,4|0,3:0|0:0,0:0:0:0:
288,150,117110,1,0,0:0:0:0:
314,235,117277,2,8,P|355:226|370:227,2,38.9999988098145,0|0|0,3:0|3:0|3:0,0:0:0:0:
295,271,117610,2,8,P|254:280|244:280,2,34.6666666666667,2|0|0,3:2|3:0|3:0,0:0:0:0:
322,303,117944,6,0,B|351:282|351:282|379:112,1,195.00000743866,2|8,0:0|0:0,0:0:0:0:
376,124,119277,6,0,B|329:109|329:109|264:115,2,97.50000371933,0|2|10,3:0|3:2|0:0,0:0:0:0:
376,124,120610,6,0,B|405:145|405:145|433:315,1,195.00000743866,2|8,3:2|0:0,0:0:0:0:
430,302,121944,6,0,P|370:287|340:291,1,65,4|0,0:0|3:0,0:0:0:0:
282,263,122277,1,0,3:0:0:0:
282,263,122444,1,0,3:0:0:0:
208,330,122610,2,0,P|167:342|128:339,1,65,0|0,3:0|3:0,0:0:0:0:
76,272,122944,1,8,0:0:0:0:
80,256,123027,1,8,0:0:0:0:
85,241,123110,1,8,0:0:0:0:
89,225,123194,1,8,0:0:0:0:
94,210,123277,6,0,L|81:56,1,143.000004364014,4|8,3:0|0:0,0:0:0:0:
153,1,123777,1,0,0:0:0:0:
226,90,123944,2,0,P|270:99|311:94,1,71.5000021820069,0|0,3:0|3:0,0:0:0:0:
377,22,124277,2,0,P|421:13|462:18,1,71.5000021820069,10|0,0:0|0:0,0:0:0:0:
482,124,124610,6,0,B|470:169|470:169|488:286,1,143.000004364014,2|10,3:2|0:0,0:0:0:0:
435,351,125110,2,0,P|387:337|346:339,1,71.5000021820069,2|0,0:0|3:0,0:0:0:0:
283,292,125444,1,2,3:2:0:0:
205,346,125610,2,0,P|157:359|104:358,1,71.5000021820069,8|0,0:0|0:0,0:0:0:0:
45,292,125944,6,0,P|31:228|34:118,1,143.000004364014,2|8,3:2|0:0,0:0:0:0:
88,76,126444,2,0,L|176:82,1,71.5000021820069,2|0,0:0|3:0,0:0:0:0:
236,25,126777,1,0,3:0:0:0:
314,73,126944,2,0,L|385:68,1,71.5000021820069,10|0,0:0|0:0,0:0:0:0:
479,175,127277,6,0,B|442:157|442:157|321:153,1,143.000004364014,2|8,3:2|0:0,0:0:0:0:
252,121,127777,1,0,0:0:0:0:
179,178,127944,2,0,P|136:191|91:192,1,71.5000021820069,0|0,3:0|3:0,0:0:0:0:
51,123,128277,2,0,P|8:110|-25:111,1,71.5000021820069,10|0,0:0|0:0,0:0:0:0:
25,14,128610,6,0,P|100:0|174:12,1,143.000004364014,4|8,3:0|0:0,0:0:0:0:
243,79,129110,2,0,L|320:69,1,71.5000021820069,2|0,0:0|3:0,0:0:0:0:
403,34,129444,1,2,3:2:0:0:
403,34,129610,2,0,L|473:43,1,71.5000021820069,10|0,0:0|0:0,0:0:0:0:
485,131,129944,6,0,P|477:179|483:225,1,71.5000021820069,0|0,3:0|0:0,0:0:0:0:
416,270,130277,2,0,P|368:262|322:268,1,71.5000021820069,10|0,0:0|0:0,0:0:0:0:
289,330,130611,1,10,0:0:0:0:
215,282,130777,1,0,3:0:0:0:
176,365,130944,2,0,P|128:373|82:367,1,71.5000021820069,10|0,0:0|3:0,0:0:0:0:
34,299,131277,6,0,L|18:143,1,143.000004364014,4|8,3:0|0:0,0:0:0:0:
76,81,131777,1,0,3:0:0:0:
150,145,131944,2,0,P|198:127|242:129,1,71.5000021820069,8|0,0:0|3:0,0:0:0:0:
298,178,132277,2,0,P|346:196|390:194,1,71.5000021820069,8|0,0:0|3:0,0:0:0:0:
450,127,132610,5,4,0:3:0:0:
450,127,132777,1,0,3:0:0:0:
504,213,132944,2,0,L|494:302,1,71.5000021820069,8|0,0:0|3:0,0:0:0:0:
424,345,133277,2,0,L|428:388,2,35.7500010910034,8|8|8,0:0|0:0|0:0,0:0:0:0:
344,279,133610,1,0,3:0:0:0:
344,279,133694,1,0,3:0:0:0:
344,279,133777,1,0,3:0:0:0:
277,357,133944,6,0,P|229:332|114:336,1,143.000004364014,4|8,3:2|0:0,0:0:0:0:
66,264,134444,2,0,P|41:216|45:101,1,143.000004364014,4|8,3:2|0:0,0:0:0:0:
133,41,134944,2,0,B|209:30|209:30|301:49,1,143.000004364014,4|8,3:2|0:0,0:0:0:0:
359,128,135444,6,0,B|353:114|346:77|359:40|391:9|454:22|493:57|499:119|470:163|387:191|366:239|368:303|378:336,1,438.750016736985,4|0,3:0|0:0,0:0:0:0:
378,340,137194,6,0,L|383:369,3,16.25,0|0|0|0,3:0|3:0|3:0|3:0,0:0:0:0:
303,290,137610,2,0,L|259:285,1,32.5,0|0,3:0|3:0,0:0:0:0:
203,329,137944,6,0,L|129:335,1,65,2|0,0:0|0:0,0:0:0:0:
83,268,138444,2,0,L|9:260,1,65,2|0,0:0|0:0,0:0:0:0:
11,176,138944,2,0,P|2:120|6:104,1,65,2|0,0:0|0:0,0:0:0:0:
59,46,139444,6,0,B|146:3|258:23|191:90|321:110|386:57,1,341.249989585877,2|2,0:0|0:0,0:0:0:0:
