osu file format v14

[General]
AudioFilename: audio.mp3
AudioLeadIn: 0
PreviewTime: 49613
Countdown: 0
SampleSet: Soft
StackLeniency: 0.7
Mode: 0
LetterboxInBreaks: 0
WidescreenStoryboard: 0

[Editor]
Bookmarks: 815,6148,11481,14148,24814,32814,36814,44814,50148,60814,68814,71481,75481,86148,94148,96814,104814,110148,112814,118148,123481,131481,134148,138148,142148
DistanceSpacing: 1
BeatDivisor: 4
GridSize: 4
TimelineZoom: 2.2

[Metadata]
Title:Flyburg and Endroll
TitleUnicode:フライブルクとエンドロウル
Artist:Alice Schach and the Magic Orchestra
ArtistUnicode:アリスシャッハと魔法の楽団
Creator:Hytex
Version:Adventurous
Source:Arcaea
Tags:nene akagawa 赤川ねね yuni minami 南ゆに alice schach and the reminiscent bibliotheca video game lowiro crimson solace made up constructed language alician ixcors anfeargorm ABSOLUTE_EPIC_4 ABSOLUTE EPIC 4
BeatmapID:2502119
BeatmapSetID:1201328

[Difficulty]
HPDrainRate:6
CircleSize:4.5
OverallDifficulty:8.5
ApproachRate:9.2
SliderMultiplier:1.7
SliderTickRate:1

[Events]
//Background and Video events
0,0,"bg.jpg",0,0
//Break Periods
2,118144,121374
//Storyboard Layer 0 (Background)
//Storyboard Layer 1 (Fail)
//Storyboard Layer 2 (Pass)
//Storyboard Layer 3 (Foreground)
//Storyboard Layer 4 (Overlay)
//Storyboard Sound Samples

[TimingPoints]
611,333.333333333333,4,2,1,50,1,0
611,-142.857142857143,4,2,1,50,0,0
4610,-100,4,2,1,75,0,0
5027,-100,4,2,1,5,0,0
5110,-100,4,2,1,75,0,0
5944,-142.857142857143,4,2,1,70,0,0
11277,-100,4,2,1,50,0,0
11694,-100,4,2,1,5,0,0
11777,-100,4,2,1,50,0,0
12610,-100,4,2,1,50,0,0
12777,-100,4,2,1,55,0,0
12944,-100,4,2,1,60,0,0
13110,-100,4,2,1,65,0,0
13277,-100,4,2,1,70,0,0
13444,-100,4,2,1,75,0,0
13610,-100,4,2,1,80,0,0
13777,-100,4,2,1,85,0,0
13944,-200,4,2,1,50,0,0
23277,-125,4,2,1,60,0,0
24610,-100,4,2,1,60,0,0
32610,-76.9230769230769,4,2,1,60,0,0
32860,-76.9230769230769,4,2,1,5,0,0
32944,-76.9230769230769,4,2,1,60,0,0
33360,-76.9230769230769,4,2,1,5,0,0
33444,-76.9230769230769,4,2,1,60,0,0
33860,-76.9230769230769,4,2,1,5,0,0
33944,-100,4,2,1,20,0,0
34110,-100,4,2,1,25,0,0
34277,-100,4,2,1,30,0,0
34444,-100,4,2,1,35,0,0
34610,-100,4,2,1,40,0,0
34777,-100,4,2,1,45,0,0
34944,-100,4,2,1,50,0,0
35110,-100,4,2,1,55,0,0
35277,-100,4,2,1,60,0,0
35444,-100,4,2,1,70,0,0
35610,-100,4,2,1,75,0,0
35777,-100,4,2,1,80,0,0
36110,-100,4,2,1,60,0,0
36610,-142.857142857143,4,2,1,70,0,0
39277,-90.9090909090909,4,2,1,70,0,0
39527,-76.9230769230769,4,2,1,5,0,0
39610,-90.9090909090909,4,2,1,70,0,0
40027,-76.9230769230769,4,2,1,5,0,0
40110,-90.9090909090909,4,2,1,70,0,0
40694,-76.9230769230769,4,2,1,5,0,0
40777,-142.857142857143,4,2,1,70,0,0
45194,-142.857142857143,4,2,1,5,0,0
45277,-142.857142857143,4,2,1,70,0,0
45694,-142.857142857143,4,2,1,5,0,0
45777,-142.857142857143,4,2,1,70,0,0
47860,-142.857142857143,4,2,1,5,0,0
47944,-142.857142857143,4,2,1,70,0,0
48360,-142.857142857143,4,2,1,5,0,0
48444,-142.857142857143,4,2,1,70,0,0
48610,-76.9230769230769,4,2,1,70,0,0
49194,-76.9230769230769,4,2,1,5,0,0
49277,-100,4,2,1,80,0,0
49944,-100,4,2,1,80,0,1
50194,-100,4,2,1,5,0,1
50277,-100,4,2,1,80,0,1
51527,-100,4,2,1,5,0,1
51610,-100,4,2,1,80,0,1
52527,-100,4,2,1,5,0,1
52610,-100,4,2,1,80,0,1
53860,-100,4,2,1,5,0,1
53944,-100,4,2,1,80,0,1
54194,-100,4,2,1,5,0,1
54277,-100,4,2,1,80,0,1
56860,-100,4,2,1,5,0,1
56944,-100,4,2,1,80,0,1
58860,-100,4,2,1,5,0,1
58944,-100,4,2,1,80,0,1
59527,-100,4,2,1,5,0,1
59610,-100,4,2,1,80,0,1
60860,-100,4,2,1,5,0,1
60944,-100,4,2,1,80,0,1
62194,-100,4,2,1,5,0,1
62277,-100,4,2,1,80,0,1
63527,-100,4,2,1,5,0,1
63610,-100,4,2,1,80,0,1
64027,-100,4,2,1,5,0,1
64110,-100,4,2,1,80,0,1
64527,-100,4,2,1,5,0,1
64610,-100,4,2,1,80,0,1
64860,-100,4,2,1,5,0,1
64944,-100,4,2,1,80,0,1
66194,-100,4,2,1,5,0,1
66277,-100,4,2,1,80,0,1
67527,-100,4,2,1,5,0,1
67610,-83.3333333333333,4,2,1,80,0,1
68610,-142.857142857143,4,2,1,80,0,0
69860,-142.857142857143,4,2,1,5,0,0
69944,-142.857142857143,4,2,1,80,0,0
71277,-76.9230769230769,4,2,1,80,0,1
71527,-76.9230769230769,4,2,1,5,0,1
71610,-76.9230769230769,4,2,1,80,0,1
72027,-76.9230769230769,4,2,1,5,0,1
72110,-76.9230769230769,4,2,1,80,0,1
72527,-76.9230769230769,4,2,1,5,0,1
72610,-76.9230769230769,4,2,1,80,0,1
72777,-200,4,2,1,80,0,1
74610,-100,4,2,1,75,0,1
74777,-100,4,2,1,70,0,1
74944,-100,4,2,1,65,0,1
75110,-100,4,2,1,60,0,1
75277,-142.857142857143,4,2,1,70,0,0
77860,-142.857142857143,4,2,1,5,0,0
77944,-142.857142857143,4,2,1,70,0,0
80194,-142.857142857143,4,2,1,5,0,0
80277,-142.857142857143,4,2,1,70,0,0
80527,-142.857142857143,4,2,1,5,0,0
80610,-142.857142857143,4,2,1,70,0,0
88527,-142.857142857143,4,2,1,5,0,0
88610,-142.857142857143,4,2,1,70,0,0
90860,-142.857142857143,4,2,1,5,0,0
90944,-142.857142857143,4,2,1,70,0,0
91194,-142.857142857143,4,2,1,5,0,0
91277,-142.857142857143,4,2,1,70,0,0
95947,-142.857142857143,4,2,1,50,0,0
104610,-100,4,2,1,60,0,0
109944,-100,4,2,1,65,0,0
112277,-100,4,2,1,80,0,0
112610,-100,4,2,1,70,0,0
114194,-100,4,2,1,5,0,0
114277,-100,4,2,1,70,0,0
115527,-100,4,2,1,5,0,0
115610,-100,4,2,1,70,0,0
116027,-100,4,2,1,5,0,0
116110,-100,4,2,1,70,0,0
116610,-142.857142857143,4,2,1,70,0,0
117194,-142.857142857143,4,2,1,5,0,0
117277,-142.857142857143,4,2,1,70,0,0
117610,-142.857142857143,4,2,1,60,0,0
122944,-100,4,2,1,60,0,0
123277,-100,4,2,1,80,0,1
123527,-100,4,2,1,5,0,1
123610,-100,4,2,1,80,0,1
124860,-100,4,2,1,5,0,1
124944,-100,4,2,1,80,0,1
125860,-100,4,2,1,5,0,1
125944,-100,4,2,1,80,0,1
126194,-100,4,2,1,5,0,1
126277,-100,4,2,1,80,0,1
126694,-100,4,2,1,5,0,1
126777,-100,4,2,1,80,0,1
127194,-100,4,2,1,5,0,1
127277,-100,4,2,1,80,0,1
127527,-100,4,2,1,5,0,1
127610,-100,4,2,1,80,0,1
128860,-100,4,2,1,5,0,1
128944,-100,4,2,1,80,0,1
130194,-100,4,2,1,5,0,1
130277,-100,4,2,1,80,0,1
131277,-100,4,2,1,80,0,1
131527,-100,4,2,1,5,0,1
131610,-100,4,2,1,80,0,1
133944,-76.9230769230769,4,2,1,80,0,1
134194,-76.9230769230769,4,2,1,5,0,1
134277,-76.9230769230769,4,2,1,80,0,1
134694,-76.9230769230769,4,2,1,5,0,1
134777,-76.9230769230769,4,2,1,80,0,1
135194,-76.9230769230769,4,2,1,5,0,1
135277,-76.9230769230769,4,2,1,80,0,1
135444,-142.857142857143,4,2,1,80,0,1
137277,-100,4,2,1,70,0,1
137610,-100,4,2,1,60,0,1
137944,-200,4,2,1,50,0,0
140527,-200,4,2,1,5,0,0
140610,-200,4,2,1,50,0,0

[Colours]
Combo1 : 188,188,116
Combo2 : 187,151,108
Combo3 : 225,203,153
Combo4 : 195,178,148

[HitObjects]
106,59,611,6,0,L|93:198,1,118.999996368408,2|0,0:0|0:0,0:0:0:0:
191,179,1110,1,2,0:0:0:0:
191,179,1277,2,0,L|201:255,1,59.4999981842042,2|0,0:0|0:0,0:0:0:0:
295,240,1610,2,0,L|285:316,1,59.4999981842042,2|0,0:0|0:0,0:0:0:0:
374,344,1944,6,0,L|393:201,1,118.999996368408,2|2,0:0|0:0,0:0:0:0:
401,133,2444,1,2,0:0:0:0:
401,133,2610,2,0,P|370:118|333:123,1,59.4999981842042,2|0,0:0|0:0,0:0:0:0:
256,134,2944,2,0,P|226:133|200:119,1,59.4999981842042,2|0,0:0|0:0,0:0:0:0:
141,44,3277,6,0,L|177:286,1,237.999992736817,2|2,0:0|0:0,0:0:0:0:
176,279,4610,6,0,P|223:201|290:295,1,212.5,2|0,0:0|0:0,0:0:0:0:
252,344,5110,1,2,0:0:0:0:
252,344,5194,1,2,0:0:0:0:
252,344,5277,5,2,0:0:0:0:
382,308,5444,1,2,0:0:0:0:
346,181,5610,1,2,0:0:0:0:
216,217,5777,1,2,0:0:0:0:
164,30,5944,6,0,L|151:169,1,118.999996368408,4|2,3:0|0:0,0:0:0:0:
61,150,6444,1,2,0:0:0:0:
61,150,6611,2,0,L|71:226,1,59.4999981842042,10|0,0:0|0:0,0:0:0:0:
156,247,6944,2,0,L|146:323,1,59.4999981842042,2|0,0:0|0:0,0:0:0:0:
227,359,7277,6,0,P|284:340|294:274,2,118.999996368408,2|2|10,3:2|0:0|0:0,0:0:0:0:
160,82,8610,6,0,L|300:104,1,118.999996368408,4|0,3:0|0:0,0:0:0:0:
434,128,9277,1,8,0:0:0:0:
337,247,9944,6,0,L|197:269,1,118.999996368408,2|0,3:2|0:0,0:0:0:0:
63,293,10611,1,8,0:0:0:0:
257,94,11277,6,0,P|185:33|133:112,1,212.5,4|0,0:3|0:0,0:0:0:0:
212,175,11777,1,2,0:0:0:0:
212,175,11860,1,2,0:0:0:0:
212,175,11944,1,2,0:0:0:0:
439,45,12610,5,2,0:0:0:0:
348,70,12777,1,2,0:0:0:0:
309,137,12944,5,2,0:0:0:0:
400,162,13111,1,2,0:0:0:0:
443,229,13277,5,2,0:0:0:0:
432,231,13360,1,2,0:0:0:0:
422,235,13444,1,2,0:0:0:0:
411,237,13527,1,2,0:0:0:0:
400,240,13610,6,0,L|348:252,1,42.5,2|2,0:0|0:0,0:0:0:0:
313,325,13777,2,0,L|261:313,1,42.5,2|2,0:0|0:0,0:0:0:0:
115,276,13944,6,0,L|105:180,2,85,4|0|0,0:3|0:0|0:0,0:0:0:0:
93,106,14944,2,0,L|154:114,1,42.5,2|0,0:0|0:0,0:0:0:0:
190,176,15277,2,0,L|284:163,1,85,2|2,0:0|0:0,0:0:0:0:
357,155,15777,2,0,P|375:179|385:207,1,42.5,2|0,0:0|0:0,0:0:0:0:
452,234,16110,2,0,P|440:261|420:284,1,42.5,2|0,0:0|0:0,0:0:0:0:
425,356,16444,1,2,0:0:0:0:
425,356,16610,6,0,L|329:346,2,85,2|0|0,0:0|0:0|0:0,0:0:0:0:
260,340,17610,2,0,L|252:279,1,42.5,2|0,0:0|0:0,0:0:0:0:
180,261,17944,2,0,L|190:161,1,85,2|2,0:0|0:0,0:0:0:0:
197,91,18444,1,2,0:0:0:0:
197,91,18527,1,0,0:0:0:0:
197,91,18610,1,0,0:0:0:0:
268,143,18777,2,0,P|300:141|328:131,2,42.5,2|0|2,0:0|0:0|0:0,0:0:0:0:
362,76,19277,6,0,P|324:105|308:156,1,85,4|0,0:3|0:0,0:0:0:0:
365,210,19777,1,0,0:0:0:0:
365,210,19944,2,0,L|374:253,1,42.5,2|0,0:0|0:0,0:0:0:0:
294,280,20277,2,0,L|285:323,1,42.5,2|0,0:0|0:0,0:0:0:0:
197,298,20610,6,0,P|149:293|103:318,1,85,2|0,0:0|0:0,0:0:0:0:
17,188,21277,2,0,P|56:202|98:196,1,85,2|2,0:0|0:0,0:0:0:0:
176,51,21944,6,0,L|191:155,1,85,2|0,0:0|0:0,0:0:0:0:
282,147,22444,1,0,0:0:0:0:
282,147,22610,2,0,L|297:251,1,85,2|0,0:0|0:0,0:0:0:0:
385,215,23110,1,0,0:0:0:0:
436,364,23277,6,0,P|404:327|299:336,1,136,2|0,0:0|0:0,0:0:0:0:
238,342,23777,1,0,0:0:0:0:
238,342,23860,1,0,0:0:0:0:
238,342,23944,1,2,0:0:0:0:
108,152,24110,1,8,0:0:0:0:
104,244,24277,1,0,3:0:0:0:
100,336,24444,1,0,3:0:0:0:
210,158,24610,6,0,L|195:54,1,85,4|0,3:0|0:0,0:0:0:0:
292,94,24944,2,0,L|374:29,1,85,0|0,3:0|0:0,0:0:0:0:
402,123,25277,2,0,L|499:162,1,85,0|0,3:0|0:0,0:0:0:0:
437,232,25610,2,0,L|452:336,1,85,2|0,3:2|0:0,0:0:0:0:
307,275,25944,6,0,P|368:257|452:327,1,170,2|2,3:2|3:2,0:0:0:0:
268,352,26444,2,0,L|178:327,1,85,2|0,0:0|3:0,0:0:0:0:
89,265,26777,2,0,L|179:240,1,85,2|0,0:0|3:0,0:0:0:0:
250,216,27110,1,2,0:0:0:0:
132,77,27277,6,0,L|154:183,1,85,0|0,3:0|0:0,0:0:0:0:
293,27,27610,2,0,L|212:99,1,85,0|0,3:0|0:0,0:0:0:0:
417,142,27944,2,0,L|314:108,1,85,0|0,3:0|0:0,0:0:0:0:
380,307,28277,2,0,L|358:200,1,85,2|0,3:2|0:0,0:0:0:0:
238,336,28610,6,0,P|300:284|397:329,1,170,2|2,3:2|3:2,0:0:0:0:
483,370,29110,1,2,0:0:0:0:
483,370,29194,1,0,0:0:0:0:
483,370,29277,2,0,P|466:313|481:258,1,85,0|2,3:0|0:0,0:0:0:0:
467,171,29610,2,0,P|426:214|371:228,1,85,0|2,3:0|0:0,0:0:0:0:
370,104,29944,6,0,L|357:21,1,85,4|0,3:0|0:0,0:0:0:0:
213,86,30277,2,0,L|308:101,1,85,0|0,3:0|0:0,0:0:0:0:
178,231,30610,2,0,L|165:148,1,85,2|0,3:2|0:0,0:0:0:0:
21,213,30943,2,0,L|116:228,1,85,2|0,3:2|0:0,0:0:0:0:
153,359,31277,6,0,P|212:306|292:335,1,170,2|0,3:2|3:0,0:0:0:0:
379,353,31777,1,0,0:0:0:0:
379,353,31944,1,0,3:0:0:0:
459,194,32110,5,2,0:0:0:0:
369,174,32277,1,2,3:2:0:0:
351,260,32444,1,2,0:0:0:0:
385,79,32610,6,0,B|339:73|307:101|307:101|274:130|225:119,1,165.749992412568,6|0,3:2|0:0,0:0:0:0:
161,68,32944,1,8,0:0:0:0:
5,174,33110,6,0,B|51:168|83:196|83:196|116:225|165:214,1,165.749992412568,6|0,3:2|0:0,0:0:0:0:
229,163,33444,1,8,0:0:0:0:
390,234,33610,6,0,P|308:225|234:295,1,165.749992412568,4|0,3:0|0:0,0:0:0:0:
227,361,33944,1,0,3:0:0:0:
41,320,34110,5,8,0:0:0:0:
62,232,34277,1,8,0:0:0:0:
153,255,34444,1,8,0:0:0:0:
132,343,34611,1,8,0:0:0:0:
125,158,34777,5,8,0:0:0:0:
216,140,34944,1,8,0:0:0:0:
293,242,35110,1,8,0:0:0:0:
384,224,35277,1,8,0:0:0:0:
477,47,35444,5,8,0:0:0:0:
354,26,35610,1,8,0:0:0:0:
333,148,35777,1,8,0:0:0:0:
456,169,35943,1,10,0:0:0:0:
478,243,36110,5,0,3:0:0:0:
422,293,36277,1,2,3:2:0:0:
444,367,36444,1,0,3:0:0:0:
282,242,36610,6,0,P|238:233|141:320,1,178.499994552612,4|0,3:0|0:0,0:0:0:0:
208,370,37277,2,0,L|288:361,2,59.4999981842042,8|2|2,0:0|0:0|0:0,0:0:0:0:
142,311,37777,6,0,L|62:302,1,59.4999981842042,10|0,0:0|3:2,0:0:0:0:
50,220,38110,2,0,L|130:211,1,59.4999981842042,10|0,0:0|3:2,0:0:0:0:
109,213,38444,1,2,0:0:0:0:
203,215,38610,2,0,L|219:73,1,118.999996368408,8|2,0:0|0:0,0:0:0:0:
367,29,39110,1,8,0:0:0:0:
367,29,39194,1,8,0:0:0:0:
367,29,39277,6,0,P|358:96|265:119,1,140.25000428009,4|0,3:2|0:0,0:0:0:0:
216,96,39610,1,10,0:0:0:0:
73,174,39777,6,0,B|116:166|142:194|142:194|167:219|225:213,1,140.25000428009,4|0,3:2|0:0,0:0:0:0:
202,214,40110,1,2,3:2:0:0:
89,254,40277,1,0,3:0:0:0:
293,325,40444,6,0,P|356:272|436:276,1,140.25000428009,4|0,3:0|0:0,0:0:0:0:
494,302,40777,2,0,P|484:346|481:375,2,59.4999981842042,8|0|0,0:0|0:0|3:0,0:0:0:0:
412,269,41277,2,0,L|398:191,1,59.4999981842042,10|0,0:0|0:0,0:0:0:0:
500,86,41610,1,10,0:0:0:0:
483,170,41777,1,0,0:0:0:0:
352,27,41944,6,0,P|297:94|320:186,1,178.499994552612,4|0,3:0|0:0,0:0:0:0:
401,210,42610,2,0,L|415:132,2,59.4999981842042,8|0|2,0:0|0:0|0:0,0:0:0:0:
331,266,43110,6,0,L|341:324,1,59.4999981842042,10|0,0:0|3:0,0:0:0:0:
265,368,43444,2,0,L|206:357,1,59.4999981842042,10|0,0:0|3:0,0:0:0:0:
206,357,43777,1,2,0:0:0:0:
121,348,43944,2,0,L|98:204,1,118.999996368408,8|2,0:0|0:0,0:0:0:0:
60,36,44444,1,8,0:0:0:0:
60,36,44527,1,8,0:0:0:0:
60,36,44610,6,0,B|106:22|159:56|159:56|211:86|262:66,1,208.249993644715,4|0,3:0|0:0,0:0:0:0:
357,86,45277,2,0,P|292:89|245:170,1,148.74999546051,10|0,0:0|0:0,0:0:0:0:
245,152,45777,6,0,L|262:222,1,59.4999981842042,8|0,0:0|3:0,0:0:0:0:
348,219,46110,2,0,L|331:289,1,59.4999981842042,8|0,0:0|3:0,0:0:0:0:
333,276,46444,1,0,0:0:0:0:
417,327,46610,2,0,L|449:187,1,118.999996368408,8|2,0:0|0:0,0:0:0:0:
473,43,47110,1,8,0:0:0:0:
473,43,47194,1,8,0:0:0:0:
473,43,47277,6,0,B|427:29|374:63|374:63|322:93|271:73,1,208.249993644715,4|0,3:0|0:0,0:0:0:0:
183,92,47944,2,0,P|248:95|295:176,1,148.74999546051,10|0,0:0|0:0,0:0:0:0:
294,158,48444,1,8,0:0:0:0:
135,324,48610,5,4,3:2:0:0:
208,176,48777,1,0,3:0:0:0:
395,292,48944,6,0,L|190:321,1,165.749992412568,4|0,0:3|0:0,0:0:0:0:
135,324,49277,5,8,0:0:0:0:
126,289,49360,1,8,0:0:0:0:
119,256,49444,1,8,0:0:0:0:
110,221,49527,1,8,0:0:0:0:
102,188,49610,6,0,L|89:128,1,42.5,8|8,0:0|0:0,0:0:0:0:
226,27,49777,2,0,L|217:68,1,42.5,8|8,0:0|0:0,0:0:0:0:
334,192,49944,6,0,P|405:184|456:112,1,127.5,4|0,3:0|0:0,0:0:0:0:
443,146,50277,2,0,L|459:255,1,85,8|0,0:0|0:0,0:0:0:0:
473,324,50610,1,0,3:0:0:0:
473,324,50777,1,0,3:0:0:0:
317,273,50944,2,0,L|300:382,1,85,10|0,0:0|0:0,0:0:0:0:
212,321,51194,1,0,0:0:0:0:
208,303,51277,6,0,L|191:174,1,127.5,2|0,3:2|0:0,0:0:0:0:
178,91,51610,1,10,0:0:0:0:
290,190,51777,2,0,P|331:193|371:170,1,85,2|0,0:0|3:0,0:0:0:0:
309,105,52110,1,2,3:2:0:0:
481,38,52277,2,0,L|454:186,1,127.5,8|0,0:0|0:0,0:0:0:0:
368,173,52610,6,0,L|345:286,1,85,2|0,3:2|0:0,0:0:0:0:
330,350,52944,1,10,0:0:0:0:
178,217,53110,2,0,P|138:209|81:250,1,85,2|0,0:0|3:0,0:0:0:0:
74,312,53444,1,0,3:0:0:0:
239,359,53610,2,0,L|272:200,1,127.5,10|0,0:0|0:0,0:0:0:0:
178,217,53944,6,0,L|145:58,1,127.5,0|0,3:0|0:0,0:0:0:0:
152,92,54277,2,0,P|190:99|241:84,1,85,8|0,0:0|0:0,0:0:0:0:
306,24,54610,1,0,3:0:0:0:
306,24,54777,1,0,3:0:0:0:
448,82,54944,2,0,L|433:179,1,85,10|0,0:0|0:0,0:0:0:0:
477,357,55277,6,0,P|412:310|330:330,1,170,4|10,3:0|0:0,0:0:0:0:
184,265,55777,2,0,L|200:360,1,85,2|0,0:0|3:0,0:0:0:0:
278,238,56110,1,2,3:2:0:0:
87,281,56277,2,0,L|101:197,1,85,10|0,0:0|0:0,0:0:0:0:
23,25,56610,6,0,P|60:77|130:91,1,127.5,0|0,3:0|0:0,0:0:0:0:
119,92,56944,2,0,P|159:72|205:80,1,85,10|0,0:2|0:0,0:0:0:0:
276,225,57277,2,0,P|238:200|222:156,1,85,2|0,3:2|3:0,0:0:0:0:
315,22,57610,2,0,P|312:66|282:102,1,85,10|0,0:0|0:0,0:0:0:0:
107,202,57944,6,0,L|275:224,1,170,0|10,3:0|0:0,0:0:0:0:
413,295,58444,1,0,0:0:0:0:
413,295,58610,2,0,L|255:317,1,127.5,0|0,3:0|0:0,0:0:0:0:
215,358,58944,2,0,L|97:343,1,85,10|0,0:0|0:0,0:0:0:0:
36,166,59277,6,0,L|199:143,1,127.5,0|0,3:0|0:0,0:0:0:0:
247,135,59610,2,0,P|256:91|234:55,1,85,10|0,0:0|0:0,0:0:0:0:
330,178,59944,1,0,3:0:0:0:
398,12,60110,1,0,3:0:0:0:
374,37,60194,1,0,3:0:0:0:
373,71,60277,6,0,L|382:119,1,42.5,10|8,0:0|0:0,0:0:0:0:
307,293,60444,2,0,L|316:245,1,42.5,8|8,0:0|0:0,0:0:0:0:
162,148,60610,6,0,L|137:289,1,127.5,4|0,3:0|0:0,0:0:0:0:
139,273,60944,2,0,P|177:302|227:289,1,85,8|0,0:0|0:0,0:0:0:0:
239,209,61277,1,0,3:0:0:0:
239,209,61444,1,0,3:0:0:0:
381,347,61610,2,0,L|476:328,1,85,10|0,0:0|0:0,0:0:0:0:
452,152,61944,6,0,P|379:144|320:195,1,127.5,2|0,3:2|0:0,0:0:0:0:
320,258,62277,1,10,0:0:0:0:
280,40,62444,2,0,L|264:125,1,85,2|0,0:0|3:0,0:0:0:0:
365,48,62777,1,2,3:2:0:0:
173,144,62944,2,0,L|189:229,1,85,8|0,0:0|0:0,0:0:0:0:
25,296,63277,6,0,P|62:339|142:350,1,127.5,2|0,3:2|0:0,0:0:0:0:
207,324,63610,1,8,0:0:0:0:
368,254,63777,2,0,P|331:211|230:207,1,127.5,2|0,0:0|0:0,0:0:0:0:
188,227,64110,1,0,3:0:0:0:
397,52,64277,2,0,L|374:193,1,127.5,10|0,0:0|0:0,0:0:0:0:
368,254,64610,6,0,L|347:128,1,127.5,2|0,3:2|0:0,0:0:0:0:
347,128,64944,2,0,P|310:107|265:107,1,85,8|0,0:0|0:0,0:0:0:0:
185,134,65277,1,0,3:0:0:0:
185,134,65444,1,0,3:0:0:0:
77,32,65610,2,0,L|97:135,1,85,10|0,0:0|0:0,0:0:0:0:
24,280,65944,6,0,P|95:241|164:253,1,127.5,4|0,3:0|0:0,0:0:0:0:
223,252,66277,1,8,0:0:0:0:
384,214,66444,2,0,L|278:191,1,85,2|0,0:0|3:0,0:0:0:0:
413,125,66777,1,2,3:2:0:0:
365,312,66944,2,0,L|471:289,1,85,10|0,0:0|0:0,0:0:0:0:
290,89,67277,6,0,P|242:105|202:190,1,127.5,0|0,3:0|0:0,0:0:0:0:
223,252,67610,2,0,P|175:253|127:212,1,101.999996887207,10|0,0:0|0:0,0:0:0:0:
197,20,67944,5,10,0:0:0:0:
202,167,68111,1,0,3:0:0:0:
16,148,68277,5,10,0:0:0:0:
140,70,68444,1,0,3:0:0:0:
278,313,68610,6,0,P|335:334|427:250,1,178.499994552612,4|0,3:0|3:0,0:0:0:0:
402,62,69277,2,0,L|425:290,1,208.249993644715,8|0,0:0|0:0,0:0:0:0:
434,349,69944,5,0,3:0:0:0:
331,225,70110,2,0,P|301:221|258:242,1,59.4999981842042,8|0,0:0|0:0,0:0:0:0:
198,268,70444,1,0,3:0:0:0:
184,128,70610,2,0,L|208:194,1,59.4999981842042,8|0,0:0|0:0,0:0:0:0:
104,275,70944,2,0,L|128:209,1,59.4999981842042,2|0,0:0|3:0,0:0:0:0:
429,99,71277,6,0,B|383:93|351:121|351:121|318:150|269:139,1,165.749992412568,4|0,3:2|0:0,0:0:0:0:
184,128,71610,1,8,0:0:0:0:
446,253,71777,6,0,P|364:225|312:288,1,165.749992412568,4|0,3:2|0:0,0:0:0:0:
389,336,72110,1,8,0:0:0:0:
218,244,72277,6,0,B|172:250|140:222|140:222|107:193|58:204,1,165.749992412568,4|0,3:2|0:0,0:0:0:0:
0,261,72610,1,8,0:0:0:0:
207,135,72777,6,0,B|274:119|336:104|312:-39|154:-24|117:142|227:253,1,425,4|0,3:0|3:0,0:0:0:0:
192,333,74527,1,0,3:0:0:0:
192,333,74610,5,0,3:0:0:0:
266,324,74777,1,0,3:0:0:0:
296,255,74944,1,0,3:0:0:0:
370,246,75111,1,0,3:0:0:0:
467,357,75277,6,0,L|443:160,1,178.499994552612,4|0,3:0|0:0,0:0:0:0:
432,87,75944,1,8,0:0:0:0:
432,87,76444,1,8,0:0:0:0:
356,98,76610,5,0,3:0:0:0:
302,172,76777,1,8,0:0:0:0:
226,161,76944,1,0,3:0:0:0:
226,161,77277,2,0,P|157:134|67:225,1,208.249993644715,10|0,0:0|0:0,0:0:0:0:
74,299,77944,6,0,B|117:274|164:300|164:300|203:320|250:304,1,178.499994552612,2|0,3:2|0:0,0:0:0:0:
328,280,78610,1,8,0:0:0:0:
328,280,79110,1,10,0:0:0:0:
332,244,79194,1,2,0:0:0:0:
337,208,79277,5,2,3:2:0:0:
420,177,79444,1,10,0:0:0:0:
409,101,79611,1,2,3:2:0:0:
355,48,79777,1,2,0:0:0:0:
355,48,79860,1,2,0:0:0:0:
355,48,79944,2,0,L|258:64,1,89.2499972763062,10|0,0:0|0:0,0:0:0:0:
239,129,80277,2,0,L|142:113,1,89.2499972763062,2|0,3:2|0:0,0:0:0:0:
62,99,80610,6,0,L|83:234,1,118.999996368408,2|0,3:2|0:0,0:0:0:0:
94,309,81110,1,2,0:0:0:0:
94,309,81194,1,2,0:0:0:0:
94,309,81277,2,0,P|141:319|208:280,1,118.999996368408,10|0,0:0|0:0,0:0:0:0:
197,200,81777,1,10,0:0:0:0:
234,207,81860,1,2,0:0:0:0:
273,215,81944,5,2,3:2:0:0:
346,160,82110,1,8,0:0:0:0:
422,175,82277,1,0,3:0:0:0:
399,98,82444,1,2,0:0:0:0:
399,98,82527,1,2,0:0:0:0:
399,98,82610,2,0,L|282:118,1,118.999996368408,10|0,0:0|0:0,0:0:0:0:
237,35,83110,1,2,0:0:0:0:
237,35,83194,1,2,0:0:0:0:
237,35,83277,6,0,L|120:15,1,118.999996368408,2|0,3:2|0:0,0:0:0:0:
45,66,83777,1,2,0:0:0:0:
45,66,83860,1,2,0:0:0:0:
45,66,83944,2,0,P|54:96|58:133,1,59.4999981842042,10|2,0:0|0:0,0:0:0:0:
138,160,84277,2,0,P|129:190|125:227,1,59.4999981842042,2|10,0:0|0:0,0:0:0:0:
135,294,84610,5,2,3:2:0:0:
225,287,84777,1,8,0:0:0:0:
246,364,84944,1,0,3:0:0:0:
246,364,85277,2,0,P|302:328|375:349,1,118.999996368408,8|0,0:0|3:0,0:0:0:0:
463,156,85944,6,0,B|420:131|373:157|373:157|334:177|291:162,1,178.499994552612,4|0,3:0|0:0,0:0:0:0:
243,86,86610,1,8,0:0:0:0:
243,86,87110,1,10,0:0:0:0:
204,89,87194,1,2,0:0:0:0:
167,95,87277,5,2,3:2:0:0:
135,179,87444,1,8,0:0:0:0:
59,170,87611,1,0,3:0:0:0:
59,170,87944,2,0,P|107:183|163:328,1,208.249993644715,8|0,0:0|0:0,0:0:0:0:
80,349,88610,6,0,B|123:324|170:350|170:350|209:370|251:355,1,178.499994552612,2|0,3:2|0:0,0:0:0:0:
329,318,89277,1,8,0:0:0:0:
329,318,89777,1,10,0:0:0:0:
320,284,89860,1,2,0:0:0:0:
313,246,89944,5,2,3:2:0:0:
393,200,90110,1,8,0:0:0:0:
409,128,90277,1,0,3:2:0:0:
409,128,90610,2,0,L|298:110,1,89.2499972763062,8|0,0:0|0:0,0:0:0:0:
283,48,90944,2,0,L|172:66,1,89.2499972763062,0|2,3:2|0:0,0:0:0:0:
116,70,91277,6,0,B|91:113|117:160|117:160|137:199|122:241,1,178.499994552612,2|0,3:2|0:0,0:0:0:0:
89,324,91944,1,8,0:0:0:0:
89,324,92444,1,8,0:0:0:0:
161,348,92610,5,2,3:2:0:0:
218,278,92777,1,8,0:0:0:0:
290,254,92943,1,0,3:0:0:0:
290,254,93277,2,0,L|412:285,1,118.999996368408,8|2,0:0|0:0,0:0:0:0:
305,169,93860,1,2,0:0:0:0:
305,169,93944,5,2,0:0:0:0:
305,169,95944,2,0,P|294:136|306:109,1,59.4999981842042,2|0,0:0|0:0,0:0:0:0:
381,90,96277,2,0,P|392:57|380:30,1,59.4999981842042,2|0,0:0|0:0,0:0:0:0:
304,9,96610,6,0,L|103:31,1,178.499994552612,2|0,0:0|0:0,0:0:0:0:
70,88,97277,2,0,L|8:96,2,59.4999981842042,2|2|2,0:0|0:0|0:0,0:0:0:0:
143,125,97777,6,0,P|149:160|158:184,1,59.4999981842042,2|0,0:0|0:0,0:0:0:0:
84,224,98110,2,0,P|78:259|69:283,1,59.4999981842042,2|0,0:0|0:0,0:0:0:0:
128,343,98444,2,0,P|171:311|256:325,1,118.999996368408,2|0,0:0|0:0,0:0:0:0:
303,359,98944,2,0,L|365:348,1,59.4999981842042,2|0,0:0|0:0,0:0:0:0:
446,336,99277,6,0,L|459:198,1,118.999996368408,2|2,0:0|0:0,0:0:0:0:
465,125,99777,2,0,P|426:98|338:120,1,118.999996368408,2|2,0:0|0:0,0:0:0:0:
313,181,100277,1,0,0:0:0:0:
313,181,100444,6,0,P|274:208|186:186,1,118.999996368408,2|2,0:0|0:0,0:0:0:0:
144,137,100944,2,0,L|150:65,1,59.4999981842042,2|2,0:0|0:0,0:0:0:0:
243,63,101277,2,0,L|247:122,2,59.4999981842042,2|0|2,0:0|0:0|0:0,0:0:0:0:
42,54,101944,6,0,L|52:185,1,118.999996368408,2|0,0:0|0:0,0:0:0:0:
126,229,102444,1,2,0:0:0:0:
126,229,102610,2,0,L|136:360,1,118.999996368408,2|2,0:0|0:0,0:0:0:0:
233,337,103110,1,2,0:0:0:0:
233,337,103194,1,0,0:0:0:0:
233,337,103277,6,0,B|274:326|295:340|295:340|317:354|364:340,1,118.999996368408,0|0,0:0|0:0,0:0:0:0:
439,320,103777,1,2,0:0:0:0:
439,320,103943,2,0,L|448:201,1,118.999996368408,0|2,0:0|0:0,0:0:0:0:
440,18,104610,6,0,L|266:40,1,170,4|0,3:0|3:0,0:0:0:0:
255,135,105110,1,0,0:0:0:0:
255,135,105277,2,0,L|81:113,1,170,2|0,3:2|3:0,0:0:0:0:
25,266,105944,1,0,3:0:0:0:
149,363,106277,1,0,3:0:0:0:
282,284,106610,1,0,3:0:0:0:
255,135,106944,1,6,3:2:0:0:
482,23,107277,6,0,L|459:220,1,170,4|0,3:0|3:0,0:0:0:0:
363,188,107777,1,0,0:0:0:0:
363,188,107944,2,0,L|386:385,1,170,2|0,3:2|3:0,0:0:0:0:
211,258,108610,5,2,3:2:0:0:
39,316,108944,1,0,3:0:0:0:
191,130,109277,5,2,3:2:0:0:
363,188,109611,1,0,3:0:0:0:
162,8,109944,5,4,3:0:0:0:
162,8,110277,1,0,3:0:0:0:
191,130,110444,1,2,0:0:0:0:
393,82,110610,1,0,3:0:0:0:
272,46,110777,1,2,0:0:0:0:
213,248,110944,1,0,3:0:0:0:
304,161,111111,1,8,0:0:0:0:
86,107,111277,5,4,3:0:0:0:
125,306,111444,1,8,0:0:0:0:
86,107,111610,2,0,L|104:189,1,85,0|2,3:0|0:0,0:0:0:0:
213,248,111944,5,0,3:0:0:0:
250,265,112027,1,0,3:0:0:0:
289,269,112110,1,0,3:0:0:0:
324,257,112194,1,0,3:0:0:0:
355,228,112277,6,0,L|363:167,1,42.5,8|8,0:0|0:0,0:0:0:0:
272,46,112444,2,0,L|277:88,1,42.5,8|8,0:0|0:0,0:0:0:0:
104,189,112610,6,0,P|44:136|153:46,1,255,4|0,3:0|0:0,0:0:0:0:
277,88,113277,5,8,0:0:0:0:
122,115,113444,1,0,3:0:0:0:
245,218,113610,5,10,0:0:0:0:
200,99,113777,1,0,3:0:0:0:
181,300,113944,6,0,P|240:326|329:288,1,127.5,4|0,3:0|0:0,0:0:0:0:
341,231,114277,1,10,0:0:0:0:
476,334,114444,1,2,3:2:0:0:
476,334,114610,2,0,L|390:313,1,85,0|2,3:0|0:0,0:0:0:0:
361,135,114944,1,0,3:0:0:0:
361,135,115110,1,0,3:0:0:0:
181,300,115277,6,0,L|27:313,1,127.5,4|0,3:0|0:0,0:0:0:0:
53,310,115610,1,2,0:0:0:0:
13,162,115777,6,0,L|167:175,1,127.5,2|0,3:2|0:0,0:0:0:0:
216,185,116110,1,0,3:0:0:0:
241,157,116194,1,0,3:0:0:0:
245,121,116277,1,10,0:0:0:0:
268,293,116444,1,8,0:0:0:0:
394,96,116610,6,0,P|364:60|245:133,1,208.249993644715,4|0,3:0|0:0,0:0:0:0:
291,186,117277,2,0,L|332:175,2,39.6666654561361,0|0|0,3:0|3:0|3:0,0:0:0:0:
222,224,117610,2,0,L|181:213,2,39.6666654561361,2|0|0,3:2|3:0|3:0,0:0:0:0:
268,293,117944,5,2,0:0:0:0:
190,57,121944,5,4,0:0:0:0:
42,193,122110,1,0,3:0:0:0:
88,187,122194,1,0,3:0:0:0:
123,208,122277,1,0,3:0:0:0:
163,231,122360,1,0,3:0:0:0:
208,227,122444,1,0,3:0:0:0:
399,111,122610,5,0,3:0:0:0:
363,115,122694,1,0,3:0:0:0:
332,136,122777,1,0,3:0:0:0:
316,167,122860,1,0,3:0:0:0:
316,204,122944,6,0,L|335:263,1,42.5,8|8,0:0|0:0,0:0:0:0:
185,361,123110,2,0,L|198:320,1,42.5,8|8,0:0|0:0,0:0:0:0:
37,132,123277,6,0,L|75:284,1,127.5,4|0,3:0|0:0,0:0:0:0:
67,255,123610,2,0,P|110:264|151:241,1,85,8|0,0:0|0:0,0:0:0:0:
200,166,123944,1,0,3:0:0:0:
200,166,124110,1,0,3:0:0:0:
282,307,124277,2,0,L|197:319,1,85,10|0,0:0|0:0,0:0:0:0:
356,374,124610,6,0,P|384:307|347:241,1,127.5,2|0,3:2|0:0,0:0:0:0:
287,211,124944,1,10,0:0:0:0:
478,129,125110,2,0,L|471:219,1,85,2|0,0:0|3:0,0:0:0:0:
465,309,125444,1,2,3:2:0:0:
340,147,125610,2,0,L|177:175,1,127.5,8|0,0:0|0:0,0:0:0:0:
182,255,125944,6,0,P|135:289|44:292,1,127.5,2|0,3:2|0:0,0:0:0:0:
12,226,126277,1,8,0:0:0:0:
249,319,126444,2,0,P|296:353|387:356,1,127.5,2|0,0:0|0:0,0:0:0:0:
419,290,126777,1,0,3:0:0:0:
269,76,126944,2,0,L|297:219,1,127.5,10|0,0:0|0:0,0:0:0:0:
315,272,127277,6,0,L|339:146,1,127.5,2|0,3:2|0:0,0:0:0:0:
339,146,127610,2,0,P|383:140|427:168,1,85,8|0,0:0|0:0,0:0:0:0:
477,228,127944,1,0,3:0:0:0:
477,228,128110,1,0,3:0:0:0:
512,64,128277,2,0,L|423:71,1,85,10|0,0:0|0:0,0:0:0:0:
237,244,128610,6,0,P|174:244|102:189,1,127.5,4|0,3:0|0:0,0:0:0:0:
89,132,128944,1,8,0:0:0:0:
187,0,129110,2,0,L|205:83,1,85,2|0,0:0|3:0,0:0:0:0:
292,60,129444,1,2,3:2:0:0:
328,233,129610,2,0,L|309:149,1,85,10|0,0:0|0:0,0:0:0:0:
453,307,129944,6,0,B|411:308|393:330|393:330|373:353|313:354,1,127.5,0|0,3:0|0:0,0:0:0:0:
245,357,130277,2,0,L|264:273,1,85,10|0,0:0|0:0,0:0:0:0:
143,127,130610,5,10,0:0:0:0:
190,267,130777,1,0,3:0:0:0:
379,167,130944,5,10,0:0:0:0:
234,137,131111,1,0,3:0:0:0:
44,310,131277,6,0,L|18:161,1,127.5,4|0,3:0|0:0,0:0:0:0:
8,102,131610,5,8,0:0:0:0:
166,35,131777,1,0,3:0:0:0:
156,200,131944,5,8,0:0:0:0:
314,133,132110,1,0,3:0:0:0:
321,357,132277,1,8,0:0:0:0:
247,216,132444,1,0,3:0:0:0:
429,249,132610,5,4,0:3:0:0:
497,100,132777,1,0,3:0:0:0:
267,50,132944,1,8,0:0:0:0:
401,151,133110,1,0,3:0:0:0:
183,46,133277,5,8,0:0:0:0:
145,52,133360,1,8,0:0:0:0:
117,72,133444,1,8,0:0:0:0:
102,104,133527,1,8,0:0:0:0:
99,141,133611,6,0,L|114:187,1,42.5,0|0,3:0|3:0,0:0:0:0:
100,346,133777,2,0,L|113:305,1,42.5,0|0,3:0|3:0,0:0:0:0:
231,184,133944,6,0,B|277:178|309:206|309:206|342:235|391:224,1,165.749992412568,4|0,3:2|0:0,0:0:0:0:
474,193,134277,1,8,0:0:0:0:
329,333,134444,6,0,P|261:354|205:276,1,165.749992412568,4|0,3:2|0:0,0:0:0:0:
288,246,134777,1,8,0:0:0:0:
103,62,134944,6,0,B|97:108|125:140|125:140|154:173|143:222,1,165.749992412568,4|0,3:2|0:0,0:0:0:0:
112,305,135277,1,8,0:0:0:0:
389,169,135444,6,0,P|399:33|252:144,1,416.499987289429,4|0,3:0|0:0,0:0:0:0:
331,99,136944,1,0,0:0:0:0:
176,187,137194,1,0,3:0:0:0:
176,187,137277,5,0,3:0:0:0:
185,264,137444,1,0,3:0:0:0:
261,279,137610,1,0,3:0:0:0:
270,356,137777,1,0,3:0:0:0:
449,216,137944,6,0,L|459:161,2,42.5,2|0|0,0:0|0:0|0:0,0:0:0:0:
380,148,138444,2,0,L|337:111,2,42.5,2|0|0,0:0|0:0|0:0,0:0:0:0:
300,182,138944,2,0,L|247:200,2,42.5,2|0|0,0:0|0:0|0:0,0:0:0:0:
222,267,139444,6,0,B|208:239|225:197|225:197|243:160|256:123|231:86|174:79|148:112|144:156|176:177,1,276.25,2|2,0:0|0:0,0:0:0:0:
163,164,140610,6,0,B|266:140|237:202|345:178,1,170,2|2,0:0|0:0,0:0:0:0:
328,181,141944,5,2,0:0:0:0:
