osu file format v14

[General]
AudioFilename: audio.mp3
AudioLeadIn: 0
PreviewTime: 69169
Countdown: 0
SampleSet: None
StackLeniency: 0.3
Mode: 0
LetterboxInBreaks: 0
WidescreenStoryboard: 1

[Editor]
Bookmarks: 218,15701,31185,46669,62153,85379,100863,116347,131830,139572,155056,170540,187959,203443,205742,218927,234411
DistanceSpacing: 1
BeatDivisor: 4
GridSize: 4
TimelineZoom: 1.9

[Metadata]
Title:No Roots (Denis First Remix)
TitleUnicode:No Roots (Denis First Remix)
Artist:Alice Merton
ArtistUnicode:Alice Merton
Creator:Jiysea
Version:CS 4
Source:
Tags:electronic english EDM club dance
BeatmapID:3144993
BeatmapSetID:1529956

[Difficulty]
HPDrainRate:2
CircleSize:4
OverallDifficulty:10
ApproachRate:10
SliderMultiplier:3.59999990463257
SliderTickRate:1

[Events]
//Background and Video events
0,0,"cool.jpg",0,0
//Break Periods
2,170740,181703
//Storyboard Layer 0 (Background)
//Storyboard Layer 1 (Fail)
//Storyboard Layer 2 (Pass)
//Storyboard Layer 3 (Foreground)
//Storyboard Layer 4 (Overlay)
//Storyboard Sound Samples

[TimingPoints]
218,483.870967741935,4,2,1,30,1,0
218,-200,4,2,1,30,0,0
15701,-100,4,2,1,65,0,0
31185,-133.333333333333,4,2,1,50,0,0
46669,-100,4,2,1,65,0,0
62153,-200,4,2,1,30,0,0
66024,-133.333333333333,4,2,1,50,0,0
68927,-133.333333333333,4,2,1,5,0,0
69169,-133.333333333333,4,2,1,50,0,0
69895,-66.6666666666667,4,2,1,85,0,1
78121,-33.3333333333333,4,2,1,85,0,1
78605,-66.6666666666667,4,2,1,85,0,1
81992,-33.3333333333333,4,2,1,85,0,1
82476,-66.6666666666667,4,2,1,85,0,1
84653,-66.6666666666667,4,2,1,85,0,0
85379,-66.6666666666667,4,2,1,85,0,1
93605,-33.3333333333333,4,2,1,85,0,1
94088,-66.6666666666667,4,2,1,85,0,1
97476,-33.3333333333333,4,2,1,85,0,1
97959,-66.6666666666667,4,2,1,85,0,1
100863,-133.333333333333,4,2,1,50,0,0
116347,-100,4,2,1,65,0,0
131830,-200,4,2,1,85,0,0
135701,-133.333333333333,4,2,1,85,0,0
139572,-66.6666666666667,4,2,1,85,0,1
147798,-33.3333333333333,4,2,1,85,0,1
148282,-66.6666666666667,4,2,1,85,0,1
151669,-33.3333333333333,4,2,1,85,0,1
152153,-66.6666666666667,4,2,1,85,0,1
154330,-66.6666666666667,4,2,1,85,0,0
155056,-66.6666666666667,4,2,1,85,0,1
156105,-66.6666666666667,4,2,1,5,0,1
156185,-66.6666666666667,4,2,1,85,0,1
156266,-66.6666666666667,4,2,1,5,0,1
156347,-66.6666666666667,4,2,1,85,0,1
156427,-66.6666666666667,4,2,1,5,0,1
156508,-66.6666666666667,4,2,1,85,0,1
159976,-66.6666666666667,4,2,1,5,0,1
160056,-66.6666666666667,4,2,1,85,0,1
160137,-66.6666666666667,4,2,1,5,0,1
160217,-66.6666666666667,4,2,1,85,0,1
160298,-66.6666666666667,4,2,1,5,0,1
160379,-66.6666666666667,4,2,1,85,0,1
170540,-200,4,2,1,30,0,0
186992,-200,4,2,1,5,0,0
187234,-200,4,2,1,50,0,0
187959,-66.6666666666667,4,2,1,85,0,1
189008,-66.6666666666667,4,2,1,5,0,1
189088,-66.6666666666667,4,2,1,85,0,1
189169,-66.6666666666667,4,2,1,5,0,1
189250,-66.6666666666667,4,2,1,85,0,1
189330,-66.6666666666667,4,2,1,5,0,1
189411,-66.6666666666667,4,2,1,85,0,1
192879,-66.6666666666667,4,2,1,5,0,1
192959,-66.6666666666667,4,2,1,85,0,1
193040,-66.6666666666667,4,2,1,5,0,1
193121,-66.6666666666667,4,2,1,85,0,1
193201,-66.6666666666667,4,2,1,5,0,1
193282,-66.6666666666667,4,2,1,85,0,1
202717,-66.6666666666667,4,2,1,85,0,0
203443,-66.6666666666667,4,2,1,85,0,1
211669,-33.3333333333333,4,2,1,85,0,1
212153,-66.6666666666667,4,2,1,85,0,1
215540,-33.3333333333333,4,2,1,85,0,1
216024,-66.6666666666667,4,2,1,85,0,1
218201,-66.6666666666667,4,2,1,85,0,0
218927,-66.6666666666667,4,2,1,85,0,1
227153,-33.3333333333333,4,2,1,85,0,1
227637,-66.6666666666667,4,2,1,85,0,1
231024,-33.3333333333333,4,2,1,85,0,1
231508,-66.6666666666667,4,2,1,85,0,1
234411,-200,4,2,1,85,0,0

[Colours]
Combo1 : 192,192,192
Combo2 : 241,61,61

[HitObjects]
56,48,218,5,0,0:0:0:0:
44,52,701,1,8,0:2:0:0:
456,336,1185,5,0,0:0:0:0:
468,332,1668,1,8,0:2:0:0:
256,255,2153,5,0,0:0:0:0:
192,192,2637,1,8,0:2:0:0:
256,128,3121,1,0,0:0:0:0:
319,192,3605,1,8,0:2:0:0:
44,332,4088,5,0,0:0:0:0:
56,336,4571,1,8,0:2:0:0:
468,52,5055,5,0,0:0:0:0:
456,48,5538,1,8,0:2:0:0:
211,237,6024,5,0,0:0:0:0:
211,147,6508,1,8,0:2:0:0:
301,147,6992,1,0,0:0:0:0:
301,237,7476,1,8,0:2:0:0:
480,336,7959,5,0,0:0:0:0:
480,308,8201,1,0,0:0:0:0:
480,276,8443,2,0,L|391:260,1,89.9999976158143,8|0,0:2|0:0,0:0:0:0:
2,55,8927,6,0,P|14:119|73:146,1,134.999996423721
89,160,9411,1,8,0:2:0:0:
84,60,9653,1,0,0:0:0:0:
12,360,9895,5,0,0:0:0:0:
176,320,10137,1,0,0:0:0:0:
36,356,10379,2,0,L|51:267,1,89.9999976158143,8|0,0:2|0:0,0:0:0:0:
396,124,10863,6,0,P|337:155|272:145,1,134.999996423721
264,120,11347,1,8,0:2:0:0:
392,4,11588,1,0,0:0:0:0:
512,228,11830,5,0,0:0:0:0:
328,60,12072,1,0,0:0:0:0:
484,204,12314,2,0,L|468:292,1,89.9999976158143,8|0,0:2|0:0,0:0:0:0:
160,344,12798,5,0,0:0:0:0:
320,268,13040,1,0,0:0:0:0:
324,288,13161,2,0,L|331:332,1,44.9999988079071,0|8,0:0|0:2,0:0:0:0:
216,248,13403,1,0,0:0:0:0:
220,228,13524,2,0,L|227:183,1,44.9999988079071
512,4,13766,5,0,0:0:0:0:
504,32,14008,1,0,0:0:0:0:
496,56,14250,2,0,L|407:40,1,89.9999976158143,8|0,0:2|0:0,0:0:0:0:
32,152,14734,6,0,P|45:216|102:247,1,134.999996423721
184,264,15217,1,8,0:2:0:0:
188,288,15338,1,0,0:0:0:0:
192,308,15459,1,0,0:0:0:0:
192,308,15701,6,0,B|251:327|284:293|270:288|302:255|359:274,1,179.999995231629,6|0,1:2|0:0,0:0:0:0:
504,352,16064,1,0,0:0:0:0:
432,184,16185,1,8,1:2:0:0:
336,356,16306,1,0,0:0:0:0:
444,160,16427,2,0,L|459:71,1,89.9999976158143,2|0,0:0|0:0,0:0:0:0:
168,128,16669,6,0,P|184:168|224:185,1,89.9999976158143,2|0,1:2|0:0,0:0:0:0:
336,88,16911,1,0,0:0:0:0:
56,0,17032,2,0,L|71:88,1,89.9999976158143,2|8,0:2|1:2,0:0:0:0:
304,272,17274,1,0,0:0:0:0:
96,320,17395,2,0,L|111:231,1,89.9999976158143,2|0,0:0|0:0,0:0:0:0:
432,32,17637,5,0,1:2:0:0:
432,32,17879,2,0,P|476:28|510:0,1,89.9999976158143,2|0,0:0|0:0,0:0:0:0:
248,96,18121,1,8,1:2:0:0:
351,176,18242,2,0,L|335:87,1,89.9999976158143,2|0,0:0|0:0,0:0:0:0:
512,132,18484,1,0,0:0:0:0:
416,260,18605,6,0,L|400:348,1,89.9999976158143,2|0,1:2|0:0,0:0:0:0:
300,288,18847,1,0,0:0:0:0:
496,384,18967,2,0,L|511:295,1,89.9999976158143,2|8,0:0|1:2,0:0:0:0:
351,176,19209,1,0,0:0:0:0:
196,324,19330,2,0,P|151:325|116:298,1,89.9999976158143,2|0,0:0|0:0,0:0:0:0:
0,56,19572,6,0,B|74:42|74:42|94:23|94:23|169:9,1,179.999995231629,2|0,1:2|0:0,0:0:0:0:
351,176,19935,1,0,0:0:0:0:
152,104,20056,1,8,1:2:0:0:
296,52,20177,1,0,0:0:0:0:
128,112,20298,2,0,L|112:200,1,89.9999976158143,2|0,0:0|0:0,0:0:0:0:
399,348,20540,6,0,P|384:306|347:281,1,89.9999976158143,2|0,1:2|0:0,0:0:0:0:
196,324,20782,1,0,0:0:0:0:
424,112,20903,2,0,L|439:200,1,89.9999976158143,2|8,0:0|1:2,0:0:0:0:
512,264,21145,1,0,0:0:0:0:
296,52,21266,2,0,P|321:15|363:0,1,89.9999976158143,2|0,0:0|0:0,0:0:0:0:
24,260,21508,5,0,1:2:0:0:
24,260,21750,2,0,L|8:171,1,89.9999976158143,2|0,0:0|0:0,0:0:0:0:
88,364,21992,1,8,1:2:0:0:
128,112,22113,2,0,L|143:23,1,89.9999976158143,2|0,0:0|0:0,0:0:0:0:
16,52,22355,1,0,0:0:0:0:
164,228,22476,6,0,P|197:257|242:260,1,89.9999976158143,2|0,1:2|0:0,0:0:0:0:
236,168,22717,1,0,0:0:0:0:
360,360,22838,2,0,P|404:356|437:326,1,89.9999976158143,2|8,0:0|1:2,0:0:0:0:
512,384,23080,1,0,0:0:0:0:
372,112,23201,2,0,P|405:82|450:79,1,89.9999976158143,2|0,0:0|0:0,0:0:0:0:
512,232,23443,6,0,B|433:218|433:218|428:221|428:221|330:203,1,179.999995231629,2|0,1:2|0:0,0:0:0:0:
24,260,23806,1,0,0:0:0:0:
196,352,23927,1,8,1:2:0:0:
284,88,24048,1,0,0:0:0:0:
204,328,24169,2,0,L|188:239,1,89.9999976158143,2|0,0:0|0:0,0:0:0:0:
0,48,24411,6,0,P|35:75|79:79,1,89.9999976158143,2|0,1:2|0:0,0:0:0:0:
348,28,24653,1,0,0:0:0:0:
196,60,24774,2,0,L|180:148,1,89.9999976158143,2|8,0:0|1:2,0:0:0:0:
400,312,25016,1,0,0:0:0:0:
292,256,25137,2,0,P|327:228|371:224,1,89.9999976158143,2|0,0:0|0:0,0:0:0:0:
512,32,25379,6,0,P|450:95|363:108,1,179.999995231629,2|0,1:2|0:0,0:0:0:0:
128,0,25742,1,0,0:0:0:0:
184,256,25863,1,8,1:2:0:0:
264,116,25984,1,0,0:0:0:0:
172,276,26105,2,0,L|83:260,1,89.9999976158143,2|0,0:0|0:0,0:0:0:0:
312,356,26347,6,0,L|400:340,1,89.9999976158143,2|0,1:2|0:0,0:0:0:0:
512,144,26588,1,0,0:0:0:0:
282,207,26709,2,0,L|370:223,1,89.9999976158143,2|8,0:0|1:2,0:0:0:0:
512,384,26951,1,0,0:0:0:0:
388,112,27072,2,0,P|390:67|417:32,1,89.9999976158143,2|0,0:0|0:0,0:0:0:0:
224,348,27314,6,0,B|169:366|133:331|148:319|113:284|50:301,1,179.999995231629,2|0,1:2|0:0,0:0:0:0:
72,384,27677,1,0,0:0:0:0:
0,176,27798,1,8,1:2:0:0:
208,260,27919,1,0,0:0:0:0:
28,188,28040,2,0,P|45:147|83:125,1,89.9999976158143,2|0,0:0|0:0,0:0:0:0:
388,112,28282,6,0,P|349:89|332:49,1,89.9999976158143,2|0,1:2|0:0,0:0:0:0:
424,32,28524,1,0,0:0:0:0:
291,265,28645,2,0,P|248:276|207:259,1,89.9999976158143,2|8,0:0|1:2,0:0:0:0:
259,182,28887,1,0,0:0:0:0:
512,296,29008,2,0,L|496:384,1,89.9999976158143,2|0,0:0|0:0,0:0:0:0:
96,272,29250,5,0,1:2:0:0:
96,272,29492,2,0,L|80:183,1,89.9999976158143,2|0,0:0|0:0,0:0:0:0:
332,49,29734,1,8,1:2:0:0:
152,0,29855,2,0,P|117:27|105:69,1,89.9999976158143,2|0,0:0|0:0,0:0:0:0:
80,183,30097,1,0,0:0:0:0:
344,144,30217,2,0,P|386:131|413:97,1,89.9999976158143,2|0,1:2|0:0,0:0:0:0:
168,368,30459,6,0,L|256:352,1,89.9999976158143,8|2,0:3|0:0,0:0:0:0:
512,192,30701,1,8,1:3:0:0:
480,200,30822,1,8,0:3:0:0:
460,224,30943,1,10,0:3:0:0:
456,260,31064,1,8,0:3:0:0:
504,340,31185,5,4,1:2:0:0:
504,339,31427,2,0,P|438:346|380:313,1,135.000001573563,2|8,0:0|1:2,0:0:0:0:
344,144,31790,2,0,P|401:110|467:118,1,135.000001573563,2|0,0:0|0:0,0:0:0:0:
292,228,32153,1,2,1:2:0:0:
226,160,32274,2,0,L|214:94,1,67.5000007867814,2|0,0:0|0:0,0:0:0:0:
300,252,32516,2,0,L|366:263,1,67.5000007867814,2|8,0:0|1:2,0:0:0:0:
228,360,32758,1,0,0:0:0:0:
144,260,32879,2,0,L|132:193,1,67.5000007867814,2|0,0:0|0:0,0:0:0:0:
24,20,33121,5,0,1:2:0:0:
24,20,33363,2,0,L|0:152,1,135.000001573563,2|8,0:0|1:2,0:0:0:0:
216,104,33726,2,0,P|184:46|121:28,1,135.000001573563,2|0,0:0|0:0,0:0:0:0:
236,192,34088,6,0,P|268:182|293:160,1,67.5000007867814,2|0,1:2|0:0,0:0:0:0:
112,184,34330,2,0,L|100:250,1,67.5000007867814,2|0,0:0|0:0,0:0:0:0:
196,304,34572,2,0,P|261:313|308:361,1,135.000001573563,10|0,1:2|0:0,0:0:0:0:
504,224,34935,1,2,0:0:0:0:
436,384,35056,5,0,1:2:0:0:
436,384,35298,2,0,L|412:251,1,135.000001573563,2|8,0:0|1:2,0:0:0:0:
512,0,35661,2,0,L|488:132,1,135.000001573563,2|0,0:0|0:0,0:0:0:0:
328,348,36024,6,0,L|339:281,1,67.5000007867814,2|0,1:2|0:0,0:0:0:0:
252,228,36266,2,0,L|240:161,1,67.5000007867814,2|0,0:0|0:0,0:0:0:0:
376,108,36508,2,0,L|364:174,1,67.5000007867814,10|0,1:2|0:0,0:0:0:0:
152,268,36750,2,0,P|118:269|94:291,1,67.5000007867814,2|0,0:0|0:0,0:0:0:0:
0,104,36992,5,0,1:2:0:0:
0,104,37234,2,0,P|32:97|56:74,1,67.5000007867814,2|0,0:0|0:0,0:0:0:0:
168,104,37476,2,0,L|156:170,1,67.5000007867814,10|0,1:2|0:0,0:0:0:0:
82,225,37717,2,0,L|93:291,1,67.5000007867814,2|0,0:0|0:0,0:0:0:0:
395,287,37959,6,0,P|369:267|336:262,1,67.5000007867814,2|0,1:2|0:0,0:0:0:0:
416,384,38201,1,2,0:0:0:0:
500,328,38322,2,0,L|511:261,1,67.5000007867814,2|8,0:0|1:2,0:0:0:0:
392,180,38564,1,0,0:0:0:0:
336,262,38685,2,0,L|347:328,1,67.5000007867814,2|0,0:0|0:0,0:0:0:0:
24,360,38927,5,0,1:2:0:0:
140,384,39048,1,0,0:0:0:0:
44,364,39169,2,0,L|67:231,1,135.000001573563,2|8,0:0|1:2,0:0:0:0:
320,176,39532,1,0,0:0:0:0:
212,304,39653,2,0,P|179:294|154:272,1,67.5000007867814,2|0,0:0|0:0,0:0:0:0:
0,72,39895,5,2,1:2:0:0:
64,12,40056,5,2,0:0:0:0:
152,40,40217,5,2,0:0:0:0:
164,128,40379,6,0,L|231:116,1,67.5000007867814,10|0,1:2|0:2,0:0:0:0:
368,0,40621,2,0,L|357:66,1,67.5000007867814,2|0,0:0|0:0,0:0:0:0:
512,352,40863,5,0,1:2:0:0:
512,352,41105,2,0,P|489:327|457:316,1,67.5000007867814,2|0,0:0|0:0,0:0:0:0:
320,260,41347,2,0,P|351:249|374:224,1,67.5000007867814,10|0,1:2|0:0,0:0:0:0:
454,88,41588,2,0,L|465:154,1,67.5000007867814,2|0,0:0|0:0,0:0:0:0:
280,356,41830,5,2,1:2:0:0:
168,236,41951,1,0,0:0:0:0:
296,372,42072,2,0,L|229:360,1,67.5000007867814,2|0,0:0|0:0,0:0:0:0:
36,216,42314,2,0,P|11:238|0:270,1,67.5000007867814,10|0,1:2|0:0,0:0:0:0:
108,352,42556,1,2,0:0:0:0:
220,136,42677,1,2,0:0:0:0:
121,332,42798,6,0,B|192:360|252:312|232:288|292:240|368:276,1,270.000003147125,2|8,1:2|1:2,0:0:0:0:
367,275,43524,2,0,P|392:253|401:221,1,67.5000007867814,2|0,0:0|0:0,0:0:0:0:
128,36,43766,5,2,1:2:0:0:
324,172,44008,1,0,0:0:0:0:
328,152,44129,2,0,L|339:85,1,67.5000007867814,2|8,0:0|1:2,0:0:0:0:
216,116,44371,1,0,0:0:0:0:
220,136,44492,2,0,L|231:202,1,67.5000007867814,2|0,0:0|0:0,0:0:0:0:
488,352,44734,5,0,1:2:0:0:
488,352,44976,2,0,P|439:307|373:307,1,135.000001573563,2|8,0:0|1:2,0:0:0:0:
368,192,45338,2,0,P|434:191|482:147,1,135.000001573563,2|0,0:0|0:0,0:0:0:0:
227,49,45701,2,0,L|215:115,1,67.5000007867814,2|0,1:2|0:0,0:0:0:0:
32,320,45943,5,2,0:0:0:0:
176,296,46064,1,2,0:0:0:0:
32,320,46185,1,10,1:2:0:0:
176,296,46306,1,2,0:0:0:0:
32,320,46427,1,2,0:0:0:0:
176,296,46548,1,2,0:0:0:0:
96,240,46669,6,0,B|182:255|182:255|185:259|185:259|270:274,1,179.999995231629,4|2,1:2|0:0,0:0:0:0:
500,92,47032,1,0,0:0:0:0:
260,176,47153,2,0,L|348:160,1,89.9999976158143,10|0,1:2|0:0,0:0:0:0:
512,312,47395,2,0,P|492:272|453:251,1,89.9999976158143,2|0,0:0|0:0,0:0:0:0:
288,364,47637,5,2,1:2:0:0:
136,160,47758,1,0,0:0:0:0:
276,348,47879,2,0,L|364:363,1,89.9999976158143,2|0,0:0|0:0,0:0:0:0:
148,336,48121,2,0,L|59:351,1,89.9999976158143,10|0,1:2|0:0,0:0:0:0:
260,176,48363,2,0,L|244:87,1,89.9999976158143,2|0,0:0|0:0,0:0:0:0:
484,48,48605,6,0,P|397:48|346:119,1,179.999995231629,0|2,1:2|0:0,0:0:0:0:
488,316,48967,1,0,0:0:0:0:
440,132,49088,2,0,L|424:220,1,89.9999976158143,10|0,1:2|0:0,0:0:0:0:
201,236,49330,2,0,P|220:196|259:175,1,89.9999976158143,2|0,0:0|0:0,0:0:0:0:
96,332,49572,6,0,P|56:311|37:271,1,89.9999976158143,2|0,1:2|0:0,0:0:0:0:
332,248,49814,1,2,0:0:0:0:
212,384,49935,1,0,0:0:0:0:
96,164,50056,2,0,B|81:110|114:65|126:81|160:48|145:-21,1,179.999995231629,10|0,1:2|0:0,0:0:0:0:
48,0,50419,1,0,0:0:0:0:
332,248,50540,6,0,P|417:256|471:189,1,179.999995231629,0|2,1:2|0:0,0:0:0:0:
376,156,50903,1,0,0:0:0:0:
201,236,51024,2,0,P|175:272|180:316,1,89.9999976158143,10|0,1:2|0:0,0:0:0:0:
312,68,51266,2,0,L|223:52,1,89.9999976158143,2|0,0:0|0:0,0:0:0:0:
436,240,51508,5,2,1:2:0:0:
376,156,51629,1,0,0:0:0:0:
448,256,51750,2,0,L|432:344,1,89.9999976158143,2|0,0:0|0:0,0:0:0:0:
239,140,51992,2,0,L|223:52,1,89.9999976158143,10|0,1:2|0:0,0:0:0:0:
512,0,52234,2,0,P|504:43|470:71,1,89.9999976158143,2|0,0:2|0:0,0:0:0:0:
136,156,52476,6,0,L|313:187,1,179.999995231629,0|2,1:2|0:0,0:0:0:0:
72,328,52838,1,0,0:0:0:0:
4,92,52959,2,0,L|92:76,1,89.9999976158143,10|0,1:2|0:0,0:0:0:0:
292,276,53201,2,0,L|203:260,1,89.9999976158143
470,71,53443,2,0,L|454:159,1,89.9999976158143,2|0,1:2|0:0,0:0:0:0:
512,384,53685,5,2,0:0:0:0:
412,256,53806,1,2,0:0:0:0:
512,384,53927,1,10,1:2:0:0:
412,256,54048,1,2,0:0:0:0:
512,384,54169,1,2,0:0:0:0:
412,256,54290,1,2,0:0:0:0:
400,376,54411,5,0,1:2:0:0:
400,376,54653,2,0,L|311:360,1,89.9999976158143,2|0,0:0|0:0,0:0:0:0:
508,208,54895,1,8,1:2:0:0:
292,276,55016,2,0,P|260:245|255:201,1,89.9999976158143,2|0,0:0|0:0,0:0:0:0:
148,336,55258,1,0,0:0:0:0:
4,196,55379,5,2,1:2:0:0:
56,264,55540,5,2,0:0:0:0:
140,232,55701,5,2,0:0:0:0:
124,144,55863,6,0,L|108:55,1,89.9999976158143,8|0,1:2|0:2,0:0:0:0:
268,96,56105,2,0,P|311:90|342:59,1,89.9999976158143,2|0,0:0|0:0,0:0:0:0:
512,0,56347,5,0,1:2:0:0:
511,0,56588,2,0,P|474:23|462:66,1,89.9999976158143,2|0,0:0|0:0,0:0:0:0:
380,248,56830,2,0,L|468:263,1,89.9999976158143,10|0,1:2|0:0,0:0:0:0:
488,164,57072,2,0,L|399:148,1,89.9999976158143,2|0,0:0|0:0,0:0:0:0:
56,288,57314,5,2,1:2:0:0:
240,196,57435,1,0,0:0:0:0:
40,296,57556,2,0,P|74:323|118:323,1,89.9999976158143,2|0,0:0|0:0,0:0:0:0:
128,156,57798,2,0,P|83:155|49:183,1,89.9999976158143,10|0,1:2|0:0,0:0:0:0:
328,344,58040,1,2,0:0:0:0:
224,284,58161,1,2,0:0:0:0:
356,360,58282,6,0,B|335:301|380:263|386:273|419:244|402:182,1,179.999995231629,2|0,1:2|0:0,0:0:0:0:
144,240,58645,1,0,0:0:0:0:
440,340,58766,1,8,1:2:0:0:
320,144,58887,1,0,0:0:0:0:
136,344,59008,2,0,L|224:328,1,89.9999976158143,2|0,0:0|0:0,0:0:0:0:
496,164,59250,6,0,P|474:125|432:110,1,89.9999976158143,2|0,1:2|0:0,0:0:0:0:
128,36,59492,1,0,0:0:0:0:
124,56,59613,2,0,L|108:144,1,89.9999976158143,2|8,0:0|1:2,0:0:0:0:
240,108,59855,1,0,0:0:0:0:
236,88,59976,2,0,L|220:0,1,89.9999976158143,2|0,0:0|0:0,0:0:0:0:
0,280,60217,5,0,1:2:0:0:
0,280,60459,2,0,L|88:264,1,89.9999976158143,2|0,0:0|0:0,0:0:0:0:
136,344,60701,1,8,1:2:0:0:
344,128,60822,2,0,L|359:39,1,89.9999976158143,2|0,0:0|0:0,0:0:0:0:
444,100,61064,1,0,0:0:0:0:
186,173,61185,6,0,P|141:172|108:144,1,89.9999976158143,2|0,1:2|0:0,0:0:0:0:
176,84,61427,1,0,0:0:0:0:
416,188,61548,2,0,P|444:221|444:265,1,89.9999976158143,2|8,0:0|1:2,0:0:0:0:
80,384,61911,1,8,0:3:0:0:
72,352,62032,1,8,0:3:0:0:
64,320,62153,6,0,B|78:266|43:226|35:244|4:207|17:146,2,179.999995231629,6|10|2,0:0|0:0|0:0,0:0:0:0:
388,384,63605,1,10,0:0:0:0:
504,92,64088,2,0,P|465:14|368:16,1,179.999995231629,2|10,0:0|0:0,0:0:0:0:
316,104,65056,2,0,P|354:181|452:180,1,179.999995231629,2|8,0:0|0:0,0:0:0:0:
412,100,65782,1,2,0:0:0:0:
100,0,66024,6,0,B|77:126|77:126|73:129|73:129|81:130|81:130|76:133|76:133|55:254,2,270.000003147125,2|10|2,0:0|0:0|0:0,0:0:0:0:
256,192,67476,1,8,0:0:0:0:
256,192,67959,12,0,68927,0:0:0:0:
104,184,69169,5,8,0:3:0:0:
512,296,69411,1,8,0:3:0:0:
488,384,69532,1,8,0:3:0:0:
399,361,69653,1,8,0:3:0:0:
423,272,69774,1,8,0:3:0:0:
512,296,69895,6,0,B|435:335|384:263|401:260|343:199|267:233,1,270.000003147125,4|2,1:2|0:0,0:0:0:0:
12,384,70258,1,0,0:0:0:0:
312,324,70379,1,8,1:2:0:0:
36,380,70500,1,0,0:0:0:0:
288,328,70621,1,2,0:0:0:0:
0,200,70742,1,0,0:0:0:0:
144,384,70863,6,0,P|175:326|157:262,1,135.000001573563,0|0,1:2|0:0,0:0:0:0:
0,304,71105,1,2,0:0:0:0:
296,128,71226,2,0,L|428:151,1,135.000001573563,0|8,0:0|1:2,0:0:0:0:
376,44,71467,1,0,0:0:0:0:
104,47,71588,2,0,L|128:180,1,135.000001573563,2|0,0:0|0:0,0:0:0:0:
312,248,71830,5,0,1:2:0:0:
316,136,71951,1,0,0:0:0:0:
196,136,72072,1,2,0:0:0:0:
196,248,72193,1,0,0:0:0:0:
396,196,72314,5,8,1:2:0:0:
256,56,72435,1,0,0:0:0:0:
112,192,72556,1,2,0:0:0:0:
256,324,72677,1,0,0:0:0:0:
512,56,72798,6,0,L|379:80,1,135.000001573563,0|0,1:2|0:0,0:0:0:0:
56,0,73040,2,0,P|8:45|9:111,1,135.000001573563,2|0,0:0|0:0,0:0:0:0:
256,240,73282,2,0,P|256:174|209:128,1,135.000001573563,8|0,1:2|0:0,0:0:0:0:
0,360,73524,2,0,L|132:383,1,135.000001573563,2|0,0:0|0:0,0:0:0:0:
384,23,73766,6,0,P|353:148|450:233,1,270.000003147125,0|2,1:2|0:0,0:0:0:0:
472,104,74129,1,0,0:0:0:0:
160,216,74250,1,8,1:2:0:0:
396,340,74371,1,0,0:0:0:0:
464,128,74492,1,2,0:0:0:0:
388,368,74613,1,0,0:0:0:0:
248,140,74734,6,0,L|115:116,1,135.000001573563,0|0,1:2|0:0,0:0:0:0:
284,368,74976,1,2,0:0:0:0:
360,156,75097,2,0,L|383:24,1,135.000001573563,0|8,0:0|1:2,0:0:0:0:
200,36,75338,1,0,0:0:0:0:
380,260,75459,2,0,L|512:237,1,135.000001573563,2|0,0:0|0:0,0:0:0:0:
176,248,75701,5,0,1:2:0:0:
328,172,75822,1,0,0:0:0:0:
144,264,75943,1,2,0:0:0:0:
360,156,76064,1,0,0:0:0:0:
332,352,76185,5,8,1:2:0:0:
180,32,76306,1,0,0:0:0:0:
320,328,76427,1,2,0:0:0:0:
192,56,76548,1,0,0:0:0:0:
144,384,76669,6,0,P|206:362|236:304,1,135.000001573563,0|0,1:2|0:0,0:0:0:0:
512,8,76911,5,2,0:0:0:0:
8,140,77032,1,2,0:0:0:0:
512,24,77153,5,10,1:2:0:0:
8,156,77274,1,2,0:0:0:0:
512,40,77395,5,2,0:0:0:0:
8,172,77516,1,2,0:0:0:0:
488,384,77637,6,0,B|505:285|505:285|502:280|502:280|521:170|521:170|513:193|487:212,1,270.000003147125,0|2,1:2|0:0,0:0:0:0:
204,8,78000,1,0,0:0:0:0:
218,240,78121,6,0,P|304:140|436:136,2,270.000003147125,8|0|2,1:2|0:0|0:0,0:0:0:0:
352,240,78484,1,0,0:0:0:0:
8,264,78605,6,0,B|76:232|138:286|115:296|172:364|268:324,1,270.000003147125,0|2,1:2|0:0,0:0:0:0:
344,24,78967,1,0,0:0:0:0:
124,156,79088,2,0,P|185:181|217:239,1,135.000001573563,8|0,1:2|0:0,0:0:0:0:
48,356,79330,1,2,0:0:0:0:
0,56,79451,1,0,0:0:0:0:
348,132,79572,6,0,P|409:106|441:48,1,135.000001573563,0|0,1:2|0:0,0:0:0:0:
232,92,79814,1,2,0:0:0:0:
468,320,79935,1,0,0:0:0:0:
240,372,80056,2,0,L|216:239,1,135.000001573563,8|0,1:2|0:0,0:0:0:0:
0,0,80298,2,0,P|45:47|109:39,1,135.000001573563,2|0,0:0|0:0,0:0:0:0:
512,116,80540,6,0,B|552:72|500:-28|348:72|464:224,1,270.000003147125,0|2,1:2|0:0,0:0:0:0:
344,32,80903,1,0,0:0:0:0:
512,240,81024,6,0,B|444:208|382:262|405:272|348:340|252:300,1,270.000003147125,8|2,1:2|0:0,0:0:0:0:
0,144,81387,1,0,0:0:0:0:
168,384,81508,6,0,B|148:273|148:273|119:246|119:246|97:124,1,270.000003147125,0|2,1:2|0:0,0:0:0:0:
360,4,81871,1,0,0:0:0:0:
196,40,81992,6,0,B|220:160|220:160|288:100|368:140,2,270.000003147125,8|0|2,1:2|0:0|0:0,0:0:0:0:
304,216,82355,1,0,0:0:0:0:
512,24,82476,6,0,B|430:56|438:144|461:135|456:217|385:243,1,270.000003147125,0|2,1:2|0:0,0:0:0:0:
512,384,82838,1,0,0:0:0:0:
204,276,82959,2,0,P|143:251|111:193,1,135.000001573563,8|0,1:2|0:0,0:0:0:0:
360,4,83201,1,2,0:0:0:0:
512,276,83322,1,0,0:0:0:0:
224,384,83443,6,0,L|91:360,1,135.000001573563,0|0,1:2|0:0,0:0:0:0:
52,112,83685,2,0,P|111:85|170:114,1,135.000001573563,2|0,0:0|0:0,0:0:0:0:
472,0,83927,1,8,1:2:0:0:
304,216,84048,2,0,L|327:348,1,135.000001573563,0|2,0:0|0:0,0:0:0:0:
110,192,84290,1,0,0:0:0:0:
419,280,84411,2,0,P|468:235|476:169,1,135.000001573563,0|0,1:2|0:0,0:0:0:0:
264,0,84653,5,2,0:0:0:0:
88,348,84774,1,2,0:0:0:0:
280,0,84895,5,10,0:2:0:0:
104,348,85016,1,2,0:2:0:0:
296,0,85137,5,2,0:2:0:0:
120,348,85258,1,2,0:2:0:0:
0,108,85379,6,0,B|84:76|136:136|116:152|169:205|245:171,1,270.000003147125,4|2,1:2|0:0,0:0:0:0:
512,328,85742,1,0,0:0:0:0:
320,104,85863,1,8,1:2:0:0:
152,340,85984,1,0,0:0:0:0:
512,216,86105,1,2,0:0:0:0:
176,332,86226,1,0,0:0:0:0:
412,172,86347,6,0,P|469:139|488:76,1,135.000001573563,0|0,1:2|0:0,0:0:0:0:
160,0,86589,1,2,0:0:0:0:
344,248,86710,2,0,L|367:380,1,135.000001573563,0|8,0:0|1:2,0:0:0:0:
148,24,86951,1,0,0:0:0:0:
0,224,87072,2,0,L|132:247,1,135.000001573563,2|0,0:0|0:0,0:0:0:0:
352,140,87314,5,0,1:2:0:0:
176,117,87435,1,0,0:0:0:0:
241,284,87556,1,2,0:0:0:0:
256,192,87677,1,0,0:0:0:0:
148,88,87798,5,8,1:2:0:0:
232,316,87919,1,0,0:0:0:0:
384,120,88040,1,2,0:0:0:0:
256,192,88161,1,0,0:0:0:0:
512,384,88282,6,0,P|490:321|430:294,1,135.000001573563,0|0,1:2|0:0,0:0:0:0:
132,247,88524,2,0,L|155:380,1,135.000001573563,2|0,0:0|0:0,0:0:0:0:
511,132,88766,2,0,L|488:0,1,135.000001573563,8|0,1:2|0:0,0:0:0:0:
15,112,89008,2,0,L|147:88,1,135.000001573563,2|0,0:0|0:0,0:0:0:0:
481,276,89250,6,0,B|370:256|370:256|343:272|343:272|218:250,1,270.000003147125,0|0,1:2|0:0,0:0:0:0:
376,24,89613,1,0,0:0:0:0:
392,348,89734,1,8,1:2:0:0:
120,240,89855,1,0,0:0:0:0:
380,112,89976,1,2,0:0:0:0:
88,256,90097,1,0,0:0:0:0:
481,276,90218,6,0,L|505:143,1,135.000001573563,0|0,1:2|0:0,0:0:0:0:
512,40,90460,1,2,0:0:0:0:
392,348,90581,2,0,L|368:215,1,135.000001573563,0|8,0:0|1:2,0:0:0:0:
380,112,90822,1,0,0:0:0:0:
195,383,90943,2,0,L|218:250,1,135.000001573563,2|0,0:0|0:0,0:0:0:0:
168,100,91185,5,0,1:2:0:0:
140,196,91306,1,0,0:0:0:0:
356,180,91427,1,2,0:0:0:0:
336,268,91548,1,0,0:0:0:0:
148,72,91669,5,8,1:2:0:0:
112,212,91790,1,0,0:0:0:0:
388,160,91911,1,2,0:0:0:0:
352,296,92032,1,0,0:0:0:0:
236,0,92153,6,0,L|368:24,1,135.000001573563,0|0,1:2|0:0,0:0:0:0:
472,251,92395,5,2,0:0:0:0:
61,363,92516,1,2,0:0:0:0:
464,237,92637,5,10,1:2:0:0:
53,349,92758,1,2,0:0:0:0:
456,224,92879,5,2,0:0:0:0:
45,336,93000,1,2,0:0:0:0:
360,176,93121,6,0,B|411:137|410:54|410:54|438:130|509:129,1,270.000003147125,0|2,1:2|0:0,0:0:0:0:
504,28,93484,1,0,0:0:0:0:
272,236,93605,6,0,B|147:214|147:214|143:217|143:217|7:193,2,270.000003147125,8|0|2,1:2|0:0|0:0,0:0:0:0:
136,168,93968,1,0,0:0:0:0:
476,268,94089,6,0,B|408:236|346:290|369:300|312:368|216:328,1,270.000003147125,0|2,1:2|0:0,0:0:0:0:
436,352,94451,1,0,0:0:0:0:
232,132,94572,2,0,L|255:0,1,135.000001573563,8|0,1:2|0:0,0:0:0:0:
508,128,94814,1,2,0:0:0:0:
136,308,94935,1,0,0:0:0:0:
382,183,95056,6,0,P|443:209|475:267,1,135.000001573563,0|0,1:2|0:0,0:0:0:0:
292,384,95298,1,2,0:0:0:0:
7,193,95419,1,0,0:0:0:0:
159,35,95540,2,0,L|135:168,1,135.000001573563,8|0,1:2|0:0,0:0:0:0:
20,296,95782,2,0,P|84:287|129:334,1,135.000001573563,2|0,0:0|0:0,0:0:0:0:
476,268,96024,6,0,B|290:235|290:235|273:285|206:297,1,270.000003147125,0|2,1:2|0:0,0:0:0:0:
208,200,96387,1,0,0:0:0:0:
446,384,96508,6,0,B|414:316|468:254|478:277|546:220|506:124,1,270.000003147125,8|2,1:2|0:0,0:0:0:0:
256,0,96871,1,0,0:0:0:0:
0,28,96992,6,0,B|111:48|111:48|138:76|138:76|260:99,1,270.000003147125,0|2,1:2|0:0,0:0:0:0:
512,0,97355,1,0,0:0:0:0:
364,140,97476,6,0,B|300:208|300:208|364:410,2,270.000003147125,8|0|2,1:2|0:0|0:0,0:0:0:0:
400,232,97839,1,0,0:0:0:0:
192,384,97960,6,0,P|63:378|2:264,1,270.000003147125,0|2,1:2|0:0,0:0:0:0:
216,76,98322,1,0,0:0:0:0:
120,296,98443,2,0,L|96:163,1,135.000001573563,8|0,1:2|0:0,0:0:0:0:
424,80,98685,1,2,0:0:0:0:
196,212,98806,1,0,0:0:0:0:
353,376,98927,6,0,P|417:366|455:312,1,135.000001573563,0|0,1:2|0:0,0:0:0:0:
120,30,99169,2,0,L|96:162,1,135.000001573563,2|0,0:0|0:0,0:0:0:0:
0,72,99411,1,8,1:2:0:0:
368,284,99532,2,0,L|344:151,1,135.000001573563,0|2,0:0|0:0,0:0:0:0:
448,196,99774,1,0,0:0:0:0:
80,256,99895,2,0,P|88:321|137:366,1,135.000001573563,0|0,1:2|0:0,0:0:0:0:
449,343,100137,5,2,0:0:0:0:
332,32,100258,1,2,0:0:0:0:
452,327,100379,5,10,0:2:0:0:
334,16,100500,1,2,0:2:0:0:
455,311,100621,5,2,0:2:0:0:
337,0,100742,1,2,0:2:0:0:
96,163,100863,5,4,1:2:0:0:
96,163,101105,2,0,P|162:156|220:189,1,135.000001573563,2|8,0:0|1:2,0:0:0:0:
120,376,101468,2,0,L|143:243,1,135.000001573563,2|0,0:0|0:0,0:0:0:0:
0,32,101830,6,0,L|12:98,1,67.5000007867814,2|0,1:2|0:0,0:0:0:0:
120,56,102072,2,0,P|150:42|170:15,1,67.5000007867814,2|0,0:0|0:0,0:0:0:0:
12,196,102314,2,0,L|0:263,1,67.5000007867814,10|0,1:2|0:0,0:0:0:0:
60,352,102556,2,0,L|127:340,1,67.5000007867814,2|0,0:0|0:0,0:0:0:0:
336,296,102799,5,0,1:2:0:0:
224,272,102919,1,2,0:0:0:0:
364,300,103041,2,0,L|430:288,1,67.5000007867814,2|0,0:0|0:0,0:0:0:0:
492,192,103282,2,0,P|509:163|510:130,1,67.5000007867814,10|0,1:2|0:0,0:0:0:0:
360,100,103524,2,0,P|384:122|416:130,1,67.5000007867814,2|0,0:0|0:0,0:0:0:0:
512,12,103766,6,0,P|480:22|455:44,1,67.5000007867814,2|0,1:2|0:0,0:0:0:0:
280,148,104008,2,0,L|268:82,1,67.5000007867814,2|0,0:0|0:0,0:0:0:0:
64,64,104250,2,0,P|129:73|176:121,1,135.000001573563,10|0,1:2|0:0,0:0:0:0:
0,196,104613,1,0,0:0:0:0:
80,332,104734,5,0,1:2:0:0:
80,332,104976,2,0,L|104:199,1,135.000001573563,2|8,0:0|1:2,0:0:0:0:
280,148,105339,2,0,P|304:208|275:267,1,135.000001573563,2|0,0:0|0:0,0:0:0:0:
200,384,105702,6,0,L|189:317,1,67.5000007867814,2|0,1:2|0:0,0:0:0:0:
384,384,105944,2,0,L|396:317,1,67.5000007867814,2|0,0:0|0:0,0:0:0:0:
512,216,106186,2,0,P|478:217|451:235,1,67.5000007867814,10|0,1:2|0:0,0:0:0:0:
364,112,106428,2,0,P|388:134|421:134,1,67.5000007867814,2|0,0:0|0:0,0:0:0:0:
512,0,106670,5,0,1:2:0:0:
512,0,106912,2,0,P|480:7|456:30,1,67.5000007867814,2|0,0:0|0:0,0:0:0:0:
280,156,107154,2,0,L|268:90,1,67.5000007867814,10|0,1:2|0:0,0:0:0:0:
184,0,107395,2,0,L|173:66,1,67.5000007867814,2|0,0:0|0:0,0:0:0:0:
0,108,107637,6,0,P|33:112|59:132,1,67.5000007867814,2|0,1:2|0:0,0:0:0:0:
164,240,107879,2,0,L|153:173,1,67.5000007867814,2|0,0:0|0:0,0:0:0:0:
0,364,108121,2,0,P|65:358|107:308,1,135.000001573563,10|0,1:2|0:0,0:0:0:0:
368,384,108484,1,0,0:0:0:0:
240,348,108605,5,0,1:2:0:0:
164,240,108726,1,0,0:0:0:0:
256,372,108847,2,0,P|286:313|348:291,1,135.000001573563,2|8,0:0|1:2,0:0:0:0:
512,296,109209,2,0,P|452:266|423:206,1,135.000001573563,2|0,0:0|0:0,0:0:0:0:
256,0,109573,5,2,1:2:0:0:
344,16,109734,5,2,0:0:0:0:
360,100,109895,5,2,0:0:0:0:
308,176,110056,6,0,L|241:187,1,67.5000007867814,8|0,1:2|0:0,0:0:0:0:
84,59,110299,2,0,P|117:63|143:84,1,67.5000007867814,2|0,0:0|0:0,0:0:0:0:
0,320,110541,5,0,1:2:0:0:
0,320,110783,2,0,L|66:331,1,67.5000007867814,2|0,0:0|0:0,0:0:0:0:
124,208,111025,2,0,P|113:177|88:154,1,67.5000007867814,10|0,1:2|0:0,0:0:0:0:
224,284,111266,2,0,L|235:350,1,67.5000007867814,2|0,0:0|0:0,0:0:0:0:
456,312,111508,5,2,1:2:0:0:
352,384,111629,1,0,0:0:0:0:
480,296,111750,2,0,L|492:229,1,67.5000007867814,2|0,0:0|0:0,0:0:0:0:
440,96,111992,2,0,P|410:110|391:138,1,67.5000007867814,10|0,1:2|0:0,0:0:0:0:
172,84,112234,1,2,0:0:0:0:
268,204,112355,1,2,0:0:0:0:
152,60,112476,6,0,B|187:134|139:194|115:174|67:234|95:305,1,270.000003147125,2|8,1:2|1:2,0:0:0:0:
95,305,113202,2,0,P|116:330|149:338,1,67.5000007867814,2|0,0:0|0:0,0:0:0:0:
512,240,113444,5,2,1:2:0:0:
268,296,113686,1,0,0:0:0:0:
272,316,113807,2,0,L|283:383,1,67.5000007867814,2|8,0:0|1:2,0:0:0:0:
380,352,114049,1,0,0:0:0:0:
384,332,114170,2,0,L|395:266,1,67.5000007867814,2|0,0:0|0:0,0:0:0:0:
492,48,114412,5,0,1:2:0:0:
492,48,114654,2,0,P|443:3|377:3,1,135.000001573563,2|8,0:0|1:2,0:0:0:0:
368,192,115016,2,0,P|434:191|482:147,1,135.000001573563,2|0,0:0|0:0,0:0:0:0:
320,88,115379,2,0,L|254:76,1,67.5000007867814,2|0,1:2|0:0,0:0:0:0:
0,0,115621,5,2,0:0:0:0:
24,144,115742,1,2,0:0:0:0:
0,0,115863,1,10,1:2:0:0:
24,144,115984,1,2,0:0:0:0:
0,0,116105,1,2,0:0:0:0:
24,144,116226,1,2,0:0:0:0:
88,64,116347,5,4,1:2:0:0:
88,64,116588,2,0,B|73:150|73:150|69:153|69:153|54:238,1,179.999995231629,2|10,0:0|1:2,0:0:0:0:
252,336,116951,2,0,P|244:249|172:199,1,179.999995231629
360,212,117315,5,2,1:2:0:0:
132,324,117436,1,0,0:0:0:0:
392,196,117557,2,0,L|480:211,1,89.9999976158143,2|0,0:0|0:0,0:0:0:0:
476,328,117799,2,0,L|387:343,1,89.9999976158143,10|0,1:2|0:0,0:0:0:0:
276,144,118041,2,0,P|252:106|256:62,1,89.9999976158143,2|0,0:0|0:0,0:0:0:0:
0,0,118283,6,0,B|82:14|82:14|85:19|85:19|176:35,1,179.999995231629,0|2,1:2|0:0,0:0:0:0:
420,0,118645,1,0,0:0:0:0:
160,136,118766,2,0,L|144:224,1,89.9999976158143,10|0,1:2|0:0,0:0:0:0:
299,381,119008,2,0,P|338:362|360:324,1,89.9999976158143,2|0,0:0|0:0,0:0:0:0:
56,248,119250,6,0,P|75:287|114:308,1,89.9999976158143,2|0,1:2|0:0,0:0:0:0:
320,232,119492,1,2,0:0:0:0:
143,224,119613,1,0,0:0:0:0:
299,381,119734,2,0,B|353:396|398:363|382:351|415:317|484:332,1,179.999995231629,10|0,1:2|0:0,0:0:0:0:
512,88,120097,1,0,0:0:0:0:
368,160,120218,6,0,P|283:152|229:219,1,179.999995231629,0|2,1:2|0:0,0:0:0:0:
114,308,120581,1,0,0:0:0:0:
12,88,120702,2,0,L|27:-2,1,89.9999976158143,10|0,1:2|0:0,0:0:0:0:
156,32,120944,2,0,L|172:121,1,89.9999976158143,2|0,0:0|0:0,0:0:0:0:
360,352,121186,5,2,1:2:0:0:
320,232,121307,1,0,0:0:0:0:
368,372,121428,2,0,L|280:356,1,89.9999976158143,2|0,0:0|0:0,0:0:0:0:
114,308,121670,2,0,P|91:270|95:225,1,89.9999976158143,10|0,1:2|0:0,0:0:0:0:
192,208,121911,2,0,P|214:245|210:290,1,89.9999976158143,2|0,0:0|0:0,0:0:0:0:
12,88,122154,6,0,L|189:57,1,179.999995231629,0|2,1:2|0:0,0:0:0:0:
392,0,122516,1,0,0:0:0:0:
279,143,122637,2,0,L|367:159,1,89.9999976158143,10|0,1:2|0:0,0:0:0:0:
428,304,122879,2,0,P|385:293|360:256,1,89.9999976158143,2|0,0:0|0:0,0:0:0:0:
444,76,123121,2,0,P|486:86|511:123,1,89.9999976158143,2|0,1:2|0:0,0:0:0:0:
200,229,123363,5,2,0:0:0:0:
360,256,123484,1,2,0:0:0:0:
200,229,123605,1,10,1:2:0:0:
360,256,123726,1,2,0:0:0:0:
200,229,123847,1,2,0:0:0:0:
360,256,123968,1,2,0:0:0:0:
256,384,124089,5,0,1:2:0:0:
256,384,124331,2,0,L|272:295,1,89.9999976158143,2|0,0:0|0:0,0:0:0:0:
100,128,124573,1,8,1:2:0:0:
232,0,124694,2,0,P|226:43|194:74,1,89.9999976158143,2|0,0:0|0:0,0:0:0:0:
0,40,124936,1,0,0:0:0:0:
180,208,125057,5,2,1:2:0:0:
88,220,125217,5,2,0:0:0:0:
52,308,125379,5,2,0:0:0:0:
116,380,125540,6,0,L|204:364,1,89.9999976158143,8|0,1:2|0:0,0:0:0:0:
360,256,125783,2,0,P|354:213|323:182,1,89.9999976158143,2|0,0:0|0:0,0:0:0:0:
232,0,126025,5,0,1:2:0:0:
231,0,126266,2,0,P|198:28|192:72,1,89.9999976158143,2|0,0:0|0:0,0:0:0:0:
380,344,126508,2,0,L|468:329,1,89.9999976158143,10|0,1:2|0:0,0:0:0:0:
240,268,126750,2,0,L|151:252,1,89.9999976158143,2|0,0:0|0:0,0:0:0:0:
464,180,126992,5,2,1:2:0:0:
288,68,127113,1,0,0:0:0:0:
448,168,127234,2,0,L|463:79,1,89.9999976158143,2|0,0:0|0:0,0:0:0:0:
224,179,127476,2,0,L|239:267,1,89.9999976158143,10|0,1:2|0:0,0:0:0:0:
0,384,127718,1,2,0:0:0:0:
112,328,127839,1,2,0:0:0:0:
16,376,127960,6,0,B|30:293|30:293|35:290|35:290|51:199,1,179.999995231629,2|0,1:2|0:0,0:0:0:0:
260,56,128323,1,0,0:0:0:0:
151,252,128444,1,8,1:2:0:0:
108,88,128565,1,0,0:0:0:0:
316,208,128686,2,0,L|404:192,1,89.9999976158143,2|0,0:0|0:0,0:0:0:0:
512,376,128928,6,0,P|490:337|448:322,1,89.9999976158143,2|0,1:2|0:0,0:0:0:0:
248,276,129170,1,0,0:0:0:0:
244,296,129291,2,0,L|228:384,1,89.9999976158143,2|8,0:0|1:2,0:0:0:0:
449,322,129533,1,0,0:0:0:0:
429,326,129654,2,0,L|341:342,1,89.9999976158143,2|0,0:0|0:0,0:0:0:0:
136,164,129895,5,0,1:2:0:0:
136,164,130137,2,0,L|152:252,1,89.9999976158143,2|0,0:0|0:0,0:0:0:0:
48,224,130379,1,8,1:2:0:0:
380,88,130500,2,0,L|395:-1,1,89.9999976158143,2|0,0:0|0:0,0:0:0:0:
476,60,130742,1,0,0:0:0:0:
312,160,130863,6,0,P|267:161|234:189,1,89.9999976158143,2|0,1:2|0:0,0:0:0:0:
304,252,131105,1,0,0:0:0:0:
76,36,131226,2,0,P|45:4|1:0,1,89.9999976158143,2|8,0:0|1:2,0:0:0:0:
0,344,131588,1,8,0:3:0:0:
32,336,131709,1,8,0:3:0:0:
64,327,131830,6,0,P|117:259|204:257,2,179.999995231629,6|10|2,0:0|0:0|0:0,0:0:0:0:
256,48,133283,1,10,0:0:0:0:
504,204,133766,2,0,L|472:381,1,179.999995231629,2|10,0:0|0:0,0:0:0:0:
260,156,134734,2,0,L|437:124,1,179.999995231629,2|8,0:0|0:0,0:0:0:0:
376,252,135460,1,2,0:0:0:0:
252,72,135701,6,0,B|173:100|112:34|135:28|90:-20|-8:2,2,270.000003147125,2|10|2,0:0|0:0|0:0,0:0:0:0:
256,324,137154,1,8,0:0:0:0:
256,192,137637,12,0,138605,0:0:0:0:
256,192,138847,5,8,0:3:0:0:
48,0,139089,1,8,0:3:0:0:
0,72,139210,1,8,0:3:0:0:
56,144,139331,1,8,0:3:0:0:
4,212,139452,1,8,0:3:0:0:
64,280,139573,6,0,B|141:241|192:313|175:316|233:377|309:343,1,270.000003147125,4|2,1:2|0:0,0:0:0:0:
512,96,139936,1,0,0:0:0:0:
264,260,140057,1,8,1:2:0:0:
480,324,140178,1,0,0:0:0:0:
448,0,140299,1,2,0:0:0:0:
478,300,140420,1,0,0:0:0:0:
256,52,140541,6,0,P|198:21|134:39,1,135.000001573563,0|0,1:2|0:0,0:0:0:0:
0,232,140783,1,2,0:0:0:0:
284,160,140903,2,0,P|341:127|360:64,1,135.000001573563,0|8,0:2|1:2,0:0:0:0:
56,136,141145,1,0,0:0:0:0:
152,384,141266,2,0,L|175:251,1,135.000001573563,2|0,0:0|0:0,0:0:0:0:
432,192,141508,5,0,1:2:0:0:
300,296,141629,1,0,0:0:0:0:
404,216,141750,1,2,0:0:0:0:
324,276,141871,1,0,0:0:0:0:
0,40,141992,5,8,1:2:0:0:
184,196,142113,1,0,0:0:0:0:
24,60,142234,1,2,0:0:0:0:
160,176,142355,1,0,0:0:0:0:
0,384,142476,6,0,L|133:360,1,135.000001573563,0|0,1:2|0:0,0:0:0:0:
512,292,142718,2,0,P|512:226|464:181,1,135.000001573563,2|0,0:0|0:0,0:0:0:0:
428,0,142960,2,0,P|362:0|315:46,1,135.000001573563,8|0,1:2|0:0,0:0:0:0:
183,262,143202,2,0,P|234:303|299:295,1,135.000001573563,2|0,0:0|0:0,0:0:0:0:
56,0,143444,6,0,B|32:133|32:133|27:136|27:136|5:263,1,270.000003147125,0|2,1:2|0:0,0:0:0:0:
400,92,143807,1,0,0:0:0:0:
136,76,143928,1,8,1:2:0:0:
368,216,144049,1,0,0:0:0:0:
148,84,144170,1,2,0:0:0:0:
315,46,144291,1,0,0:0:0:0:
80,352,144412,6,0,L|104:219,1,135.000001573563,0|0,1:2|0:0,0:0:0:0:
440,380,144654,1,2,0:0:0:0:
476,144,144775,2,0,L|499:12,1,135.000001573563,0|8,0:0|1:2,0:0:0:0:
240,108,145016,1,0,0:0:0:0:
280,320,145137,2,0,L|412:297,1,135.000001573563,2|0,0:0|0:0,0:0:0:0:
408,0,145379,5,0,1:2:0:0:
488,64,145500,1,0,0:0:0:0:
424,144,145621,1,2,0:0:0:0:
340,76,145742,1,0,0:0:0:0:
271,223,145863,5,8,1:2:0:0:
127,99,145984,1,0,0:0:0:0:
0,248,146105,1,2,0:0:0:0:
147,371,146226,1,0,0:0:0:0:
512,276,146347,6,0,L|378:252,1,135.000001573563,0|0,1:2|0:0,0:0:0:0:
34,0,146589,5,2,0:0:0:0:
127,377,146709,1,2,0:0:0:0:
18,2,146831,5,10,1:2:0:0:
111,380,146951,1,2,0:0:0:0:
2,5,147073,5,2,0:0:0:0:
95,382,147194,1,2,0:0:0:0:
512,80,147315,6,0,B|438:105|385:41|403:38|349:-25|251:10,1,270.000003147125,0|2,1:2|0:0,0:0:0:0:
0,144,147678,1,0,0:0:0:0:
260,288,147799,6,0,P|358:209|309:93,2,270.000003147125,8|0|2,1:2|0:0|0:0,0:0:0:0:
256,180,148162,1,0,0:0:0:0:
444,384,148283,6,0,B|412:316|466:254|476:277|544:220|504:124,1,270.000003147125,0|2,1:2|0:0,0:0:0:0:
208,80,148645,1,0,0:0:0:0:
166,371,148766,2,0,P|227:346|259:288,1,135.000001573563,8|0,1:2|0:0,0:0:0:0:
0,168,149008,1,2,0:0:0:0:
32,372,149129,1,0,0:0:0:0:
333,226,149250,6,0,L|309:93,1,135.000001573563,0|0,1:2|0:0,0:0:0:0:
512,0,149492,1,2,0:0:0:0:
232,184,149613,1,0,0:0:0:0:
412,384,149734,2,0,L|436:251,1,135.000001573563,8|0,1:2|0:0,0:0:0:0:
208,80,149976,2,0,P|143:71|98:118,1,135.000001573563,2|0,0:0|0:0,0:0:0:0:
32,372,150218,6,0,B|5:360|-29:366|-29:366|174:330,1,270.000003147125,0|2,1:2|0:0,0:0:0:0:
412,132,150581,1,0,0:0:0:0:
388,304,150702,6,0,B|320:336|258:282|281:272|224:204|128:244,1,270.000003147125,8|2,1:2|0:0,0:0:0:0:
0,0,151065,1,0,0:0:0:0:
336,120,151186,6,0,B|405:122|435:43|435:43|421:126|508:162,1,270.000003147125,0|2,1:2|0:0,0:0:0:0:
336,20,151549,1,0,0:0:0:0:
512,280,151670,6,0,B|382:257|382:257|381:261|381:261|247:237,2,270.000003147125,8|0|2,1:2|0:0|0:0,0:0:0:0:
400,216,152033,1,0,0:0:0:0:
244,360,152154,6,0,B|163:395|106:327|129:317|67:263|0:294,1,270.000003147125,0|2,1:2|0:0,0:0:0:0:
0,68,152516,1,0,0:0:0:0:
249,237,152637,2,0,L|225:104,1,135.000001573563,8|0,1:2|0:0,0:0:0:0:
112,200,152879,1,2,0:0:0:0:
440,384,153000,1,0,0:0:0:0:
500,24,153121,6,0,L|367:0,1,135.000001573563,0|0,1:2|0:0,0:0:0:0:
104,0,153363,2,0,P|70:56|93:117,1,135.000001573563,2|0,0:0|0:0,0:0:0:0:
176,56,153605,1,8,1:2:0:0:
1,293,153726,2,0,L|133:270,1,135.000001573563,0|2,0:0|0:0,0:0:0:0:
52,196,153968,1,0,0:0:0:0:
344,384,154089,2,0,P|393:339|401:273,1,135.000001573563,0|0,1:2|0:0,0:0:0:0:
84,336,154331,5,2,0:0:0:0:
508,0,154452,1,2,0:0:0:0:
84,352,154573,5,10,0:2:0:0:
508,16,154694,1,2,0:2:0:0:
84,368,154815,5,2,0:2:0:0:
508,32,154936,1,2,0:2:0:0:
312,292,155056,6,0,B|290:169|290:169|308:154|308:154|286:33,1,270.000003147125,4|2,1:2|0:0,0:0:0:0:
436,164,155419,1,0,0:0:0:0:
200,332,155540,1,8,1:2:0:0:
460,148,155661,1,0,0:0:0:0:
148,24,155782,2,0,P|81:25|29:66,1,135.000001573563,2|0,0:0|0:0,0:0:0:0:
328,312,156024,6,0,P|293:284|282:241,1,90.0000010490418,0|0,1:2|0:0,0:0:0:0:
316,68,156185,6,0,P|309:111|277:142,1,90.0000010490418,2|0,0:0|0:0,0:0:0:0:
111,200,156347,6,0,P|152:184|195:195,1,90.0000010490418
376,232,156508,5,8,1:2:0:0:
156,280,156629,1,0,0:0:0:0:
228,60,156750,1,2,0:0:0:0:
252,192,156871,1,0,0:0:0:0:
29,66,156992,5,0,1:2:0:0:
29,66,157234,2,0,L|5:198,1,135.000001573563,2|0,0:0|0:0,0:0:0:0:
404,88,157476,1,8,1:2:0:0:
156,280,157597,2,0,L|132:147,1,135.000001573563,0|2,0:0|0:0,0:0:0:0:
428,68,157838,1,0,0:0:0:0:
268,352,157959,6,0,P|332:367|391:339,1,135.000001573563,0|0,1:2|0:0,0:0:0:0:
456,44,158201,1,2,0:0:0:0:
276,0,158322,2,0,L|252:132,1,135.000001573563,0|8,0:0|1:2,0:0:0:0:
512,384,158564,1,0,0:0:0:0:
244,224,158685,1,2,0:0:0:0:
484,24,158806,1,0,0:0:0:0:
268,352,158927,6,0,B|198:378|131:319|160:306|98:256|7:282,1,270.000003147125,0|2,1:2|0:0,0:0:0:0:
64,384,159290,1,0,0:0:0:0:
344,268,159411,1,8,1:2:0:0:
0,180,159532,1,0,0:0:0:0:
232,260,159653,2,0,L|208:127,1,135.000001573563,2|0,0:0|0:0,0:0:0:0:
484,24,159895,6,0,L|395:8,1,90.0000010490418,0|0,1:2|0:0,0:0:0:0:
448,192,160056,6,0,L|505:123,1,90.0000010490418,2|0,0:0|0:0,0:0:0:0:
324,84,160217,6,0,L|354:168,1,90.0000010490418
420,96,160379,5,8,1:2:0:0:
112,180,160500,1,0,0:0:0:0:
384,256,160621,1,2,0:0:0:0:
144,188,160742,1,0,0:0:0:0:
512,384,160863,5,0,1:2:0:0:
512,384,161105,2,0,P|457:347|393:360,1,135.000001573563,2|0,0:0|0:0,0:0:0:0:
236,100,161347,1,8,1:2:0:0:
0,340,161467,2,0,P|54:303|118:316,1,135.000001573563,0|2,0:0|0:0,0:0:0:0:
228,72,161709,1,0,0:0:0:0:
384,256,161830,6,0,P|439:221|461:159,1,135.000001573563,0|0,1:2|0:0,0:0:0:0:
220,36,162072,1,2,0:0:0:0:
368,160,162193,1,0,0:0:0:0:
0,204,162314,2,0,B|78:220|145:160|109:149|184:100|260:134,1,270.000003147125,8|2,1:2|0:0,0:0:0:0:
36,108,162677,1,0,0:0:0:0:
424,384,162798,6,0,B|364:343|374:263|374:263|341:337|264:345,1,270.000003147125,0|2,1:2|0:0,0:0:0:0:
472,292,163161,1,0,0:0:0:0:
208,216,163282,1,8,1:2:0:0:
500,300,163403,1,0,0:0:0:0:
320,56,163524,2,0,P|364:7|430:0,1,135.000001573563,2|0,0:0|0:0,0:0:0:0:
176,312,163766,6,0,P|131:360|65:367,1,135.000001573563,0|0,1:2|0:0,0:0:0:0:
432,144,164008,1,2,0:0:0:0:
120,220,164129,2,0,P|53:222|2:181,1,135.000001573563,0|8,0:0|1:2,0:0:0:0:
440,176,164371,1,0,0:0:0:0:
164,112,164492,2,0,P|115:67|108:1,1,135.000001573563,2|0,0:2|0:0,0:0:0:0:
448,208,164734,6,0,L|424:340,1,135.000001573563,0|0,1:2|0:0,0:0:0:0:
348,132,164976,2,0,L|324:0,1,135.000001573563,2|0,0:2|0:0,0:0:0:0:
496,68,165217,1,8,1:2:0:0:
216,196,165338,1,0,0:0:0:0:
463,85,165459,2,0,P|413:129|347:131,1,135.000001573563,2|0,0:0|0:0,0:0:0:0:
0,0,165701,6,0,L|23:132,1,135.000001573563,0|0,1:2|0:0,0:0:0:0:
448,208,165943,1,2,0:0:0:0:
0,224,166064,2,0,L|110:301,1,135.000001573563,0|8,0:2|1:2,0:0:0:0:
440,176,166306,1,0,0:0:0:0:
168,384,166427,2,0,L|300:360,1,135.000001573563,2|0,0:2|0:0,0:0:0:0:
432,144,166669,6,0,B|240:104|240:104|216:140|162:144,1,270.000003147125,0|2,1:2|0:0,0:0:0:0:
464,0,167032,1,0,0:0:0:0:
164,48,167153,1,8,1:2:0:0:
360,252,167274,1,0,0:0:0:0:
136,19,167395,2,0,P|85:61|79:127,1,135.000001573563,2|0,0:0|0:0,0:0:0:0:
480,384,167637,6,0,L|456:251,1,135.000001573563,0|0,1:2|0:0,0:0:0:0:
48,272,167879,1,2,0:0:0:0:
128,368,168000,2,0,L|151:235,1,135.000001573563,0|8,0:2|1:2,0:0:0:0:
468,44,168242,1,0,0:0:0:0:
352,0,168363,2,0,L|376:132,1,135.000001573563,2|0,0:2|0:0,0:0:0:0:
356,384,168605,5,0,1:2:0:0:
356,384,168847,2,0,L|224:360,1,135.000001573563,2|0,0:0|0:0,0:0:0:0:
0,112,169089,1,8,1:2:0:0:
180,0,169210,2,0,P|242:21|270:80,1,135.000001573563,0|2,0:0|0:0,0:0:0:0:
36,104,169451,1,0,0:0:0:0:
376,132,169572,6,0,P|341:187|279:209,1,135.000001573563,0|0,1:2|0:0,0:0:0:0:
76,96,169814,5,2,0:0:0:0:
448,316,169935,1,2,0:0:0:0:
92,93,170056,5,10,0:2:0:0:
464,314,170177,1,2,0:2:0:0:
108,90,170298,5,2,0:2:0:0:
480,311,170419,1,2,0:2:0:0:
60,384,170540,5,4,1:2:0:0:
256,192,182153,12,0,186992,0:0:0:0:
256,192,187234,5,8,0:3:0:0:
504,8,187476,1,8,0:3:0:0:
416,16,187597,1,8,0:3:0:0:
352,80,187717,1,8,0:3:0:0:
380,168,187838,1,8,0:3:0:0:
472,208,187959,6,0,B|349:186|349:186|345:189|345:189|207:165,1,270.000003147125,4|2,1:2|0:0,0:0:0:0:
0,0,188322,1,0,0:0:0:0:
40,352,188443,1,8,1:2:0:0:
4,28,188564,1,0,0:0:0:0:
164,260,188685,2,0,P|117:211|109:146,1,135.000001573563,2|0,0:0|0:0,0:0:0:0:
416,16,188927,6,0,L|400:104,1,90.0000010490418,0|0,1:2|0:0,0:0:0:0:
512,264,189088,6,0,L|443:206,1,90.0000010490418,2|0,0:2|0:0,0:0:0:0:
244,212,189250,6,0,L|328:181,1,90.0000010490418,0|0,0:2|0:0,0:0:0:0:
512,112,189411,5,8,1:2:0:0:
368,288,189532,1,0,0:0:0:0:
288,80,189653,1,2,0:0:0:0:
392,168,189774,1,0,0:0:0:0:
136,372,189895,5,0,1:2:0:0:
136,372,190137,2,0,L|4:348,1,135.000001573563,2|0,0:0|0:0,0:0:0:0:
368,288,190379,1,8,1:2:0:0:
76,232,190500,2,0,L|52:99,1,135.000001573563,0|2,0:0|0:0,0:0:0:0:
396,292,190741,1,0,0:0:0:0:
200,48,190862,6,0,P|250:4|316:2,1,135.000001573563,0|0,1:2|0:0,0:0:0:0:
428,296,191104,1,2,0:0:0:0:
236,384,191225,2,0,L|260:252,1,135.000001573563,0|8,0:0|1:2,0:0:0:0:
512,104,191467,1,0,0:0:0:0:
172,200,191588,1,2,0:0:0:0:
488,112,191709,1,0,0:0:0:0:
12,384,191830,6,0,B|-14:314|45:247|58:276|108:214|82:123,1,270.000003147125,0|2,1:2|0:0,0:0:0:0:
0,168,192193,1,0,0:0:0:0:
360,384,192314,1,8,1:2:0:0:
284,88,192435,1,0,0:0:0:0:
100,344,192556,2,0,L|233:320,1,135.000001573563,2|0,0:0|0:0,0:0:0:0:
192,36,192798,6,0,P|148:40|112:15,1,90.0000010490418,0|0,1:2|0:0,0:0:0:0:
0,168,192959,6,0,P|39:148|58:108,1,90.0000010490418,2|0,0:2|0:0,0:0:0:0:
194,224,193121,6,0,P|169:188|172:144,1,90.0000010490418,0|0,0:2|0:0,0:0:0:0:
356,0,193282,5,8,1:2:0:0:
92,224,193403,1,0,0:0:0:0:
472,152,193524,1,2,0:0:0:0:
260,160,193645,1,0,0:0:0:0:
512,264,193766,5,0,1:2:0:0:
512,264,194008,2,0,L|379:287,1,135.000001573563,2|0,0:0|0:0,0:0:0:0:
100,344,194250,1,8,1:2:0:0:
452,40,194370,2,0,L|428:172,1,135.000001573563,0|2,0:0|0:0,0:0:0:0:
68,352,194612,1,0,0:0:0:0:
328,80,194733,6,0,P|293:25|231:3,1,135.000001573563,0|0,1:2|0:0,0:0:0:0:
36,356,194975,1,2,0:0:0:0:
0,72,195096,1,0,0:0:0:0:
265,339,195217,2,0,B|343:355|410:295|374:284|449:235|525:269,1,270.000003147125,8|2,1:2|0:0,0:0:0:0:
472,348,195580,1,0,0:0:0:0:
132,0,195701,6,0,B|83:49|83:49|120:255,1,270.000003147125,0|2,1:2|0:0,0:0:0:0:
304,248,196064,1,0,0:0:0:0:
0,160,196185,1,8,1:2:0:0:
168,384,196306,1,0,0:0:0:0:
316,104,196427,2,0,L|183:80,1,135.000001573563,2|0,0:0|0:0,0:0:0:0:
7,302,196669,6,0,P|72:295|118:247,1,135.000001573563,0|0,1:2|0:0,0:0:0:0:
404,56,196911,1,2,0:0:0:0:
208,216,197032,2,0,P|206:283|247:334,1,135.000001573563,0|8,0:0|1:2,0:0:0:0:
420,36,197274,1,0,0:0:0:0:
380,384,197395,2,0,L|512:360,1,135.000001573563,2|0,0:2|0:0,0:0:0:0:
316,104,197637,6,0,L|184:80,1,135.000001573563,0|0,1:2|0:0,0:0:0:0:
428,284,197879,2,0,P|488:257|509:195,1,135.000001573563,2|0,0:2|0:0,0:0:0:0:
100,0,198120,1,8,1:2:0:0:
308,236,198241,1,0,0:0:0:0:
444,8,198362,2,0,L|420:140,1,135.000001573563,2|0,0:0|0:0,0:0:0:0:
141,380,198604,6,0,L|117:247,1,135.000001573563,0|0,1:2|0:0,0:0:0:0:
56,56,198846,1,2,0:0:0:0:
246,333,198967,2,0,L|378:309,1,135.000001573563,0|8,0:2|1:2,0:0:0:0:
36,36,199209,1,0,0:0:0:0:
476,228,199330,2,0,P|517:176|510:111,1,135.000001573563,2|0,0:2|0:0,0:0:0:0:
12,8,199572,6,0,B|34:134|34:134|38:137|38:137|62:271,1,270.000003147125,0|2,1:2|0:0,0:0:0:0:
378,309,199935,1,0,0:0:0:0:
140,120,200056,1,8,1:2:0:0:
246,333,200177,1,0,0:0:0:0:
444,8,200298,2,0,P|378:1|327:44,1,135.000001573563,2|0,0:0|0:0,0:0:0:0:
499,360,200540,6,0,L|475:227,1,135.000001573563,0|0,1:2|0:0,0:0:0:0:
184,0,200782,1,2,0:0:0:0:
17,111,200903,2,0,P|79:91|139:119,1,135.000001573563,0|8,0:2|1:2,0:0:0:0:
378,309,201145,1,0,0:0:0:0:
246,333,201266,2,0,L|270:201,1,135.000001573563,2|0,0:2|0:0,0:0:0:0:
476,24,201508,5,0,1:2:0:0:
476,24,201750,2,0,P|410:16|354:53,1,135.000001573563,2|0,0:0|0:0,0:0:0:0:
62,271,201992,1,8,1:2:0:0:
436,108,202113,2,0,P|479:157|473:222,1,135.000001573563,0|2,0:0|0:0,0:0:0:0:
40,256,202354,1,0,0:0:0:0:
384,188,202475,6,0,P|320:202|260:173,1,135.000001573563,0|0,1:2|0:0,0:0:0:0:
12,240,202717,5,2,0:0:0:0:
512,348,202838,1,2,0:0:0:0:
9,256,202959,5,10,0:2:0:0:
510,364,203080,1,2,0:2:0:0:
6,272,203201,5,2,0:2:0:0:
507,380,203322,1,2,0:2:0:0:
80,0,203443,6,0,B|41:77|113:128|116:111|177:169|143:245,1,270.000003147125,4|2,1:2|0:0,0:0:0:0:
172,36,203806,1,0,0:0:0:0:
52,200,203927,1,8,1:2:0:0:
300,384,204048,1,0,0:0:0:0:
32,184,204169,1,2,0:0:0:0:
496,64,204290,1,0,0:0:0:0:
188,380,204411,6,0,P|207:317|265:284,1,135.000001573563,0|0,1:2|0:0,0:0:0:0:
512,384,204653,1,2,0:0:0:0:
308,52,204774,2,0,P|373:60|414:111,1,135.000001573563,0|8,0:0|1:2,0:0:0:0:
144,242,205015,1,0,0:0:0:0:
512,300,205136,2,0,P|445:298|396:254,1,135.000001573563,2|0,0:0|0:0,0:0:0:0:
140,72,205378,5,0,1:2:0:0:
372,72,205500,1,0,0:2:0:0:
372,312,205621,1,2,0:2:0:0:
140,312,205742,1,0,0:2:0:0:
117,48,205863,5,8,1:2:0:0:
394,48,205985,1,0,0:2:0:0:
394,335,206106,1,2,0:2:0:0:
117,335,206227,1,0,0:2:0:0:
224,0,206346,6,0,L|248:133,1,135.000001573563,0|0,1:2|0:0,0:0:0:0:
505,382,206588,2,0,P|460:334|394:335,1,135.000001573563,2|0,0:0|0:0,0:0:0:0:
52,248,206830,2,0,P|5:294|5:359,1,135.000001573563,8|0,1:2|0:0,0:0:0:0:
488,132,207072,2,0,L|511:0,1,135.000001573563,2|0,0:0|0:0,0:0:0:0:
0,156,207314,6,0,P|128:148|194:258,1,270.000003147125,0|2,1:2|0:0,0:0:0:0:
52,248,207677,1,0,0:0:0:0:
420,128,207798,1,8,1:2:0:0:
248,384,207919,1,0,0:0:0:0:
280,64,208040,1,2,0:0:0:0:
252,360,208161,1,0,0:0:0:0:
378,22,208282,6,0,L|511:-2,1,135.000001573563,0|0,1:2|0:0,0:0:0:0:
364,288,208524,1,2,0:0:0:0:
76,156,208645,2,0,P|29:109|35:44,1,135.000001573563,0|8,0:0|1:2,0:0:0:0:
420,128,208886,1,0,0:0:0:0:
132,384,209007,2,0,L|0:361,1,135.000001573563,2|0,0:0|0:0,0:0:0:0:
132,72,209249,5,0,1:2:0:0:
184,284,209370,1,0,0:0:0:0:
440,240,209492,1,2,0:2:0:0:
256,192,209613,1,0,0:0:0:0:
404,336,209734,5,8,1:2:0:0:
342,81,209855,1,0,0:0:0:0:
35,134,209977,1,2,0:2:0:0:
256,192,210098,1,0,0:0:0:0:
512,0,210217,6,0,P|457:37|443:101,1,135.000001573563,0|0,1:2|0:0,0:0:0:0:
512,384,210459,5,2,0:0:0:0:
8,252,210580,1,2,0:0:0:0:
512,368,210701,5,10,1:2:0:0:
8,236,210822,1,2,0:0:0:0:
512,352,210943,5,2,0:0:0:0:
8,220,211064,1,2,0:0:0:0:
512,240,211185,6,0,B|298:273|298:273|321:265|340:239,1,270.000003147125,0|2,1:2|0:0,0:0:0:0:
442,100,211548,1,0,0:0:0:0:
208,368,211669,6,0,P|197:237|287:140,2,270.000003147125,8|0|2,1:2|0:0|0:0,0:0:0:0:
300,272,212032,1,0,0:0:0:0:
156,0,212153,6,0,B|188:68|134:130|124:107|56:164|96:260,1,270.000003147125,0|2,1:2|0:0,0:0:0:0:
72,36,212515,1,0,0:0:0:0:
373,204,212636,2,0,P|425:164|441:99,1,135.000001573563,8|0,1:2|0:0,0:0:0:0:
256,0,212878,1,2,0:0:0:0:
512,384,212999,1,0,0:0:0:0:
132,344,213120,6,0,L|0:320,1,135.000001573563,0|0,1:2|0:0,0:0:0:0:
287,140,213362,1,2,0:0:0:0:
12,232,213483,1,0,0:0:0:0:
436,344,213604,2,0,L|460:211,1,135.000001573563,8|0,1:2|0:0,0:0:0:0:
511,0,213846,2,0,P|465:47|400:56,1,135.000001573563,2|0,0:0|0:0,0:0:0:0:
112,0,214088,6,0,B|152:32|152:32|115:247,1,270.000003147125,0|2,1:2|0:0,0:0:0:0:
44,68,214451,1,0,0:0:0:0:
80,348,214572,6,0,B|148:380|210:326|187:316|244:248|340:288,1,270.000003147125,8|2,1:2|0:0,0:0:0:0:
512,0,214935,1,0,0:0:0:0:
472,384,215056,6,0,P|423:262|487:148,1,270.000003147125,0|2,1:2|0:0,0:0:0:0:
44,68,215419,1,0,0:0:0:0:
324,0,215540,6,0,P|180:36|107:160,2,270.000003147125,8|0|2,1:2|0:0|0:0,0:0:0:0:
256,104,215903,1,0,0:0:0:0:
12,232,216024,6,0,P|144:226|252:303,1,270.000003147125,0|2,1:2|0:0,0:0:0:0:
112,328,216386,1,0,0:0:0:0:
508,144,216507,2,0,L|484:276,1,135.000001573563,8|0,1:2|0:0,0:0:0:0:
512,384,216749,1,2,0:0:0:0:
256,104,216870,1,0,0:0:0:0:
252,303,216991,6,0,L|385:279,1,135.000001573563,0|0,1:2|0:0,0:0:0:0:
496,24,217233,2,0,P|435:46|413:108,1,135.000001573563,2|0,0:0|0:0,0:0:0:0:
180,0,217475,1,8,1:2:0:0:
0,192,217596,2,0,P|56:157|122:163,1,135.000001573563,0|2,0:0|0:0,0:0:0:0:
188,24,217838,1,0,0:0:0:0:
347,160,217959,2,0,P|387:212|384:278,1,135.000001573563,0|0,1:2|0:0,0:0:0:0:
24,384,218201,5,2,0:0:0:0:
512,228,218322,1,2,0:0:0:0:
12,372,218443,5,10,0:2:0:0:
501,217,218564,1,2,0:2:0:0:
1,361,218685,5,2,0:2:0:0:
489,205,218806,1,2,0:2:0:0:
80,248,218927,6,0,B|164:280|216:220|196:204|249:151|328:180,1,270.000003147125,4|2,1:2|0:0,0:0:0:0:
288,264,219290,1,0,0:0:0:0:
24,0,219411,1,8,1:2:0:0:
124,164,219532,1,0,0:0:0:0:
404,0,219653,1,2,0:0:0:0:
144,152,219774,1,0,0:0:0:0:
500,56,219895,6,0,L|476:188,1,135.000001573563,0|0,1:2|0:0,0:0:0:0:
96,384,220137,1,2,0:0:0:0:
224,68,220258,2,0,P|288:54|340:92,1,135.000001573563,0|8,0:0|1:2,0:0:0:0:
444,384,220499,1,0,0:0:0:0:
24,224,220620,2,0,L|1:92,1,135.000001573563,2|0,0:0|0:0,0:0:0:0:
360,128,220862,5,0,1:2:0:0:
392,324,220983,1,0,0:0:0:0:
120,56,221105,1,2,0:2:0:0:
152,252,221226,1,0,0:0:0:0:
387,111,221347,5,8,1:2:0:0:
427,359,221468,1,0,0:0:0:0:
84,20,221590,1,2,0:2:0:0:
124,268,221711,1,0,0:0:0:0:
512,132,221830,6,0,L|488:0,1,135.000001573563,0|0,1:2|0:0,0:0:0:0:
0,136,222072,2,0,L|133:159,1,135.000001573563,2|0,0:0|0:0,0:0:0:0:
512,384,222314,2,0,P|510:318|460:276,1,135.000001573563,8|0,1:2|0:0,0:0:0:0:
24,248,222556,2,0,L|0:380,1,135.000001573563,2|0,0:0|0:0,0:0:0:0:
387,111,222798,6,0,B|317:93|290:19|290:19|293:99|225:141,1,270.000003147125,0|0,1:2|0:0,0:0:0:0:
388,4,223161,1,0,0:0:0:0:
0,136,223282,1,8,1:2:0:0:
280,376,223403,1,0,0:0:0:0:
312,184,223524,1,2,0:0:0:0:
128,252,223645,1,0,0:0:0:0:
512,384,223766,6,0,L|488:251,1,135.000001573563,0|0,1:2|0:0,0:0:0:0:
0,8,224008,1,2,0:0:0:0:
376,320,224129,2,0,L|400:187,1,135.000001573563,0|8,0:0|1:2,0:0:0:0:
12,36,224370,1,0,0:0:0:0:
488,148,224491,2,0,L|465:15,1,135.000001573563,2|0,0:0|0:0,0:0:0:0:
136,144,224733,5,0,1:2:0:0:
384,88,224854,1,0,0:0:0:0:
96,256,224975,1,2,0:0:0:0:
348,336,225096,1,0,0:0:0:0:
108,124,225217,5,8,1:2:0:0:
409,66,225338,1,0,0:0:0:0:
69,265,225459,1,2,0:0:0:0:
367,359,225580,1,0,0:0:0:0:
196,0,225701,6,0,L|220:132,1,135.000001573563,0|0,1:2|0:0,0:0:0:0:
484,336,225943,5,2,0:0:0:0:
32,56,226064,1,2,0:0:0:0:
498,328,226185,5,10,1:2:0:0:
18,64,226306,1,2,0:0:0:0:
511,320,226427,5,2,0:0:0:0:
3,70,226548,1,2,0:0:0:0:
336,384,226669,6,0,P|314:269|211:324,1,270.000003147125,0|2,1:2|0:0,0:0:0:0:
512,216,227032,1,0,0:0:0:0:
28,280,227153,6,0,P|150:231|202:110,2,270.000003147125,8|0|2,1:2|0:0|0:0,0:0:0:0:
80,160,227516,1,0,0:0:0:0:
268,16,227637,6,0,B|348:-18|405:49|382:59|444:113|512:81,1,270.000003147125,0|2,1:2|0:0,0:0:0:0:
472,0,227999,1,0,0:0:0:0:
256,252,228120,2,0,L|279:384,1,135.000001573563,8|0,1:2|0:0,0:0:0:0:
376,292,228362,1,2,0:0:0:0:
0,72,228483,1,0,0:0:0:0:
417,166,228604,6,0,P|478:140|510:82,1,135.000001573563,0|0,1:2|0:0,0:0:0:0:
412,64,228846,1,2,0:0:0:0:
512,384,228967,1,0,0:0:0:0:
160,256,229088,2,0,L|27:280,1,135.000001573563,8|0,1:2|0:0,0:0:0:0:
84,0,229330,2,0,P|149:-1|188:50,1,135.000001573563,2|0,0:0|0:0,0:0:0:0:
512,176,229572,6,0,P|382:139|248:150,1,270.000003147125,0|2,1:2|0:0,0:0:0:0:
404,100,229935,1,0,0:0:0:0:
108,352,230056,6,0,P|-11:349|6:231,1,270.000003147125,8|2,1:2|0:0,0:0:0:0:
264,384,230419,1,0,0:0:0:0:
512,0,230540,6,0,B|490:122|490:122|493:126|493:126|469:264,1,270.000003147125,0|2,1:2|0:0,0:0:0:0:
512,384,230903,1,0,0:0:0:0:
368,20,231024,6,0,B|319:34|303:82|303:82|239:-5|153:13,2,270.000003147125,8|0|2,1:2|0:0|0:0,0:0:0:0:
192,104,231387,1,0,0:0:0:0:
388,320,231508,6,0,P|326:206|197:200,1,270.000003147125,0|2,1:2|0:0,0:0:0:0:
0,152,231870,1,0,0:0:0:0:
160,356,231991,2,0,P|225:347|268:296,1,135.000001573563,8|0,1:2|0:0,0:0:0:0:
512,152,232233,1,2,0:0:0:0:
304,84,232354,1,0,0:0:0:0:
388,320,232475,6,0,L|411:187,1,135.000001573563,0|0,1:2|0:0,0:0:0:0:
0,0,232717,2,0,P|62:21|92:80,1,135.000001573563,2|0,0:0|0:0,0:0:0:0:
268,296,232959,1,8,1:2:0:0:
0,384,233080,2,0,L|24:251,1,135.000001573563,0|2,0:0|0:0,0:0:0:0:
444,28,233322,1,0,0:0:0:0:
414,141,233443,2,0,P|349:133|304:84,1,135.000001573563,0|0,1:2|0:0,0:0:0:0:
0,152,233685,5,2,0:0:0:0:
512,288,233927,5,8,0:3:0:0:
352,236,234048,1,8,0:3:0:0:
204,352,234169,1,10,0:3:0:0:
44,300,234290,1,8,0:3:0:0:
512,288,234411,5,4,1:2:0:0:
