osu file format v14

[General]
AudioFilename: audio.mp3
AudioLeadIn: 0
PreviewTime: -1
Countdown: 0
SampleSet: Soft
StackLeniency: 0.3
Mode: 0
LetterboxInBreaks: 0
WidescreenStoryboard: 0

[Editor]
DistanceSpacing: 0.9
BeatDivisor: 4
GridSize: 32
TimelineZoom: 1.400006

[Metadata]
Title:Peper Steak
TitleUnicode:Peper Steak
Artist:Alias Conrad Coldwood
ArtistUnicode:Alias Conrad Coldwood
Creator:mikku1
Version:I Ate Too Much
Source:OFF
Tags:rpg maker 2003 mortis ghost unproductive fun time ost game french surreal adventure original soundtrack
BeatmapID:2066826
BeatmapSetID:987963

[Difficulty]
HPDrainRate:2
CircleSize:3.4
OverallDifficulty:8
ApproachRate:10
SliderMultiplier:1.6
SliderTickRate:1

[Events]
//Background and Video events
0,0,"offsoundtrack.jpg",0,0
//Break Periods
2,7305,8507
//Storyboard Layer 0 (Background)
//Storyboard Layer 1 (Fail)
//Storyboard Layer 2 (Pass)
//Storyboard Layer 3 (Foreground)
//Storyboard Layer 4 (Overlay)
//Storyboard Sound Samples

[TimingPoints]
500.45307574841,550.45871559633,4,2,0,100,1,0
2014,-66.6666666666667,4,2,0,100,0,0
2427,-33.3333333333333,4,2,0,100,0,0
2702,-100,4,2,0,100,0,0
4216,-10,4,2,0,100,0,0
4628,-33.3333333333333,4,2,0,100,0,0
4904,-100,4,2,0,100,0,0
6417,-16.6666666666666,4,2,0,100,0,0
26922,-100,4,2,0,100,0,1
44537,-100,4,2,0,100,0,0
62151,-100,4,2,0,100,0,1
79766,-100,4,2,0,100,0,0
106188,-100,4,2,0,100,0,1
114995,-100,4,2,0,100,0,0
123803,722.89156626506,4,2,0,100,1,0
128863,833.333333333333,4,2,0,100,1,0
129974,1052.63157894737,4,2,0,100,1,0
131026,1666.66666666667,4,2,0,100,1,0
132692,2500,4,2,0,100,1,0

[Colours]
Combo1 : 53,53,53
Combo2 : 212,212,212
Combo3 : 159,159,159
Combo4 : 106,106,106

[HitObjects]
32,32,500,5,2,0:0:0:0:
64,64,638,1,0,0:0:0:0:
64,64,913,2,0,B|96:96|128:64|128:64|160:32|192:64,1,120
32,96,1601,5,2,0:0:0:0:
64,128,1739,1,0,0:0:0:0:
64,128,2014,2,0,B|96:160|128:128|128:128|160:96|192:128,1,120
64,128,2427,2,0,B|96:160|128:128|128:128|160:96|192:128,1,120,2|0,0:0|0:0,0:0:0:0:
32,160,2702,5,2,0:0:0:0:
64,192,2840,1,0,0:0:0:0:
64,192,3115,2,0,B|96:224|128:192|128:192|160:160|192:192,1,120
32,224,3803,5,2,0:0:0:0:
64,256,3940,1,0,0:0:0:0:
64,256,4216,6,0,B|96:288|128:256|128:256|160:224|192:256,1,100,2|0,0:0|0:0,0:0:0:0:
64,256,4629,6,0,B|96:288|128:256|128:256|160:224|192:256,1,120,2|0,0:0|0:0,0:0:0:0:
480,32,4904,37,2,0:0:0:0:
448,64,5042,1,0,0:0:0:0:
448,64,5317,2,0,B|416:96|384:64|384:64|352:32|320:64,1,120
480,96,6004,5,2,0:0:0:0:
448,128,6142,1,0,0:0:0:0:
448,128,6417,2,0,B|416:160|384:128|384:128|352:96|320:128,1,120
448,128,6555,5,2,0:0:0:0:
448,128,6624,1,2,0:0:0:0:
448,128,6693,1,2,0:0:0:0:
448,128,6761,1,2,0:0:0:0:
448,128,6830,1,2,0:0:0:0:
448,128,6899,1,2,0:0:0:0:
480,160,6968,5,2,0:0:0:0:
256,192,7105,5,4,1:0:0:0:
416,160,9032,5,2,0:0:0:0:
480,224,9101,1,2,0:0:0:0:
167,272,9307,37,2,0:0:0:0:
215,162,9445,1,0,0:0:0:0:
335,175,9583,1,0,0:0:0:0:
360,292,9720,1,0,0:0:0:0:
256,352,9858,5,2,0:0:0:0:
95,85,9996,1,0,0:0:0:0:
381,207,10133,1,0,0:0:0:0:
79,276,10271,1,0,0:0:0:0:
283,42,10409,5,2,0:0:0:0:
343,67,10546,1,0,0:0:0:0:
283,92,10683,1,0,0:0:0:0:
283,42,10959,5,2,0:0:0:0:
343,67,11096,1,0,0:0:0:0:
283,92,11233,1,0,0:0:0:0:
223,67,11372,1,0,0:0:0:0:
372,122,11509,5,2,0:0:0:0:
324,232,11647,1,0,0:0:0:0:
204,219,11785,1,0,0:0:0:0:
179,102,11922,1,0,0:0:0:0:
283,42,12060,5,2,0:0:0:0:
444,309,12198,1,0,0:0:0:0:
158,187,12335,1,0,0:0:0:0:
460,118,12473,1,0,0:0:0:0:
256,352,12611,5,2,0:0:0:0:
196,327,12748,1,0,0:0:0:0:
256,302,12885,1,0,0:0:0:0:
256,352,13161,5,2,0:0:0:0:
196,327,13298,1,0,0:0:0:0:
256,302,13435,1,0,0:0:0:0:
316,327,13574,1,0,0:0:0:0:
167,272,13711,5,2,0:0:0:0:
215,162,13849,1,0,0:0:0:0:
335,175,13987,1,0,0:0:0:0:
360,292,14124,1,0,0:0:0:0:
256,352,14262,5,2,0:0:0:0:
95,85,14400,1,0,0:0:0:0:
381,207,14537,1,0,0:0:0:0:
79,276,14675,1,0,0:0:0:0:
283,42,14813,5,2,0:0:0:0:
343,67,14950,1,0,0:0:0:0:
283,92,15087,1,0,0:0:0:0:
283,42,15363,5,2,0:0:0:0:
343,67,15500,1,0,0:0:0:0:
283,92,15637,1,0,0:0:0:0:
223,67,15776,1,0,0:0:0:0:
372,122,15913,5,2,0:0:0:0:
324,232,16051,1,0,0:0:0:0:
204,219,16189,1,0,0:0:0:0:
179,102,16326,1,0,0:0:0:0:
283,42,16464,5,2,0:0:0:0:
444,309,16602,1,0,0:0:0:0:
158,187,16739,1,0,0:0:0:0:
460,118,16877,1,0,0:0:0:0:
256,352,17015,5,2,0:0:0:0:
386,290,17289,1,0,0:0:0:0:
126,288,17427,1,0,0:0:0:0:
95,147,17565,5,2,0:0:0:0:
419,150,17702,1,0,0:0:0:0:
330,37,17840,1,0,0:0:0:0:
186,36,17977,1,0,0:0:0:0:
256,352,18115,5,2,0:0:0:0:
186,36,18390,1,0,0:0:0:0:
95,147,18527,1,0,0:0:0:0:
256,352,18665,5,2,0:0:0:0:
326,36,18803,1,0,0:0:0:0:
417,147,18940,1,0,0:0:0:0:
256,32,19216,5,2,0:0:0:0:
186,348,19491,1,0,0:0:0:0:
95,237,19628,1,0,0:0:0:0:
256,32,19766,5,2,0:0:0:0:
326,348,19904,1,0,0:0:0:0:
417,237,20041,1,0,0:0:0:0:
256,352,20316,5,2,0:0:0:0:
326,36,20591,1,0,0:0:0:0:
417,147,20728,1,0,0:0:0:0:
256,352,20866,5,2,0:0:0:0:
186,36,21004,1,0,0:0:0:0:
95,147,21141,1,0,0:0:0:0:
256,32,21417,5,2,0:0:0:0:
326,348,21692,1,0,0:0:0:0:
417,237,21829,1,0,0:0:0:0:
256,32,21967,5,2,0:0:0:0:
186,348,22105,1,0,0:0:0:0:
95,237,22242,1,0,0:0:0:0:
186,36,22518,5,2,0:0:0:0:
95,147,22655,1,0,0:0:0:0:
326,36,22794,1,0,0:0:0:0:
417,147,22931,1,0,0:0:0:0:
186,348,23069,5,2,0:0:0:0:
95,237,23206,1,0,0:0:0:0:
326,348,23344,1,0,0:0:0:0:
417,237,23481,1,0,0:0:0:0:
256,32,23619,5,2,0:0:0:0:
256,352,23894,1,0,0:0:0:0:
256,32,24170,5,2,0:0:0:0:
256,352,24445,1,0,0:0:0:0:
256,32,24720,5,2,0:0:0:0:
186,348,24858,1,0,0:0:0:0:
326,348,24995,1,0,0:0:0:0:
186,36,25271,5,2,0:0:0:0:
95,147,25408,1,0,0:0:0:0:
326,36,25547,1,0,0:0:0:0:
417,147,25684,1,0,0:0:0:0:
32,352,25821,5,6,0:0:0:0:
480,352,26096,1,4,0:0:0:0:
480,32,26372,5,6,0:0:0:0:
32,32,26647,1,4,0:0:0:0:
384,384,26922,5,2,0:0:0:0:
364,12,27059,1,2,0:0:0:0:
40,203,27197,1,0,0:0:0:0:
353,0,27335,1,2,0:0:0:0:
512,192,27472,5,4,0:0:0:0:
353,0,27610,1,2,0:0:0:0:
373,372,27748,1,0,0:0:0:0:
353,0,27885,1,2,0:0:0:0:
40,203,28023,5,2,0:0:0:0:
353,0,28161,1,2,0:0:0:0:
447,273,28298,1,0,0:0:0:0:
337,0,28436,1,2,0:0:0:0:
64,110,28573,5,4,0:0:0:0:
174,383,28711,1,2,0:0:0:0:
447,273,28849,1,0,0:0:0:0:
337,0,28986,1,2,0:0:0:0:
373,372,29124,5,2,0:0:0:0:
353,0,29261,1,2,0:0:0:0:
40,203,29399,1,0,0:0:0:0:
353,0,29537,1,2,0:0:0:0:
512,192,29674,5,4,0:0:0:0:
353,0,29812,1,2,0:0:0:0:
373,372,29950,1,0,0:0:0:0:
353,0,30087,1,2,0:0:0:0:
447,273,30225,5,2,0:0:0:0:
353,0,30363,1,2,0:0:0:0:
337,0,30500,1,0,0:0:0:0:
64,110,30638,1,2,0:0:0:0:
174,383,30775,5,4,0:0:0:0:
337,0,30913,1,2,0:0:0:0:
447,273,31050,1,4,0:0:0:0:
373,372,31326,5,2,0:0:0:0:
353,0,31463,1,2,0:0:0:0:
40,203,31601,1,0,0:0:0:0:
353,0,31739,1,2,0:0:0:0:
512,192,31876,5,4,0:0:0:0:
353,0,32014,1,2,0:0:0:0:
335,379,32151,1,0,0:0:0:0:
176,4,32289,1,2,0:0:0:0:
179,380,32427,5,2,0:0:0:0:
332,3,32564,1,2,0:0:0:0:
68,271,32702,1,0,0:0:0:0:
443,112,32839,1,2,0:0:0:0:
67,115,32977,5,4,0:0:0:0:
444,268,33115,1,2,0:0:0:0:
68,271,33252,1,0,0:0:0:0:
443,112,33390,1,2,0:0:0:0:
256,192,33527,12,0,35454,0:0:0:0:
138,11,35729,5,2,0:0:0:0:
158,383,35866,1,2,0:0:0:0:
471,180,36004,1,0,0:0:0:0:
158,383,36142,1,2,0:0:0:0:
0,192,36279,5,4,0:0:0:0:
158,383,36417,1,2,0:0:0:0:
138,11,36555,1,0,0:0:0:0:
158,383,36692,1,2,0:0:0:0:
471,180,36830,5,2,0:0:0:0:
158,383,36968,1,2,0:0:0:0:
64,110,37105,1,0,0:0:0:0:
174,383,37243,1,2,0:0:0:0:
447,273,37380,5,4,0:0:0:0:
337,0,37518,1,2,0:0:0:0:
64,110,37656,1,0,0:0:0:0:
174,383,37793,1,2,0:0:0:0:
138,11,37931,5,2,0:0:0:0:
158,383,38068,1,2,0:0:0:0:
471,180,38206,1,0,0:0:0:0:
158,383,38344,1,2,0:0:0:0:
0,192,38481,5,4,0:0:0:0:
158,383,38619,1,2,0:0:0:0:
138,11,38757,1,0,0:0:0:0:
158,383,38894,1,2,0:0:0:0:
64,110,39032,5,2,0:0:0:0:
158,383,39170,1,2,0:0:0:0:
174,383,39307,1,0,0:0:0:0:
447,273,39445,1,2,0:0:0:0:
337,0,39582,5,4,0:0:0:0:
174,383,39720,1,2,0:0:0:0:
64,110,39857,1,4,0:0:0:0:
138,11,40133,5,2,0:0:0:0:
158,383,40270,1,2,0:0:0:0:
471,180,40408,1,0,0:0:0:0:
158,383,40546,1,2,0:0:0:0:
480,32,40683,5,2,0:1:0:0:
32,32,40959,1,2,0:1:0:0:
32,32,41027,1,2,0:1:0:0:
32,32,41096,1,2,0:1:0:0:
384,64,41234,5,2,0:1:0:0:
320,128,41303,1,2,0:1:0:0:
256,192,41372,1,2,0:1:0:0:
192,128,41647,1,2,0:1:0:0:
256,192,41716,1,2,0:1:0:0:
320,128,41784,5,2,0:1:0:0:
320,128,41923,1,2,0:1:0:0:
192,256,42060,1,0,0:0:0:0:
256,192,42334,12,0,44261,0:0:0:0:
345,112,44537,5,2,0:0:0:0:
297,222,44675,1,0,0:0:0:0:
177,209,44813,1,0,0:0:0:0:
152,92,44950,1,0,0:0:0:0:
256,32,45088,5,2,0:0:0:0:
417,299,45226,1,0,0:0:0:0:
131,177,45363,1,0,0:0:0:0:
433,108,45501,1,0,0:0:0:0:
229,342,45639,5,2,0:0:0:0:
169,317,45776,1,0,0:0:0:0:
229,292,45913,1,0,0:0:0:0:
229,342,46189,5,2,0:0:0:0:
169,317,46326,1,0,0:0:0:0:
229,292,46463,1,0,0:0:0:0:
289,317,46602,1,0,0:0:0:0:
140,262,46738,5,2,0:0:0:0:
188,152,46876,1,0,0:0:0:0:
308,165,47014,1,0,0:0:0:0:
333,282,47151,1,0,0:0:0:0:
229,342,47289,5,2,0:0:0:0:
68,75,47427,1,0,0:0:0:0:
354,197,47564,1,0,0:0:0:0:
52,266,47702,1,0,0:0:0:0:
256,32,47840,5,2,0:0:0:0:
316,57,47977,1,0,0:0:0:0:
256,82,48114,1,0,0:0:0:0:
256,32,48390,5,2,0:0:0:0:
316,57,48527,1,0,0:0:0:0:
256,82,48664,1,0,0:0:0:0:
196,57,48803,1,0,0:0:0:0:
345,112,48940,5,2,0:0:0:0:
297,222,49078,1,0,0:0:0:0:
177,209,49216,1,0,0:0:0:0:
152,92,49353,1,0,0:0:0:0:
256,32,49491,5,2,0:0:0:0:
417,299,49629,1,0,0:0:0:0:
131,177,49766,1,0,0:0:0:0:
433,108,49904,1,0,0:0:0:0:
229,342,50042,5,2,0:0:0:0:
169,317,50179,1,0,0:0:0:0:
229,292,50316,1,0,0:0:0:0:
229,342,50592,5,2,0:0:0:0:
169,317,50729,1,0,0:0:0:0:
229,292,50866,1,0,0:0:0:0:
289,317,51005,1,0,0:0:0:0:
140,262,51141,5,2,0:0:0:0:
188,152,51279,1,0,0:0:0:0:
308,165,51417,1,0,0:0:0:0:
333,282,51554,1,0,0:0:0:0:
229,342,51692,5,2,0:0:0:0:
68,75,51830,1,0,0:0:0:0:
354,197,51967,1,0,0:0:0:0:
52,266,52105,1,0,0:0:0:0:
256,32,52243,5,2,0:0:0:0:
316,57,52380,1,0,0:0:0:0:
256,82,52517,1,0,0:0:0:0:
256,32,52793,5,2,0:0:0:0:
316,57,52930,1,0,0:0:0:0:
256,82,53067,1,0,0:0:0:0:
196,57,53206,1,0,0:0:0:0:
345,112,53344,5,2,0:0:0:0:
297,222,53482,1,0,0:0:0:0:
177,209,53620,1,0,0:0:0:0:
152,92,53757,1,0,0:0:0:0:
256,32,53895,5,2,0:0:0:0:
417,299,54033,1,0,0:0:0:0:
131,177,54170,1,0,0:0:0:0:
433,108,54308,1,0,0:0:0:0:
167,272,54445,37,2,0:0:0:0:
215,162,54583,1,0,0:0:0:0:
335,175,54721,1,0,0:0:0:0:
360,292,54858,1,0,0:0:0:0:
256,352,54996,5,2,0:0:0:0:
95,85,55134,1,0,0:0:0:0:
381,207,55271,1,0,0:0:0:0:
79,276,55409,1,0,0:0:0:0:
345,112,55546,37,2,0:0:0:0:
297,222,55684,1,0,0:0:0:0:
177,209,55822,1,0,0:0:0:0:
152,92,55959,1,0,0:0:0:0:
256,32,56097,5,2,0:0:0:0:
417,299,56235,1,0,0:0:0:0:
131,177,56372,1,0,0:0:0:0:
433,108,56510,1,0,0:0:0:0:
167,272,56647,37,2,0:0:0:0:
215,162,56785,1,0,0:0:0:0:
335,175,56923,1,0,0:0:0:0:
360,292,57060,1,0,0:0:0:0:
256,352,57198,5,2,0:0:0:0:
95,85,57336,1,0,0:0:0:0:
381,207,57473,1,0,0:0:0:0:
79,276,57611,1,0,0:0:0:0:
345,112,57748,37,2,0:0:0:0:
297,222,57886,1,0,0:0:0:0:
177,209,58024,1,0,0:0:0:0:
152,92,58161,1,0,0:0:0:0:
256,32,58299,5,2,0:0:0:0:
417,299,58437,1,0,0:0:0:0:
131,177,58574,1,0,0:0:0:0:
433,108,58712,1,0,0:0:0:0:
229,342,58850,5,2,0:0:0:0:
169,317,58987,1,0,0:0:0:0:
229,292,59124,1,0,0:0:0:0:
229,342,59400,5,2,0:0:0:0:
169,317,59537,1,0,0:0:0:0:
229,292,59674,1,0,0:0:0:0:
289,317,59813,1,0,0:0:0:0:
140,262,59949,5,2,0:0:0:0:
188,152,60087,1,0,0:0:0:0:
308,165,60225,1,0,0:0:0:0:
333,282,60362,1,0,0:0:0:0:
229,342,60500,5,2,0:0:0:0:
68,75,60638,1,0,0:0:0:0:
354,197,60775,1,0,0:0:0:0:
52,266,60913,1,0,0:0:0:0:
372,122,61050,37,2,0:0:0:0:
324,232,61188,1,0,0:0:0:0:
204,219,61326,1,0,0:0:0:0:
179,102,61463,1,0,0:0:0:0:
283,42,61601,5,2,0:0:0:0:
444,309,61739,1,0,0:0:0:0:
158,187,61876,1,0,0:0:0:0:
460,118,62014,1,0,0:0:0:0:
139,372,62151,37,2,0:0:0:0:
159,0,62288,1,2,0:0:0:0:
472,203,62426,1,0,0:0:0:0:
159,0,62564,1,2,0:0:0:0:
0,192,62701,5,4,0:0:0:0:
159,0,62839,1,2,0:0:0:0:
139,372,62977,1,0,0:0:0:0:
159,0,63114,1,2,0:0:0:0:
472,203,63252,5,2,0:0:0:0:
159,0,63390,1,2,0:0:0:0:
65,273,63527,1,0,0:0:0:0:
175,0,63665,1,2,0:0:0:0:
448,110,63802,5,4,0:0:0:0:
338,383,63940,1,2,0:0:0:0:
65,273,64078,1,0,0:0:0:0:
175,0,64215,1,2,0:0:0:0:
139,372,64353,5,2,0:0:0:0:
159,0,64490,1,2,0:0:0:0:
472,203,64628,1,0,0:0:0:0:
159,0,64766,1,2,0:0:0:0:
0,192,64903,5,4,0:0:0:0:
159,0,65041,1,2,0:0:0:0:
139,372,65179,1,0,0:0:0:0:
159,0,65316,1,2,0:0:0:0:
65,273,65454,5,2,0:0:0:0:
159,0,65592,1,2,0:0:0:0:
175,0,65729,1,0,0:0:0:0:
448,110,65867,1,2,0:0:0:0:
338,383,66004,5,4,0:0:0:0:
175,0,66142,1,2,0:0:0:0:
65,273,66279,1,4,0:0:0:0:
139,372,66555,5,2,0:0:0:0:
159,0,66692,1,2,0:0:0:0:
472,203,66830,1,0,0:0:0:0:
159,0,66968,1,2,0:0:0:0:
0,192,67105,5,4,0:0:0:0:
159,0,67243,1,2,0:0:0:0:
177,379,67380,1,0,0:0:0:0:
336,4,67518,1,2,0:0:0:0:
333,380,67656,5,2,0:0:0:0:
180,3,67793,1,2,0:0:0:0:
444,271,67931,1,0,0:0:0:0:
69,112,68068,1,2,0:0:0:0:
445,115,68206,5,4,0:0:0:0:
68,268,68344,1,2,0:0:0:0:
444,271,68481,1,0,0:0:0:0:
69,112,68619,1,2,0:0:0:0:
256,192,68756,12,0,70683,0:0:0:0:
139,372,70959,5,2,0:0:0:0:
159,0,71096,1,2,0:0:0:0:
472,203,71234,1,0,0:0:0:0:
159,0,71372,1,2,0:0:0:0:
0,192,71509,5,4,0:0:0:0:
159,0,71647,1,2,0:0:0:0:
139,372,71785,1,0,0:0:0:0:
159,0,71922,1,2,0:0:0:0:
472,203,72060,5,2,0:0:0:0:
159,0,72198,1,2,0:0:0:0:
65,273,72335,1,0,0:0:0:0:
175,0,72473,1,2,0:0:0:0:
448,110,72610,5,4,0:0:0:0:
338,383,72748,1,2,0:0:0:0:
65,273,72886,1,0,0:0:0:0:
175,0,73023,1,2,0:0:0:0:
139,372,73161,5,2,0:0:0:0:
159,0,73298,1,2,0:0:0:0:
472,203,73436,1,0,0:0:0:0:
159,0,73574,1,2,0:0:0:0:
0,192,73711,5,4,0:0:0:0:
159,0,73849,1,2,0:0:0:0:
139,372,73987,1,0,0:0:0:0:
159,0,74124,1,2,0:0:0:0:
65,273,74262,5,2,0:0:0:0:
159,0,74400,1,2,0:0:0:0:
175,0,74537,1,0,0:0:0:0:
448,110,74675,1,2,0:0:0:0:
338,383,74812,5,4,0:0:0:0:
175,0,74950,1,2,0:0:0:0:
65,273,75087,1,4,0:0:0:0:
139,372,75363,5,2,0:0:0:0:
159,0,75500,1,2,0:0:0:0:
472,203,75638,1,0,0:0:0:0:
159,0,75776,1,2,0:0:0:0:
0,192,75913,5,4,0:0:0:0:
159,0,76051,1,2,0:0:0:0:
177,379,76188,1,0,0:0:0:0:
336,4,76326,1,2,0:0:0:0:
333,380,76464,5,2,0:0:0:0:
180,3,76601,1,2,0:0:0:0:
444,271,76739,1,0,0:0:0:0:
69,112,76876,1,2,0:0:0:0:
445,115,77014,5,4,0:0:0:0:
68,268,77152,1,2,0:0:0:0:
444,271,77289,1,0,0:0:0:0:
69,112,77427,1,2,0:0:0:0:
256,192,77564,12,0,79491,0:0:0:0:
345,112,79766,5,2,0:0:0:0:
297,222,79904,1,0,0:0:0:0:
177,209,80042,1,0,0:0:0:0:
152,92,80179,1,0,0:0:0:0:
256,32,80317,5,2,0:0:0:0:
417,299,80455,1,0,0:0:0:0:
131,177,80592,1,0,0:0:0:0:
433,108,80730,1,0,0:0:0:0:
229,342,80868,5,2,0:0:0:0:
169,317,81005,1,0,0:0:0:0:
229,292,81142,1,0,0:0:0:0:
229,342,81418,5,2,0:0:0:0:
169,317,81555,1,0,0:0:0:0:
229,292,81692,1,0,0:0:0:0:
289,317,81831,1,0,0:0:0:0:
140,262,81967,5,2,0:0:0:0:
188,152,82105,1,0,0:0:0:0:
308,165,82243,1,0,0:0:0:0:
333,282,82380,1,0,0:0:0:0:
229,342,82518,5,2,0:0:0:0:
68,75,82656,1,0,0:0:0:0:
354,197,82793,1,0,0:0:0:0:
52,266,82931,1,0,0:0:0:0:
256,32,83069,5,2,0:0:0:0:
316,57,83206,1,0,0:0:0:0:
256,82,83343,1,0,0:0:0:0:
256,32,83619,5,2,0:0:0:0:
316,57,83756,1,0,0:0:0:0:
256,82,83893,1,0,0:0:0:0:
196,57,84032,1,0,0:0:0:0:
345,112,84170,5,2,0:0:0:0:
297,222,84308,1,0,0:0:0:0:
177,209,84446,1,0,0:0:0:0:
152,92,84583,1,0,0:0:0:0:
256,32,84721,5,2,0:0:0:0:
417,299,84859,1,0,0:0:0:0:
131,177,84996,1,0,0:0:0:0:
433,108,85134,1,0,0:0:0:0:
229,342,85272,5,2,0:0:0:0:
169,317,85409,1,0,0:0:0:0:
229,292,85546,1,0,0:0:0:0:
229,342,85822,5,2,0:0:0:0:
169,317,85959,1,0,0:0:0:0:
229,292,86096,1,0,0:0:0:0:
289,317,86235,1,0,0:0:0:0:
140,262,86371,5,2,0:0:0:0:
188,152,86509,1,0,0:0:0:0:
308,165,86647,1,0,0:0:0:0:
333,282,86784,1,0,0:0:0:0:
229,342,86922,5,2,0:0:0:0:
68,75,87060,1,0,0:0:0:0:
354,197,87197,1,0,0:0:0:0:
52,266,87335,1,0,0:0:0:0:
256,32,87473,5,2,0:0:0:0:
316,57,87748,1,0,0:0:0:0:
256,82,87885,1,0,0:0:0:0:
256,32,88023,5,2,0:0:0:0:
316,57,88160,1,0,0:0:0:0:
256,82,88297,1,0,0:0:0:0:
196,57,88436,1,0,0:0:0:0:
345,112,88573,5,2,0:0:0:0:
177,209,88849,1,0,0:0:0:0:
152,92,88986,1,0,0:0:0:0:
256,32,89124,5,2,0:0:0:0:
417,299,89262,1,0,0:0:0:0:
131,177,89399,1,0,0:0:0:0:
229,342,89675,5,2,0:0:0:0:
169,317,89949,1,0,0:0:0:0:
229,292,90087,1,0,0:0:0:0:
229,342,90225,5,2,0:0:0:0:
169,317,90362,1,0,0:0:0:0:
229,292,90499,1,0,0:0:0:0:
140,262,90774,5,2,0:0:0:0:
308,165,91050,1,0,0:0:0:0:
333,282,91187,1,0,0:0:0:0:
229,342,91325,5,2,0:0:0:0:
68,75,91463,1,0,0:0:0:0:
354,197,91600,1,0,0:0:0:0:
256,32,91876,5,2,0:0:0:0:
316,57,92151,1,0,0:0:0:0:
256,82,92289,1,0,0:0:0:0:
256,32,92426,5,2,0:0:0:0:
316,57,92563,1,0,0:0:0:0:
256,82,92700,1,0,0:0:0:0:
345,112,92977,5,2,0:0:0:0:
297,222,93115,1,0,0:0:0:0:
345,112,93252,5,2,0:0:0:0:
297,222,93390,1,0,0:0:0:0:
345,112,93527,5,2,0:0:0:0:
297,222,93665,1,0,0:0:0:0:
345,112,93803,5,2,0:0:0:0:
297,222,93941,1,0,0:0:0:0:
256,32,94078,5,2,0:0:0:0:
256,32,94353,5,2,0:0:0:0:
256,32,94628,5,2,0:0:0:0:
256,32,94904,5,2,0:0:0:0:
140,262,95178,5,2,0:0:0:0:
188,152,95316,1,0,0:0:0:0:
308,165,95454,1,0,0:0:0:0:
229,342,95729,5,2,0:0:0:0:
68,75,95867,1,0,0:0:0:0:
354,197,96004,1,0,0:0:0:0:
52,266,96142,1,0,0:0:0:0:
256,32,96280,5,2,0:0:0:0:
316,57,96417,1,0,0:0:0:0:
256,82,96554,1,0,0:0:0:0:
333,282,96693,1,0,0:0:0:0:
256,32,96830,5,2,0:0:0:0:
316,57,96967,1,0,0:0:0:0:
256,82,97104,1,0,0:0:0:0:
373,372,97381,5,2,0:0:0:0:
353,0,97518,1,0,0:0:0:0:
40,203,97656,1,0,0:0:0:0:
152,92,97794,1,0,0:0:0:0:
512,192,97931,5,2,0:0:0:0:
417,299,98070,1,0,0:0:0:0:
373,372,98207,1,0,0:0:0:0:
353,0,98344,1,0,0:0:0:0:
40,203,98482,5,2,0:0:0:0:
169,317,98620,1,0,0:0:0:0:
447,273,98757,1,0,0:0:0:0:
337,0,98895,1,0,0:0:0:0:
64,110,99032,5,2,0:0:0:0:
174,383,99170,1,0,0:0:0:0:
229,292,99307,1,0,0:0:0:0:
289,317,99446,1,0,0:0:0:0:
373,372,99583,5,2,0:0:0:0:
353,0,99720,1,0,0:0:0:0:
40,203,99858,1,0,0:0:0:0:
333,282,99995,1,0,0:0:0:0:
512,192,100133,5,2,0:0:0:0:
68,75,100271,1,0,0:0:0:0:
373,372,100409,1,0,0:0:0:0:
353,0,100546,1,0,0:0:0:0:
447,273,100684,5,2,0:0:0:0:
316,57,100821,1,0,0:0:0:0:
337,0,100959,1,0,0:0:0:0:
174,383,101234,5,2,0:0:0:0:
316,57,101371,1,0,0:0:0:0:
256,82,101508,1,0,0:0:0:0:
196,57,101647,1,0,0:0:0:0:
373,372,101784,5,2,0:0:0:0:
353,0,101921,1,0,0:0:0:0:
40,203,102059,1,0,0:0:0:0:
152,92,102197,1,0,0:0:0:0:
512,192,102334,5,2,0:0:0:0:
417,299,102473,1,0,0:0:0:0:
335,379,102609,1,0,0:0:0:0:
176,4,102747,1,0,0:0:0:0:
179,380,102885,5,2,0:0:0:0:
332,3,103022,1,0,0:0:0:0:
68,271,103160,1,0,0:0:0:0:
443,112,103297,1,0,0:0:0:0:
67,115,103435,5,2,0:0:0:0:
444,268,103573,1,0,0:0:0:0:
229,292,103710,1,0,0:0:0:0:
443,112,103848,1,0,0:0:0:0:
373,372,103986,5,2,0:0:0:0:
353,0,104123,1,0,0:0:0:0:
40,203,104261,1,0,0:0:0:0:
333,282,104398,1,0,0:0:0:0:
512,192,104536,5,2,0:0:0:0:
68,75,104674,1,0,0:0:0:0:
373,372,104812,1,0,0:0:0:0:
353,0,104949,1,0,0:0:0:0:
447,273,105087,5,2,0:0:0:0:
316,57,105224,1,0,0:0:0:0:
337,0,105362,1,0,0:0:0:0:
174,383,105637,5,2,0:0:0:0:
447,273,105775,1,0,0:0:0:0:
256,82,105911,1,0,0:0:0:0:
196,57,106050,1,0,0:0:0:0:
373,12,106188,5,2,0:0:0:0:
353,384,106325,1,2,0:0:0:0:
40,181,106463,1,0,0:0:0:0:
353,384,106601,1,2,0:0:0:0:
512,192,106738,5,4,0:0:0:0:
353,384,106876,1,2,0:0:0:0:
373,12,107014,1,0,0:0:0:0:
353,384,107151,1,2,0:0:0:0:
40,181,107289,5,2,0:0:0:0:
353,384,107427,1,2,0:0:0:0:
447,111,107564,1,0,0:0:0:0:
337,384,107702,1,2,0:0:0:0:
64,274,107839,5,4,0:0:0:0:
174,1,107977,1,2,0:0:0:0:
447,111,108115,1,0,0:0:0:0:
337,384,108252,1,2,0:0:0:0:
373,12,108390,5,2,0:0:0:0:
353,384,108527,1,2,0:0:0:0:
40,181,108665,1,0,0:0:0:0:
353,384,108803,1,2,0:0:0:0:
512,192,108940,5,4,0:0:0:0:
353,384,109078,1,2,0:0:0:0:
373,12,109216,1,0,0:0:0:0:
353,384,109353,1,2,0:0:0:0:
447,111,109491,5,2,0:0:0:0:
353,384,109629,1,2,0:0:0:0:
337,384,109766,1,0,0:0:0:0:
64,274,109904,1,2,0:0:0:0:
174,1,110041,5,4,0:0:0:0:
337,384,110179,1,2,0:0:0:0:
447,111,110316,1,4,0:0:0:0:
373,12,110592,5,2,0:0:0:0:
353,384,110729,1,2,0:0:0:0:
40,181,110867,1,0,0:0:0:0:
353,384,111005,1,2,0:0:0:0:
512,192,111142,5,4,0:0:0:0:
353,384,111280,1,2,0:0:0:0:
335,5,111417,1,0,0:0:0:0:
176,380,111555,1,2,0:0:0:0:
179,4,111693,5,2,0:0:0:0:
332,381,111830,1,2,0:0:0:0:
68,113,111968,1,0,0:0:0:0:
443,272,112105,1,2,0:0:0:0:
67,269,112243,5,4,0:0:0:0:
444,116,112381,1,2,0:0:0:0:
68,113,112518,1,0,0:0:0:0:
443,272,112656,1,2,0:0:0:0:
256,192,112794,12,0,114721,0:0:0:0:
373,372,114995,5,2,0:0:0:0:
353,0,115132,1,2,0:0:0:0:
139,12,115271,1,0,0:0:0:0:
353,0,115408,1,2,0:0:0:0:
139,12,115546,1,2,0:0:0:0:
353,0,115683,1,2,0:0:0:0:
139,12,115821,1,0,0:0:0:0:
353,0,115959,1,2,0:0:0:0:
373,372,116096,5,2,0:0:0:0:
353,0,116233,1,2,0:0:0:0:
139,12,116372,1,0,0:0:0:0:
353,0,116509,1,2,0:0:0:0:
139,12,116647,1,2,0:0:0:0:
353,0,116784,1,2,0:0:0:0:
139,12,116922,1,0,0:0:0:0:
353,0,117060,1,2,0:0:0:0:
373,372,117197,5,2,0:0:0:0:
353,0,117334,1,2,0:0:0:0:
139,12,117473,1,0,0:0:0:0:
353,0,117610,1,2,0:0:0:0:
139,12,117748,1,2,0:0:0:0:
353,0,117885,1,2,0:0:0:0:
139,12,118023,1,0,0:0:0:0:
353,0,118161,1,2,0:0:0:0:
373,372,118298,5,2,0:0:0:0:
353,0,118435,1,2,0:0:0:0:
139,12,118574,1,0,0:0:0:0:
353,0,118711,1,2,0:0:0:0:
139,12,118849,1,2,0:0:0:0:
353,0,118986,1,2,0:0:0:0:
139,12,119124,1,0,0:0:0:0:
353,0,119262,1,2,0:0:0:0:
373,372,119399,5,2,0:0:0:0:
353,0,119536,1,2,0:0:0:0:
139,12,119675,1,0,0:0:0:0:
353,0,119812,1,2,0:0:0:0:
139,12,119950,1,2,0:0:0:0:
353,0,120087,1,2,0:0:0:0:
139,12,120225,1,0,0:0:0:0:
353,0,120363,1,2,0:0:0:0:
373,372,120500,5,2,0:0:0:0:
353,0,120637,1,2,0:0:0:0:
139,12,120776,1,0,0:0:0:0:
353,0,120913,1,2,0:0:0:0:
139,12,121051,1,2,0:0:0:0:
353,0,121188,1,2,0:0:0:0:
139,12,121326,1,0,0:0:0:0:
353,0,121464,1,2,0:0:0:0:
256,192,121601,12,4,123527,0:0:0:0:
343,327,123803,37,2,0:0:0:0:
328,48,123983,1,2,0:0:0:0:
168,57,124164,1,0,0:0:0:0:
328,48,124345,1,2,0:0:0:0:
168,57,124525,1,2,0:0:0:0:
328,48,124706,1,2,0:0:0:0:
343,327,124887,5,2,0:0:0:0:
328,48,125067,1,2,0:0:0:0:
168,57,125248,1,0,0:0:0:0:
328,48,125429,1,2,0:0:0:0:
168,57,125609,1,2,0:0:0:0:
328,48,125790,1,2,0:0:0:0:
343,327,125971,5,2,0:0:0:0:
328,48,126151,1,2,0:0:0:0:
343,327,126333,5,2,0:0:0:0:
328,48,126513,1,2,0:0:0:0:
343,327,126694,5,2,0:0:0:0:
328,48,126874,1,2,0:0:0:0:
168,57,127055,1,0,0:0:0:0:
328,48,127236,1,2,0:0:0:0:
168,57,127416,1,2,0:0:0:0:
328,48,127597,1,2,0:0:0:0:
343,327,127778,5,2,0:0:0:0:
328,48,127958,1,2,0:0:0:0:
168,57,128139,1,0,0:0:0:0:
328,48,128320,1,2,0:0:0:0:
168,57,128500,1,2,0:0:0:0:
328,48,128681,1,2,0:0:0:0:
321,293,128863,37,2,0:0:0:0:
310,84,129071,1,2,0:0:0:0:
190,90,129279,1,0,0:0:0:0:
310,84,129488,1,2,0:0:0:0:
190,90,129696,1,2,0:0:0:0:
305,267,129974,5,2,0:0:0:0:
296,111,130237,1,2,0:0:0:0:
206,116,130500,1,0,0:0:0:0:
296,111,130763,1,2,0:0:0:0:
293,248,131026,5,2,0:0:0:0:
286,131,131442,1,2,0:0:0:0:
218,135,131859,1,0,0:0:0:0:
286,131,132276,1,2,0:0:0:0:
283,234,132692,5,2,0:0:0:0:
279,146,133317,1,2,0:0:0:0:
228,149,133942,1,0,0:0:0:0:
279,146,134567,1,2,0:0:0:0:
228,149,135192,1,2,0:0:0:0:
279,146,136442,1,2,0:0:0:0:
