osu file format v14

[General]
AudioFilename: audio.mp3
AudioLeadIn: 0
PreviewTime: 62924
Countdown: 0
SampleSet: Soft
StackLeniency: 0.7
Mode: 0
LetterboxInBreaks: 0
WidescreenStoryboard: 1

[Editor]
Bookmarks: 63397,73503,83608,92450,189713,199818,209924,220029,230134,238976,250358,260463
DistanceSpacing: 1
BeatDivisor: 4
GridSize: 32
TimelineZoom: 1.4

[Metadata]
Title:utopia
TitleUnicode:ユートピア
Artist:AliA
ArtistUnicode:AliA
Creator:Akitoshi
Version:Normal
Source:
Tags:Corinn -Laura- Dubturt Kowari Realize アリア AYAME Okamura Eren TKT RINA SEIYA BOB rock japanese
BeatmapID:2381027
BeatmapSetID:1117851

[Difficulty]
HPDrainRate:4
CircleSize:3.2
OverallDifficulty:4
ApproachRate:5.5
SliderMultiplier:0.999999999999999
SliderTickRate:1

[Events]
//Background and Video events
0,0,"scenery2.jpg",0,0
//Break Periods
2,50966,54693
2,104018,112799
2,124229,133009
2,146766,163325
//Storyboard Layer 0 (Background)
//Storyboard Layer 1 (Fail)
//Storyboard Layer 2 (Pass)
//Storyboard Layer 3 (Foreground)
//Storyboard Layer 4 (Overlay)
//Storyboard Sound Samples

[TimingPoints]
240,315.789473684211,4,2,69,40,1,0
240,-142.857142857143,4,2,69,40,0,0
10345,-100,4,2,69,70,0,0
14055,-100,4,2,69,5,0,0
14134,-100,4,2,69,70,0,0
20371,-100,4,2,69,5,0,0
20450,-125,4,2,69,50,0,0
29292,-100,4,2,69,60,0,0
30555,-100,4,2,69,60,0,0
40661,-111.111111111111,4,2,69,60,0,0
50766,-111.111111111111,4,2,69,40,0,0
55818,-100,4,2,69,50,0,0
58345,-100,4,2,69,50,0,0
62766,-100,4,2,69,5,0,0
63397,-95.2380952380952,4,2,69,80,0,1
92450,-100,4,2,69,80,0,0
93555,-100,4,2,69,20,0,0
93713,-100,4,2,69,70,0,0
103503,-100,4,2,69,70,0,0
103818,-100,4,2,69,50,0,0
113924,-111.111111111111,4,2,69,60,0,0
118976,-100,4,2,69,60,0,0
124029,-100,4,2,69,60,0,0
134134,-111.111111111111,4,2,69,50,0,0
139187,-100,4,2,69,50,0,0
141713,-100,4,2,69,50,0,0
146134,-100,4,2,69,5,0,0
146766,-100,4,2,69,60,0,0
149134,-100,4,2,69,20,0,0
149292,-100,4,2,69,60,0,0
151345,-100,4,2,69,20,0,0
151503,-100,4,2,69,60,0,0
153555,-100,4,2,69,20,0,0
153713,-100,4,2,69,60,0,0
154187,-100,4,2,69,20,0,0
154345,-100,4,2,69,60,0,0
155450,-100,4,2,69,20,0,0
155608,-100,4,2,69,60,0,0
157976,-100,4,2,69,20,0,0
158134,-100,4,2,69,60,0,0
158924,-100,4,2,69,20,0,0
159082,-100,4,2,69,60,0,0
164450,-111.111111111111,4,2,69,60,0,0
166976,-111.111111111111,4,2,69,60,0,0
177082,-100,4,2,69,60,0,0
182134,-100,4,2,69,60,0,0
184661,-100,4,2,69,65,0,0
187187,-100,4,2,69,72,0,0
188766,-100,4,2,69,60,0,0
189713,-90.9090909090909,4,2,69,85,0,1
238976,-100,4,2,69,60,0,0
240253,315.789473684211,4,2,69,75,1,0
240253,-100,4,2,69,75,0,0
243963,-100,4,2,69,5,0,0
244042,-100,4,2,69,75,0,0

[Colours]
Combo1 : 255,128,64
Combo2 : 1,209,254
Combo3 : 255,128,255
Combo4 : 255,255,15

[HitObjects]
296,133,240,6,0,P|361:96|283:224,1,489.999985046387,2|0,0:0|0:0,0:0:0:0:
198,189,2766,6,0,P|133:152|211:280,1,489.999985046387,2|0,0:0|0:0,0:0:0:0:
287,233,5292,6,0,B|345:278|330:362|330:362|457:273|450:144|332:78,1,489.999985046387,2|0,0:0|0:0,0:0:0:0:
256,192,7818,12,0,9082,0:0:0:0:
64,115,10345,6,0,P|75:171|85:218,1,99.9999999999999,6|8,3:2|0:0,0:0:0:0:
152,285,10976,2,0,P|146:308|142:339,2,50,0|0|8,3:0|3:0|0:0,0:0:0:0:
184,189,11608,1,0,3:0:0:0:
283,178,11924,1,8,0:0:0:0:
369,228,12240,2,0,P|363:251|359:282,2,50,0|0|8,3:0|3:0|0:0,0:0:0:0:
464,197,12871,6,0,P|477:157|455:90,1,99.9999999999999,0|8,3:0|0:0,0:0:0:0:
371,60,13503,2,0,P|372:36|376:11,2,50,0|0|8,3:0|3:0|0:0,0:0:0:0:
274,87,14134,2,0,P|234:74|167:96,1,99.9999999999999,0|8,3:0|0:0,0:0:0:0:
97,146,14766,2,0,P|90:176|86:198,1,50,0|8,3:0|0:0,0:0:0:0:
56,235,15082,2,0,P|63:265|67:287,1,50,8|0,0:0|3:0,0:0:0:0:
92,326,15397,6,0,P|47:355|-4:358,2,99.9999999999999,12|8|8,0:0|0:0|0:0,0:0:0:0:
168,261,16345,2,0,P|214:268|232:271,1,50,8|0,0:0|3:0,0:0:0:0:
254,302,16661,2,0,P|312:293|366:287,1,99.9999999999999,12|8,0:0|0:0,0:0:0:0:
451,270,17292,1,8,0:0:0:0:
493,179,17608,2,0,P|490:148|480:122,1,50,8|0,0:0|3:0,0:0:0:0:
454,89,17924,6,0,P|403:68|344:82,2,99.9999999999999,12|8|8,0:0|0:0|0:0,0:0:0:0:
393,168,18871,2,0,P|354:173|322:178,1,50,8|0,0:0|3:0,0:0:0:0:
293,180,19187,2,0,P|286:224|279:290,1,99.9999999999999,12|8,0:0|0:0,0:0:0:0:
212,353,19818,1,0,3:0:0:0:
139,283,20134,2,0,P|99:293|75:294,1,50,8|0,0:0|0:0,0:0:0:0:
46,294,20450,5,6,3:2:0:0:
19,209,20766,2,0,P|52:165|156:152,1,160,8|8,0:0|0:0,0:0:0:0:
233,180,21713,1,0,3:0:0:0:
281,253,22029,2,0,B|363:240|361:243|443:229,1,160,8|8,0:0|0:0,0:0:0:0:
497,163,22976,6,0,P|505:117|491:74,1,79.9999999999999,0|8,3:0|0:0,0:0:0:0:
413,56,23608,2,0,P|367:64|324:50,1,79.9999999999999,0|8,3:0|0:0,0:0:0:0:
254,19,24240,1,0,3:0:0:0:
178,63,24555,2,0,P|192:133|207:236,1,160,8|8,0:0|0:0,0:0:0:0:
215,308,25503,5,0,3:0:0:0:
142,358,25818,2,0,B|53:375|53:375|8:363|0:313,1,160,8|8,0:0|0:0,0:0:0:0:
4,241,26766,1,0,3:0:0:0:
57,171,27082,2,0,P|121:187|195:131,1,160,8|8,0:0|0:0,0:0:0:0:
228,54,28029,5,0,3:0:0:0:
312,79,28345,2,0,P|297:162|286:249,1,160,8|8,0:0|0:0,0:0:0:0:
313,333,29292,2,0,P|361:346|412:330,1,99.9999999999999,0|8,3:0|0:0,0:0:0:0:
474,257,29924,2,0,P|468:216|464:197,1,50,2|8,0:0|0:0,0:0:0:0:
431,171,30240,2,0,P|437:130|441:111,1,50,8|8,0:0|0:0,0:0:0:0:
447,72,30555,6,0,P|390:78|341:53,1,99.9999999999999,6|8,3:2|0:0,0:0:0:0:
262,108,31187,2,0,P|266:135|272:174,2,50,0|0|8,3:0|3:0|0:0,0:0:0:0:
194,34,31818,1,0,3:0:0:0:
93,34,32134,1,8,0:0:0:0:
22,104,32450,2,0,P|31:134|45:204,1,99.9999999999999,0|8,3:0|0:0,0:0:0:0:
62,300,33082,5,6,3:2:0:0:
147,351,33397,1,8,0:0:0:0:
241,318,33713,2,0,P|256:271|244:217,1,99.9999999999999,6|8,3:2|0:0,0:0:0:0:
165,163,34345,2,0,P|150:116|162:62,1,99.9999999999999,6|8,3:2|0:0,0:0:0:0:
184,26,34818,1,2,0:0:0:0:
184,26,34976,2,0,P|251:36|294:43,1,99.9999999999999,0|8,3:0|0:0,0:0:0:0:
382,53,35608,6,0,P|423:31|488:31,2,99.9999999999999,6|8|0,3:2|0:0|3:0,0:0:0:0:
320,131,36555,1,8,0:0:0:0:
395,196,36871,2,0,P|383:246|376:300,1,99.9999999999999,0|8,3:0|0:0,0:0:0:0:
280,322,37503,2,0,P|273:272|261:223,1,99.9999999999999,0|8,3:0|0:0,0:0:0:0:
240,126,38134,5,6,3:2:0:0:
147,88,38450,1,8,0:0:0:0:
59,136,38766,2,0,P|40:182|48:238,1,99.9999999999999,6|8,3:2|0:0,0:0:0:0:
117,300,39397,2,0,P|153:304|176:308,1,50,0|8,3:0|0:0,0:0:0:0:
203,340,39713,2,0,P|239:336|262:332,1,50,0|8,1:0|0:0,0:0:0:0:
295,308,40029,2,0,P|344:291|401:308,1,99.9999999999999,8|4,0:0|3:0,0:0:0:0:
467,239,40661,6,0,P|473:191|477:142,1,89.999997253418,6|0,3:2|3:0,0:0:0:0:
381,122,41292,2,0,P|374:74|371:25,1,89.999997253418,8|0,0:0|3:0,0:0:0:0:
276,25,41924,1,2,0:0:0:0:
276,25,42082,2,0,P|256:69|259:119,1,89.999997253418,8|0,0:0|3:0,0:0:0:0:
220,143,42555,2,0,P|240:187|237:237,1,89.999997253418,8|0,0:0|3:0,0:0:0:0:
193,315,43187,5,6,3:2:0:0:
93,315,43503,1,0,3:0:0:0:
21,246,43818,2,0,P|29:199|40:150,1,89.999997253418,8|0,0:0|3:0,0:0:0:0:
122,104,44450,2,0,P|131:147|139:192,2,89.999997253418,2|8|8,0:0|0:0|0:0,0:0:0:0:
190,32,45397,1,0,3:0:0:0:
270,90,45713,6,0,P|308:103|364:90,1,89.999997253418,6|0,3:2|3:0,0:0:0:0:
397,184,46345,2,0,P|384:222|397:278,1,89.999997253418,8|0,0:0|3:0,0:0:0:0:
316,331,46976,1,2,0:0:0:0:
316,331,47134,2,0,P|277:318|222:331,1,89.999997253418,8|0,0:0|3:0,0:0:0:0:
183,345,47608,2,0,P|135:338|87:332,1,89.999997253418,8|0,0:0|3:0,0:0:0:0:
18,267,48240,5,6,3:2:0:0:
75,186,48555,1,0,3:0:0:0:
170,217,48871,2,0,P|215:221|255:205,1,89.999997253418,8|8,0:0|0:0,0:0:0:0:
328,137,49503,2,0,P|373:133|413:149,1,89.999997253418,4|8,1:2|3:0,0:0:0:0:
455,185,49976,1,0,3:0:0:0:
455,185,50134,2,0,L|502:178,2,44.999998626709,4|4|4,3:0|3:0|3:0,0:0:0:0:
392,262,50766,5,6,3:2:0:0:
297,260,55818,6,0,P|344:275|392:262,1,99.9999999999999,8|8,1:2|1:2,1:0:0:0:
478,211,56450,1,8,1:2:0:0:
393,161,56766,2,0,P|345:146|298:159,1,99.9999999999999,8|8,1:2|1:2,0:0:0:0:
210,208,57397,1,8,1:2:0:0:
113,179,57713,1,8,1:2:0:0:
113,78,58029,1,8,1:2:0:0:
202,34,58345,6,0,P|253:31|300:56,1,99.9999999999999,8|8,1:2|1:2,1:0:0:0:
373,115,58976,2,0,P|403:110|427:108,1,50,8|8,1:2|1:2,0:0:0:0:
472,104,59292,1,8,1:2:0:0:
494,201,59608,2,0,P|473:240|460:298,1,99.9999999999999,8|8,1:2|1:2,1:0:0:0:
383,356,60240,2,0,P|358:353|333:349,1,50,8|0,1:2|1:0,0:0:0:0:
296,315,60555,2,0,P|271:317|246:321,1,50,8|8,1:2|3:0,0:0:0:0:
197,331,60871,5,6,3:2:0:0:
256,192,61029,12,0,62766,0:0:0:0:
285,208,63397,6,0,P|229:215|211:218,1,52.4999983978271,6|0,3:2|0:0,0:0:0:0:
186,239,63713,2,0,P|145:247|88:221,1,104.999996795654,10|2,0:0|3:2,0:0:0:0:
35,131,64345,1,10,0:0:0:0:
122,72,64661,2,0,P|163:77|238:86,1,104.999996795654,2|10,3:2|0:0,0:0:0:0:
317,136,65292,2,0,P|359:131|390:128,1,52.4999983978271,2|0,3:2|3:0,0:0:0:0:
421,125,65608,1,10,0:0:0:0:
501,192,65924,6,0,P|470:241|470:296,1,104.999996795654,2|10,3:2|0:0,0:0:0:0:
393,361,66555,1,2,3:2:0:0:
287,361,66871,1,10,0:0:0:0:
216,290,67187,1,0,3:0:0:0:
216,290,67345,2,0,P|170:293|147:297,1,52.4999983978271,2|8,0:0|0:0,0:0:0:0:
111,298,67661,2,0,P|87:246|94:190,1,104.999996795654,2|2,0:0|0:0,0:0:0:0:
107,149,68134,1,8,0:0:0:0:
194,90,68450,6,0,P|204:145|217:210,1,104.999996795654,14|10,0:2|0:0,0:0:0:0:
310,233,69082,1,10,0:0:0:0:
376,151,69397,2,0,P|412:157|432:161,1,52.4999983978271,10|0,0:0|3:0,0:0:0:0:
479,170,69713,2,0,P|495:218|478:286,1,104.999996795654,14|10,0:0|0:0,0:0:0:0:
424,356,70345,1,10,0:0:0:0:
322,329,70661,2,0,P|274:336|257:339,1,52.4999983978271,10|0,0:0|3:0,0:0:0:0:
217,342,70976,5,14,0:0:0:0:
112,356,71292,1,10,0:0:0:0:
68,261,71608,1,10,0:0:0:0:
143,188,71924,1,10,0:0:0:0:
236,239,72240,2,0,P|292:238|339:211,1,104.999996795654,10|8,0:0|0:0,0:0:0:0:
364,173,72713,1,2,0:0:0:0:
364,173,72871,2,0,P|352:105|343:60,1,104.999996795654,8|8,0:0|0:0,0:0:0:0:
245,35,73503,6,0,P|210:42|192:45,1,52.4999983978271,6|0,3:2|0:0,0:0:0:0:
141,52,73818,2,0,P|90:38|39:54,1,104.999996795654,10|2,0:0|3:2,0:0:0:0:
0,149,74450,1,10,0:0:0:0:
78,218,74766,2,0,P|87:278|92:328,1,104.999996795654,2|10,3:2|0:0,0:0:0:0:
188,362,75397,2,0,P|223:351|242:348,1,52.4999983978271,2|0,3:2|3:0,0:0:0:0:
291,343,75713,1,10,0:0:0:0:
392,316,76029,6,0,P|414:272|406:202,1,104.999996795654,2|10,3:2|0:0,0:0:0:0:
384,115,76661,1,2,3:2:0:0:
288,71,76976,1,10,0:0:0:0:
197,124,77292,2,0,P|183:173|172:230,1,104.999996795654,2|10,3:2|0:0,0:0:0:0:
144,271,77766,1,0,3:0:0:0:
144,271,77924,2,0,P|154:306|159:332,2,52.4999983978271,10|0|10,0:0|3:0|0:0,0:0:0:0:
51,221,78555,6,0,P|36:171|57:109,1,104.999996795654,14|10,0:0|0:0,0:0:0:0:
85,83,79029,1,0,3:0:0:0:
85,83,79187,2,0,P|132:101|192:84,1,104.999996795654,10|10,0:0|0:0,0:0:0:0:
230,62,79661,1,0,3:0:0:0:
230,62,79818,2,0,P|277:68|343:77,1,104.999996795654,14|10,0:0|0:0,0:0:0:0:
437,93,80450,1,10,0:0:0:0:
377,179,80766,2,0,P|385:221|387:237,1,52.4999983978271,10|0,0:0|3:0,0:0:0:0:
393,282,81082,5,14,0:0:0:0:
299,329,81397,1,10,0:0:0:0:
225,255,81713,1,10,0:0:0:0:
272,162,82029,1,10,0:0:0:0:
377,179,82345,2,0,P|398:130|385:75,1,104.999996795654,10|10,0:0|0:0,0:0:0:0:
365,39,82818,1,2,0:0:0:0:
365,39,82976,2,0,P|316:60|260:51,1,104.999996795654,0|8,3:2|0:0,0:0:0:0:
162,32,83608,5,6,3:2:0:0:
104,120,83924,1,10,0:0:0:0:
150,215,84240,2,0,P|196:218|258:223,1,104.999996795654,10|10,0:0|0:0,0:0:0:0:
330,295,84871,2,0,P|365:289|390:287,1,52.4999983978271,14|0,0:0|3:0,0:0:0:0:
433,277,85187,2,0,P|452:227|431:159,1,104.999996795654,10|10,0:0|0:0,0:0:0:0:
378,94,85818,1,10,0:0:0:0:
276,120,86134,6,0,P|263:182|251:238,1,104.999996795654,14|10,0:0|0:0,0:0:0:0:
227,324,86766,1,10,0:0:0:0:
126,354,87082,1,10,0:0:0:0:
36,300,87397,2,0,P|21:242|45:186,1,104.999996795654,6|2,0:0|0:0,0:0:0:0:
63,158,87871,1,0,3:0:0:0:
63,158,88029,2,0,L|52:90,2,52.4999983978271,8|4|2,3:0|3:0|0:0,0:0:0:0:
165,200,88661,5,12,0:0:0:0:
165,200,88818,2,0,P|217:186|275:177,1,104.999996795654,8|0,0:0|3:0,0:0:0:0:
320,163,89292,1,12,0:0:0:0:
320,163,89450,2,0,P|372:177|430:186,1,104.999996795654,8|0,0:0|3:0,0:0:0:0:
475,189,89924,2,0,P|495:149|490:88,1,104.999996795654,12|8,0:0|0:0,0:0:0:0:
418,13,90555,1,8,0:0:0:0:
312,13,90871,1,4,3:0:0:0:
221,66,91187,6,0,P|173:62|107:56,1,104.999996795654,12|8,0:0|0:0,0:0:0:0:
27,113,91818,2,0,P|37:155|38:170,1,52.4999983978271,8|8,0:0|0:0,0:0:0:0:
78,198,92134,2,0,P|68:240|67:255,1,52.4999983978271,8|8,0:0|0:0,0:0:0:0:
68,299,92450,1,2,0:0:0:0:
68,299,93713,6,0,P|96:286|178:279,1,99.9999999999999,6|8,3:2|0:0,0:0:0:0:
264,281,94345,1,0,3:0:0:0:
351,233,94661,1,8,0:0:0:0:
396,144,94976,2,0,P|425:149|456:150,2,50,0|0|8,3:0|3:0|0:0,0:0:0:0:
336,63,95608,1,0,3:0:0:0:
240,33,95924,1,8,0:0:0:0:
148,73,96240,6,0,P|125:128|138:171,1,99.9999999999999,0|8,3:0|0:0,0:0:0:0:
192,246,96871,2,0,P|218:240|253:236,2,50,0|0|8,3:0|3:0|0:0,0:0:0:0:
126,322,97503,2,0,P|178:346|235:336,1,99.9999999999999,0|8,3:0|0:0,0:0:0:0:
311,303,98134,2,0,P|346:307|375:311,1,50,0|0,3:0|0:0,0:0:0:0:
398,341,98450,2,0,P|433:337|462:333,1,50,8|0,0:0|3:0,0:0:0:0:
488,304,98766,6,0,P|512:259|505:195,2,99.9999999999999,6|8|8,3:2|0:0|0:0,0:0:0:0:
415,235,99713,2,0,P|418:202|423:173,1,50,8|0,0:0|3:0,0:0:0:0:
430,136,100029,2,0,P|380:136|337:112,1,99.9999999999999,12|8,0:0|0:0,0:0:0:0:
275,33,100661,1,8,0:0:0:0:
197,95,100976,2,0,P|200:124|205:155,1,50,8|0,0:0|3:0,0:0:0:0:
223,190,101292,6,0,P|213:261|211:294,2,99.9999999999999,12|8|8,0:0|0:0|0:0,0:0:0:0:
313,147,102240,1,8,0:0:0:0:
398,198,102555,2,0,P|427:243|427:297,1,99.9999999999999,12|8,0:0|3:0,0:0:0:0:
399,327,103029,2,0,P|344:323|297:349,1,99.9999999999999,12|8,0:0|3:0,0:0:0:0:
264,372,103503,1,12,0:0:0:0:
211,289,103818,5,6,3:2:0:0:
93,83,113924,6,0,P|175:29|259:67,1,179.999994506836,6|12,3:2|0:2,0:0:0:0:
406,134,115187,2,0,B|389:195|389:195|421:241|421:241|400:313,1,179.999994506836,6|12,3:2|0:2,0:0:0:0:
225,325,116450,6,0,B|119:353|119:353|79:336|68:298,1,179.999994506836,6|12,3:2|0:2,0:0:0:0:
148,142,117713,2,0,B|249:172|249:172|275:149|328:134,1,179.999994506836,6|8,3:2|0:0,0:0:0:0:
406,134,118661,1,8,0:0:0:0:
497,173,118976,6,0,P|481:225|474:278,1,99.9999999999999,12|8,0:2|0:0,0:0:0:0:
381,307,119608,2,0,P|392:344|395:369,2,50,8|8|8,0:0|3:0|3:0,0:0:0:0:
318,228,120240,1,6,3:2:0:0:
230,276,120555,2,0,P|159:282|129:269,2,99.9999999999999,8|8|4,0:0|3:0|3:0,0:0:0:0:
318,228,121503,5,6,3:2:0:0:
354,135,121818,1,8,0:0:0:0:
283,71,122134,1,0,3:0:0:0:
283,71,122292,2,0,P|231:83|173:94,1,99.9999999999999,8|0,0:0|3:0,0:0:0:0:
136,104,122766,6,0,P|98:95|80:91,2,50,8|8|8,3:0|3:0|3:0,0:0:0:0:
185,191,123397,2,0,P|194:229|198:247,1,50,8|8,3:0|3:0,0:0:0:0:
230,276,123713,2,0,P|221:314|217:332,1,50,4|4,3:0|3:0,0:0:0:0:
206,373,124029,5,6,0:0:0:0:
127,122,134134,6,0,B|79:128|38:94|38:94|89:281,1,269.999991760254,6|2,3:2|0:0,0:0:0:0:
144,328,135397,6,0,B|200:292|273:316|273:316|280:327|280:327|344:365|411:321,1,269.999991760254,6|2,3:2|0:0,0:0:0:0:
460,265,136661,6,0,B|496:217|496:154|443:104|443:104|388:125|388:182,1,269.999991760254,6|2,3:2|0:0,0:0:0:0:
307,210,137924,6,0,P|255:216|208:203,1,89.999997253418,6|8,3:2|3:0,0:0:0:0:
183,189,138397,1,0,3:0:0:0:
183,189,138555,2,0,P|131:183|84:196,1,89.999997253418,8|4,3:0|3:0,0:0:0:0:
16,254,139187,6,0,P|26:300|36:354,1,99.9999999999999,6|8,3:2|1:2,0:0:0:0:
133,373,139818,1,8,1:2:0:0:
199,297,140134,2,0,P|249:306|298:316,1,99.9999999999999,8|8,1:2|1:2,0:0:0:0:
396,332,140766,1,8,1:2:0:0:
473,268,141082,2,0,P|483:218|457:155,1,99.9999999999999,8|8,1:2|1:2,0:0:0:0:
404,103,141713,5,6,1:2:0:0:
404,103,141871,2,0,P|347:113|292:123,1,99.9999999999999,8|2,1:2|1:2,0:0:0:0:
264,149,142345,2,0,P|207:139|152:129,1,99.9999999999999,8|2,1:2|1:2,0:0:0:0:
73,171,142976,2,0,P|54:220|66:280,1,99.9999999999999,6|8,1:2|3:2,0:0:0:0:
110,352,143608,2,0,P|135:348|160:344,1,50,8|0,3:2|3:2,0:0:0:0:
200,314,143924,2,0,P|225:319|250:323,1,50,8|4,3:0|3:0,0:0:0:0:
299,333,144240,5,6,3:2:0:0:
256,192,144397,12,0,146134,0:0:0:0:
258,182,164450,6,0,P|252:137|248:92,1,89.999997253418,6|8,3:2|0:0,0:0:0:0:
185,35,165082,1,8,0:0:0:0:
185,35,165240,2,0,P|139:57|89:49,1,89.999997253418,8|8,0:0|0:0,0:0:0:0:
57,44,165713,1,6,0:0:0:0:
12,122,166029,1,8,0:0:0:0:
76,184,166345,2,0,P|66:241|59:288,1,89.999997253418,8|8,0:0|3:0,0:0:0:0:
126,334,166976,6,0,B|229:312|198:378|313:347,1,179.999994506836,6|8,3:2|0:0,0:0:0:0:
377,303,167924,1,8,0:0:0:0:
415,221,168240,2,0,P|461:230|505:218,2,89.999997253418,8|8|8,0:0|0:0|0:0,0:0:0:0:
332,184,169187,1,8,0:0:0:0:
289,104,169503,6,0,P|239:112|186:120,1,89.999997253418,6|8,3:2|0:0,0:0:0:0:
131,176,170134,2,0,P|81:168|28:160,1,89.999997253418,8|8,0:0|0:0,0:0:0:0:
4,80,170766,2,0,P|46:30|159:48,1,179.999994506836,10|8,0:0|0:0,0:0:0:0:
200,118,171713,1,8,0:0:0:0:
131,176,172029,6,0,P|139:227|145:272,1,89.999997253418,6|8,3:2|0:0,0:0:0:0:
208,328,172661,1,8,0:0:0:0:
297,328,172976,1,8,0:0:0:0:
360,264,173292,2,0,P|408:271|460:255,1,89.999997253418,8|8,0:0|0:0,0:0:0:0:
447,170,173924,2,0,P|399:163|347:179,1,89.999997253418,8|8,0:0|0:0,0:0:0:0:
282,220,174555,6,0,P|203:212|89:199,2,179.999994506836,6|8|8,3:2|0:0|0:0,0:0:0:0:
360,172,176134,1,8,0:0:0:0:
335,85,176450,2,0,P|292:77|239:94,1,89.999997253418,8|8,0:0|0:0,0:0:0:0:
150,113,177082,6,0,P|158:60|164:14,2,99.9999999999999,6|8|0,3:2|0:0|3:0,0:0:0:0:
103,201,178029,1,8,0:0:0:0:
22,260,178345,2,0,P|14:310|35:360,1,99.9999999999999,0|8,3:0|0:0,0:0:0:0:
129,372,178976,2,0,P|175:354|224:362,1,99.9999999999999,0|8,3:0|0:0,0:0:0:0:
296,293,179608,6,0,P|342:310|391:302,2,99.9999999999999,0|8|0,3:2|0:0|3:0,0:0:0:0:
225,221,180555,1,8,0:0:0:0:
292,147,180871,2,0,P|369:132|401:127,1,99.9999999999999,0|8,3:0|0:0,0:0:0:0:
489,111,181503,1,0,3:0:0:0:
502,209,181818,2,0,P|491:246|484:273,1,50,8|4,0:0|3:0,0:0:0:0:
471,304,182134,6,0,P|437:288|362:299,1,99.9999999999999,6|0,3:2|3:0,0:0:0:0:
287,340,182766,2,0,P|253:356|178:345,1,99.9999999999999,0|0,3:0|3:0,0:0:0:0:
104,302,183397,1,0,3:0:0:0:
59,212,183713,1,0,3:0:0:0:
116,129,184029,2,0,P|165:122|211:140,1,99.9999999999999,0|0,3:0|3:0,0:0:0:0:
292,199,184661,6,0,P|348:190|400:180,1,99.9999999999999,6|0,3:2|3:0,0:0:0:0:
443,175,185134,1,0,3:0:0:0:
443,175,185292,2,0,P|452:122|436:71,1,99.9999999999999,0|0,3:0|3:0,0:0:0:0:
358,19,185924,2,0,P|302:28|250:38,1,99.9999999999999,0|0,3:0|3:0,0:0:0:0:
213,45,186397,1,0,3:0:0:0:
213,45,186555,2,0,P|204:98|220:149,1,99.9999999999999,0|0,3:0|3:0,0:0:0:0:
213,242,187187,6,0,B|167:257|167:257|111:242,1,99.9999999999999,6|4,3:2|3:0,0:0:0:0:
73,231,187661,1,4,3:0:0:0:
73,231,187818,2,0,P|30:245|10:250,2,50,4|4|4,3:0|3:0|3:0,0:0:0:0:
119,140,188450,2,0,B|170:126|170:126|215:141,1,99.9999999999999,8|12,0:0|0:0,0:0:0:0:
268,159,188924,1,8,0:0:0:0:
268,159,189082,2,0,P|307:155|336:152,1,50,12|8,0:0|0:0,0:0:0:0:
367,150,189397,1,8,0:0:0:0:
466,197,189713,6,0,P|456:231|450:264,1,55.0000016784668,6|0,3:2|0:0,0:0:0:0:
436,302,190029,2,0,P|382:296|332:315,1,110.000003356934,10|2,0:0|3:2,0:0:0:0:
234,366,190661,1,10,0:0:0:0:
136,316,190976,2,0,P|85:296|31:303,1,110.000003356934,2|10,3:2|0:0,0:0:0:0:
2,196,191608,2,0,P|6:160|11:133,1,55.0000016784668,2|0,3:2|3:0,0:0:0:0:
20,87,191924,1,10,0:0:0:0:
121,45,192240,6,0,P|166:64|232:55,1,110.000003356934,2|10,3:2|0:0,0:0:0:0:
333,27,192871,1,2,3:2:0:0:
425,85,193187,1,10,0:0:0:0:
382,188,193503,1,0,3:0:0:0:
382,188,193661,2,0,P|387:228|392:265,1,55.0000016784668,2|8,0:0|0:0,0:0:0:0:
391,297,193976,2,0,P|335:315|281:305,1,110.000003356934,2|0,0:0|3:0,0:0:0:0:
234,284,194450,1,8,0:0:0:0:
174,191,194766,6,0,P|181:137|164:85,1,110.000003356934,14|10,0:2|0:0,0:0:0:0:
74,21,195397,1,10,0:0:0:0:
7,108,195713,2,0,P|11:146|15:180,1,55.0000016784668,10|0,0:0|3:0,0:0:0:0:
37,212,196029,2,0,P|28:267|18:337,1,110.000003356934,14|10,0:0|0:0,0:0:0:0:
117,373,196661,1,10,0:0:0:0:
194,295,196976,2,0,P|232:299|266:303,1,55.0000016784668,10|0,0:0|3:0,0:0:0:0:
303,309,197292,5,14,0:0:0:0:
350,211,197608,1,10,0:0:0:0:
271,134,197924,1,10,0:0:0:0:
176,185,198240,1,10,0:0:0:0:
194,295,198555,2,0,P|144:311|74:295,1,110.000003356934,10|8,0:0|0:0,0:0:0:0:
46,274,199029,1,2,0:0:0:0:
46,274,199187,2,0,P|35:200|28:149,1,110.000003356934,0|0,3:0|3:0,0:0:0:0:
81,67,199818,6,0,P|114:76|145:73,1,55.0000016784668,4|0,3:0|0:0,0:0:0:0:
189,66,200134,2,0,P|162:124|174:175,1,110.000003356934,14|2,0:0|3:2,0:0:0:0:
230,259,200766,1,10,0:0:0:0:
333,297,201082,2,0,P|387:290|442:283,1,110.000003356934,2|10,3:2|0:0,0:0:0:0:
502,192,201713,2,0,P|494:148|488:126,1,55.0000016784668,2|0,3:2|3:0,0:0:0:0:
474,85,202029,1,10,0:0:0:0:
376,34,202345,6,0,P|327:62|269:64,1,110.000003356934,2|10,3:2|0:0,0:0:0:0:
169,31,202976,1,2,3:2:0:0:
86,103,203292,1,10,0:0:0:0:
86,213,203608,2,0,P|135:241|193:243,1,110.000003356934,2|10,3:2|0:0,0:0:0:0:
245,235,204082,1,2,0:0:0:0:
245,235,204240,2,0,L|233:175,2,55.0000016784668,2|0|10,3:2|3:0|0:0,0:0:0:0:
315,319,204871,6,0,P|367:306|435:295,1,110.000003356934,14|10,0:2|0:0,0:0:0:0:
479,284,205345,1,0,3:0:0:0:
479,284,205503,2,0,P|485:229|465:179,1,110.000003356934,10|10,0:0|0:0,0:0:0:0:
435,140,205976,1,0,3:0:0:0:
435,140,206134,2,0,P|381:156|311:136,1,110.000003356934,14|10,0:0|0:0,0:0:0:0:
231,94,206766,1,10,0:0:0:0:
178,190,207082,2,0,P|181:219|184:255,1,55.0000016784668,10|0,0:0|3:0,0:0:0:0:
187,299,207397,5,14,0:0:0:0:
88,343,207713,1,10,0:0:0:0:
15,261,208029,1,10,0:0:0:0:
70,165,208345,1,10,0:0:0:0:
178,190,208661,2,0,P|224:203|285:181,1,110.000003356934,2|8,3:2|0:0,0:0:0:0:
330,155,209134,1,8,0:0:0:0:
330,155,209292,2,0,P|376:142|437:164,1,110.000003356934,0|4,3:0|3:0,0:0:0:0:
458,268,209924,6,0,P|453:295|448:322,1,55.0000016784668,6|0,3:2|0:0,0:0:0:0:
434,375,210240,2,0,P|388:347|320:353,1,110.000003356934,10|2,0:0|3:2,0:0:0:0:
225,371,210871,1,10,0:0:0:0:
131,312,211187,2,0,P|134:281|143:184,1,110.000003356934,2|10,3:2|0:0,0:0:0:0:
159,93,211818,2,0,P|192:97|219:91,1,55.0000016784668,2|0,3:2|3:0,0:0:0:0:
265,76,212134,1,10,0:0:0:0:
306,178,212450,6,0,P|287:232|295:287,1,110.000003356934,2|10,3:2|0:0,0:0:0:0:
354,375,213082,1,2,3:2:0:0:
463,375,213397,1,10,0:0:0:0:
502,274,213713,1,0,3:0:0:0:
502,274,213871,2,0,P|494:241|488:208,1,55.0000016784668,2|8,0:0|0:0,0:0:0:0:
442,191,214187,2,0,P|447:128|453:67,1,110.000003356934,2|0,0:0|3:0,0:0:0:0:
456,26,214661,1,8,0:0:0:0:
348,45,214976,6,0,P|291:62|241:57,1,110.000003356934,14|10,0:0|0:0,0:0:0:0:
135,27,215608,1,10,0:0:0:0:
45,92,215924,2,0,P|32:135|28:153,1,55.0000016784668,10|0,0:0|3:0,0:0:0:0:
1,192,216240,2,0,P|16:249|30:306,1,110.000003356934,14|10,0:0|0:0,0:0:0:0:
122,355,216871,1,10,0:0:0:0:
196,273,217187,2,0,P|226:278|258:283,1,55.0000016784668,10|0,0:0|3:0,0:0:0:0:
304,293,217503,5,14,0:0:0:0:
414,307,217818,1,10,0:0:0:0:
460,207,218134,1,10,0:0:0:0:
380,131,218450,1,10,0:0:0:0:
283,185,218766,2,0,P|226:164|163:180,1,110.000003356934,10|8,0:0|0:0,0:0:0:0:
129,191,219240,1,2,0:0:0:0:
129,191,219397,2,0,P|108:140|115:86,1,110.000003356934,8|8,0:0|0:0,0:0:0:0:
208,26,220029,6,0,P|241:30|273:33,1,55.0000016784668,6|0,3:2|0:0,0:0:0:0:
304,68,220345,2,0,P|358:61|422:51,1,110.000003356934,10|2,0:0|3:2,0:0:0:0:
495,125,220976,1,10,0:0:0:0:
414,199,221292,2,0,P|439:253|428:311,1,110.000003356934,2|10,3:2|0:0,0:0:0:0:
349,374,221924,2,0,P|316:369|288:365,1,55.0000016784668,2|0,3:2|3:0,0:0:0:0:
240,354,222240,1,10,0:0:0:0:
202,250,222555,6,0,P|249:251|314:232,1,110.000003356934,2|10,3:2|0:0,0:0:0:0:
414,199,223187,1,2,3:2:0:0:
456,97,223503,1,10,0:0:0:0:
369,29,223818,2,0,P|306:38|242:46,1,110.000003356934,2|10,3:2|0:0,0:0:0:0:
213,69,224292,1,2,0:0:0:0:
213,69,224450,2,0,P|184:65|156:59,2,55.0000016784668,0|2|8,3:2|3:2|0:0,0:0:0:0:
269,163,225082,6,0,P|283:223|264:277,1,110.000003356934,14|10,0:0|0:0,0:0:0:0:
176,327,225713,1,10,0:0:0:0:
82,269,226029,2,0,P|78:240|74:209,1,55.0000016784668,10|0,0:0|3:0,0:0:0:0:
38,172,226345,2,0,P|48:113|59:46,1,110.000003356934,14|10,0:0|0:0,0:0:0:0:
155,15,226976,1,10,0:0:0:0:
248,73,227292,2,0,P|287:66|313:60,1,55.0000016784668,10|0,0:0|3:0,0:0:0:0:
356,51,227608,5,6,3:2:0:0:
408,147,227924,1,10,0:0:0:0:
333,228,228240,1,10,0:0:0:0:
231,186,228555,1,10,0:0:0:0:
248,73,228871,2,0,P|205:51|127:62,1,110.000003356934,10|8,0:0|0:0,0:0:0:0:
98,81,229345,1,2,0:0:0:0:
98,81,229503,2,0,B|87:135|86:144|79:192,1,110.000003356934,0|8,3:0|0:0,0:0:0:0:
59,297,230134,5,6,3:2:0:0:
154,352,230450,1,10,0:0:0:0:
257,315,230766,2,0,P|312:323|369:303,1,110.000003356934,10|10,0:0|0:0,0:0:0:0:
428,218,231397,2,0,P|423:188|415:156,1,55.0000016784668,6|0,3:2|3:0,0:0:0:0:
405,109,231713,2,0,P|350:101|293:121,1,110.000003356934,10|10,0:0|0:0,0:0:0:0:
211,184,232345,1,10,0:0:0:0:
125,253,232661,6,0,P|70:261|13:241,1,110.000003356934,6|10,3:2|0:0,0:0:0:0:
19,134,233292,1,10,0:0:0:0:
96,56,233608,1,10,0:0:0:0:
203,79,233924,2,0,P|214:143|223:195,1,110.000003356934,6|10,3:2|0:0,0:0:0:0:
260,233,234397,1,2,0:0:0:0:
260,233,234555,2,0,P|254:265|250:291,2,55.0000016784668,10|8|8,0:0|3:0|3:0,0:0:0:0:
351,169,235187,5,12,0:2:0:0:
351,169,235345,2,0,P|388:183|461:166,1,110.000003356934,12|0,0:2|3:0,0:0:0:0:
505,143,235818,1,12,0:0:0:0:
505,143,235976,2,0,P|497:200|490:271,1,110.000003356934,12|0,0:0|3:0,0:0:0:0:
482,306,236450,1,12,0:0:0:0:
376,335,236766,2,0,P|345:328|319:323,1,55.0000016784668,2|0,0:0|1:0,0:0:0:0:
268,311,237082,2,0,P|213:331|155:318,1,110.000003356934,0|8,1:0|3:0,0:0:0:0:
74,258,237713,6,0,P|79:193|85:140,1,110.000003356934,12|0,0:0|1:2,0:0:0:0:
187,108,238345,2,0,P|220:114|245:117,1,55.0000016784668,12|12,1:2|1:2,0:0:0:0:
282,153,238661,2,0,P|315:147|340:144,1,55.0000016784668,0|0,1:0|1:0,0:0:0:0:
336,144,240253,6,0,P|357:194|350:251,1,99.9999999999999,6|8,3:2|0:0,0:0:0:0:
276,301,240884,2,0,P|281:329|286:355,2,50,0|0|8,3:0|3:0|0:0,0:0:0:0:
249,204,241516,1,0,3:0:0:0:
149,197,241831,1,8,0:0:0:0:
80,269,242147,2,0,P|85:297|90:323,2,50,0|0|8,3:0|3:0|0:0,0:0:0:0:
16,191,242779,6,0,P|8:141|36:84,1,99.9999999999999,0|8,3:0|0:0,0:0:0:0:
117,56,243410,2,0,P|113:33|106:8,2,50,0|0|8,3:0|3:0|0:0,0:0:0:0:
202,109,244042,2,0,P|249:122|297:109,1,99.9999999999999,0|8,3:0|0:0,0:0:0:0:
397,108,244674,2,0,P|404:138|408:160,1,50,8|0,0:0|3:0,0:0:0:0:
440,194,244989,2,0,P|433:224|429:246,1,50,8|0,0:0|3:0,0:0:0:0:
396,280,245305,6,0,P|422:324|427:380,2,99.9999999999999,12|8|8,0:0|0:0|0:0,0:0:0:0:
306,234,246253,2,0,P|260:241|242:244,1,50,8|0,0:0|3:0,0:0:0:0:
217,272,246568,2,0,P|159:263|105:257,1,99.9999999999999,12|8,0:0|0:0,0:0:0:0:
44,193,247200,1,8,0:0:0:0:
129,141,247516,2,0,P|135:115|142:86,1,50,8|0,0:0|3:0,0:0:0:0:
149,43,247831,6,0,P|98:22|39:36,2,99.9999999999999,12|8|8,0:0|0:0|0:0,0:0:0:0:
240,84,248779,2,0,P|279:79|311:74,1,50,8|0,0:0|3:0,0:0:0:0:
339,69,249095,2,0,P|331:120|354:174,1,99.9999999999999,12|8,0:0|0:0,0:0:0:0:
416,237,249726,1,6,3:2:0:0:
348,310,250042,2,0,P|309:304|284:299,1,50,8|8,0:0|0:0,0:0:0:0:
249,291,250358,6,0,P|200:317|147:313,2,99.9999999999999,6|8|0,3:2|0:0|3:2,0:0:0:0:
179,218,251305,1,8,0:0:0:0:
80,236,251621,2,0,P|71:172|66:130,1,99.9999999999999,0|8,3:0|0:0,0:0:0:0:
142,71,252253,2,0,P|146:39|149:18,2,50,0|0|8,3:0|3:0|0:0,0:0:0:0:
218,135,252884,6,0,P|263:148|316:142,1,99.9999999999999,0|8,3:0|0:0,0:0:0:0:
404,96,253516,1,0,3:0:0:0:
470,170,253831,1,8,0:0:0:0:
432,262,254147,2,0,P|374:269|319:279,1,99.9999999999999,0|8,3:0|0:0,0:0:0:0:
233,285,254779,2,0,P|222:250|217:226,1,50,8|0,0:0|3:0,0:0:0:0:
196,192,255095,2,0,P|207:157|212:133,1,50,4|4,3:0|3:0,0:0:0:0:
216,94,255410,6,0,P|262:99|319:74,2,99.9999999999999,12|8|8,0:0|0:0|0:0,0:0:0:0:
125,51,256358,2,0,P|94:57|75:61,1,50,8|0,0:0|3:0,0:0:0:0:
25,62,256674,2,0,P|15:130|9:179,1,99.9999999999999,12|8,0:0|0:0,0:0:0:0:
0,260,257305,1,8,0:0:0:0:
70,330,257621,2,0,P|105:337|135:332,1,50,8|0,0:0|3:0,0:0:0:0:
168,324,257937,6,0,P|155:272|169:226,2,99.9999999999999,12|0|4,0:0|3:0|3:0,0:0:0:0:
260,362,258884,2,0,P|285:355|315:351,1,50,8|8,0:0|0:0,0:0:0:0:
359,349,259200,2,0,P|406:361|454:348,1,99.9999999999999,8|4,3:0|3:0,0:0:0:0:
506,262,259831,2,0,P|501:236|496:200,1,50,8|8,0:0|0:0,0:0:0:0:
466,173,260147,2,0,P|470:147|479:96,1,74.9999999999999,8|2,0:0|0:0,0:0:0:0:
