osu file format v14

[General]
AudioFilename: audio.mp3
AudioLeadIn: 0
PreviewTime: 59214
Countdown: 0
SampleSet: Soft
StackLeniency: 0.7
Mode: 3
LetterboxInBreaks: 0
SpecialStyle: 0
WidescreenStoryboard: 0

[Editor]
DistanceSpacing: 0.3
BeatDivisor: 4
GridSize: 32
TimelineZoom: 1.9

[Metadata]
Title:Kakurenbo
TitleUnicode:かくれんぼ
Artist:AliA
ArtistUnicode:AliA
Creator:Yuiazu-
Version:Memories
Source:
Tags:SuzumeAyase ML-ysg japanese jrock rock j-rock band alive ayame eren tkt rina seiya bob アリア aria hide and seek
BeatmapID:4041815
BeatmapSetID:1951908

[Difficulty]
HPDrainRate:8.5
CircleSize:4
OverallDifficulty:8
ApproachRate:5
SliderMultiplier:1.4
SliderTickRate:1

[Events]
//Background and Video events
0,0,"105114285_p0.jpg",0,0
//Break Periods
//Storyboard Layer 0 (Background)
//Storyboard Layer 1 (Fail)
//Storyboard Layer 2 (Pass)
//Storyboard Layer 3 (Foreground)
//Storyboard Layer 4 (Overlay)
//Storyboard Sound Samples

[TimingPoints]
715,333.333333333333,4,2,1,50,1,0
59381,-100.0,4,2,1,50,0,1
90048,-100.0,4,2,1,50,0,0
139381,-100.0,4,2,1,50,0,1
160714,-100.0,4,2,1,50,0,0
223381,-71.4285714285714,4,2,1,50,0,0
223464,-142.857142857143,4,2,1,50,0,0
223631,-71.4285714285714,4,2,1,50,0,0
223714,-142.857142857143,4,2,1,50,0,0
223881,-71.4285714285714,4,2,1,50,0,0
223964,-142.857142857143,4,2,1,50,0,0
224048,-71.4285714285714,4,2,1,50,0,0
224131,-142.857142857143,4,2,1,50,0,0
224298,-71.4285714285714,4,2,1,50,0,0
224381,-142.857142857143,4,2,1,50,0,0
224548,-71.4285714285714,4,2,1,50,0,0
224631,-142.857142857143,4,2,1,50,0,0
224714,-100.0,4,2,1,50,0,0
227381,-100.0,4,2,1,50,0,1
264714,-100.0,4,2,1,50,0,0

[HitObjects]
64,192,715,128,0,1381:0:0:0:0:
448,192,715,128,0,1048:0:0:0:0:
192,192,1048,128,0,1381:0:0:0:0:
320,192,1381,128,0,1714:0:0:0:0:
448,192,1381,128,0,2048:0:0:0:0:
64,192,1714,128,0,1798:0:0:0:0:
64,192,1881,128,0,2048:0:0:0:0:
192,192,2048,128,0,2714:0:0:0:0:
320,192,2048,128,0,2131:0:0:0:0:
320,192,2214,128,0,2381:0:0:0:0:
64,192,2381,128,0,2714:0:0:0:0:
448,192,2548,128,0,2631:0:0:0:0:
320,192,2714,128,0,3381:0:0:0:0:
448,192,2714,128,0,2881:0:0:0:0:
64,192,3048,128,0,3298:0:0:0:0:
64,192,3381,128,0,3964:0:0:0:0:
448,192,3381,128,0,3714:0:0:0:0:
192,192,3714,128,0,3964:0:0:0:0:
320,192,4048,128,0,4298:0:0:0:0:
448,192,4048,128,0,4548:0:0:0:0:
64,192,4381,1,0,0:0:0:0:
192,192,4381,128,0,4548:0:0:0:0:
64,192,4714,128,0,5048:0:0:0:0:
448,192,4714,128,0,5381:0:0:0:0:
320,192,5048,1,0,0:0:0:0:
192,192,5214,128,0,5381:0:0:0:0:
64,192,5381,128,0,5631:0:0:0:0:
320,192,5381,128,0,5548:0:0:0:0:
320,192,5714,1,0,0:0:0:0:
448,192,5714,128,0,5881:0:0:0:0:
192,192,5881,128,0,6048:0:0:0:0:
64,192,6048,1,2,0:0:0:0:
320,192,6048,1,8,0:0:0:0:
448,192,6048,1,4,0:0:0:0:
192,192,6381,1,2,0:0:0:0:
448,192,6381,1,8,0:0:0:0:
64,192,6464,1,0,0:0:0:15:Snare.wav
320,192,6548,1,0,0:0:0:15:Snare.wav
192,192,6631,1,0,0:0:0:15:Snare.wav
64,192,6714,1,2,0:0:0:0:
448,192,6714,1,8,0:0:0:0:
320,192,6798,1,0,0:0:0:15:Snare.wav
192,192,6881,1,0,0:0:0:15:Snare.wav
320,192,6964,1,0,0:0:0:15:Snare.wav
64,192,7048,1,2,0:0:0:0:
448,192,7048,1,8,0:0:0:0:
192,192,7131,1,0,0:0:0:15:Snare.wav
320,192,7214,1,0,0:0:0:15:Snare.wav
192,192,7298,1,0,0:0:0:15:Snare.wav
64,192,7381,1,2,0:0:0:0:
320,192,7381,1,8,0:0:0:0:
448,192,7381,1,0,0:0:0:0:
192,192,7464,1,0,0:0:0:25:Snare.wav
448,192,7548,1,0,0:0:0:25:Snare.wav
320,192,7631,1,0,0:0:0:25:Snare.wav
64,192,7714,1,2,0:0:0:0:
192,192,7714,1,8,0:0:0:0:
448,192,7714,1,0,0:0:0:0:
320,192,7798,1,0,0:0:0:25:Snare.wav
64,192,7881,1,0,0:0:0:25:Snare.wav
192,192,7964,1,0,0:0:0:25:Snare.wav
64,192,8048,1,8,0:0:0:0:
320,192,8048,1,2,0:0:0:0:
448,192,8048,1,0,0:0:0:0:
192,192,8131,1,0,0:0:0:35:Snare.wav
448,192,8214,1,0,0:0:0:35:Snare.wav
320,192,8298,1,0,0:0:0:35:Snare.wav
64,192,8381,1,8,0:0:0:0:
192,192,8381,1,2,0:0:0:0:
448,192,8381,1,0,0:0:0:0:
320,192,8464,1,0,0:0:0:35:Snare.wav
192,192,8548,1,0,0:0:0:35:Snare.wav
448,192,8631,1,0,0:0:0:35:Snare.wav
64,192,8714,1,2,0:0:0:0:
192,192,8714,1,8,0:0:0:0:
320,192,8714,1,0,0:0:0:0:
448,192,8798,1,0,0:0:0:35:Snare.wav
64,192,8881,1,0,0:0:0:35:Snare.wav
192,192,8964,1,0,0:0:0:35:Snare.wav
64,192,9048,1,2,0:0:0:0:
320,192,9048,1,8,0:0:0:0:
448,192,9048,1,0,0:0:0:0:
192,192,9131,1,0,0:0:0:35:Snare.wav
320,192,9214,1,0,0:0:0:35:Snare.wav
64,192,9298,1,0,0:0:0:35:Snare.wav
192,192,9381,1,8,0:0:0:0:
320,192,9381,1,2,0:0:0:0:
448,192,9381,1,0,0:0:0:0:
64,192,9464,1,0,0:0:0:35:Snare.wav
192,192,9548,1,0,0:0:0:35:Snare.wav
448,192,9548,1,0,0:0:0:0:
320,192,9631,1,0,0:0:0:35:Snare.wav
64,192,9714,1,8,0:0:0:0:
192,192,9714,1,2,0:0:0:0:
448,192,9714,1,0,0:0:0:0:
320,192,9798,1,0,0:0:0:35:Snare.wav
64,192,9881,1,0,0:0:0:35:Snare.wav
320,192,9964,1,8,0:0:0:0:
448,192,9964,1,0,0:0:0:0:
64,192,10048,1,2,0:0:0:0:
192,192,10048,1,0,0:0:0:0:
192,192,10548,128,0,10631:0:0:0:0:
192,192,10714,128,0,11048:0:0:0:0:
448,192,10714,128,0,10964:0:0:0:0:
64,192,11048,128,0,11214:0:0:0:0:
448,192,11048,128,0,11298:0:0:0:0:
320,192,11214,128,0,11298:0:0:0:0:
64,192,11381,128,2,11548:0:0:0:0:
320,192,11381,1,4,0:0:0:0:
448,192,11381,1,0,0:0:0:0:
320,192,11548,128,0,11714:0:0:0:0:
64,192,11714,1,8,0:0:0:0:
192,192,11714,128,0,11964:0:0:0:60:Hat Open.wav
448,192,11714,1,0,0:0:0:0:
320,192,11881,1,0,0:0:0:0:
192,192,12048,1,2,0:0:0:0:
448,192,12048,128,0,12298:0:0:0:60:Hat Open.wav
64,192,12214,1,2,0:0:0:0:
320,192,12214,1,0,0:0:0:0:
64,192,12381,128,8,12631:0:0:0:0:
192,192,12381,1,0,0:0:0:60:Hat Open.wav
448,192,12381,1,0,0:0:0:0:
320,192,12548,1,0,0:0:0:0:
64,192,12714,1,2,0:0:0:0:
448,192,12714,128,0,12964:0:0:0:60:Hat Open.wav
192,192,12881,1,0,0:0:0:0:
64,192,13048,1,8,0:0:0:0:
320,192,13048,128,0,13298:0:0:0:60:Hat Open.wav
448,192,13048,1,0,0:0:0:0:
192,192,13214,1,0,0:0:0:0:
64,192,13381,128,2,13548:0:0:0:0:
320,192,13381,1,0,0:0:0:60:Hat Open.wav
192,192,13548,1,2,0:0:0:0:
448,192,13548,128,0,13714:0:0:0:0:
64,192,13714,1,8,0:0:0:0:
192,192,13714,128,0,13964:0:0:0:60:Hat Open.wav
320,192,13714,1,0,0:0:0:0:
448,192,13881,1,0,0:0:0:0:
192,192,14048,1,2,0:0:0:0:
320,192,14048,128,0,14159:0:0:0:60:Hat Open.wav
64,192,14159,128,0,14270:0:0:0:0:
320,192,14270,128,0,14381:0:0:0:0:
64,192,14381,128,8,14631:0:0:0:0:
192,192,14381,1,0,0:0:0:60:Hat Open.wav
448,192,14381,1,0,0:0:0:0:
320,192,14548,1,0,0:0:0:0:
64,192,14714,1,2,0:0:0:0:
448,192,14714,128,0,14964:0:0:0:60:Hat Open.wav
192,192,14881,1,2,0:0:0:0:
320,192,14881,1,0,0:0:0:0:
64,192,15048,1,8,0:0:0:0:
192,192,15048,128,0,15298:0:0:0:60:Hat Open.wav
448,192,15048,1,0,0:0:0:0:
320,192,15214,1,0,0:0:0:0:
192,192,15381,1,2,0:0:0:0:
448,192,15381,128,0,15631:0:0:0:60:Hat Open.wav
64,192,15548,1,0,0:0:0:0:
192,192,15714,1,8,0:0:0:0:
320,192,15714,128,0,15881:0:0:0:60:Hat Open.wav
448,192,15714,1,0,0:0:0:0:
64,192,15881,1,2,0:0:0:0:
192,192,15881,128,0,16048:0:0:0:0:
64,192,16048,128,8,16214:0:0:0:0:
320,192,16048,1,0,0:0:0:60:Hat Open.wav
448,192,16048,1,0,0:0:0:0:
192,192,16214,1,2,0:0:0:0:
448,192,16214,1,0,0:0:0:0:
64,192,16381,1,8,0:0:0:0:
320,192,16381,1,0,0:0:0:60:Hat Open.wav
448,192,16381,128,0,16714:0:0:0:0:
64,192,16714,128,4,17381:0:0:0:0:
192,192,16714,1,2,0:0:0:0:
320,192,16714,1,0,0:0:0:0:
448,192,16881,1,0,0:0:0:0:
192,192,17048,1,8,0:0:0:0:
320,192,17048,1,0,0:0:0:60:Hat Open.wav
448,192,17048,1,0,0:0:0:0:
192,192,17214,1,0,0:0:0:0:
320,192,17381,128,2,18048:0:0:0:0:
448,192,17381,1,0,0:0:0:60:Hat Open.wav
64,192,17548,1,2,0:0:0:0:
192,192,17548,1,0,0:0:0:0:
64,192,17714,1,8,0:0:0:0:
192,192,17714,1,0,0:0:0:60:Hat Open.wav
448,192,17714,1,0,0:0:0:0:
448,192,17881,1,0,0:0:0:0:
64,192,18048,1,2,0:0:0:0:
192,192,18048,128,0,18714:0:0:0:60:Hat Open.wav
320,192,18214,1,0,0:0:0:0:
64,192,18381,1,8,0:0:0:0:
320,192,18381,1,0,0:0:0:60:Hat Open.wav
448,192,18381,1,0,0:0:0:0:
64,192,18548,1,0,0:0:0:0:
320,192,18714,1,2,0:0:0:0:
448,192,18714,128,0,19381:0:0:0:60:Hat Open.wav
64,192,18881,1,2,0:0:0:0:
192,192,18881,1,0,0:0:0:0:
64,192,19048,1,8,0:0:0:0:
192,192,19048,1,0,0:0:0:60:Hat Open.wav
320,192,19048,1,0,0:0:0:0:
320,192,19214,1,0,0:0:0:0:
64,192,19381,128,2,20048:0:0:0:0:
192,192,19381,1,0,0:0:0:60:Hat Open.wav
448,192,19548,1,0,0:0:0:0:
192,192,19714,1,8,0:0:0:0:
320,192,19714,1,0,0:0:0:60:Hat Open.wav
448,192,19714,1,0,0:0:0:0:
320,192,19881,1,0,0:0:0:0:
192,192,20048,1,2,0:0:0:0:
448,192,20048,128,0,20714:0:0:0:60:Hat Open.wav
64,192,20214,1,2,0:0:0:0:
320,192,20214,1,0,0:0:0:0:
64,192,20381,1,8,0:0:0:0:
192,192,20381,1,0,0:0:0:60:Hat Open.wav
320,192,20381,1,0,0:0:0:0:
192,192,20548,1,0,0:0:0:0:
64,192,20714,128,2,21381:0:0:0:0:
320,192,20714,1,0,0:0:0:60:Hat Open.wav
192,192,20881,1,2,0:0:0:0:
448,192,20881,1,0,0:0:0:0:
192,192,21048,1,8,0:0:0:0:
320,192,21048,1,0,0:0:0:60:Hat Open.wav
448,192,21048,1,0,0:0:0:0:
320,192,21214,1,0,0:0:0:35:Snare.wav
192,192,21381,1,8,0:0:0:0:
320,192,21381,1,0,0:0:0:0:
448,192,21381,1,0,0:0:0:0:
64,192,21464,1,0,0:0:0:35:Snare.wav
448,192,21548,1,0,0:0:0:35:Snare.wav
64,192,21631,1,0,0:0:0:35:Snare.wav
192,192,21631,1,0,0:0:0:0:
320,192,21714,1,8,0:0:0:0:
448,192,21714,1,0,0:0:0:0:
64,192,21798,1,0,0:0:0:50:Tom3.wav
192,192,21881,1,0,0:0:0:50:Tom3.wav
320,192,21964,1,0,0:0:0:50:Tom3.wav
64,192,22048,128,2,22214:0:0:0:0:
192,192,22048,1,4,0:0:0:0:
448,192,22048,1,0,0:0:0:0:
320,192,22214,128,0,22298:0:0:0:0:
64,192,22381,1,2,0:0:0:0:
320,192,22381,128,0,22548:0:0:0:0:
192,192,22548,128,0,22714:0:0:0:50:Tom1.wav
448,192,22548,1,0,0:0:0:0:
64,192,22714,1,2,0:0:0:0:
448,192,22714,128,0,22881:0:0:0:0:
64,192,22881,128,0,22964:0:0:0:50:Tom2.wav
320,192,22881,1,0,0:0:0:0:
64,192,23048,128,2,23131:0:0:0:0:
448,192,23048,1,0,0:0:0:50:Tom3.wav
192,192,23214,1,0,0:0:0:50:Tom3.wav
320,192,23214,128,0,23381:0:0:0:0:
64,192,23381,1,4,0:0:0:0:
192,192,23381,128,2,23631:0:0:0:0:
448,192,23381,1,0,0:0:0:0:
192,192,23714,1,2,0:0:0:0:
448,192,23714,1,0,0:0:0:0:
64,192,23881,1,0,0:0:0:50:Tom3.wav
320,192,23881,1,0,0:0:0:0:
192,192,23964,1,0,0:0:0:50:Tom3.wav
320,192,24048,128,2,24298:0:0:0:0:
448,192,24048,1,0,0:0:0:50:Tom3.wav
64,192,24214,1,0,0:0:0:0:
192,192,24381,128,2,24631:0:0:0:0:
320,192,24381,1,0,0:0:0:50:Tom2.wav
64,192,24548,1,0,0:0:0:50:Tom2.wav
448,192,24548,1,0,0:0:0:0:
64,192,24714,128,4,24964:0:0:0:0:
192,192,24714,1,2,0:0:0:0:
320,192,24714,1,0,0:0:0:0:
448,192,24881,1,0,0:0:0:0:
64,192,25048,1,2,0:0:0:0:
448,192,25048,128,0,25298:0:0:0:0:
192,192,25214,1,0,0:0:0:50:Tom1.wav
320,192,25214,1,0,0:0:0:0:
192,192,25381,128,2,25631:0:0:0:0:
448,192,25381,1,0,0:0:0:0:
64,192,25548,1,0,0:0:0:50:Tom2.wav
320,192,25548,1,0,0:0:0:0:
192,192,25714,1,2,0:0:0:0:
320,192,25714,128,0,25964:0:0:0:50:Tom3.wav
64,192,25881,1,0,0:0:0:0:
64,192,26048,1,2,0:0:0:0:
320,192,26048,1,4,0:0:0:0:
448,192,26048,128,0,26298:0:0:0:0:
192,192,26214,1,0,0:0:0:0:
64,192,26381,1,2,0:0:0:0:
448,192,26381,128,0,26631:0:0:0:0:
64,192,26548,1,8,0:0:0:0:
192,192,26548,1,0,0:0:0:60:Hat Open.wav
320,192,26548,1,0,0:0:0:0:
192,192,26714,128,2,26798:0:0:0:0:
448,192,26714,1,0,0:0:0:0:
64,192,26881,1,8,0:0:0:0:
320,192,26881,1,0,0:0:0:60:Hat Open.wav
448,192,26881,1,0,0:0:0:0:
192,192,27048,1,2,0:0:0:0:
320,192,27048,128,0,27131:0:0:0:0:
320,192,27214,128,0,27381:0:0:0:0:
64,192,27381,128,2,27548:0:0:0:0:
192,192,27381,1,4,0:0:0:0:
448,192,27381,1,8,0:0:0:0:
448,192,27548,128,0,27714:0:0:0:0:
64,192,27714,1,2,0:0:0:0:
192,192,27714,128,0,27798:0:0:0:0:
320,192,27881,128,0,28048:0:0:0:50:Tom1.wav
448,192,27881,1,0,0:0:0:0:
64,192,28048,128,2,28131:0:0:0:0:
192,192,28048,1,0,0:0:0:0:
192,192,28214,1,0,0:0:0:50:Tom2.wav
448,192,28214,128,0,28298:0:0:0:0:
64,192,28381,128,2,28464:0:0:0:0:
320,192,28381,1,0,0:0:0:50:Tom3.wav
192,192,28548,128,0,28714:0:0:0:50:Tom3.wav
448,192,28548,1,0,0:0:0:0:
64,192,28714,1,2,0:0:0:0:
320,192,28714,128,4,28964:0:0:0:0:
448,192,28714,1,0,0:0:0:0:
64,192,29048,1,2,0:0:0:0:
320,192,29048,1,0,0:0:0:50:Tom3.wav
192,192,29214,1,0,0:0:0:50:Tom3.wav
448,192,29214,128,0,29381:0:0:0:0:
64,192,29381,128,2,29548:0:0:0:0:
320,192,29381,1,0,0:0:0:50:Tom1.wav
192,192,29548,1,0,0:0:0:50:Tom2.wav
320,192,29548,1,0,0:0:0:0:
64,192,29714,1,2,0:0:0:0:
448,192,29714,1,0,0:0:0:50:Tom3.wav
192,192,29881,128,0,29964:0:0:0:50:Tom3.wav
320,192,29881,1,0,0:0:0:0:
64,192,30048,1,2,0:0:0:0:
192,192,30048,128,4,30298:0:0:0:0:
448,192,30048,1,0,0:0:0:0:
192,192,30381,1,2,0:0:0:0:
448,192,30381,1,0,0:0:0:0:
64,192,30548,1,0,0:0:0:50:Tom1.wav
320,192,30548,128,0,30631:0:0:0:0:
192,192,30714,1,2,0:0:0:0:
320,192,30714,128,0,30881:0:0:0:0:
64,192,30881,1,0,0:0:0:50:Tom3.wav
448,192,30881,1,0,0:0:0:0:
192,192,31048,1,2,0:0:0:0:
320,192,31048,1,0,0:0:0:50:Tom3.wav
64,192,31214,1,0,0:0:0:50:Tom3.wav
448,192,31214,128,0,31298:0:0:0:0:
448,192,31381,128,0,31548:0:0:0:0:
320,192,31464,128,0,31548:0:0:0:0:
64,192,31548,128,0,31714:0:0:0:0:
192,192,31548,128,0,31631:0:0:0:0:
320,192,31714,128,0,31881:0:0:0:0:
448,192,31714,128,0,31798:0:0:0:0:
64,192,31881,128,0,31964:0:0:0:0:
192,192,31881,128,0,32048:0:0:0:0:
320,192,32048,128,0,32131:0:0:0:0:
448,192,32048,128,0,32214:0:0:0:0:
64,192,32214,128,0,32381:0:0:0:0:
192,192,32214,128,0,32298:0:0:0:0:
320,192,32381,128,0,32548:0:0:0:0:
448,192,32381,128,0,32464:0:0:0:0:
64,192,32548,128,0,32631:0:0:0:0:
64,192,32714,1,2,0:0:0:0:
320,192,32714,128,4,32964:0:0:0:0:
448,192,32714,128,0,32964:0:0:0:0:
64,192,33048,1,8,0:0:0:0:
320,192,33048,1,0,0:0:0:60:Hat Open.wav
448,192,33048,1,0,0:0:0:0:
192,192,33214,128,0,33464:0:0:0:0:
64,192,33381,1,2,0:0:0:0:
448,192,33381,1,0,0:0:0:40:Hat Close.wav
192,192,33548,1,2,0:0:0:0:
448,192,33548,1,0,0:0:0:0:
64,192,33714,1,8,0:0:0:0:
192,192,33714,1,0,0:0:0:40:Hat Close.wav
320,192,33714,128,0,33964:0:0:0:0:
448,192,33881,1,0,0:0:0:0:
64,192,34048,128,2,34298:0:0:0:0:
320,192,34048,1,0,0:0:0:40:Hat Close.wav
192,192,34214,1,2,0:0:0:0:
320,192,34214,1,0,0:0:0:0:
64,192,34381,1,8,0:0:0:0:
192,192,34381,1,0,0:0:0:40:Hat Close.wav
448,192,34381,128,0,34548:0:0:0:0:
64,192,34548,1,2,0:0:0:0:
320,192,34548,1,0,0:0:0:0:
192,192,34714,128,0,34881:0:0:0:40:Hat Close.wav
320,192,34881,1,2,0:0:0:0:
448,192,34881,1,0,0:0:0:0:
64,192,35048,1,8,0:0:0:0:
192,192,35048,1,0,0:0:0:40:Hat Close.wav
448,192,35048,128,0,35298:0:0:0:0:
192,192,35214,1,0,0:0:0:0:
64,192,35381,128,2,35631:0:0:0:0:
448,192,35381,1,0,0:0:0:40:Hat Close.wav
448,192,35548,1,0,0:0:0:0:
64,192,35714,1,8,0:0:0:0:
192,192,35714,1,0,0:0:0:40:Hat Close.wav
320,192,35714,128,0,35964:0:0:0:0:
64,192,35881,1,0,0:0:0:0:
192,192,36048,128,2,36298:0:0:0:0:
320,192,36048,1,0,0:0:0:40:Hat Close.wav
320,192,36214,1,2,0:0:0:0:
448,192,36214,1,0,0:0:0:0:
64,192,36381,1,8,0:0:0:0:
192,192,36381,1,0,0:0:0:40:Hat Close.wav
448,192,36381,128,0,36631:0:0:0:0:
64,192,36548,1,0,0:0:0:0:
192,192,36714,128,2,36964:0:0:0:0:
448,192,36714,1,0,0:0:0:40:Hat Close.wav
64,192,36881,1,2,0:0:0:0:
448,192,36881,1,0,0:0:0:0:
64,192,37048,1,8,0:0:0:0:
192,192,37048,1,0,0:0:0:40:Hat Close.wav
320,192,37048,1,0,0:0:0:0:
320,192,37214,1,2,0:0:0:0:
448,192,37214,1,0,0:0:0:0:
192,192,37381,128,0,37464:0:0:0:40:Hat Close.wav
64,192,37548,1,2,0:0:0:0:
320,192,37548,1,0,0:0:0:0:
64,192,37714,1,8,0:0:0:0:
192,192,37714,1,0,0:0:0:40:Hat Close.wav
448,192,37714,128,0,37798:0:0:0:0:
448,192,37881,128,0,38048:0:0:0:0:
64,192,38048,128,2,38298:0:0:0:0:
192,192,38048,1,0,0:0:0:60:Hat Open.wav
320,192,38048,1,0,0:0:0:0:
320,192,38214,128,0,38381:0:0:0:0:
64,192,38381,1,8,0:0:0:0:
192,192,38381,1,0,0:0:0:40:Hat Close.wav
448,192,38381,128,0,38548:0:0:0:0:
192,192,38548,128,0,38631:0:0:0:0:
192,192,38714,128,0,38881:0:0:0:40:Hat Close.wav
64,192,38881,1,2,0:0:0:0:
320,192,38881,128,0,39048:0:0:0:0:
64,192,39048,128,8,39298:0:0:0:0:
192,192,39048,1,0,0:0:0:40:Hat Close.wav
448,192,39048,1,0,0:0:0:0:
320,192,39214,1,0,0:0:0:0:
64,192,39381,1,2,0:0:0:0:
448,192,39381,128,0,39631:0:0:0:40:Hat Close.wav
64,192,39548,1,2,0:0:0:0:
320,192,39548,1,0,0:0:0:0:
192,192,39714,1,8,0:0:0:0:
320,192,39714,1,0,0:0:0:40:Hat Close.wav
448,192,39714,1,0,0:0:0:0:
64,192,39881,1,2,0:0:0:0:
192,192,39881,128,0,39964:0:0:0:0:
320,192,40048,128,0,40131:0:0:0:40:Hat Close.wav
64,192,40214,1,2,0:0:0:0:
448,192,40214,1,0,0:0:0:0:
64,192,40381,1,8,0:0:0:0:
192,192,40381,128,0,40631:0:0:0:40:Hat Close.wav
320,192,40381,1,0,0:0:0:0:
448,192,40548,1,0,0:0:0:0:
192,192,40714,1,2,0:0:0:0:
320,192,40714,128,0,40964:0:0:0:40:Hat Close.wav
64,192,40881,1,0,0:0:0:0:
192,192,41048,1,8,0:0:0:0:
320,192,41048,1,0,0:0:0:40:Hat Close.wav
448,192,41048,128,0,41298:0:0:0:0:
64,192,41214,1,0,0:0:0:0:
192,192,41381,128,0,41631:0:0:0:40:Hat Close.wav
448,192,41381,1,0,0:0:0:0:
64,192,41548,1,2,0:0:0:0:
448,192,41548,1,0,0:0:0:0:
64,192,41714,1,8,0:0:0:0:
192,192,41714,1,0,0:0:0:40:Hat Close.wav
320,192,41714,128,0,41964:0:0:0:0:
448,192,41881,1,0,0:0:0:0:
64,192,42048,128,2,42298:0:0:0:0:
320,192,42048,1,0,0:0:0:40:Hat Close.wav
192,192,42214,1,2,0:0:0:0:
320,192,42214,1,0,0:0:0:0:
64,192,42381,1,8,0:0:0:0:
192,192,42381,1,0,0:0:0:60:Hat Open.wav
448,192,42381,1,0,0:0:0:0:
320,192,42548,1,2,0:0:0:0:
448,192,42548,128,0,42631:0:0:0:0:
64,192,42714,1,8,0:0:0:0:
192,192,42714,128,0,42881:0:0:0:0:
320,192,42714,1,0,0:0:0:0:
64,192,42881,1,2,0:0:0:0:
448,192,42881,1,0,0:0:0:50:Tom2.wav
192,192,43048,1,0,0:0:0:50:Tom2.wav
320,192,43048,128,0,43214:0:0:0:0:
64,192,43214,128,2,43381:0:0:0:0:
448,192,43214,1,0,0:0:0:50:Tom3.wav
192,192,43381,1,2,0:0:0:0:
320,192,43381,128,4,43548:0:0:0:0:
448,192,43381,128,0,43881:0:0:0:0:
64,192,43548,128,0,43714:0:0:0:0:
192,192,43714,128,0,43798:0:0:0:0:
192,192,43881,128,0,44214:0:0:0:0:
320,192,44048,128,0,44214:0:0:0:0:
448,192,44048,1,0,0:0:0:0:
64,192,44381,1,0,0:0:0:0:
448,192,44381,128,0,44464:0:0:0:0:
448,192,44548,128,0,44714:0:0:0:0:
64,192,44714,128,2,45214:0:0:0:0:
192,192,44714,1,4,0:0:0:0:
320,192,44714,128,0,44798:0:0:0:0:
320,192,44881,128,0,45048:0:0:0:0:
192,192,45048,128,0,45214:0:0:0:0:
448,192,45214,128,0,45548:0:0:0:0:
64,192,45381,1,0,0:0:0:0:
320,192,45381,128,0,45548:0:0:0:0:
64,192,45714,128,0,45798:0:0:0:0:
448,192,45714,1,0,0:0:0:0:
64,192,45881,128,0,46048:0:0:0:0:
192,192,46048,128,4,46131:0:0:0:0:
320,192,46048,1,2,0:0:0:0:
448,192,46048,128,0,46548:0:0:0:0:
192,192,46214,128,0,46381:0:0:0:0:
320,192,46381,128,0,46548:0:0:0:0:
64,192,46548,128,0,46881:0:0:0:0:
192,192,46714,128,0,46881:0:0:0:0:
448,192,46714,1,0,0:0:0:0:
64,192,47048,1,0,0:0:0:0:
448,192,47048,128,0,47131:0:0:0:0:
448,192,47214,128,0,47381:0:0:0:0:
64,192,47381,128,4,47881:0:0:0:0:
192,192,47381,128,2,47548:0:0:0:0:
320,192,47381,1,0,0:0:0:0:
448,192,47548,128,0,47714:0:0:0:0:
192,192,47714,1,2,0:0:0:0:
320,192,47714,128,0,47798:0:0:0:50:Tom3.wav
320,192,47881,128,0,48214:0:0:0:50:Tom1.wav
64,192,48048,1,0,0:0:0:50:Tom2.wav
192,192,48048,128,0,48214:0:0:0:0:
64,192,48214,1,0,0:0:0:50:Tom2.wav
448,192,48214,1,0,0:0:0:0:
192,192,48381,128,0,48464:0:0:0:50:Tom3.wav
448,192,48381,1,0,0:0:0:0:
192,192,48548,128,0,48631:0:0:0:50:Tom3.wav
320,192,48548,1,0,0:0:0:0:
64,192,48714,128,4,48881:0:0:0:0:
192,192,48714,1,2,0:0:0:0:
448,192,48714,128,0,49214:0:0:0:0:
320,192,48881,128,0,49048:0:0:0:0:
64,192,49048,128,2,49131:0:0:0:0:
192,192,49048,1,0,0:0:0:50:Tom2.wav
64,192,49214,128,0,49548:0:0:0:0:
192,192,49381,128,2,49548:0:0:0:0:
448,192,49381,1,0,0:0:0:50:Tom2.wav
320,192,49548,1,0,0:0:0:50:Tom2.wav
192,192,49714,1,2,0:0:0:0:
448,192,49714,128,0,49881:0:0:0:50:Tom2.wav
64,192,49881,128,0,50048:0:0:0:50:Tom2.wav
320,192,49881,1,0,0:0:0:0:
192,192,50048,128,2,50548:0:0:0:0:
320,192,50048,1,4,0:0:0:0:
448,192,50048,128,0,50131:0:0:0:0:
448,192,50214,128,0,50381:0:0:0:0:
64,192,50381,128,2,50548:0:0:0:0:
320,192,50381,1,0,0:0:0:50:Tom2.wav
320,192,50548,128,0,50881:0:0:0:0:
448,192,50631,1,0,0:0:0:50:Tom2.wav
64,192,50714,1,2,0:0:0:0:
192,192,50714,128,0,50881:0:0:0:50:Tom2.wav
448,192,50881,1,0,0:0:0:50:Tom2.wav
64,192,51048,128,2,51131:0:0:0:0:
320,192,51048,1,0,0:0:0:50:Tom3.wav
64,192,51214,128,0,51381:0:0:0:50:Tom3.wav
448,192,51214,1,0,0:0:0:0:
192,192,51381,1,2,0:0:0:0:
320,192,51381,128,4,51464:0:0:0:0:
448,192,51381,128,0,51881:0:0:0:0:
320,192,51548,128,0,51714:0:0:0:0:
64,192,51714,128,2,52048:0:0:0:0:
192,192,51714,1,0,0:0:0:50:Tom3.wav
192,192,51881,128,0,52048:0:0:0:50:Tom3.wav
320,192,52048,1,2,0:0:0:0:
448,192,52048,128,0,52214:0:0:0:50:Tom3.wav
64,192,52214,1,0,0:0:0:50:Tom3.wav
192,192,52214,1,0,0:0:0:0:
64,192,52381,1,2,0:0:0:0:
320,192,52381,128,0,52464:0:0:0:50:Tom3.wav
192,192,52548,1,0,0:0:0:0:
320,192,52548,128,0,52714:0:0:0:0:
64,192,52714,1,4,0:0:0:0:
192,192,52714,1,2,0:0:0:0:
448,192,52714,1,0,0:0:0:0:
320,192,52881,1,0,0:0:0:50:Tom3.wav
448,192,52881,1,0,0:0:0:0:
64,192,53048,1,0,0:0:0:50:Tom3.wav
192,192,53048,1,0,0:0:0:0:
192,192,53214,1,8,0:0:0:0:
320,192,53214,1,0,0:0:0:60:Hat Open.wav
448,192,53214,1,0,0:0:0:0:
64,192,53381,1,0,0:0:0:50:Tom3.wav
448,192,53381,1,0,0:0:0:0:
64,192,53548,1,8,0:0:0:0:
192,192,53548,1,0,0:0:0:60:Hat Open.wav
320,192,53548,1,0,0:0:0:0:
192,192,53714,1,0,0:0:0:50:Tom2.wav
448,192,53714,1,0,0:0:0:0:
64,192,53881,1,0,0:0:0:50:Tom2.wav
320,192,53881,1,0,0:0:0:0:
192,192,54048,1,4,0:0:0:0:
320,192,54048,128,2,54298:0:0:0:0:
448,192,54048,1,0,0:0:0:0:
64,192,54381,128,2,54631:0:0:0:0:
320,192,54381,1,0,0:0:0:0:
192,192,54548,1,0,0:0:0:50:Tom1.wav
320,192,54548,1,0,0:0:0:0:
64,192,54714,1,2,0:0:0:0:
448,192,54714,128,0,54964:0:0:0:0:
192,192,54881,1,0,0:0:0:50:Tom2.wav
320,192,54881,1,0,0:0:0:0:
192,192,55048,128,2,55298:0:0:0:0:
448,192,55048,1,0,0:0:0:50:Tom2.wav
64,192,55214,1,0,0:0:0:0:
64,192,55381,1,4,0:0:0:0:
192,192,55381,1,8,0:0:0:0:
320,192,55381,128,2,55631:0:0:0:0:
448,192,55631,1,0,0:0:0:50:Tom2.wav
192,192,55714,1,0,0:0:0:50:Tom3.wav
320,192,55714,128,0,55964:0:0:0:0:
64,192,55881,1,0,0:0:0:50:Tom3.wav
448,192,55881,1,0,0:0:0:0:
192,192,56048,128,0,56214:0:0:0:50:Tom3.wav
320,192,56048,1,0,0:0:0:0:
64,192,56214,1,0,0:0:0:50:Tom2.wav
448,192,56214,1,0,0:0:0:0:
192,192,56381,1,0,0:0:0:50:Tom3.wav
448,192,56381,128,0,56631:0:0:0:0:
320,192,56548,1,0,0:0:0:0:
64,192,56714,128,2,56964:0:0:0:0:
192,192,56714,128,4,56964:0:0:0:0:
448,192,56714,128,8,56964:0:0:0:0:
64,192,57048,1,8,0:0:0:0:
192,192,57048,1,2,0:0:0:0:
320,192,57131,1,8,0:0:0:0:
448,192,57131,1,0,0:0:0:0:
64,192,57214,1,8,0:0:0:0:
192,192,57214,1,0,0:0:0:0:
320,192,57298,1,8,0:0:0:0:
448,192,57298,1,0,0:0:0:0:
64,192,57381,1,8,0:0:0:0:
192,192,57381,1,2,0:0:0:0:
320,192,57464,1,8,0:0:0:0:
448,192,57464,1,0,0:0:0:0:
64,192,57548,1,8,0:0:0:0:
192,192,57548,1,0,0:0:0:0:
320,192,57631,1,8,0:0:0:0:
448,192,57631,1,0,0:0:0:0:
64,192,57714,1,8,0:0:0:0:
192,192,57714,1,2,0:0:0:0:
320,192,57798,1,8,0:0:0:0:
448,192,57798,1,0,0:0:0:0:
64,192,57881,1,8,0:0:0:0:
192,192,57881,1,0,0:0:0:0:
448,192,58048,128,0,58964:0:0:0:0:
320,192,58548,128,0,58964:0:0:0:0:
64,192,58714,128,0,58964:0:0:0:0:
64,192,59381,128,2,59631:0:0:0:0:
192,192,59381,1,4,0:0:0:0:
448,192,59381,128,0,59631:0:0:0:0:
320,192,59548,1,0,0:0:0:0:
64,192,59714,1,8,0:0:0:0:
320,192,59714,128,0,59964:0:0:0:60:Hat Open.wav
448,192,59714,1,0,0:0:0:0:
192,192,59881,1,0,0:0:0:0:
64,192,60048,128,2,60298:0:0:0:0:
320,192,60048,1,0,0:0:0:60:Hat Open.wav
192,192,60214,1,2,0:0:0:0:
448,192,60214,1,0,0:0:0:0:
64,192,60381,1,8,0:0:0:0:
320,192,60381,128,0,60464:0:0:0:60:Hat Open.wav
448,192,60381,1,0,0:0:0:0:
192,192,60548,128,0,60714:0:0:0:0:
320,192,60714,1,2,0:0:0:0:
448,192,60714,128,0,60881:0:0:0:60:Hat Open.wav
64,192,60881,128,0,61048:0:0:0:0:
192,192,61048,1,8,0:0:0:0:
320,192,61048,128,0,61131:0:0:0:60:Hat Open.wav
448,192,61048,1,0,0:0:0:0:
320,192,61214,128,0,61381:0:0:0:0:
64,192,61381,1,2,0:0:0:0:
192,192,61381,128,0,61548:0:0:0:60:Hat Open.wav
320,192,61548,1,2,0:0:0:0:
448,192,61548,1,0,0:0:0:0:
64,192,61714,128,8,61964:0:0:0:0:
192,192,61714,1,0,0:0:0:60:Hat Open.wav
448,192,61714,1,0,0:0:0:0:
320,192,61881,1,0,0:0:0:0:
64,192,62048,1,2,0:0:0:0:
448,192,62048,128,0,62298:0:0:0:60:Hat Open.wav
192,192,62214,1,0,0:0:0:0:
64,192,62381,1,8,0:0:0:0:
320,192,62381,128,0,62631:0:0:0:60:Hat Open.wav
448,192,62381,1,0,0:0:0:0:
192,192,62548,1,0,0:0:0:0:
64,192,62714,128,2,62964:0:0:0:0:
320,192,62714,1,0,0:0:0:60:Hat Open.wav
192,192,62881,1,2,0:0:0:0:
448,192,62881,1,0,0:0:0:0:
64,192,63048,1,8,0:0:0:0:
192,192,63048,128,0,63298:0:0:0:60:Hat Open.wav
320,192,63048,1,0,0:0:0:0:
448,192,63214,1,0,0:0:0:0:
192,192,63381,128,2,63714:0:0:0:0:
320,192,63381,1,0,0:0:0:60:Hat Open.wav
64,192,63548,1,2,0:0:0:0:
448,192,63548,1,0,0:0:0:0:
64,192,63714,1,8,0:0:0:0:
320,192,63714,1,0,0:0:0:60:Hat Open.wav
448,192,63714,1,0,0:0:0:0:
192,192,63881,1,2,0:0:0:0:
320,192,63881,1,0,0:0:0:0:
64,192,64048,1,8,0:0:0:0:
192,192,64048,1,0,0:0:0:60:Hat Open.wav
448,192,64048,128,0,64214:0:0:0:0:
64,192,64214,1,2,0:0:0:0:
320,192,64214,1,0,0:0:0:0:
192,192,64381,1,8,0:0:0:0:
320,192,64381,1,0,0:0:0:60:Hat Open.wav
448,192,64381,1,0,0:0:0:0:
64,192,64548,128,0,64631:0:0:0:0:
64,192,64714,1,2,0:0:0:0:
320,192,64714,128,4,64964:0:0:0:0:
448,192,64714,1,0,0:0:0:0:
192,192,64881,1,0,0:0:0:0:
64,192,65048,128,8,65214:0:0:0:0:
320,192,65048,1,0,0:0:0:60:Hat Open.wav
448,192,65048,1,0,0:0:0:0:
192,192,65214,128,0,65298:0:0:0:0:
192,192,65381,128,2,65548:0:0:0:0:
320,192,65381,1,0,0:0:0:60:Hat Open.wav
64,192,65548,1,2,0:0:0:0:
448,192,65548,128,0,65714:0:0:0:0:
64,192,65714,1,8,0:0:0:0:
192,192,65714,1,0,0:0:0:60:Hat Open.wav
320,192,65714,1,0,0:0:0:0:
320,192,65881,128,0,66048:0:0:0:0:
64,192,66048,128,2,66214:0:0:0:0:
448,192,66048,1,0,0:0:0:60:Hat Open.wav
320,192,66214,128,0,66381:0:0:0:0:
64,192,66381,1,8,0:0:0:0:
192,192,66381,128,0,66548:0:0:0:60:Hat Open.wav
448,192,66381,1,0,0:0:0:0:
448,192,66548,128,0,66631:0:0:0:0:
192,192,66714,1,2,0:0:0:0:
448,192,66714,128,0,66881:0:0:0:60:Hat Open.wav
64,192,66881,128,2,67048:0:0:0:0:
320,192,66881,1,0,0:0:0:0:
192,192,67048,1,8,0:0:0:0:
320,192,67048,128,0,67298:0:0:0:60:Hat Open.wav
448,192,67048,1,0,0:0:0:0:
64,192,67214,1,0,0:0:0:0:
64,192,67381,128,2,67631:0:0:0:0:
320,192,67381,1,0,0:0:0:60:Hat Open.wav
192,192,67548,1,0,0:0:0:0:
64,192,67714,1,8,0:0:0:0:
320,192,67714,1,0,0:0:0:60:Hat Open.wav
448,192,67714,128,0,67964:0:0:0:0:
192,192,67881,1,0,0:0:0:0:
192,192,68048,128,2,68298:0:0:0:0:
448,192,68048,1,0,0:0:0:60:Hat Open.wav
64,192,68214,1,2,0:0:0:0:
320,192,68214,1,0,0:0:0:0:
64,192,68381,1,8,0:0:0:0:
192,192,68381,1,0,0:0:0:60:Hat Open.wav
448,192,68381,128,0,68548:0:0:0:0:
320,192,68548,128,0,68631:0:0:0:0:
64,192,68714,1,2,0:0:0:0:
320,192,68714,128,0,68964:0:0:0:60:Hat Open.wav
192,192,68881,1,0,0:0:0:0:
64,192,69048,1,8,0:0:0:0:
320,192,69048,1,0,0:0:0:60:Hat Open.wav
448,192,69048,1,0,0:0:0:0:
192,192,69214,128,0,69381:0:0:0:0:
320,192,69381,1,2,0:0:0:0:
448,192,69381,128,0,69548:0:0:0:60:Hat Open.wav
64,192,69548,1,8,0:0:0:0:
192,192,69548,1,0,0:0:0:0:
320,192,69631,1,8,0:0:0:0:
448,192,69631,1,0,0:0:0:0:
64,192,69714,1,8,0:0:0:0:
192,192,69714,1,0,0:0:0:0:
192,192,69881,1,8,0:0:0:0:
448,192,69881,1,0,0:0:0:0:
320,192,69964,1,8,0:0:0:0:
64,192,70048,128,4,70298:0:0:0:0:
192,192,70048,128,2,70298:0:0:0:0:
448,192,70048,1,0,0:0:0:0:
320,192,70214,1,0,0:0:0:0:
64,192,70381,1,8,0:0:0:0:
320,192,70381,1,0,0:0:0:60:Hat Open.wav
448,192,70381,128,0,70548:0:0:0:0:
192,192,70548,128,0,70714:0:0:0:0:
64,192,70714,1,2,0:0:0:0:
320,192,70714,128,0,70881:0:0:0:60:Hat Open.wav
192,192,70881,1,2,0:0:0:0:
448,192,70881,1,0,0:0:0:0:
64,192,71048,128,8,71214:0:0:0:0:
320,192,71048,1,0,0:0:0:60:Hat Open.wav
448,192,71048,1,0,0:0:0:0:
192,192,71214,128,0,71464:0:0:0:0:
320,192,71381,1,2,0:0:0:0:
448,192,71381,1,0,0:0:0:60:Hat Open.wav
192,192,71548,128,0,71714:0:0:0:0:
64,192,71714,1,8,0:0:0:0:
320,192,71714,1,0,0:0:0:60:Hat Open.wav
448,192,71714,128,0,71881:0:0:0:0:
192,192,71881,1,0,0:0:0:0:
64,192,72048,1,2,0:0:0:0:
448,192,72048,128,0,72214:0:0:0:60:Hat Open.wav
192,192,72214,1,2,0:0:0:0:
320,192,72214,1,0,0:0:0:0:
64,192,72381,128,8,72631:0:0:0:0:
192,192,72381,1,0,0:0:0:60:Hat Open.wav
448,192,72381,1,0,0:0:0:0:
320,192,72548,1,0,0:0:0:0:
64,192,72714,1,2,0:0:0:0:
448,192,72714,128,0,72881:0:0:0:60:Hat Open.wav
192,192,72881,1,0,0:0:0:0:
64,192,73048,1,8,0:0:0:0:
320,192,73048,128,0,73214:0:0:0:60:Hat Open.wav
448,192,73048,1,0,0:0:0:0:
192,192,73214,128,0,73381:0:0:0:0:
448,192,73381,128,0,73548:0:0:0:60:Hat Open.wav
64,192,73548,1,2,0:0:0:0:
192,192,73548,1,0,0:0:0:0:
64,192,73714,128,8,73881:0:0:0:0:
320,192,73714,1,0,0:0:0:60:Hat Open.wav
448,192,73714,1,0,0:0:0:0:
320,192,73881,128,0,74131:0:0:0:0:
192,192,74048,1,2,0:0:0:0:
448,192,74048,1,0,0:0:0:60:Hat Open.wav
64,192,74214,1,2,0:0:0:0:
320,192,74214,128,0,74381:0:0:0:0:
64,192,74381,128,8,74548:0:0:0:0:
192,192,74381,1,0,0:0:0:60:Hat Open.wav
448,192,74381,1,0,0:0:0:0:
320,192,74548,1,2,0:0:0:0:
448,192,74548,1,0,0:0:0:0:
64,192,74714,128,0,74881:0:0:0:60:Hat Open.wav
192,192,74881,1,2,0:0:0:0:
320,192,74881,1,0,0:0:0:0:
64,192,75048,1,8,0:0:0:0:
320,192,75048,1,0,0:0:0:60:Hat Open.wav
448,192,75048,1,0,0:0:0:0:
192,192,75214,128,0,75298:0:0:0:0:
64,192,75381,1,2,0:0:0:0:
192,192,75381,128,4,75548:0:0:0:0:
448,192,75381,1,0,0:0:0:0:
320,192,75548,128,0,75714:0:0:0:0:
64,192,75714,128,8,75881:0:0:0:0:
192,192,75714,1,0,0:0:0:60:Hat Open.wav
448,192,75714,1,0,0:0:0:0:
448,192,75881,128,0,76048:0:0:0:0:
64,192,76048,1,2,0:0:0:0:
192,192,76048,128,0,76214:0:0:0:60:Hat Open.wav
320,192,76214,1,2,0:0:0:0:
448,192,76214,1,0,0:0:0:0:
64,192,76381,1,8,0:0:0:0:
192,192,76381,1,0,0:0:0:60:Hat Open.wav
320,192,76381,1,0,0:0:0:0:
448,192,76548,128,0,76714:0:0:0:0:
64,192,76714,128,2,76881:0:0:0:0:
192,192,76714,1,0,0:0:0:60:Hat Open.wav
320,192,76881,128,0,76964:0:0:0:0:
64,192,77048,1,8,0:0:0:0:
320,192,77048,128,0,77214:0:0:0:60:Hat Open.wav
448,192,77048,1,0,0:0:0:0:
192,192,77214,128,0,77381:0:0:0:0:
320,192,77381,1,2,0:0:0:0:
448,192,77381,128,0,77548:0:0:0:60:Hat Open.wav
64,192,77548,128,2,77714:0:0:0:0:
192,192,77548,1,0,0:0:0:0:
192,192,77714,1,8,0:0:0:0:
320,192,77714,128,0,77964:0:0:0:60:Hat Open.wav
448,192,77714,1,0,0:0:0:0:
64,192,77881,1,0,0:0:0:0:
192,192,78048,128,2,78298:0:0:0:0:
320,192,78048,1,0,0:0:0:60:Hat Open.wav
448,192,78214,1,0,0:0:0:0:
64,192,78381,128,8,78631:0:0:0:0:
192,192,78381,1,0,0:0:0:60:Hat Open.wav
320,192,78381,1,0,0:0:0:0:
448,192,78548,1,0,0:0:0:0:
64,192,78714,1,2,0:0:0:0:
448,192,78714,128,0,78964:0:0:0:60:Hat Open.wav
192,192,78881,1,2,0:0:0:0:
320,192,78881,1,0,0:0:0:0:
64,192,79048,1,8,0:0:0:0:
192,192,79048,128,0,79298:0:0:0:60:Hat Open.wav
448,192,79048,1,0,0:0:0:0:
320,192,79214,1,0,0:0:0:0:
192,192,79381,1,2,0:0:0:0:
448,192,79381,128,0,79548:0:0:0:60:Hat Open.wav
64,192,79548,1,8,0:0:0:0:
192,192,79548,1,0,0:0:0:0:
320,192,79631,1,8,0:0:0:0:
448,192,79631,1,0,0:0:0:0:
64,192,79714,1,8,0:0:0:0:
192,192,79714,1,0,0:0:0:0:
64,192,79881,1,8,0:0:0:0:
448,192,79881,1,0,0:0:0:0:
192,192,79964,1,8,0:0:0:0:
320,192,79964,1,0,0:0:0:0:
64,192,80048,1,8,0:0:0:0:
448,192,80048,1,0,0:0:0:0:
320,192,80214,1,8,0:0:0:0:
448,192,80214,1,0,0:0:0:0:
64,192,80298,1,8,0:0:0:0:
192,192,80298,1,0,0:0:0:0:
320,192,80381,1,8,0:0:0:0:
448,192,80381,1,0,0:0:0:0:
64,192,80464,1,0,0:0:0:50:Tom2.wav
192,192,80548,1,0,0:0:0:50:Tom3.wav
320,192,80631,1,0,0:0:0:50:Tom3.wav
64,192,80714,128,4,80964:0:0:0:0:
192,192,80714,128,2,80964:0:0:0:0:
448,192,80714,1,0,0:0:0:0:
320,192,80881,1,0,0:0:0:0:
64,192,81048,1,8,0:0:0:0:
320,192,81048,128,0,81298:0:0:0:0:
448,192,81048,128,0,81298:0:0:0:0:
192,192,81214,1,0,0:0:0:0:
64,192,81381,128,2,81631:0:0:0:0:
448,192,81381,128,0,81631:0:0:0:25:Ride.wav
320,192,81548,1,2,0:0:0:0:
64,192,81714,1,8,0:0:0:0:
192,192,81714,1,0,0:0:0:0:
448,192,81714,1,0,0:0:0:0:
448,192,81881,1,0,0:0:0:0:
64,192,82048,128,2,82298:0:0:0:0:
192,192,82048,128,0,82298:0:0:0:25:Ride.wav
320,192,82048,1,0,0:0:0:0:
64,192,82381,1,8,0:0:0:0:
320,192,82381,128,0,82464:0:0:0:0:
448,192,82381,128,0,82464:0:0:0:0:
320,192,82548,128,0,82714:0:0:0:0:
448,192,82548,128,0,82714:0:0:0:0:
64,192,82714,128,2,82881:0:0:0:0:
192,192,82714,128,0,82881:0:0:0:25:Ride.wav
320,192,82881,1,2,0:0:0:0:
448,192,82881,1,0,0:0:0:0:
64,192,83048,1,8,0:0:0:0:
192,192,83048,1,0,0:0:0:0:
448,192,83048,128,0,83298:0:0:0:0:
320,192,83214,1,0,0:0:0:0:
64,192,83381,128,2,83631:0:0:0:0:
448,192,83381,1,0,0:0:0:25:Ride.wav
192,192,83548,1,0,0:0:0:0:
64,192,83714,1,8,0:0:0:0:
320,192,83714,128,0,83964:0:0:0:0:
448,192,83714,1,0,0:0:0:0:
192,192,83881,1,0,0:0:0:0:
192,192,84048,128,2,84298:0:0:0:0:
320,192,84048,1,0,0:0:0:25:Ride.wav
64,192,84214,1,2,0:0:0:0:
448,192,84214,1,0,0:0:0:0:
64,192,84381,128,8,84631:0:0:0:0:
192,192,84381,1,0,0:0:0:25:Ride.wav
320,192,84381,1,0,0:0:0:0:
448,192,84548,1,0,0:0:0:0:
64,192,84714,1,2,0:0:0:0:
448,192,84714,128,0,84964:0:0:0:25:Ride.wav
192,192,84881,1,0,0:0:0:0:
64,192,85048,128,8,85214:0:0:0:0:
320,192,85048,1,0,0:0:0:0:
448,192,85048,1,0,0:0:0:0:
320,192,85214,128,0,85381:0:0:0:0:
192,192,85381,128,2,85631:0:0:0:0:
448,192,85381,1,0,0:0:0:25:Ride.wav
64,192,85548,1,2,0:0:0:0:
320,192,85548,1,0,0:0:0:0:
64,192,85714,1,8,0:0:0:0:
192,192,85714,1,0,0:0:0:0:
448,192,85714,1,0,0:0:0:0:
64,192,86048,1,2,0:0:0:0:
320,192,86048,128,4,86298:0:0:0:0:
448,192,86048,128,0,86298:0:0:0:0:
192,192,86214,1,0,0:0:0:0:
64,192,86381,128,8,86631:0:0:0:0:
192,192,86381,128,0,86631:0:0:0:25:Ride.wav
448,192,86381,1,0,0:0:0:0:
320,192,86548,1,0,0:0:0:0:
64,192,86714,128,2,86964:0:0:0:0:
448,192,86714,128,0,86964:0:0:0:25:Ride.wav
192,192,86881,1,2,0:0:0:0:
64,192,87048,1,8,0:0:0:0:
320,192,87048,1,0,0:0:0:25:Ride.wav
448,192,87048,1,0,0:0:0:0:
64,192,87214,1,0,0:0:0:0:
192,192,87381,1,2,0:0:0:0:
320,192,87381,128,0,87631:0:0:0:0:
448,192,87381,128,0,87631:0:0:0:0:
64,192,87714,128,8,87798:0:0:0:0:
192,192,87714,128,0,87798:0:0:0:0:
448,192,87714,1,0,0:0:0:0:
64,192,87881,128,0,88048:0:0:0:0:
192,192,87881,128,0,88048:0:0:0:0:
320,192,88048,128,2,88214:0:0:0:0:
448,192,88048,128,0,88214:0:0:0:25:Ride.wav
64,192,88214,1,2,0:0:0:0:
192,192,88214,1,0,0:0:0:0:
64,192,88381,128,8,88631:0:0:0:0:
320,192,88381,1,0,0:0:0:0:
448,192,88381,1,0,0:0:0:0:
192,192,88548,1,0,0:0:0:0:
64,192,88714,1,2,0:0:0:0:
448,192,88714,128,0,88964:0:0:0:25:Ride.wav
192,192,88881,1,2,0:0:0:0:
320,192,88881,1,0,0:0:0:0:
64,192,89048,1,8,0:0:0:0:
192,192,89048,128,0,89298:0:0:0:0:
448,192,89048,1,0,0:0:0:0:
320,192,89214,1,0,0:0:0:0:
64,192,89381,1,2,0:0:0:0:
192,192,89381,1,4,0:0:0:0:
448,192,89381,128,0,89631:0:0:0:0:
320,192,89548,1,0,0:0:0:0:
64,192,89631,1,8,0:0:0:0:
192,192,89631,1,0,0:0:0:0:
320,192,89714,1,8,0:0:0:0:
448,192,89714,1,0,0:0:0:0:
64,192,89798,1,0,0:0:0:0:
192,192,89881,1,0,0:0:0:0:
320,192,89964,1,0,0:0:0:0:
64,192,90048,1,8,0:0:0:0:
192,192,90048,1,0,0:0:0:0:
448,192,90048,1,0,0:0:0:0:
320,192,90548,128,0,90631:0:0:0:0:
64,192,90714,128,0,90964:0:0:0:0:
320,192,90714,128,0,91048:0:0:0:0:
64,192,91048,128,0,91298:0:0:0:0:
448,192,91048,128,0,91214:0:0:0:0:
192,192,91214,128,0,91298:0:0:0:0:
64,192,91381,1,2,0:0:0:0:
192,192,91381,1,4,0:0:0:0:
448,192,91381,128,0,91548:0:0:0:0:
192,192,91548,128,0,91714:0:0:0:0:
64,192,91714,1,8,0:0:0:0:
320,192,91714,128,0,91964:0:0:0:60:Hat Open.wav
448,192,91714,1,0,0:0:0:0:
192,192,91881,1,0,0:0:0:0:
64,192,92048,128,2,92298:0:0:0:0:
320,192,92048,1,0,0:0:0:60:Hat Open.wav
192,192,92214,1,2,0:0:0:0:
448,192,92214,1,0,0:0:0:0:
64,192,92381,1,8,0:0:0:0:
320,192,92381,1,0,0:0:0:60:Hat Open.wav
448,192,92381,128,0,92631:0:0:0:0:
192,192,92548,1,0,0:0:0:0:
64,192,92714,128,2,92964:0:0:0:0:
448,192,92714,1,0,0:0:0:60:Hat Open.wav
320,192,92881,1,0,0:0:0:0:
64,192,93048,1,8,0:0:0:0:
192,192,93048,128,0,93298:0:0:0:60:Hat Open.wav
448,192,93048,1,0,0:0:0:0:
320,192,93214,1,0,0:0:0:0:
192,192,93381,1,2,0:0:0:0:
448,192,93381,128,0,93548:0:0:0:60:Hat Open.wav
64,192,93548,128,2,93714:0:0:0:0:
320,192,93548,1,0,0:0:0:0:
192,192,93714,1,8,0:0:0:0:
320,192,93714,128,0,93964:0:0:0:60:Hat Open.wav
448,192,93714,1,0,0:0:0:0:
64,192,93881,1,0,0:0:0:0:
192,192,94048,128,2,94159:0:0:0:0:
320,192,94048,1,0,0:0:0:60:Hat Open.wav
448,192,94159,128,0,94270:0:0:0:0:
192,192,94270,128,0,94381:0:0:0:0:
64,192,94381,1,8,0:0:0:0:
320,192,94381,1,0,0:0:0:60:Hat Open.wav
448,192,94381,128,0,94631:0:0:0:0:
192,192,94548,1,0,0:0:0:0:
64,192,94714,128,2,94964:0:0:0:0:
448,192,94714,1,0,0:0:0:60:Hat Open.wav
192,192,94881,1,2,0:0:0:0:
320,192,94881,1,0,0:0:0:0:
64,192,95048,1,8,0:0:0:0:
320,192,95048,128,0,95298:0:0:0:60:Hat Open.wav
448,192,95048,1,0,0:0:0:0:
192,192,95214,1,0,0:0:0:0:
64,192,95381,128,2,95631:0:0:0:0:
320,192,95381,1,0,0:0:0:60:Hat Open.wav
192,192,95548,1,2,0:0:0:0:
448,192,95548,1,0,0:0:0:0:
64,192,95714,1,8,0:0:0:0:
192,192,95714,128,4,95881:0:0:0:0:
320,192,95714,1,0,0:0:0:0:
320,192,95881,128,2,96048:0:0:0:0:
448,192,95881,1,0,0:0:0:0:
64,192,96048,1,8,0:0:0:0:
192,192,96048,1,4,0:0:0:0:
448,192,96048,128,0,96214:0:0:0:0:
64,192,96214,1,2,0:0:0:0:
320,192,96214,1,0,0:0:0:0:
64,192,96381,128,8,96714:0:0:0:0:
192,192,96381,1,4,0:0:0:0:
448,192,96381,1,0,0:0:0:0:
192,192,96714,1,2,0:0:0:0:
320,192,96714,1,4,0:0:0:0:
448,192,96714,128,0,97381:0:0:0:0:
64,192,96881,1,0,0:0:0:0:
64,192,97048,1,8,0:0:0:0:
192,192,97048,1,0,0:0:0:60:Hat Open.wav
320,192,97048,1,0,0:0:0:0:
320,192,97214,1,0,0:0:0:0:
64,192,97381,1,2,0:0:0:0:
192,192,97381,128,0,98048:0:0:0:60:Hat Open.wav
320,192,97548,1,2,0:0:0:0:
448,192,97548,1,0,0:0:0:0:
64,192,97714,1,8,0:0:0:0:
320,192,97714,1,0,0:0:0:60:Hat Open.wav
448,192,97714,1,0,0:0:0:0:
64,192,97881,1,0,0:0:0:0:
320,192,98048,128,2,98714:0:0:0:0:
448,192,98048,1,0,0:0:0:60:Hat Open.wav
192,192,98214,1,0,0:0:0:0:
64,192,98381,1,8,0:0:0:0:
192,192,98381,1,0,0:0:0:60:Hat Open.wav
448,192,98381,1,0,0:0:0:0:
448,192,98548,1,0,0:0:0:0:
64,192,98714,128,2,99381:0:0:0:0:
192,192,98714,1,0,0:0:0:60:Hat Open.wav
320,192,98881,1,2,0:0:0:0:
448,192,98881,1,0,0:0:0:0:
192,192,99048,1,8,0:0:0:0:
320,192,99048,1,0,0:0:0:60:Hat Open.wav
448,192,99048,1,0,0:0:0:0:
192,192,99214,1,0,0:0:0:0:
320,192,99381,1,2,0:0:0:0:
448,192,99381,128,0,100048:0:0:0:60:Hat Open.wav
64,192,99548,1,0,0:0:0:0:
64,192,99714,1,8,0:0:0:0:
192,192,99714,1,0,0:0:0:60:Hat Open.wav
320,192,99714,1,0,0:0:0:0:
192,192,99881,1,0,0:0:0:0:
64,192,100048,128,2,100381:0:0:0:0:
320,192,100048,1,0,0:0:0:60:Hat Open.wav
192,192,100214,1,2,0:0:0:0:
448,192,100214,1,0,0:0:0:0:
192,192,100381,1,8,0:0:0:0:
320,192,100381,1,0,0:0:0:60:Hat Open.wav
448,192,100381,1,0,0:0:0:0:
64,192,100548,1,2,0:0:0:0:
320,192,100548,1,0,0:0:0:0:
64,192,100714,1,8,0:0:0:0:
192,192,100714,1,4,0:0:0:0:
448,192,100714,128,0,101048:0:0:0:0:
192,192,100881,1,2,0:0:0:0:
320,192,100881,1,0,0:0:0:0:
64,192,101048,1,8,0:0:0:0:
192,192,101048,1,0,0:0:0:50:Tom2.wav
320,192,101048,1,0,0:0:0:0:
448,192,101214,1,0,0:0:0:50:Tom2.wav
64,192,101298,1,0,0:0:0:50:Tom2.wav
192,192,101298,1,0,0:0:0:0:
320,192,101381,1,0,0:0:0:50:Tom2.wav
448,192,101381,1,0,0:0:0:0:
64,192,101548,1,0,0:0:0:50:Tom2.wav
320,192,101548,1,0,0:0:0:0:
64,192,101714,1,0,0:0:0:50:Tom3.wav
448,192,101714,1,0,0:0:0:0:
192,192,101881,1,0,0:0:0:50:Tom3.wav
448,192,101881,1,0,0:0:0:0:
64,192,102048,1,4,0:0:0:0:
192,192,102048,128,2,102214:0:0:0:0:
320,192,102048,1,0,0:0:0:0:
448,192,102214,128,0,102381:0:0:0:0:
64,192,102381,1,2,0:0:0:0:
192,192,102381,1,0,0:0:0:40:Hat Close.wav
320,192,102548,128,0,102714:0:0:0:0:
64,192,102714,128,2,102798:0:0:0:0:
448,192,102714,1,0,0:0:0:40:Hat Close.wav
64,192,102881,128,0,103048:0:0:0:0:
192,192,103048,1,2,0:0:0:0:
448,192,103048,128,0,103214:0:0:0:40:Hat Close.wav
320,192,103214,128,0,103381:0:0:0:0:
64,192,103381,1,2,0:0:0:0:
192,192,103381,128,0,103548:0:0:0:40:Hat Close.wav
448,192,103548,1,0,0:0:0:0:
192,192,103714,1,2,0:0:0:0:
320,192,103714,1,0,0:0:0:40:Hat Close.wav
64,192,103881,1,0,0:0:0:0:
320,192,104048,1,2,0:0:0:0:
448,192,104048,128,0,104298:0:0:0:40:Hat Close.wav
192,192,104214,1,0,0:0:0:0:
64,192,104381,128,2,104631:0:0:0:0:
448,192,104381,1,0,0:0:0:40:Hat Close.wav
320,192,104548,1,0,0:0:0:40:Hat Close.wav
192,192,104631,1,0,0:0:0:40:Hat Close.wav
64,192,104714,1,2,0:0:0:0:
448,192,104714,128,0,104964:0:0:0:40:Hat Close.wav
192,192,104881,1,0,0:0:0:0:
320,192,105048,128,2,105298:0:0:0:0:
448,192,105048,1,0,0:0:0:40:Hat Close.wav
64,192,105214,1,0,0:0:0:0:
192,192,105381,128,2,105631:0:0:0:0:
320,192,105381,1,0,0:0:0:40:Hat Close.wav
448,192,105548,1,0,0:0:0:0:
64,192,105714,128,2,105964:0:0:0:0:
192,192,105714,1,0,0:0:0:40:Hat Close.wav
320,192,105881,1,0,0:0:0:0:
64,192,106048,1,2,0:0:0:0:
448,192,106048,128,0,106298:0:0:0:40:Hat Close.wav
320,192,106214,1,0,0:0:0:0:
192,192,106381,128,2,106631:0:0:0:0:
448,192,106381,1,0,0:0:0:40:Hat Close.wav
64,192,106548,1,0,0:0:0:0:
192,192,106714,1,2,0:0:0:0:
320,192,106714,128,0,106881:0:0:0:40:Hat Close.wav
448,192,106881,1,0,0:0:0:0:
64,192,107048,128,2,107381:0:0:0:0:
320,192,107048,1,0,0:0:0:40:Hat Close.wav
192,192,107214,128,0,107381:0:0:0:60:Hat Open.wav
320,192,107381,1,2,0:0:0:0:
448,192,107381,128,0,107631:0:0:0:40:Hat Close.wav
64,192,107548,1,0,0:0:0:0:
192,192,107714,128,2,107798:0:0:0:0:
448,192,107714,1,0,0:0:0:40:Hat Close.wav
192,192,107881,128,0,108048:0:0:0:0:
320,192,108048,128,2,108298:0:0:0:0:
448,192,108048,1,0,0:0:0:40:Hat Close.wav
192,192,108214,1,0,0:0:0:0:
64,192,108381,128,2,108548:0:0:0:0:
320,192,108381,1,0,0:0:0:40:Hat Close.wav
448,192,108548,128,0,108714:0:0:0:0:
64,192,108714,1,2,0:0:0:0:
192,192,108714,128,0,109048:0:0:0:40:Hat Close.wav
320,192,108881,1,0,0:0:0:0:
64,192,109048,1,2,0:0:0:0:
448,192,109048,1,0,0:0:0:40:Hat Close.wav
320,192,109214,128,0,109381:0:0:0:0:
64,192,109381,128,2,109548:0:0:0:0:
192,192,109381,1,0,0:0:0:40:Hat Close.wav
448,192,109548,1,0,0:0:0:0:
64,192,109714,1,2,0:0:0:0:
320,192,109714,1,0,0:0:0:40:Hat Close.wav
192,192,109881,128,0,110048:0:0:0:0:
320,192,110048,1,2,0:0:0:0:
448,192,110048,128,0,110548:0:0:0:40:Hat Close.wav
192,192,110214,1,0,0:0:0:0:
64,192,110381,1,2,0:0:0:0:
320,192,110381,1,0,0:0:0:40:Hat Close.wav
64,192,110548,128,0,110714:0:0:0:0:
192,192,110714,1,2,0:0:0:0:
320,192,110714,128,0,110881:0:0:0:60:Hat Open.wav
448,192,110881,1,0,0:0:0:0:
64,192,111048,1,2,0:0:0:0:
192,192,111048,1,0,0:0:0:60:Hat Open.wav
448,192,111214,128,0,111381:0:0:0:0:
64,192,111381,1,8,0:0:0:0:
192,192,111381,1,0,0:0:0:60:Hat Open.wav
320,192,111381,1,0,0:0:0:0:
64,192,111548,1,0,0:0:0:50:Tom2.wav
448,192,111548,1,0,0:0:0:0:
192,192,111631,1,0,0:0:0:50:Tom2.wav
320,192,111714,1,2,0:0:0:0:
448,192,111714,1,0,0:0:0:50:Tom2.wav
64,192,111881,1,8,0:0:0:0:
192,192,111881,1,0,0:0:0:0:
448,192,111881,1,0,0:0:0:0:
64,192,112048,1,2,0:0:0:0:
320,192,112048,1,0,0:0:0:50:Tom2.wav
320,192,112214,1,8,0:0:0:0:
448,192,112214,1,0,0:0:0:0:
64,192,112298,1,8,0:0:0:0:
192,192,112298,1,0,0:0:0:0:
320,192,112381,1,8,0:0:0:0:
448,192,112381,1,0,0:0:0:0:
192,192,112464,1,0,0:0:0:50:Tom2.wav
64,192,112548,1,0,0:0:0:50:Tom3.wav
320,192,112631,1,0,0:0:0:50:Tom3.wav
64,192,112714,1,4,0:0:0:0:
192,192,112714,128,2,112798:0:0:0:0:
448,192,112714,1,0,0:0:0:0:
192,192,112881,128,2,112964:0:0:0:0:
320,192,112881,1,0,0:0:0:0:
192,192,113048,128,2,113131:0:0:0:0:
448,192,113048,1,0,0:0:0:0:
64,192,113214,1,8,0:0:0:0:
320,192,113214,128,0,113381:0:0:0:60:Hat Open.wav
448,192,113214,1,0,0:0:0:0:
192,192,113381,1,0,0:0:0:0:
64,192,113548,1,8,0:0:0:0:
320,192,113548,1,0,0:0:0:50:Tom3.wav
448,192,113548,128,0,113631:0:0:0:0:
192,192,113714,1,2,0:0:0:0:
448,192,113714,128,0,113798:0:0:0:0:
64,192,113881,1,2,0:0:0:0:
448,192,113881,128,0,113964:0:0:0:0:
64,192,114048,1,8,0:0:0:0:
192,192,114048,128,4,114214:0:0:0:0:
320,192,114048,1,0,0:0:0:0:
448,192,114214,1,2,0:0:0:0:
64,192,114381,1,8,0:0:0:0:
192,192,114381,1,0,0:0:0:0:
320,192,114381,1,0,0:0:0:0:
320,192,114548,1,0,0:0:0:0:
64,192,114631,1,0,0:0:0:50:Tom1.wav
192,192,114714,1,0,0:0:0:50:Tom2.wav
448,192,114714,1,0,0:0:0:0:
64,192,114881,1,0,0:0:0:50:Tom2.wav
320,192,114881,1,0,0:0:0:0:
192,192,115048,1,0,0:0:0:50:Tom3.wav
320,192,115048,1,0,0:0:0:0:
192,192,115214,1,2,0:0:0:0:
448,192,115214,1,0,0:0:0:50:Tom3.wav
64,192,115381,128,4,115464:0:0:0:0:
320,192,115381,1,8,0:0:0:0:
448,192,115381,1,0,0:0:0:0:
64,192,115548,128,2,115631:0:0:0:0:
192,192,115548,1,0,0:0:0:0:
64,192,115714,128,2,115798:0:0:0:0:
320,192,115714,1,0,0:0:0:0:
192,192,115881,1,8,0:0:0:0:
320,192,115881,1,0,0:0:0:60:Hat Open.wav
448,192,115881,128,0,116048:0:0:0:0:
64,192,116048,1,0,0:0:0:0:
192,192,116214,1,8,0:0:0:0:
320,192,116214,128,0,116298:0:0:0:50:Tom3.wav
448,192,116214,1,0,0:0:0:0:
64,192,116381,1,2,0:0:0:0:
320,192,116381,128,0,116464:0:0:0:0:
192,192,116548,1,2,0:0:0:0:
320,192,116548,128,0,116631:0:0:0:0:
64,192,116714,1,8,0:0:0:0:
192,192,116714,128,4,116881:0:0:0:0:
448,192,116714,1,0,0:0:0:0:
320,192,116881,1,2,0:0:0:0:
448,192,116881,1,0,0:0:0:0:
64,192,117048,1,2,0:0:0:0:
192,192,117048,1,0,0:0:0:0:
192,192,117214,1,0,0:0:0:50:Tom3.wav
320,192,117214,1,0,0:0:0:0:
64,192,117381,1,2,0:0:0:0:
448,192,117381,1,0,0:0:0:0:
192,192,117548,1,2,0:0:0:0:
448,192,117548,1,0,0:0:0:0:
64,192,117714,1,8,0:0:0:0:
192,192,117714,1,4,0:0:0:0:
320,192,117714,1,0,0:0:0:0:
320,192,117881,1,2,0:0:0:0:
448,192,117881,1,0,0:0:0:0:
64,192,118048,1,4,0:0:0:0:
192,192,118048,128,8,118131:0:0:0:0:
448,192,118048,1,0,0:0:0:0:
192,192,118214,128,2,118298:0:0:0:0:
320,192,118214,1,0,0:0:0:0:
192,192,118381,128,2,118464:0:0:0:0:
448,192,118381,1,0,0:0:0:0:
64,192,118548,1,8,0:0:0:0:
320,192,118548,128,0,118714:0:0:0:60:Hat Open.wav
448,192,118548,1,0,0:0:0:0:
192,192,118714,1,0,0:0:0:0:
64,192,118881,1,8,0:0:0:0:
320,192,118881,1,0,0:0:0:50:Tom3.wav
448,192,118881,128,0,118964:0:0:0:0:
192,192,119048,1,2,0:0:0:0:
448,192,119048,128,0,119131:0:0:0:0:
64,192,119214,1,2,0:0:0:0:
448,192,119214,128,0,119298:0:0:0:0:
64,192,119381,128,8,119548:0:0:0:0:
192,192,119381,1,4,0:0:0:0:
320,192,119381,1,0,0:0:0:0:
320,192,119548,1,0,0:0:0:50:Tom2.wav
448,192,119548,1,0,0:0:0:0:
64,192,119714,1,0,0:0:0:50:Tom2.wav
448,192,119714,1,0,0:0:0:0:
192,192,119881,1,0,0:0:0:50:Tom3.wav
320,192,119881,1,0,0:0:0:0:
64,192,120048,128,2,120631:0:0:0:0:
320,192,120048,1,4,0:0:0:0:
448,192,120048,128,0,120381:0:0:0:0:
192,192,120381,128,0,120631:0:0:0:0:
64,192,120714,1,2,0:0:0:0:
320,192,120714,128,4,121048:0:0:0:0:
448,192,120714,128,0,121298:0:0:0:0:
64,192,121048,1,0,0:0:0:60:Hat Open.wav
192,192,121214,1,2,0:0:0:0:
320,192,121214,1,0,0:0:0:0:
64,192,121381,1,8,0:0:0:0:
192,192,121381,1,0,0:0:0:60:Hat Open.wav
448,192,121381,1,0,0:0:0:0:
64,192,121548,1,2,0:0:0:0:
320,192,121548,1,0,0:0:0:0:
192,192,121714,1,8,0:0:0:0:
320,192,121714,1,4,0:0:0:0:
448,192,121714,1,0,0:0:0:0:
64,192,121881,1,0,0:0:0:0:
192,192,122048,1,2,0:0:0:0:
448,192,122048,1,0,0:0:0:60:Hat Open.wav
64,192,122214,1,8,0:0:0:0:
192,192,122214,1,0,0:0:0:0:
320,192,122214,1,0,0:0:0:0:
320,192,122381,1,2,0:0:0:0:
448,192,122381,1,0,0:0:0:60:Hat Open.wav
64,192,122548,1,2,0:0:0:0:
192,192,122548,1,0,0:0:0:0:
64,192,122714,1,8,0:0:0:0:
320,192,122714,1,0,0:0:0:0:
448,192,122714,1,0,0:0:0:0:
192,192,122881,1,0,0:0:0:50:Tom2.wav
448,192,122881,1,0,0:0:0:0:
192,192,123048,128,0,123214:0:0:0:50:Tom2.wav
320,192,123048,1,0,0:0:0:0:
64,192,123214,1,0,0:0:0:50:Tom3.wav
320,192,123214,128,0,123381:0:0:0:0:
64,192,123381,128,4,123881:0:0:0:0:
192,192,123381,1,2,0:0:0:0:
448,192,123381,128,0,123548:0:0:0:0:
192,192,123548,128,0,123714:0:0:0:0:
448,192,123714,128,0,124048:0:0:0:50:Rim.wav
320,192,123881,128,0,124048:0:0:0:0:
64,192,124048,1,0,0:0:0:50:Rim.wav
192,192,124048,128,0,124214:0:0:0:0:
448,192,124214,1,0,0:0:0:0:
64,192,124381,128,0,124548:0:0:0:50:Rim.wav
192,192,124381,1,0,0:0:0:0:
320,192,124548,128,0,124714:0:0:0:0:
192,192,124714,128,2,124798:0:0:0:0:
448,192,124714,128,0,125214:0:0:0:50:Rim.wav
64,192,124881,1,2,0:0:0:0:
192,192,124881,128,0,125048:0:0:0:0:
320,192,125048,128,0,125214:0:0:0:50:Rim.wav
64,192,125214,128,0,125548:0:0:0:0:
192,192,125381,128,0,125548:0:0:0:50:Rim.wav
448,192,125381,1,0,0:0:0:0:
320,192,125548,1,0,0:0:0:0:
64,192,125714,1,0,0:0:0:50:Rim.wav
448,192,125714,128,0,125798:0:0:0:0:
448,192,125881,128,0,126048:0:0:0:0:
64,192,126048,128,2,126548:0:0:0:0:
320,192,126048,128,0,126214:0:0:0:50:Rim.wav
192,192,126214,128,0,126381:0:0:0:0:
448,192,126381,128,0,126714:0:0:0:50:Rim.wav
320,192,126548,128,0,126714:0:0:0:0:
64,192,126714,1,0,0:0:0:50:Rim.wav
192,192,126714,128,0,126881:0:0:0:0:
448,192,126881,1,0,0:0:0:0:
64,192,127048,128,0,127131:0:0:0:50:Rim.wav
320,192,127048,1,0,0:0:0:0:
64,192,127214,128,0,127381:0:0:0:0:
320,192,127381,128,2,127881:0:0:0:0:
448,192,127381,128,0,127464:0:0:0:50:Rim.wav
192,192,127548,1,2,0:0:0:0:
448,192,127548,128,0,127714:0:0:0:0:
64,192,127714,128,0,127881:0:0:0:50:Rim.wav
192,192,127881,128,0,128214:0:0:0:0:
320,192,128048,1,0,0:0:0:50:Rim.wav
448,192,128048,128,0,128214:0:0:0:0:
64,192,128214,1,0,0:0:0:0:
320,192,128381,128,0,128548:0:0:0:50:Rim.wav
448,192,128381,1,0,0:0:0:0:
192,192,128548,1,0,0:0:0:0:
64,192,128714,128,2,129214:0:0:0:0:
448,192,128714,128,0,129048:0:0:0:50:Rim.wav
320,192,128881,1,0,0:0:0:0:
192,192,129048,128,0,129131:0:0:0:50:Rim.wav
192,192,129214,128,0,129381:0:0:0:0:
320,192,129381,1,0,0:0:0:50:Rim.wav
448,192,129381,128,0,129548:0:0:0:0:
64,192,129548,1,0,0:0:0:0:
192,192,129714,1,0,0:0:0:50:Rim.wav
320,192,129714,128,0,129798:0:0:0:0:
320,192,129881,128,0,130048:0:0:0:0:
64,192,130048,128,2,130214:0:0:0:0:
192,192,130048,128,0,130548:0:0:0:50:Rim.wav
320,192,130214,1,2,0:0:0:0:
448,192,130214,128,0,130381:0:0:0:0:
64,192,130381,128,0,130548:0:0:0:50:Rim.wav
448,192,130548,128,0,130798:0:0:0:0:
192,192,130714,1,0,0:0:0:50:Rim.wav
320,192,130714,128,0,130798:0:0:0:0:
64,192,130881,1,0,0:0:0:0:
192,192,131048,128,0,131214:0:0:0:50:Rim.wav
448,192,131048,1,0,0:0:0:0:
320,192,131214,128,0,131381:0:0:0:0:
64,192,131381,128,2,131464:0:0:0:0:
448,192,131381,128,0,131881:0:0:0:50:Rim.wav
64,192,131548,128,0,131714:0:0:0:0:
320,192,131714,128,0,131881:0:0:0:50:Rim.wav
192,192,131881,128,0,132214:0:0:0:0:
64,192,132048,128,0,132214:0:0:0:50:Rim.wav
448,192,132048,1,0,0:0:0:0:
320,192,132214,1,0,0:0:0:0:
64,192,132381,1,0,0:0:0:50:Rim.wav
448,192,132381,128,0,132548:0:0:0:0:
192,192,132548,128,0,132714:0:0:0:0:
64,192,132714,1,2,0:0:0:0:
320,192,132714,1,8,0:0:0:0:
448,192,132714,1,0,0:0:0:60:Hat Open.wav
192,192,132881,1,8,0:0:0:0:
448,192,132881,1,0,0:0:0:0:
64,192,132964,1,8,0:0:0:0:
320,192,132964,1,0,0:0:0:0:
192,192,133048,1,8,0:0:0:0:
448,192,133048,1,0,0:0:0:0:
64,192,133214,1,8,0:0:0:0:
192,192,133214,1,0,0:0:0:0:
320,192,133214,1,0,0:0:0:0:
64,192,133381,1,8,0:0:0:0:
320,192,133381,1,0,0:0:0:0:
448,192,133381,1,0,0:0:0:0:
192,192,133548,1,0,0:0:0:50:Tom2.wav
448,192,133548,1,0,0:0:0:0:
192,192,133714,1,0,0:0:0:50:Tom3.wav
320,192,133714,1,0,0:0:0:0:
64,192,133881,1,0,0:0:0:50:Tom3.wav
320,192,133881,1,0,0:0:0:0:
64,192,134048,128,8,134298:0:0:0:0:
192,192,134048,1,4,0:0:0:0:
448,192,134048,1,0,0:0:0:0:
64,192,134381,1,0,0:0:0:50:Tom3.wav
448,192,134381,128,0,134631:0:0:0:0:
192,192,134548,1,0,0:0:0:50:Tom3.wav
320,192,134548,1,0,0:0:0:0:
192,192,134714,128,0,134964:0:0:0:50:Tom3.wav
448,192,134714,1,0,0:0:0:0:
64,192,134881,1,0,0:0:0:50:Tom3.wav
320,192,134881,1,0,0:0:0:0:
192,192,135048,1,0,0:0:0:50:Tom3.wav
320,192,135048,128,0,135298:0:0:0:0:
64,192,135214,1,0,0:0:0:50:Tom3.wav
448,192,135214,1,0,0:0:0:0:
64,192,135381,128,8,135881:0:0:0:0:
192,192,135381,1,4,0:0:0:0:
320,192,135381,1,0,0:0:0:0:
320,192,135631,1,0,0:0:0:50:Tom2.wav
192,192,135714,1,0,0:0:0:50:Tom2.wav
448,192,135714,1,0,0:0:0:0:
320,192,135881,1,0,0:0:0:50:Tom2.wav
448,192,135881,1,0,0:0:0:0:
64,192,136048,1,0,0:0:0:50:Tom3.wav
192,192,136048,128,0,136131:0:0:0:0:
320,192,136214,1,0,0:0:0:50:Tom3.wav
448,192,136214,1,0,0:0:0:0:
64,192,136381,1,0,0:0:0:50:Tom3.wav
320,192,136381,128,0,136631:0:0:0:0:
192,192,136548,1,0,0:0:0:50:Tom3.wav
448,192,136548,1,0,0:0:0:0:
64,192,136714,128,8,136964:0:0:0:0:
320,192,136714,128,4,136964:0:0:0:0:
448,192,136714,128,0,136964:0:0:0:0:
64,192,137048,1,8,0:0:0:0:
192,192,137048,1,0,0:0:0:50:Tom3.wav
448,192,137048,1,0,0:0:0:0:
192,192,137214,1,0,0:0:0:50:Tom3.wav
320,192,137214,1,0,0:0:0:0:
64,192,137381,1,8,0:0:0:0:
320,192,137381,1,0,0:0:0:50:Tom3.wav
448,192,137381,1,0,0:0:0:0:
64,192,137548,1,8,0:0:0:0:
192,192,137548,1,0,0:0:0:50:Tom3.wav
448,192,137548,1,0,0:0:0:0:
64,192,137714,1,8,0:0:0:0:
320,192,137714,1,0,0:0:0:50:Tom3.wav
448,192,137714,1,0,0:0:0:0:
192,192,137881,1,0,0:0:0:0:
64,192,138048,1,4,0:0:0:0:
192,192,138048,1,8,0:0:0:0:
320,192,138048,1,0,0:0:0:0:
448,192,138048,1,0,0:0:0:0:
320,192,138214,1,8,0:0:0:0:
448,192,138214,1,0,0:0:0:0:
64,192,138298,1,8,0:0:0:0:
192,192,138298,1,0,0:0:0:0:
448,192,138381,1,10,0:0:0:0:
64,192,138464,1,8,0:0:0:0:
320,192,138548,1,8,0:0:0:0:
192,192,138631,1,8,0:0:0:0:
320,192,138714,1,8,0:0:0:0:
448,192,138714,1,2,0:0:0:0:
64,192,138798,1,8,0:0:0:0:
192,192,138798,1,0,0:0:0:0:
320,192,138881,1,8,0:0:0:0:
448,192,138881,1,0,0:0:0:0:
64,192,138964,1,8,0:0:0:0:
192,192,138964,1,0,0:0:0:0:
320,192,139048,1,8,0:0:0:0:
448,192,139048,1,2,0:0:0:0:
64,192,139131,1,8,0:0:0:0:
192,192,139131,1,0,0:0:0:0:
320,192,139214,1,8,0:0:0:0:
448,192,139214,1,0,0:0:0:0:
192,192,139298,1,8,0:0:0:0:
64,192,139381,128,4,139631:0:0:0:0:
320,192,139381,1,2,0:0:0:0:
448,192,139381,128,0,139631:0:0:0:0:
192,192,139548,1,0,0:0:0:0:
64,192,139714,1,8,0:0:0:0:
192,192,139714,128,0,139964:0:0:0:60:Hat Open.wav
448,192,139714,1,0,0:0:0:0:
320,192,139881,1,0,0:0:0:0:
192,192,140048,1,2,0:0:0:0:
448,192,140048,128,0,140298:0:0:0:60:Hat Open.wav
64,192,140214,1,2,0:0:0:0:
320,192,140214,1,0,0:0:0:0:
64,192,140381,1,8,0:0:0:0:
192,192,140381,128,0,140464:0:0:0:60:Hat Open.wav
448,192,140381,1,0,0:0:0:0:
320,192,140548,128,0,140714:0:0:0:0:
64,192,140714,128,2,140881:0:0:0:0:
192,192,140714,1,0,0:0:0:60:Hat Open.wav
448,192,140881,128,0,141048:0:0:0:0:
64,192,141048,1,8,0:0:0:0:
192,192,141048,128,0,141131:0:0:0:60:Hat Open.wav
320,192,141048,1,0,0:0:0:0:
192,192,141214,128,0,141381:0:0:0:0:
320,192,141381,128,2,141548:0:0:0:0:
448,192,141381,1,0,0:0:0:60:Hat Open.wav
64,192,141548,1,2,0:0:0:0:
192,192,141548,1,0,0:0:0:0:
64,192,141714,1,8,0:0:0:0:
320,192,141714,1,0,0:0:0:60:Hat Open.wav
448,192,141714,128,0,141964:0:0:0:0:
192,192,141881,1,0,0:0:0:0:
64,192,142048,128,2,142298:0:0:0:0:
448,192,142048,1,0,0:0:0:60:Hat Open.wav
320,192,142214,1,0,0:0:0:0:
64,192,142381,1,8,0:0:0:0:
192,192,142381,128,0,142631:0:0:0:60:Hat Open.wav
448,192,142381,1,0,0:0:0:0:
320,192,142548,1,0,0:0:0:0:
192,192,142714,1,2,0:0:0:0:
448,192,142714,128,0,142964:0:0:0:60:Hat Open.wav
64,192,142881,1,2,0:0:0:0:
320,192,142881,1,0,0:0:0:0:
192,192,143048,1,8,0:0:0:0:
320,192,143048,128,0,143298:0:0:0:60:Hat Open.wav
448,192,143048,1,0,0:0:0:0:
64,192,143214,1,0,0:0:0:0:
192,192,143381,1,2,0:0:0:0:
320,192,143381,128,0,143714:0:0:0:60:Hat Open.wav
64,192,143548,1,2,0:0:0:0:
448,192,143548,1,0,0:0:0:0:
64,192,143714,1,8,0:0:0:0:
192,192,143714,1,0,0:0:0:60:Hat Open.wav
448,192,143714,1,0,0:0:0:0:
192,192,143881,1,2,0:0:0:0:
320,192,143881,1,0,0:0:0:0:
64,192,144048,128,8,144214:0:0:0:0:
320,192,144048,1,0,0:0:0:60:Hat Open.wav
448,192,144048,1,0,0:0:0:0:
192,192,144214,1,2,0:0:0:0:
448,192,144214,1,0,0:0:0:0:
64,192,144381,1,8,0:0:0:0:
192,192,144381,1,0,0:0:0:60:Hat Open.wav
320,192,144381,1,0,0:0:0:0:
448,192,144548,128,0,144631:0:0:0:0:
64,192,144714,1,2,0:0:0:0:
192,192,144714,128,4,144964:0:0:0:0:
448,192,144714,1,0,0:0:0:0:
320,192,144881,1,0,0:0:0:0:
64,192,145048,1,8,0:0:0:0:
192,192,145048,1,0,0:0:0:60:Hat Open.wav
448,192,145048,128,0,145214:0:0:0:0:
320,192,145214,128,0,145298:0:0:0:0:
192,192,145381,1,2,0:0:0:0:
320,192,145381,128,0,145548:0:0:0:60:Hat Open.wav
64,192,145548,128,2,145714:0:0:0:0:
448,192,145548,1,0,0:0:0:0:
192,192,145714,1,8,0:0:0:0:
320,192,145714,1,0,0:0:0:60:Hat Open.wav
448,192,145714,1,0,0:0:0:0:
192,192,145881,128,0,146048:0:0:0:0:
64,192,146048,1,2,0:0:0:0:
448,192,146048,128,0,146214:0:0:0:60:Hat Open.wav
192,192,146214,128,0,146381:0:0:0:0:
64,192,146381,1,8,0:0:0:0:
320,192,146381,128,0,146548:0:0:0:60:Hat Open.wav
448,192,146381,1,0,0:0:0:0:
64,192,146548,128,0,146631:0:0:0:0:
64,192,146714,128,2,146881:0:0:0:0:
320,192,146714,1,0,0:0:0:60:Hat Open.wav
192,192,146881,1,2,0:0:0:0:
448,192,146881,128,0,147048:0:0:0:0:
64,192,147048,1,8,0:0:0:0:
192,192,147048,128,0,147298:0:0:0:60:Hat Open.wav
320,192,147048,1,0,0:0:0:0:
448,192,147214,1,0,0:0:0:0:
192,192,147381,1,2,0:0:0:0:
448,192,147381,128,0,147631:0:0:0:60:Hat Open.wav
320,192,147548,1,0,0:0:0:0:
64,192,147714,128,8,147964:0:0:0:0:
192,192,147714,1,0,0:0:0:60:Hat Open.wav
448,192,147714,1,0,0:0:0:0:
320,192,147881,1,0,0:0:0:0:
64,192,148048,1,2,0:0:0:0:
320,192,148048,128,0,148298:0:0:0:60:Hat Open.wav
192,192,148214,1,2,0:0:0:0:
448,192,148214,1,0,0:0:0:0:
64,192,148381,128,8,148548:0:0:0:0:
320,192,148381,1,0,0:0:0:60:Hat Open.wav
448,192,148381,1,0,0:0:0:0:
192,192,148548,128,0,148631:0:0:0:0:
192,192,148714,128,2,148964:0:0:0:0:
448,192,148714,1,0,0:0:0:60:Hat Open.wav
320,192,148881,1,0,0:0:0:0:
64,192,149048,1,8,0:0:0:0:
192,192,149048,1,0,0:0:0:60:Hat Open.wav
448,192,149048,1,0,0:0:0:0:
320,192,149214,128,0,149381:0:0:0:0:
192,192,149381,128,2,149548:0:0:0:0:
448,192,149381,1,0,0:0:0:60:Hat Open.wav
64,192,149548,1,8,0:0:0:0:
320,192,149631,1,8,0:0:0:0:
448,192,149631,1,0,0:0:0:0:
64,192,149714,1,8,0:0:0:0:
192,192,149714,1,0,0:0:0:0:
448,192,149798,1,0,0:0:0:50:Tom2.wav
320,192,149881,1,0,0:0:0:50:Tom3.wav
192,192,149964,1,0,0:0:0:50:Tom3.wav
64,192,150048,1,4,0:0:0:0:
320,192,150048,128,2,150298:0:0:0:0:
448,192,150048,128,0,150298:0:0:0:0:
64,192,150381,128,8,150548:0:0:0:0:
192,192,150381,1,0,0:0:0:60:Hat Open.wav
448,192,150381,1,0,0:0:0:0:
320,192,150548,128,0,150714:0:0:0:0:
64,192,150714,1,2,0:0:0:0:
192,192,150714,128,0,150798:0:0:0:60:Hat Open.wav
320,192,150881,1,2,0:0:0:0:
448,192,150881,1,0,0:0:0:0:
64,192,151048,128,8,151131:0:0:0:0:
192,192,151048,1,0,0:0:0:60:Hat Open.wav
448,192,151048,1,0,0:0:0:0:
64,192,151214,128,0,151381:0:0:0:0:
320,192,151381,128,2,151464:0:0:0:0:
448,192,151381,1,0,0:0:0:60:Hat Open.wav
320,192,151548,128,0,151714:0:0:0:0:
64,192,151714,1,8,0:0:0:0:
192,192,151714,128,0,151798:0:0:0:60:Hat Open.wav
448,192,151714,1,0,0:0:0:0:
192,192,151881,128,0,152048:0:0:0:0:
320,192,152048,1,2,0:0:0:0:
448,192,152048,128,0,152131:0:0:0:60:Hat Open.wav
64,192,152214,1,2,0:0:0:0:
192,192,152214,1,0,0:0:0:0:
64,192,152381,1,8,0:0:0:0:
320,192,152381,128,0,152548:0:0:0:60:Hat Open.wav
448,192,152381,1,0,0:0:0:0:
192,192,152548,1,0,0:0:0:0:
64,192,152714,1,2,0:0:0:0:
448,192,152714,128,0,152964:0:0:0:60:Hat Open.wav
192,192,152881,1,0,0:0:0:0:
64,192,153048,1,8,0:0:0:0:
320,192,153048,1,0,0:0:0:60:Hat Open.wav
448,192,153048,128,0,153131:0:0:0:0:
192,192,153214,1,0,0:0:0:0:
320,192,153214,128,0,153298:0:0:0:0:
64,192,153381,1,2,0:0:0:0:
192,192,153381,128,0,153464:0:0:0:60:Hat Open.wav
320,192,153548,1,2,0:0:0:0:
448,192,153548,1,0,0:0:0:0:
64,192,153714,128,8,153798:0:0:0:0:
192,192,153714,1,0,0:0:0:60:Hat Open.wav
448,192,153714,1,0,0:0:0:0:
64,192,153881,128,0,154048:0:0:0:0:
192,192,154048,1,2,0:0:0:0:
320,192,154048,128,0,154214:0:0:0:60:Hat Open.wav
64,192,154214,1,2,0:0:0:0:
448,192,154214,128,0,154298:0:0:0:0:
192,192,154381,1,8,0:0:0:0:
320,192,154381,1,0,0:0:0:60:Hat Open.wav
448,192,154381,128,0,154548:0:0:0:0:
64,192,154548,1,2,0:0:0:0:
192,192,154548,128,0,154881:0:0:0:0:
320,192,154714,128,0,154881:0:0:0:60:Hat Open.wav
64,192,154881,1,2,0:0:0:0:
448,192,154881,1,0,0:0:0:0:
64,192,155048,1,8,0:0:0:0:
192,192,155048,1,0,0:0:0:60:Hat Open.wav
448,192,155048,1,0,0:0:0:0:
320,192,155214,128,0,155298:0:0:0:0:
64,192,155381,1,2,0:0:0:0:
320,192,155381,128,4,155548:0:0:0:0:
448,192,155381,1,0,0:0:0:0:
192,192,155548,128,0,155714:0:0:0:0:
64,192,155714,1,8,0:0:0:0:
320,192,155714,1,0,0:0:0:60:Hat Open.wav
448,192,155714,128,0,155881:0:0:0:0:
64,192,155881,128,0,156048:0:0:0:0:
320,192,156048,128,2,156214:0:0:0:0:
448,192,156048,1,0,0:0:0:60:Hat Open.wav
64,192,156214,1,2,0:0:0:0:
192,192,156214,1,0,0:0:0:0:
64,192,156381,1,8,0:0:0:0:
320,192,156381,1,0,0:0:0:60:Hat Open.wav
448,192,156381,1,0,0:0:0:0:
192,192,156548,128,0,156714:0:0:0:0:
64,192,156714,1,2,0:0:0:0:
448,192,156714,128,0,156881:0:0:0:60:Hat Open.wav
320,192,156881,128,0,157048:0:0:0:0:
64,192,157048,128,8,157214:0:0:0:0:
192,192,157048,1,0,0:0:0:60:Hat Open.wav
448,192,157048,1,0,0:0:0:0:
320,192,157214,128,0,157381:0:0:0:0:
64,192,157381,1,2,0:0:0:0:
192,192,157381,128,0,157548:0:0:0:60:Hat Open.wav
320,192,157548,1,2,0:0:0:0:
448,192,157548,128,0,157964:0:0:0:0:
64,192,157714,1,8,0:0:0:0:
192,192,157714,1,0,0:0:0:60:Hat Open.wav
320,192,157714,128,0,157964:0:0:0:0:
64,192,158048,128,2,158214:0:0:0:0:
448,192,158048,1,0,0:0:0:60:Hat Open.wav
192,192,158214,1,0,0:0:0:0:
64,192,158381,1,8,0:0:0:0:
320,192,158381,128,0,158631:0:0:0:60:Hat Open.wav
448,192,158381,1,0,0:0:0:0:
192,192,158548,1,0,0:0:0:0:
64,192,158714,128,2,158964:0:0:0:0:
320,192,158714,1,0,0:0:0:60:Hat Open.wav
192,192,158881,1,2,0:0:0:0:
448,192,158881,1,0,0:0:0:0:
64,192,159048,1,8,0:0:0:0:
320,192,159048,1,0,0:0:0:60:Hat Open.wav
448,192,159048,128,0,159214:0:0:0:0:
192,192,159214,1,0,0:0:0:0:
192,192,159381,128,2,159631:0:0:0:0:
320,192,159381,1,0,0:0:0:60:Hat Open.wav
64,192,159548,1,2,0:0:0:0:
448,192,159548,1,0,0:0:0:0:
64,192,159714,1,8,0:0:0:0:
192,192,159714,1,0,0:0:0:60:Hat Open.wav
320,192,159714,1,0,0:0:0:0:
448,192,159881,128,0,159964:0:0:0:0:
192,192,160048,1,2,0:0:0:0:
448,192,160048,128,0,160214:0:0:0:60:Hat Open.wav
64,192,160214,1,8,0:0:0:0:
320,192,160214,1,0,0:0:0:0:
192,192,160298,1,8,0:0:0:0:
448,192,160298,1,0,0:0:0:0:
64,192,160381,1,8,0:0:0:0:
320,192,160381,1,0,0:0:0:50:Tom2.wav
192,192,160548,1,8,0:0:0:0:
448,192,160548,1,0,0:0:0:0:
320,192,160631,1,8,0:0:0:0:
64,192,160714,128,4,162548:0:0:0:0:
192,192,160714,1,2,0:0:0:0:
448,192,160714,1,0,0:0:0:0:
320,192,160881,1,0,0:0:0:0:
192,192,161048,1,8,0:0:0:0:
320,192,161048,1,4,0:0:0:0:
448,192,161048,1,0,0:0:0:0:
192,192,161214,1,0,0:0:0:0:
320,192,161381,1,2,0:0:0:0:
448,192,161381,1,0,0:0:0:0:
192,192,161548,1,2,0:0:0:0:
320,192,161548,1,0,0:0:0:0:
192,192,161714,1,8,0:0:0:0:
448,192,161714,1,0,0:0:0:25:Ride.wav
448,192,161881,1,0,0:0:0:0:
192,192,162048,1,2,0:0:0:0:
320,192,162048,1,0,0:0:0:25:Ride.wav
320,192,162214,1,2,0:0:0:0:
448,192,162214,1,0,0:0:0:0:
192,192,162381,1,8,0:0:0:0:
448,192,162381,1,0,0:0:0:25:Ride.wav
320,192,162548,1,0,0:0:0:0:
64,192,162714,1,2,0:0:0:0:
448,192,162714,128,0,163381:0:0:0:25:Ride.wav
192,192,162881,1,2,0:0:0:0:
320,192,162881,1,0,0:0:0:0:
64,192,163048,1,8,0:0:0:0:
320,192,163048,1,0,0:0:0:25:Ride.wav
64,192,163214,1,0,0:0:0:0:
192,192,163381,128,2,163464:0:0:0:0:
320,192,163381,1,0,0:0:0:25:Ride.wav
64,192,163464,128,0,163548:0:0:0:0:
320,192,163548,128,0,163631:0:0:0:0:
192,192,163631,128,0,163714:0:0:0:0:
64,192,163714,1,8,0:0:0:0:
320,192,163714,1,0,0:0:0:25:Ride.wav
448,192,163714,128,0,163798:0:0:0:0:
192,192,163798,128,0,163881:0:0:0:0:
320,192,163881,128,0,163964:0:0:0:0:
64,192,163964,128,0,164048:0:0:0:0:
192,192,164048,128,0,164131:0:0:0:25:Ride.wav
448,192,164131,128,0,164214:0:0:0:0:
64,192,164214,1,2,0:0:0:0:
320,192,164214,128,0,164298:0:0:0:0:
192,192,164298,128,0,164381:0:0:0:0:
64,192,164381,1,8,0:0:0:0:
320,192,164381,1,0,0:0:0:25:Ride.wav
448,192,164381,128,0,164464:0:0:0:0:
192,192,164464,128,0,164548:0:0:0:0:
320,192,164548,1,0,0:0:0:0:
64,192,164631,128,0,164714:0:0:0:0:
192,192,164714,1,2,0:0:0:0:
448,192,164714,128,0,164798:0:0:0:25:Ride.wav
320,192,164798,128,0,164881:0:0:0:0:
64,192,164881,1,2,0:0:0:0:
192,192,164881,128,0,164964:0:0:0:0:
320,192,164964,128,0,165048:0:0:0:0:
64,192,165048,128,8,165131:0:0:0:0:
192,192,165048,1,0,0:0:0:25:Ride.wav
448,192,165048,1,0,0:0:0:0:
320,192,165131,128,0,165214:0:0:0:0:
64,192,165214,1,2,0:0:0:0:
192,192,165214,128,0,165381:0:0:0:0:
448,192,165381,128,0,165548:0:0:0:25:Ride.wav
64,192,165548,128,2,165714:0:0:0:0:
320,192,165548,1,0,0:0:0:0:
192,192,165714,1,8,0:0:0:0:
320,192,165714,1,0,0:0:0:25:Ride.wav
448,192,165714,128,0,166048:0:0:0:0:
64,192,165881,1,0,0:0:0:0:
64,192,166048,1,4,0:0:0:0:
192,192,166048,128,2,166298:0:0:0:0:
320,192,166048,1,0,0:0:0:0:
320,192,166298,1,0,0:0:0:0:
64,192,166381,128,8,166548:0:0:0:0:
192,192,166381,1,0,0:0:0:25:Ride.wav
448,192,166381,1,0,0:0:0:0:
320,192,166548,1,0,0:0:0:0:
448,192,166659,128,0,166826:0:0:0:0:
320,192,166714,1,0,0:0:0:25:Ride.wav
64,192,166881,128,2,167214:0:0:0:0:
192,192,166881,1,0,0:0:0:0:
320,192,167048,1,8,0:0:0:0:
448,192,167048,1,0,0:0:0:25:Ride.wav
320,192,167214,128,0,167881:0:0:0:0:
64,192,167381,1,2,0:0:0:0:
448,192,167381,1,0,0:0:0:25:Ride.wav
64,192,167548,1,2,0:0:0:0:
192,192,167548,1,0,0:0:0:0:
192,192,167714,1,8,0:0:0:0:
448,192,167714,1,0,0:0:0:25:Ride.wav
64,192,167881,1,2,0:0:0:0:
448,192,167881,1,0,0:0:0:0:
192,192,168048,128,0,168548:0:0:0:25:Ride.wav
64,192,168214,1,2,0:0:0:0:
320,192,168214,1,0,0:0:0:0:
64,192,168381,1,8,0:0:0:0:
448,192,168381,1,0,0:0:0:25:Ride.wav
320,192,168548,128,0,168631:0:0:0:0:
192,192,168631,128,0,168714:0:0:0:0:
64,192,168714,128,2,168881:0:0:0:0:
320,192,168714,1,4,0:0:0:0:
448,192,168714,128,0,168881:0:0:0:0:
192,192,168881,128,0,169214:0:0:0:0:
64,192,169048,1,8,0:0:0:0:
320,192,169048,128,0,169214:0:0:0:25:Ride.wav
448,192,169048,1,0,0:0:0:0:
64,192,169214,128,0,169381:0:0:0:0:
192,192,169381,1,0,0:0:0:25:Ride.wav
448,192,169381,128,0,169714:0:0:0:0:
64,192,169548,1,2,0:0:0:0:
320,192,169548,128,0,169714:0:0:0:0:
64,192,169714,128,8,169964:0:0:0:0:
192,192,169714,128,0,169964:0:0:0:25:Ride.wav
448,192,169881,128,0,170131:0:0:0:0:
320,192,169964,128,0,170131:0:0:0:0:
64,192,170048,128,2,170214:0:0:0:0:
192,192,170048,128,0,170214:0:0:0:25:Ride.wav
320,192,170214,128,2,170381:0:0:0:0:
448,192,170214,1,0,0:0:0:0:
64,192,170381,1,8,0:0:0:0:
192,192,170381,128,0,170548:0:0:0:25:Ride.wav
448,192,170381,128,0,170631:0:0:0:0:
64,192,170548,128,0,170714:0:0:0:0:
320,192,170548,1,0,0:0:0:0:
192,192,170714,1,2,0:0:0:0:
320,192,170714,128,4,170964:0:0:0:0:
448,192,170714,1,0,0:0:0:0:
64,192,170881,1,8,0:0:0:0:
192,192,170881,1,0,0:0:0:0:
448,192,170964,1,8,0:0:0:0:
64,192,171048,1,8,0:0:0:0:
192,192,171048,1,0,0:0:0:0:
320,192,171048,1,0,0:0:0:0:
320,192,171214,1,8,0:0:0:0:
448,192,171214,1,0,0:0:0:0:
64,192,171298,1,8,0:0:0:0:
192,192,171381,128,4,172881:0:0:0:0:
320,192,171381,1,2,0:0:0:0:
448,192,171381,1,0,0:0:0:0:
64,192,171714,1,4,0:0:0:0:
320,192,171714,1,8,0:0:0:0:
448,192,171714,1,0,0:0:0:0:
320,192,171881,1,0,0:0:0:0:
64,192,172048,1,2,0:0:0:0:
448,192,172048,1,0,0:0:0:25:Ride.wav
64,192,172214,1,2,0:0:0:0:
320,192,172214,1,0,0:0:0:0:
320,192,172381,1,8,0:0:0:0:
448,192,172381,1,0,0:0:0:25:Ride.wav
64,192,172548,1,0,0:0:0:0:
320,192,172714,1,2,0:0:0:0:
448,192,172714,1,0,0:0:0:25:Ride.wav
64,192,172881,1,2,0:0:0:0:
448,192,172881,1,0,0:0:0:0:
64,192,173048,1,8,0:0:0:0:
192,192,173048,1,0,0:0:0:25:Ride.wav
320,192,173048,1,0,0:0:0:0:
192,192,173214,1,2,0:0:0:0:
448,192,173214,1,0,0:0:0:0:
64,192,173381,1,0,0:0:0:25:Ride.wav
192,192,173548,1,2,0:0:0:0:
320,192,173548,128,0,173714:0:0:0:0:
64,192,173714,1,8,0:0:0:0:
192,192,173714,128,0,173881:0:0:0:25:Ride.wav
448,192,173714,1,0,0:0:0:0:
448,192,173881,128,0,173964:0:0:0:0:
64,192,174048,1,2,0:0:0:0:
448,192,174048,128,0,174381:0:0:0:25:Ride.wav
320,192,174214,1,0,0:0:0:0:
64,192,174381,1,8,0:0:0:0:
192,192,174381,128,0,174464:0:0:0:25:Ride.wav
320,192,174381,1,0,0:0:0:0:
192,192,174548,128,0,174881:0:0:0:0:
320,192,174714,128,0,174881:0:0:0:25:Ride.wav
64,192,174881,128,2,174964:0:0:0:0:
448,192,174881,128,0,174964:0:0:0:0:
64,192,175048,128,8,175131:0:0:0:0:
320,192,175048,128,0,175131:0:0:0:25:Ride.wav
448,192,175048,128,0,175131:0:0:0:0:
64,192,175214,128,0,175298:0:0:0:0:
448,192,175214,128,0,175298:0:0:0:0:
64,192,175381,128,2,175548:0:0:0:0:
448,192,175381,128,0,175548:0:0:0:25:Ride.wav
192,192,175548,128,2,175714:0:0:0:0:
320,192,175548,1,0,0:0:0:0:
64,192,175714,1,8,0:0:0:0:
320,192,175714,128,0,175881:0:0:0:25:Ride.wav
448,192,175714,1,0,0:0:0:0:
64,192,175881,128,2,176048:0:0:0:0:
192,192,175881,1,0,0:0:0:0:
448,192,176048,128,0,176381:0:0:0:25:Ride.wav
192,192,176214,1,2,0:0:0:0:
320,192,176214,1,0,0:0:0:0:
64,192,176381,1,8,0:0:0:0:
192,192,176381,1,0,0:0:0:25:Ride.wav
320,192,176381,1,0,0:0:0:0:
64,192,176548,1,0,0:0:0:0:
192,192,176714,1,2,0:0:0:0:
320,192,176714,128,4,176881:0:0:0:0:
448,192,176714,128,0,176964:0:0:0:0:
192,192,176881,128,0,177048:0:0:0:0:
64,192,177048,1,8,0:0:0:0:
320,192,177048,128,0,177214:0:0:0:25:Ride.wav
448,192,177048,128,0,177298:0:0:0:0:
192,192,177131,128,0,177298:0:0:0:0:
64,192,177214,128,0,177381:0:0:0:0:
320,192,177381,128,0,177631:0:0:0:25:Ride.wav
448,192,177381,128,0,177631:0:0:0:0:
64,192,177548,128,2,177631:0:0:0:0:
192,192,177548,128,0,177631:0:0:0:0:
64,192,177714,128,8,177964:0:0:0:0:
192,192,177714,128,0,177881:0:0:0:25:Ride.wav
448,192,177714,1,0,0:0:0:0:
320,192,177798,128,0,177964:0:0:0:0:
448,192,177881,128,0,178048:0:0:0:0:
64,192,178048,128,2,178298:0:0:0:0:
192,192,178048,128,0,178214:0:0:0:25:Ride.wav
320,192,178214,1,2,0:0:0:0:
448,192,178214,128,0,178381:0:0:0:0:
64,192,178381,128,8,178714:0:0:0:0:
192,192,178381,1,0,0:0:0:25:Ride.wav
320,192,178381,1,0,0:0:0:0:
192,192,178548,1,2,0:0:0:0:
448,192,178548,1,0,0:0:0:0:
320,192,178714,128,0,178964:0:0:0:25:Ride.wav
64,192,178881,1,2,0:0:0:0:
192,192,178881,1,0,0:0:0:0:
64,192,179048,1,8,0:0:0:0:
320,192,179048,1,0,0:0:0:25:Ride.wav
448,192,179048,128,0,179131:0:0:0:0:
192,192,179131,128,0,179214:0:0:0:0:
320,192,179214,128,2,179298:0:0:0:0:
448,192,179214,1,0,0:0:0:0:
64,192,179298,128,0,179381:0:0:0:0:
192,192,179381,1,8,0:0:0:0:
320,192,179381,1,4,0:0:0:0:
448,192,179381,128,0,179714:0:0:0:0:
64,192,179714,128,2,179881:0:0:0:0:
320,192,179714,1,0,0:0:0:25:Ride.wav
192,192,179881,1,8,0:0:0:0:
320,192,179881,1,0,0:0:0:0:
448,192,179881,128,0,180048:0:0:0:0:
192,192,180048,128,0,180381:0:0:0:25:Ride.wav
64,192,180214,1,2,0:0:0:0:
320,192,180214,1,0,0:0:0:0:
64,192,180381,1,8,0:0:0:0:
320,192,180381,128,4,180714:0:0:0:0:
448,192,180381,1,0,0:0:0:0:
192,192,180714,1,2,0:0:0:0:
448,192,180714,128,0,181298:0:0:0:25:Ride.wav
64,192,180881,1,8,0:0:0:0:
192,192,180881,1,0,0:0:0:0:
64,192,181048,1,2,0:0:0:0:
320,192,181048,1,0,0:0:0:60:Hat Open.wav
192,192,181214,1,0,0:0:0:0:
320,192,181298,1,0,0:0:0:0:
64,192,181381,1,8,0:0:0:0:
192,192,181381,1,0,0:0:0:0:
448,192,181381,1,0,0:0:0:0:
64,192,181548,1,0,0:0:0:50:Tom1.wav
320,192,181548,1,0,0:0:0:0:
192,192,181714,1,0,0:0:0:50:Tom2.wav
320,192,181714,1,0,0:0:0:0:
192,192,181881,1,0,0:0:0:50:Tom3.wav
448,192,181881,128,0,181964:0:0:0:0:
64,192,182048,128,0,183381:0:0:0:0:
448,192,182048,128,0,182214:0:0:0:0:
320,192,182214,128,0,182381:0:0:0:0:
192,192,182381,128,0,182464:0:0:0:0:
192,192,182548,128,0,182714:0:0:0:0:
448,192,182714,128,0,183048:0:0:0:0:
320,192,183048,128,0,183714:0:0:0:0:
192,192,183381,128,0,183714:0:0:0:0:
448,192,183381,128,0,184714:0:0:0:0:
64,192,183714,128,0,184381:0:0:0:0:
192,192,184048,128,0,184381:0:0:0:0:
320,192,184548,128,0,184631:0:0:0:0:
192,192,184714,128,0,186048:0:0:0:0:
320,192,184714,128,0,184881:0:0:0:0:
64,192,185048,128,0,185214:0:0:0:0:
448,192,185214,128,0,185298:0:0:0:0:
448,192,185381,128,0,185714:0:0:0:0:
64,192,185714,128,0,186381:0:0:0:0:
320,192,186048,128,0,187381:0:0:0:0:
448,192,186048,128,0,186381:0:0:0:0:
192,192,186381,128,0,187048:0:0:0:0:
448,192,186714,128,0,187048:0:0:0:0:
64,192,187214,128,0,187298:0:0:0:0:
64,192,187381,128,0,188048:0:0:0:0:
448,192,187381,128,0,188714:0:0:0:0:
192,192,187714,128,0,188048:0:0:0:0:
320,192,188048,128,0,188714:0:0:0:0:
192,192,188381,128,0,188631:0:0:0:0:
64,192,188714,128,0,190048:0:0:0:0:
192,192,188714,128,0,189048:0:0:0:0:
448,192,189048,128,0,189131:0:0:0:0:
448,192,189214,128,0,189381:0:0:0:0:
320,192,189381,128,0,189714:0:0:0:0:
192,192,189881,128,0,189964:0:0:0:0:
192,192,190048,128,0,190381:0:0:0:0:
448,192,190048,128,0,191381:0:0:0:0:
320,192,190381,128,0,190464:0:0:0:0:
320,192,190548,128,0,190714:0:0:0:0:
64,192,190714,128,0,191048:0:0:0:0:
320,192,191048,128,0,191714:0:0:0:0:
64,192,191381,128,0,191714:0:0:0:0:
192,192,191381,128,0,192381:0:0:0:0:
448,192,191714,128,0,192381:0:0:0:0:
320,192,192048,128,0,192381:0:0:0:0:
64,192,192548,128,0,192631:0:0:0:0:
64,192,192714,128,0,192881:0:0:0:0:
320,192,192714,128,0,194048:0:0:0:0:
192,192,192881,128,0,193048:0:0:0:0:
448,192,193214,128,0,193298:0:0:0:0:
448,192,193381,128,0,193714:0:0:0:0:
192,192,193714,128,0,194381:0:0:0:0:
64,192,194048,128,0,195381:0:0:0:0:
448,192,194048,128,0,194381:0:0:0:0:
320,192,194381,128,0,195048:0:0:0:0:
448,192,194714,128,0,195048:0:0:0:0:
192,192,195214,128,0,195298:0:0:0:0:
192,192,195381,128,0,195548:0:0:0:0:
448,192,195381,128,0,196714:0:0:0:0:
320,192,195548,128,0,195631:0:0:0:0:
320,192,195714,128,0,195881:0:0:0:0:
64,192,195881,128,0,195964:0:0:0:0:
64,192,196048,128,0,196381:0:0:0:0:
320,192,196381,128,0,197048:0:0:0:0:
64,192,196714,128,0,197048:0:0:0:0:
192,192,196714,128,0,197381:0:0:0:0:
448,192,197048,128,0,197714:0:0:0:0:
64,192,197381,128,0,198048:0:0:0:0:
320,192,197381,128,0,197714:0:0:0:0:
192,192,197881,128,0,197964:0:0:0:0:
192,192,198048,128,0,198381:0:0:0:0:
448,192,198048,128,0,199381:0:0:0:0:
320,192,198381,128,0,199048:0:0:0:0:
64,192,198714,128,0,199048:0:0:0:0:
192,192,199048,128,0,199714:0:0:0:0:
64,192,199381,128,0,200714:0:0:0:0:
320,192,199381,128,0,199714:0:0:0:0:
448,192,199714,128,0,200048:0:0:0:0:
192,192,199881,128,0,200214:0:0:0:0:
320,192,200048,128,0,200214:0:0:0:0:
448,192,200381,128,0,200714:0:0:0:0:
192,192,200714,128,0,200881:0:0:0:0:
320,192,200714,128,0,201048:0:0:0:0:
64,192,201048,128,0,201381:0:0:0:0:
448,192,201048,128,0,201214:0:0:0:0:
192,192,201214,128,0,201381:0:0:0:0:
320,192,201381,128,0,201548:0:0:0:0:
448,192,201381,128,0,201714:0:0:0:0:
64,192,201714,128,0,201964:0:0:0:0:
192,192,201714,128,0,201881:0:0:0:0:
320,192,201881,1,0,0:0:0:0:
192,192,201964,1,0,0:0:0:0:
64,192,202048,1,8,0:0:0:0:
320,192,202048,1,0,0:0:0:60:Hat Open.wav
448,192,202048,1,0,0:0:0:0:
192,192,202214,1,0,0:0:0:50:Tom2.wav
448,192,202214,1,0,0:0:0:0:
320,192,202381,128,0,202631:0:0:0:0:
64,192,202548,1,8,0:0:0:0:
192,192,202548,1,0,0:0:0:60:Hat Open.wav
448,192,202548,1,0,0:0:0:0:
64,192,202714,128,8,202964:0:0:0:0:
320,192,202714,1,0,0:0:0:0:
448,192,202714,1,0,0:0:0:0:
192,192,202881,1,0,0:0:0:50:Tom2.wav
320,192,202881,1,0,0:0:0:0:
64,192,203048,1,0,0:0:0:50:Tom3.wav
448,192,203048,128,0,203298:0:0:0:0:
192,192,203214,1,0,0:0:0:50:Tom3.wav
320,192,203214,1,0,0:0:0:0:
64,192,203381,1,4,0:0:0:0:
192,192,203381,128,2,203714:0:0:0:0:
448,192,203381,1,0,0:0:0:0:
320,192,203548,1,0,0:0:0:0:
64,192,203714,1,2,0:0:0:0:
448,192,203714,1,0,0:0:0:60:Hat Open.wav
192,192,203881,1,0,0:0:0:0:
64,192,204048,1,8,0:0:0:0:
320,192,204048,1,0,0:0:0:60:Hat Open.wav
448,192,204048,128,0,204298:0:0:0:0:
192,192,204214,1,0,0:0:0:0:
64,192,204381,128,4,204631:0:0:0:0:
192,192,204381,1,8,0:0:0:0:
448,192,204381,1,0,0:0:0:0:
320,192,204548,1,0,0:0:0:0:
64,192,204714,1,2,0:0:0:0:
320,192,204714,128,0,205214:0:0:0:60:Hat Open.wav
64,192,204881,1,8,0:0:0:0:
192,192,204881,1,0,0:0:0:0:
448,192,204881,1,0,0:0:0:0:
192,192,205048,1,2,0:0:0:0:
448,192,205048,1,0,0:0:0:60:Hat Open.wav
64,192,205214,1,0,0:0:0:0:
192,192,205381,128,8,205631:0:0:0:0:
320,192,205381,1,0,0:0:0:60:Hat Open.wav
448,192,205381,1,0,0:0:0:0:
64,192,205548,1,0,0:0:0:0:
192,192,205714,1,2,0:0:0:0:
448,192,205714,128,0,205881:0:0:0:60:Hat Open.wav
64,192,205881,1,8,0:0:0:0:
192,192,205881,1,0,0:0:0:0:
320,192,205881,1,0,0:0:0:0:
64,192,206048,1,4,0:0:0:0:
320,192,206048,1,2,0:0:0:0:
448,192,206048,128,0,206881:0:0:0:0:
192,192,206214,1,0,0:0:0:0:
64,192,206381,1,2,0:0:0:0:
192,192,206381,1,0,0:0:0:60:Hat Open.wav
320,192,206548,1,0,0:0:0:0:
64,192,206714,1,8,0:0:0:0:
192,192,206714,1,0,0:0:0:60:Hat Open.wav
320,192,206714,1,0,0:0:0:0:
64,192,206881,1,0,0:0:0:0:
192,192,207048,1,8,0:0:0:0:
320,192,207048,128,4,207214:0:0:0:0:
448,192,207048,1,0,0:0:0:0:
64,192,207214,1,0,0:0:0:0:
192,192,207381,128,2,207881:0:0:0:0:
320,192,207381,1,0,0:0:0:60:Hat Open.wav
64,192,207548,1,8,0:0:0:0:
320,192,207548,1,4,0:0:0:0:
448,192,207548,1,0,0:0:0:0:
64,192,207714,1,2,0:0:0:0:
448,192,207714,1,0,0:0:0:60:Hat Open.wav
320,192,207881,1,0,0:0:0:0:
64,192,208048,1,8,0:0:0:0:
192,192,208048,1,0,0:0:0:60:Hat Open.wav
448,192,208048,1,0,0:0:0:0:
320,192,208214,1,0,0:0:0:0:
64,192,208381,128,2,208631:0:0:0:0:
192,192,208381,1,0,0:0:0:60:Hat Open.wav
192,192,208548,1,8,0:0:0:0:
320,192,208548,1,0,0:0:0:0:
448,192,208548,1,0,0:0:0:0:
64,192,208714,1,2,0:0:0:0:
320,192,208714,1,4,0:0:0:0:
448,192,208714,128,0,208964:0:0:0:0:
192,192,208881,1,0,0:0:0:0:
192,192,209048,128,2,209298:0:0:0:0:
448,192,209048,1,0,0:0:0:60:Hat Open.wav
64,192,209214,1,0,0:0:0:0:
192,192,209381,1,8,0:0:0:0:
320,192,209381,128,0,209631:0:0:0:60:Hat Open.wav
448,192,209381,1,0,0:0:0:0:
64,192,209548,1,0,0:0:0:0:
64,192,209714,128,8,209964:0:0:0:0:
320,192,209714,1,4,0:0:0:0:
448,192,209714,1,0,0:0:0:0:
192,192,209881,1,0,0:0:0:0:
64,192,210048,1,2,0:0:0:0:
448,192,210048,128,0,210298:0:0:0:60:Hat Open.wav
64,192,210214,1,8,0:0:0:0:
192,192,210214,1,0,0:0:0:0:
320,192,210214,1,0,0:0:0:0:
192,192,210381,128,2,210548:0:0:0:0:
448,192,210381,1,0,0:0:0:60:Hat Open.wav
320,192,210548,128,0,210714:0:0:0:0:
64,192,210714,128,8,210964:0:0:0:0:
192,192,210714,1,0,0:0:0:60:Hat Open.wav
448,192,210714,1,0,0:0:0:0:
320,192,210881,1,0,0:0:0:0:
64,192,211048,1,2,0:0:0:0:
448,192,211048,128,0,211298:0:0:0:60:Hat Open.wav
64,192,211214,1,8,0:0:0:0:
192,192,211214,1,0,0:0:0:0:
320,192,211214,1,0,0:0:0:0:
64,192,211381,1,2,0:0:0:0:
192,192,211381,128,4,211548:0:0:0:0:
448,192,211381,1,0,0:0:0:0:
320,192,211548,1,0,0:0:0:0:
192,192,211714,1,2,0:0:0:0:
448,192,211714,1,0,0:0:0:60:Hat Open.wav
64,192,211881,128,0,212048:0:0:0:0:
192,192,212048,1,8,0:0:0:0:
320,192,212048,1,0,0:0:0:60:Hat Open.wav
448,192,212048,128,0,212298:0:0:0:0:
192,192,212214,1,0,0:0:0:0:
64,192,212381,128,8,212631:0:0:0:0:
320,192,212381,1,0,0:0:0:60:Hat Open.wav
448,192,212381,1,0,0:0:0:0:
192,192,212548,1,0,0:0:0:0:
64,192,212714,1,2,0:0:0:0:
320,192,212714,128,0,213048:0:0:0:60:Hat Open.wav
192,192,212937,1,8,0:0:0:0:
64,192,213048,1,2,0:0:0:0:
448,192,213048,1,0,0:0:0:60:Hat Open.wav
192,192,213159,1,8,0:0:0:0:
320,192,213270,1,8,0:0:0:0:
448,192,213270,1,0,0:0:0:0:
320,192,213381,1,8,0:0:0:0:
448,192,213381,1,0,0:0:0:0:
64,192,213492,1,8,0:0:0:0:
192,192,213492,1,0,0:0:0:0:
192,192,213603,1,8,0:0:0:0:
320,192,213603,1,0,0:0:0:0:
320,192,213714,1,2,0:0:0:0:
448,192,213714,1,0,0:0:0:50:Tom1.wav
64,192,213826,1,0,0:0:0:50:Tom2.wav
192,192,213826,1,0,0:0:0:0:
320,192,213937,1,0,0:0:0:50:Tom3.wav
64,192,214048,1,4,0:0:0:0:
192,192,214048,128,2,214214:0:0:0:0:
448,192,214048,1,0,0:0:0:0:
320,192,214214,128,0,214381:0:0:0:0:
192,192,214381,1,2,0:0:0:0:
448,192,214381,1,0,0:0:0:60:Hat Open.wav
64,192,214548,128,0,214714:0:0:0:0:
192,192,214714,1,8,0:0:0:0:
320,192,214714,1,0,0:0:0:60:Hat Open.wav
448,192,214714,128,0,214881:0:0:0:0:
192,192,214881,1,0,0:0:0:0:
64,192,215048,128,8,215214:0:0:0:0:
320,192,215048,1,4,0:0:0:0:
448,192,215048,1,0,0:0:0:0:
448,192,215214,1,0,0:0:0:0:
192,192,215381,1,2,0:0:0:0:
320,192,215381,128,0,215548:0:0:0:60:Hat Open.wav
64,192,215548,1,8,0:0:0:0:
192,192,215548,1,0,0:0:0:0:
448,192,215548,1,0,0:0:0:0:
64,192,215714,128,2,215881:0:0:0:0:
320,192,215714,1,0,0:0:0:60:Hat Open.wav
192,192,215881,1,0,0:0:0:0:
64,192,216048,1,8,0:0:0:0:
320,192,216048,1,0,0:0:0:60:Hat Open.wav
448,192,216048,128,0,216214:0:0:0:0:
192,192,216214,1,0,0:0:0:0:
192,192,216381,128,2,216631:0:0:0:0:
448,192,216381,1,0,0:0:0:60:Hat Open.wav
64,192,216548,1,8,0:0:0:0:
320,192,216548,1,0,0:0:0:0:
448,192,216548,1,0,0:0:0:0:
64,192,216714,1,4,0:0:0:0:
192,192,216714,1,2,0:0:0:0:
320,192,216714,128,0,216964:0:0:0:0:
448,192,216881,1,0,0:0:0:0:
64,192,217048,1,2,0:0:0:0:
320,192,217048,128,0,217298:0:0:0:60:Hat Open.wav
192,192,217214,1,0,0:0:0:0:
64,192,217381,128,8,217631:0:0:0:0:
320,192,217381,1,0,0:0:0:60:Hat Open.wav
448,192,217381,1,0,0:0:0:0:
192,192,217548,1,0,0:0:0:0:
64,192,217714,1,2,0:0:0:0:
448,192,217714,128,0,217881:0:0:0:60:Hat Open.wav
64,192,217881,1,8,0:0:0:0:
192,192,217881,1,0,0:0:0:0:
320,192,217881,1,0,0:0:0:0:
192,192,218048,128,2,218381:0:0:0:0:
448,192,218048,1,0,0:0:0:60:Hat Open.wav
64,192,218214,1,8,0:0:0:0:
320,192,218214,1,0,0:0:0:0:
448,192,218214,1,0,0:0:0:0:
64,192,218381,1,2,0:0:0:0:
320,192,218381,1,0,0:0:0:60:Hat Open.wav
64,192,218548,1,8,0:0:0:0:
448,192,218548,1,0,0:0:0:0:
192,192,218631,1,8,0:0:0:0:
320,192,218631,1,0,0:0:0:0:
64,192,218714,1,8,0:0:0:0:
448,192,218714,1,0,0:0:0:0:
192,192,218881,1,0,0:0:0:50:Tom1.wav
448,192,218881,1,0,0:0:0:0:
192,192,219048,1,0,0:0:0:50:Tom2.wav
320,192,219048,1,0,0:0:0:0:
64,192,219214,128,0,219298:0:0:0:50:Tom3.wav
320,192,219214,1,0,0:0:0:0:
64,192,219381,128,4,219548:0:0:0:0:
192,192,219381,1,2,0:0:0:0:
448,192,219381,1,0,0:0:0:0:
320,192,219548,128,0,219714:0:0:0:0:
192,192,219714,128,2,219881:0:0:0:0:
448,192,219714,1,0,0:0:0:60:Hat Open.wav
448,192,219881,128,0,220048:0:0:0:0:
64,192,220048,128,8,220214:0:0:0:0:
192,192,220048,1,0,0:0:0:60:Hat Open.wav
320,192,220048,1,0,0:0:0:0:
320,192,220214,1,0,0:0:0:0:
64,192,220381,1,8,0:0:0:0:
192,192,220381,1,4,0:0:0:0:
448,192,220381,128,0,220548:0:0:0:0:
192,192,220548,1,0,0:0:0:0:
64,192,220714,128,2,220881:0:0:0:0:
320,192,220714,1,0,0:0:0:60:Hat Open.wav
192,192,220881,1,8,0:0:0:0:
320,192,220881,1,0,0:0:0:0:
448,192,220881,1,0,0:0:0:0:
64,192,221048,1,2,0:0:0:0:
448,192,221048,128,0,221214:0:0:0:60:Hat Open.wav
192,192,221214,1,0,0:0:0:0:
64,192,221381,128,8,221548:0:0:0:0:
320,192,221381,1,0,0:0:0:60:Hat Open.wav
448,192,221381,1,0,0:0:0:0:
192,192,221548,1,0,0:0:0:0:
64,192,221714,1,2,0:0:0:0:
448,192,221714,128,0,221964:0:0:0:60:Hat Open.wav
320,192,221881,1,0,0:0:0:0:
64,192,222048,1,8,0:0:0:0:
192,192,222048,128,4,222298:0:0:0:0:
448,192,222048,1,0,0:0:0:0:
192,192,222381,1,2,0:0:0:0:
320,192,222381,128,0,222631:0:0:0:60:Hat Open.wav
64,192,222548,1,8,0:0:0:0:
192,192,222548,1,0,0:0:0:0:
448,192,222548,1,0,0:0:0:0:
64,192,222714,128,2,222964:0:0:0:0:
320,192,222714,1,0,0:0:0:60:Hat Open.wav
192,192,222881,1,0,0:0:0:0:
64,192,223048,1,8,0:0:0:0:
320,192,223048,1,4,0:0:0:0:
448,192,223048,128,0,223298:0:0:0:0:
64,192,223381,1,8,0:0:0:0:
192,192,223381,1,0,0:0:0:50:Tom3.wav
448,192,223381,1,0,0:0:0:0:
192,192,223631,1,8,0:0:0:0:
320,192,223631,1,0,0:0:0:50:Tom3.wav
448,192,223631,1,0,0:0:0:0:
64,192,223881,1,8,0:0:0:0:
192,192,223881,1,0,0:0:0:50:Tom3.wav
320,192,223881,1,0,0:0:0:0:
64,192,224048,1,8,0:0:0:0:
320,192,224048,1,0,0:0:0:60:Hat Open.wav
448,192,224048,1,0,0:0:0:50:Tom3.wav
64,192,224298,1,8,0:0:0:0:
192,192,224298,1,0,0:0:0:60:Hat Open.wav
448,192,224298,1,0,0:0:0:50:Tom3.wav
192,192,224548,1,8,0:0:0:0:
320,192,224548,1,0,0:0:0:50:Tom3.wav
448,192,224548,1,0,0:0:0:0:
64,192,224714,128,0,225048:0:0:0:60:Hat Open.wav
192,192,225048,128,0,225381:0:0:0:0:
320,192,225381,128,0,225714:0:0:0:0:
64,192,225714,128,0,225798:0:0:0:0:
448,192,225881,128,0,226048:0:0:0:0:
192,192,226048,128,0,226214:0:0:0:0:
320,192,226214,128,0,226298:0:0:0:0:
64,192,226298,128,0,226548:0:0:0:0:
192,192,226381,128,0,226548:0:0:0:0:
448,192,226381,128,0,226714:0:0:0:0:
320,192,226548,128,0,226881:0:0:0:0:
64,192,226714,128,0,226881:0:0:0:0:
192,192,226714,128,0,226881:0:0:0:0:
64,192,227048,128,0,227131:0:0:0:0:
448,192,227048,128,0,227131:0:0:0:0:
320,192,227131,128,0,227214:0:0:0:0:
192,192,227214,128,0,227298:0:0:0:0:
320,192,227298,128,0,227381:0:0:0:0:
64,192,227381,128,2,227631:0:0:0:0:
192,192,227381,1,4,0:0:0:0:
448,192,227381,128,0,227631:0:0:0:0:
320,192,227548,1,0,0:0:0:0:
64,192,227714,1,8,0:0:0:0:
320,192,227714,128,0,227964:0:0:0:60:Hat Open.wav
448,192,227714,1,0,0:0:0:0:
192,192,227881,1,0,0:0:0:0:
64,192,228048,128,2,228298:0:0:0:0:
320,192,228048,1,0,0:0:0:60:Hat Open.wav
192,192,228214,1,2,0:0:0:0:
448,192,228214,1,0,0:0:0:0:
64,192,228381,1,8,0:0:0:0:
320,192,228381,1,0,0:0:0:60:Hat Open.wav
448,192,228381,128,0,228464:0:0:0:0:
192,192,228548,128,0,228714:0:0:0:0:
320,192,228714,128,2,228881:0:0:0:0:
448,192,228714,1,0,0:0:0:60:Hat Open.wav
64,192,228881,128,0,229048:0:0:0:0:
192,192,229048,1,8,0:0:0:0:
320,192,229048,1,0,0:0:0:60:Hat Open.wav
448,192,229048,128,0,229131:0:0:0:0:
448,192,229214,128,0,229381:0:0:0:0:
64,192,229381,1,2,0:0:0:0:
192,192,229381,128,0,229548:0:0:0:60:Hat Open.wav
320,192,229548,1,2,0:0:0:0:
448,192,229548,1,0,0:0:0:0:
64,192,229714,1,8,0:0:0:0:
192,192,229714,1,0,0:0:0:60:Hat Open.wav
320,192,229714,128,0,229964:0:0:0:0:
448,192,229881,1,0,0:0:0:0:
64,192,230048,128,2,230298:0:0:0:0:
320,192,230048,1,0,0:0:0:60:Hat Open.wav
192,192,230214,1,0,0:0:0:0:
64,192,230381,1,8,0:0:0:0:
320,192,230381,1,0,0:0:0:60:Hat Open.wav
448,192,230381,128,0,230631:0:0:0:0:
192,192,230548,1,0,0:0:0:0:
192,192,230714,128,2,230964:0:0:0:0:
448,192,230714,1,0,0:0:0:60:Hat Open.wav
64,192,230881,1,2,0:0:0:0:
320,192,230881,1,0,0:0:0:0:
192,192,231048,1,8,0:0:0:0:
320,192,231048,128,0,231298:0:0:0:60:Hat Open.wav
448,192,231048,1,0,0:0:0:0:
64,192,231214,1,0,0:0:0:0:
320,192,231381,128,2,231714:0:0:0:0:
448,192,231381,1,0,0:0:0:60:Hat Open.wav
64,192,231548,1,2,0:0:0:0:
192,192,231548,1,0,0:0:0:0:
64,192,231714,1,8,0:0:0:0:
192,192,231714,1,0,0:0:0:60:Hat Open.wav
448,192,231714,1,0,0:0:0:0:
320,192,231881,1,2,0:0:0:0:
448,192,231881,1,0,0:0:0:0:
64,192,232048,128,8,232214:0:0:0:0:
192,192,232048,1,0,0:0:0:60:Hat Open.wav
320,192,232048,1,0,0:0:0:0:
192,192,232214,1,2,0:0:0:0:
448,192,232214,1,0,0:0:0:0:
64,192,232381,1,8,0:0:0:0:
320,192,232381,1,0,0:0:0:60:Hat Open.wav
448,192,232381,1,0,0:0:0:0:
192,192,232548,128,0,232631:0:0:0:0:
64,192,232714,1,4,0:0:0:0:
192,192,232714,1,2,0:0:0:0:
448,192,232714,128,0,232964:0:0:0:0:
320,192,232881,1,0,0:0:0:0:
64,192,233048,128,8,233214:0:0:0:0:
192,192,233048,1,0,0:0:0:60:Hat Open.wav
448,192,233048,1,0,0:0:0:0:
320,192,233214,128,0,233298:0:0:0:0:
192,192,233381,1,2,0:0:0:0:
320,192,233381,128,0,233548:0:0:0:60:Hat Open.wav
64,192,233548,128,2,233714:0:0:0:0:
448,192,233548,1,0,0:0:0:0:
192,192,233714,1,8,0:0:0:0:
320,192,233714,1,0,0:0:0:60:Hat Open.wav
448,192,233714,1,0,0:0:0:0:
192,192,233881,128,0,234048:0:0:0:0:
320,192,234048,128,2,234214:0:0:0:0:
448,192,234048,1,0,0:0:0:60:Hat Open.wav
64,192,234214,128,0,234381:0:0:0:0:
192,192,234381,1,8,0:0:0:0:
320,192,234381,128,0,234548:0:0:0:60:Hat Open.wav
448,192,234381,1,0,0:0:0:0:
192,192,234548,128,0,234631:0:0:0:0:
192,192,234714,128,2,234881:0:0:0:0:
448,192,234714,1,0,0:0:0:60:Hat Open.wav
64,192,234881,1,2,0:0:0:0:
320,192,234881,128,0,234964:0:0:0:0:
64,192,235048,1,8,0:0:0:0:
192,192,235048,1,0,0:0:0:60:Hat Open.wav
448,192,235048,128,0,235631:0:0:0:0:
320,192,235214,1,0,0:0:0:0:
64,192,235381,1,2,0:0:0:0:
320,192,235381,128,0,235631:0:0:0:60:Hat Open.wav
192,192,235548,1,0,0:0:0:0:
64,192,235714,128,8,236298:0:0:0:0:
320,192,235714,1,0,0:0:0:60:Hat Open.wav
448,192,235714,1,0,0:0:0:0:
192,192,235881,1,0,0:0:0:0:
192,192,236048,128,2,236298:0:0:0:0:
448,192,236048,1,0,0:0:0:60:Hat Open.wav
320,192,236214,1,2,0:0:0:0:
64,192,236381,1,8,0:0:0:0:
192,192,236381,1,0,0:0:0:60:Hat Open.wav
320,192,236381,128,0,236548:0:0:0:0:
448,192,236548,128,0,236631:0:0:0:0:
64,192,236714,1,2,0:0:0:0:
448,192,236714,128,0,236964:0:0:0:60:Hat Open.wav
192,192,236881,1,0,0:0:0:0:
64,192,237048,1,8,0:0:0:0:
320,192,237048,1,0,0:0:0:60:Hat Open.wav
448,192,237048,1,0,0:0:0:0:
320,192,237214,128,0,237381:0:0:0:0:
64,192,237381,1,2,0:0:0:0:
192,192,237381,128,0,237548:0:0:0:60:Hat Open.wav
320,192,237548,1,8,0:0:0:0:
448,192,237548,1,0,0:0:0:0:
64,192,237631,1,8,0:0:0:0:
192,192,237631,1,0,0:0:0:0:
320,192,237714,1,8,0:0:0:0:
448,192,237714,1,0,0:0:0:0:
192,192,237798,1,0,0:0:0:0:
64,192,237881,1,8,0:0:0:0:
448,192,237881,1,0,0:0:0:0:
320,192,237964,1,8,0:0:0:0:
64,192,238048,128,4,238298:0:0:0:0:
192,192,238048,128,2,238298:0:0:0:0:
448,192,238048,1,0,0:0:0:0:
320,192,238214,1,0,0:0:0:0:
64,192,238381,1,8,0:0:0:0:
320,192,238381,128,0,238548:0:0:0:60:Hat Open.wav
448,192,238381,1,0,0:0:0:0:
192,192,238548,128,0,238714:0:0:0:0:
320,192,238714,1,2,0:0:0:0:
448,192,238714,128,0,238798:0:0:0:60:Hat Open.wav
64,192,238881,1,2,0:0:0:0:
192,192,238881,1,0,0:0:0:0:
64,192,239048,1,8,0:0:0:0:
320,192,239048,128,0,239298:0:0:0:60:Hat Open.wav
448,192,239048,1,0,0:0:0:0:
192,192,239214,128,0,239464:0:0:0:0:
64,192,239381,1,2,0:0:0:0:
448,192,239381,1,0,0:0:0:60:Hat Open.wav
192,192,239548,128,0,239714:0:0:0:0:
64,192,239714,128,8,239881:0:0:0:0:
320,192,239714,1,0,0:0:0:60:Hat Open.wav
448,192,239714,128,0,239881:0:0:0:0:
192,192,239881,1,0,0:0:0:0:
320,192,240048,128,2,240214:0:0:0:0:
448,192,240048,128,0,240214:0:0:0:60:Hat Open.wav
64,192,240214,1,2,0:0:0:0:
192,192,240214,1,0,0:0:0:0:
64,192,240381,128,8,240631:0:0:0:0:
320,192,240381,1,0,0:0:0:60:Hat Open.wav
448,192,240381,1,0,0:0:0:0:
192,192,240548,1,0,0:0:0:0:
64,192,240714,1,2,0:0:0:0:
320,192,240714,128,0,240881:0:0:0:60:Hat Open.wav
448,192,240881,1,0,0:0:0:0:
64,192,241048,1,8,0:0:0:0:
192,192,241048,128,0,241214:0:0:0:60:Hat Open.wav
320,192,241048,1,0,0:0:0:0:
448,192,241214,128,0,241381:0:0:0:0:
64,192,241381,128,2,241548:0:0:0:0:
320,192,241381,1,0,0:0:0:60:Hat Open.wav
192,192,241548,1,2,0:0:0:0:
320,192,241548,1,0,0:0:0:0:
64,192,241714,1,8,0:0:0:0:
192,192,241714,128,0,241964:0:0:0:60:Hat Open.wav
448,192,241714,1,0,0:0:0:0:
320,192,241881,128,0,242131:0:0:0:0:
64,192,242048,1,2,0:0:0:0:
448,192,242048,1,0,0:0:0:60:Hat Open.wav
320,192,242214,128,0,242381:0:0:0:0:
64,192,242381,128,8,242548:0:0:0:0:
192,192,242381,1,0,0:0:0:60:Hat Open.wav
448,192,242381,128,0,242548:0:0:0:0:
320,192,242548,1,0,0:0:0:0:
64,192,242714,128,2,242881:0:0:0:0:
192,192,242714,128,0,242881:0:0:0:60:Hat Open.wav
320,192,242881,1,2,0:0:0:0:
448,192,242881,1,0,0:0:0:0:
64,192,243048,1,8,0:0:0:0:
192,192,243048,1,0,0:0:0:60:Hat Open.wav
448,192,243048,1,0,0:0:0:0:
320,192,243214,128,0,243298:0:0:0:0:
64,192,243381,1,2,0:0:0:0:
320,192,243381,128,4,243548:0:0:0:0:
448,192,243381,1,0,0:0:0:0:
192,192,243548,128,0,243714:0:0:0:0:
64,192,243714,1,8,0:0:0:0:
320,192,243714,1,0,0:0:0:60:Hat Open.wav
448,192,243714,128,0,243881:0:0:0:0:
64,192,243881,128,0,244048:0:0:0:0:
320,192,244048,128,2,244214:0:0:0:0:
448,192,244048,1,0,0:0:0:60:Hat Open.wav
64,192,244214,1,2,0:0:0:0:
192,192,244214,1,0,0:0:0:0:
64,192,244381,1,8,0:0:0:0:
320,192,244381,1,0,0:0:0:60:Hat Open.wav
448,192,244381,1,0,0:0:0:0:
192,192,244548,128,0,244714:0:0:0:0:
320,192,244714,128,2,244881:0:0:0:0:
448,192,244714,1,0,0:0:0:60:Hat Open.wav
64,192,244881,128,0,244964:0:0:0:0:
64,192,245048,128,8,245214:0:0:0:0:
192,192,245048,1,0,0:0:0:60:Hat Open.wav
448,192,245048,1,0,0:0:0:0:
320,192,245214,128,0,245381:0:0:0:0:
192,192,245381,128,2,245548:0:0:0:0:
448,192,245381,1,0,0:0:0:60:Hat Open.wav
64,192,245548,1,2,0:0:0:0:
448,192,245548,128,0,245714:0:0:0:0:
64,192,245714,128,8,246298:0:0:0:0:
192,192,245714,1,0,0:0:0:60:Hat Open.wav
320,192,245714,1,0,0:0:0:0:
320,192,245881,1,0,0:0:0:0:
192,192,246048,128,2,246298:0:0:0:0:
448,192,246048,1,0,0:0:0:60:Hat Open.wav
320,192,246214,1,0,0:0:0:0:
64,192,246381,1,8,0:0:0:0:
192,192,246381,1,0,0:0:0:60:Hat Open.wav
448,192,246381,128,0,246964:0:0:0:0:
320,192,246548,1,0,0:0:0:0:
192,192,246714,1,2,0:0:0:0:
320,192,246714,128,0,246964:0:0:0:60:Hat Open.wav
64,192,246881,1,2,0:0:0:0:
64,192,247048,128,8,247298:0:0:0:0:
320,192,247048,1,0,0:0:0:60:Hat Open.wav
448,192,247048,1,0,0:0:0:0:
192,192,247214,1,0,0:0:0:0:
64,192,247381,1,2,0:0:0:0:
448,192,247381,128,0,247548:0:0:0:60:Hat Open.wav
320,192,247464,1,0,0:0:0:0:
64,192,247548,1,8,0:0:0:0:
192,192,247548,1,0,0:0:0:0:
320,192,247631,1,8,0:0:0:0:
448,192,247631,1,0,0:0:0:0:
64,192,247714,1,8,0:0:0:0:
192,192,247714,1,0,0:0:0:0:
320,192,247881,1,0,0:0:0:60:Hat Open.wav
64,192,248048,1,2,0:0:0:0:
320,192,248048,1,8,0:0:0:0:
448,192,248048,1,0,0:0:0:0:
192,192,248214,1,8,0:0:0:0:
448,192,248214,1,0,0:0:0:0:
64,192,248298,1,8,0:0:0:0:
320,192,248298,1,0,0:0:0:0:
192,192,248381,1,8,0:0:0:0:
448,192,248381,1,0,0:0:0:0:
64,192,248548,1,8,0:0:0:0:
320,192,248548,1,0,0:0:0:0:
192,192,248631,1,8,0:0:0:0:
64,192,248714,1,4,0:0:0:0:
320,192,248714,128,2,248964:0:0:0:0:
448,192,248714,128,0,248964:0:0:0:0:
192,192,248881,1,0,0:0:0:0:
64,192,249048,128,8,249298:0:0:0:0:
192,192,249048,128,2,249298:0:0:0:0:
448,192,249048,1,4,0:0:0:30:soft-hitfinish.wav
320,192,249214,1,0,0:0:0:0:
64,192,249381,128,2,249631:0:0:0:0:
448,192,249381,128,0,249631:0:0:0:25:Ride.wav
192,192,249548,1,2,0:0:0:0:
64,192,249714,1,8,0:0:0:0:
320,192,249714,1,0,0:0:0:25:Ride.wav
448,192,249714,1,0,0:0:0:0:
64,192,249881,1,0,0:0:0:0:
192,192,250048,1,2,0:0:0:0:
320,192,250048,128,0,250298:0:0:0:25:Ride.wav
448,192,250048,128,0,250298:0:0:0:0:
64,192,250381,128,8,250464:0:0:0:0:
192,192,250381,128,0,250464:0:0:0:0:
448,192,250381,1,0,0:0:0:0:
64,192,250548,128,0,250714:0:0:0:0:
192,192,250548,128,0,250714:0:0:0:0:
320,192,250714,128,2,250881:0:0:0:0:
448,192,250714,128,0,250881:0:0:0:25:Ride.wav
64,192,250881,1,2,0:0:0:0:
192,192,250881,1,0,0:0:0:0:
64,192,251048,128,8,251298:0:0:0:0:
320,192,251048,1,0,0:0:0:0:
448,192,251048,1,0,0:0:0:0:
192,192,251214,1,0,0:0:0:0:
64,192,251381,1,2,0:0:0:0:
448,192,251381,128,0,251631:0:0:0:25:Ride.wav
320,192,251548,1,0,0:0:0:0:
64,192,251714,1,8,0:0:0:0:
192,192,251714,128,0,251964:0:0:0:0:
448,192,251714,1,0,0:0:0:0:
320,192,251881,1,0,0:0:0:0:
192,192,252048,1,2,0:0:0:0:
320,192,252048,128,0,252298:0:0:0:0:
64,192,252214,1,2,0:0:0:0:
448,192,252214,1,0,0:0:0:0:
64,192,252381,1,8,0:0:0:0:
192,192,252381,1,0,0:0:0:25:Ride.wav
320,192,252381,128,0,252631:0:0:0:0:
448,192,252548,1,0,0:0:0:0:
64,192,252714,128,2,252964:0:0:0:0:
320,192,252714,1,0,0:0:0:25:Ride.wav
192,192,252881,1,0,0:0:0:0:
64,192,253048,1,8,0:0:0:0:
320,192,253048,1,0,0:0:0:0:
448,192,253048,128,0,253298:0:0:0:0:
192,192,253214,128,0,253464:0:0:0:0:
64,192,253381,1,2,0:0:0:0:
320,192,253381,128,0,253631:0:0:0:25:Ride.wav
192,192,253548,1,2,0:0:0:0:
448,192,253548,1,0,0:0:0:0:
64,192,253714,1,8,0:0:0:0:
192,192,253714,1,0,0:0:0:25:Ride.wav
320,192,253714,1,0,0:0:0:0:
64,192,254048,128,4,254298:0:0:0:0:
192,192,254048,128,2,254298:0:0:0:0:
448,192,254048,1,0,0:0:0:0:
320,192,254214,1,0,0:0:0:0:
64,192,254381,1,8,0:0:0:0:
320,192,254381,128,0,254631:0:0:0:25:Ride.wav
448,192,254381,128,0,254631:0:0:0:0:
192,192,254548,1,0,0:0:0:0:
64,192,254714,128,2,254964:0:0:0:0:
448,192,254714,128,0,254964:0:0:0:25:Ride.wav
320,192,254881,1,2,0:0:0:0:
64,192,255048,1,8,0:0:0:0:
192,192,255048,1,0,0:0:0:0:
448,192,255048,1,0,0:0:0:0:
448,192,255214,1,0,0:0:0:0:
64,192,255381,128,2,255631:0:0:0:0:
192,192,255381,128,0,255631:0:0:0:25:Ride.wav
320,192,255381,1,0,0:0:0:0:
64,192,255714,1,8,0:0:0:0:
320,192,255714,128,0,255798:0:0:0:0:
448,192,255714,128,0,255798:0:0:0:0:
320,192,255881,128,0,256048:0:0:0:0:
448,192,255881,128,0,256048:0:0:0:0:
64,192,256048,128,2,256214:0:0:0:0:
192,192,256048,128,0,256214:0:0:0:0:
320,192,256214,1,2,0:0:0:0:
448,192,256214,1,0,0:0:0:0:
64,192,256381,1,8,0:0:0:0:
192,192,256381,1,0,0:0:0:0:
448,192,256381,128,0,256631:0:0:0:0:
320,192,256548,1,0,0:0:0:0:
192,192,256714,128,2,256964:0:0:0:0:
448,192,256714,1,0,0:0:0:25:Ride.wav
64,192,256881,1,0,0:0:0:0:
192,192,257048,1,8,0:0:0:0:
320,192,257048,128,0,257298:0:0:0:25:Ride.wav
448,192,257048,1,0,0:0:0:0:
64,192,257214,1,0,0:0:0:0:
64,192,257381,128,2,257631:0:0:0:0:
320,192,257381,1,0,0:0:0:25:Ride.wav
192,192,257548,1,2,0:0:0:0:
448,192,257548,1,0,0:0:0:0:
64,192,257714,1,8,0:0:0:0:
320,192,257714,1,0,0:0:0:0:
448,192,257714,128,0,257964:0:0:0:0:
192,192,257881,1,0,0:0:0:0:
192,192,258048,128,2,258298:0:0:0:0:
448,192,258048,1,0,0:0:0:25:Ride.wav
64,192,258214,1,2,0:0:0:0:
320,192,258214,1,0,0:0:0:0:
192,192,258381,1,8,0:0:0:0:
320,192,258381,128,0,258631:0:0:0:0:
448,192,258381,1,0,0:0:0:0:
64,192,258548,128,2,258798:0:0:0:0:
192,192,258548,1,0,0:0:0:0:
320,192,258714,1,0,0:0:0:50:Tom2.wav
448,192,258714,128,0,258964:0:0:0:0:
64,192,258881,1,2,0:0:0:0:
192,192,258881,1,0,0:0:0:0:
320,192,258964,1,2,0:0:0:0:
64,192,259048,1,8,0:0:0:0:
192,192,259048,1,4,0:0:0:0:
448,192,259048,1,0,0:0:0:0:
192,192,259214,1,2,0:0:0:0:
320,192,259214,1,0,0:0:0:0:
64,192,259381,1,4,0:0:0:0:
320,192,259381,128,8,259548:0:0:0:0:
448,192,259381,128,0,259548:0:0:0:0:
64,192,259548,1,2,0:0:0:0:
192,192,259548,1,0,0:0:0:0:
192,192,259714,128,8,259881:0:0:0:0:
320,192,259714,128,0,259881:0:0:0:0:
448,192,259714,1,0,0:0:0:0:
64,192,259881,1,2,0:0:0:0:
448,192,259881,1,0,0:0:0:0:
64,192,260048,128,8,260214:0:0:0:0:
192,192,260048,128,0,260214:0:0:0:0:
320,192,260048,1,0,0:0:0:0:
320,192,260214,1,2,0:0:0:0:
448,192,260214,1,0,0:0:0:0:
64,192,260381,1,8,0:0:0:0:
192,192,260381,1,0,0:0:0:0:
448,192,260381,1,0,0:0:0:0:
64,192,260548,1,2,0:0:0:0:
320,192,260548,1,0,0:0:0:0:
192,192,260631,1,2,0:0:0:0:
64,192,260714,128,8,260964:0:0:0:0:
320,192,260714,1,0,0:0:0:0:
448,192,260714,128,0,260964:0:0:0:0:
192,192,260881,1,2,0:0:0:0:
64,192,261048,128,8,261131:0:0:0:0:
192,192,261048,128,0,261131:0:0:0:0:
448,192,261048,1,0,0:0:0:0:
192,192,261214,128,2,261298:0:0:0:0:
320,192,261214,128,0,261298:0:0:0:0:
64,192,261381,1,8,0:0:0:0:
320,192,261381,128,0,261548:0:0:0:0:
448,192,261381,128,0,261548:0:0:0:0:
64,192,261548,1,2,0:0:0:0:
192,192,261548,1,0,0:0:0:0:
192,192,261714,128,8,261964:0:0:0:0:
320,192,261714,1,0,0:0:0:0:
448,192,261714,1,0,0:0:0:0:
64,192,261881,1,2,0:0:0:0:
448,192,261881,1,0,0:0:0:0:
320,192,261964,1,2,0:0:0:0:
64,192,262048,1,8,0:0:0:0:
192,192,262048,1,4,0:0:0:0:
448,192,262048,128,0,262298:0:0:0:0:
192,192,262214,1,2,0:0:0:0:
320,192,262214,1,0,0:0:0:0:
64,192,262381,128,8,262631:0:0:0:0:
320,192,262381,1,0,0:0:0:0:
448,192,262381,1,0,0:0:0:0:
192,192,262548,1,2,0:0:0:0:
448,192,262548,1,0,0:0:0:0:
64,192,262714,1,8,0:0:0:0:
192,192,262714,1,0,0:0:0:0:
320,192,262714,128,0,262964:0:0:0:0:
64,192,262881,1,2,0:0:0:0:
448,192,262881,1,0,0:0:0:0:
192,192,263048,128,8,263298:0:0:0:0:
320,192,263048,1,0,0:0:0:0:
448,192,263048,1,0,0:0:0:0:
64,192,263214,1,2,0:0:0:0:
320,192,263214,1,0,0:0:0:0:
448,192,263298,1,2,0:0:0:0:
64,192,263381,128,8,263631:0:0:0:0:
192,192,263381,1,0,0:0:0:0:
320,192,263381,1,0,0:0:0:0:
192,192,263548,1,2,0:0:0:0:
448,192,263548,1,0,0:0:0:0:
64,192,263714,1,8,0:0:0:0:
320,192,263714,1,0,0:0:0:0:
448,192,263714,128,0,263964:0:0:0:0:
64,192,263881,1,2,0:0:0:0:
192,192,263881,128,0,264131:0:0:0:0:
320,192,264048,128,8,264298:0:0:0:0:
448,192,264048,1,0,0:0:0:0:
64,192,264214,1,2,0:0:0:0:
192,192,264214,1,0,0:0:0:0:
64,192,264381,1,8,0:0:0:0:
320,192,264381,1,0,0:0:0:0:
448,192,264381,1,0,0:0:0:0:
192,192,264548,1,2,0:0:0:0:
320,192,264548,1,0,0:0:0:0:
64,192,264714,128,8,265298:0:0:0:0:
192,192,264714,128,0,265048:0:0:0:0:
448,192,264714,1,0,0:0:0:0:
320,192,265048,128,0,265298:0:0:0:0:
448,192,265048,128,0,265714:0:0:0:0:
64,192,265381,128,0,265714:0:0:0:0:
192,192,265381,128,0,265714:0:0:0:0:
192,192,266048,128,0,266714:0:0:0:0:
320,192,266381,128,0,266881:0:0:0:0:
448,192,266714,128,0,266881:0:0:0:0:
64,192,267048,128,0,267714:0:0:0:0:
320,192,267381,128,0,268048:0:0:0:0:
192,192,267714,128,0,268381:0:0:0:0:
448,192,268048,128,0,268714:0:0:0:0:
320,192,268381,128,0,268714:0:0:0:0:
64,192,268714,128,0,269048:0:0:0:0:
192,192,268714,128,0,269048:0:0:0:0:
320,192,269214,128,0,269298:0:0:0:0:
64,192,269381,128,0,269631:0:0:0:0:
320,192,269381,128,0,269714:0:0:0:0:
64,192,269714,128,0,269964:0:0:0:0:
448,192,269714,128,0,269881:0:0:0:0:
192,192,269881,128,0,269964:0:0:0:0:
64,192,270048,1,2,0:0:0:0:
192,192,270048,1,4,0:0:0:0:
448,192,270048,128,0,270214:0:0:0:0:
192,192,270214,128,0,270381:0:0:0:0:
64,192,270381,1,8,0:0:0:0:
320,192,270381,128,0,270631:0:0:0:60:Hat Open.wav
448,192,270381,1,0,0:0:0:0:
192,192,270548,1,0,0:0:0:0:
64,192,270714,128,2,270964:0:0:0:0:
320,192,270714,1,0,0:0:0:60:Hat Open.wav
192,192,270881,1,2,0:0:0:0:
448,192,270881,1,0,0:0:0:0:
64,192,271048,1,8,0:0:0:0:
320,192,271048,1,0,0:0:0:60:Hat Open.wav
448,192,271048,128,0,271298:0:0:0:0:
192,192,271214,1,0,0:0:0:0:
192,192,271381,128,2,271631:0:0:0:0:
448,192,271381,1,0,0:0:0:60:Hat Open.wav
64,192,271548,1,2,0:0:0:0:
320,192,271548,1,0,0:0:0:0:
64,192,271714,1,8,0:0:0:0:
192,192,271714,1,0,0:0:0:60:Hat Open.wav
448,192,271714,128,0,271964:0:0:0:0:
320,192,271881,1,0,0:0:0:0:
64,192,272048,128,2,272298:0:0:0:0:
448,192,272048,1,0,0:0:0:60:Hat Open.wav
192,192,272214,1,2,0:0:0:0:
320,192,272214,1,0,0:0:0:0:
64,192,272381,1,8,0:0:0:0:
320,192,272381,128,0,272631:0:0:0:60:Hat Open.wav
448,192,272381,1,0,0:0:0:0:
64,192,272548,1,2,0:0:0:0:
192,192,272548,1,0,0:0:0:0:
192,192,272714,128,2,272826:0:0:0:0:
320,192,272714,1,0,0:0:0:60:Hat Open.wav
448,192,272826,128,0,272937:0:0:0:0:
192,192,272937,128,0,273048:0:0:0:0:
64,192,273048,1,8,0:0:0:0:
320,192,273048,128,0,273298:0:0:0:60:Hat Open.wav
448,192,273048,1,0,0:0:0:0:
192,192,273214,1,0,0:0:0:0:
64,192,273381,128,2,273631:0:0:0:0:
320,192,273381,1,0,0:0:0:60:Hat Open.wav
192,192,273548,1,2,0:0:0:0:
448,192,273548,1,0,0:0:0:0:
64,192,273714,1,8,0:0:0:0:
320,192,273714,1,0,0:0:0:60:Hat Open.wav
448,192,273714,128,0,273964:0:0:0:0:
192,192,273881,1,0,0:0:0:0:
64,192,274048,128,2,274298:0:0:0:0:
448,192,274048,1,0,0:0:0:60:Hat Open.wav
192,192,274214,1,2,0:0:0:0:
320,192,274214,1,0,0:0:0:0:
64,192,274381,1,8,0:0:0:0:
320,192,274381,1,4,0:0:0:0:
448,192,274381,128,0,274548:0:0:0:0:
64,192,274548,128,2,274714:0:0:0:0:
192,192,274548,1,0,0:0:0:0:
192,192,274714,1,8,0:0:0:0:
320,192,274714,128,4,274881:0:0:0:0:
448,192,274714,1,0,0:0:0:0:
64,192,274881,1,2,0:0:0:0:
448,192,274881,1,0,0:0:0:0:
64,192,275048,1,8,0:0:0:0:
192,192,275048,128,4,275381:0:0:0:0:
320,192,275048,1,0,0:0:0:0:
64,192,275381,1,4,0:0:0:0:
320,192,275381,1,2,0:0:0:0:
448,192,275381,128,0,276048:0:0:0:0:
192,192,275548,1,0,0:0:0:0:
64,192,275714,1,8,0:0:0:0:
192,192,275714,1,0,0:0:0:60:Hat Open.wav
320,192,275714,1,0,0:0:0:0:
320,192,275881,1,0,0:0:0:0:
64,192,276048,128,2,276714:0:0:0:0:
192,192,276048,1,0,0:0:0:60:Hat Open.wav
320,192,276214,1,2,0:0:0:0:
448,192,276214,1,0,0:0:0:0:
192,192,276381,1,8,0:0:0:0:
320,192,276381,1,0,0:0:0:60:Hat Open.wav
448,192,276381,1,0,0:0:0:0:
192,192,276548,1,0,0:0:0:0:
320,192,276714,128,2,277381:0:0:0:0:
448,192,276714,1,0,0:0:0:60:Hat Open.wav
64,192,276881,1,2,0:0:0:0:
192,192,276881,1,0,0:0:0:0:
64,192,277048,1,8,0:0:0:0:
192,192,277048,1,0,0:0:0:60:Hat Open.wav
448,192,277048,1,0,0:0:0:0:
448,192,277214,1,0,0:0:0:0:
64,192,277381,1,2,0:0:0:0:
192,192,277381,128,0,277714:0:0:0:60:Hat Open.wav
320,192,277548,1,2,0:0:0:0:
448,192,277548,1,0,0:0:0:0:
64,192,277714,1,8,0:0:0:0:
320,192,277714,1,0,0:0:0:60:Hat Open.wav
448,192,277714,1,0,0:0:0:0:
64,192,277881,1,2,0:0:0:0:
192,192,277881,1,0,0:0:0:0:
320,192,278048,1,2,0:0:0:0:
448,192,278048,128,0,278714:0:0:0:60:Hat Open.wav
64,192,278214,1,0,0:0:0:0:
64,192,278381,1,8,0:0:0:0:
192,192,278381,1,0,0:0:0:60:Hat Open.wav
320,192,278381,1,0,0:0:0:0:
192,192,278548,1,0,0:0:0:0:
64,192,278714,128,2,279381:0:0:0:0:
320,192,278714,1,0,0:0:0:60:Hat Open.wav
192,192,278881,1,2,0:0:0:0:
448,192,278881,1,0,0:0:0:0:
192,192,279048,1,8,0:0:0:0:
320,192,279048,1,0,0:0:0:60:Hat Open.wav
448,192,279048,1,0,0:0:0:0:
320,192,279214,1,0,0:0:0:0:
192,192,279381,1,2,0:0:0:0:
448,192,279381,128,0,280048:0:0:0:60:Hat Open.wav
64,192,279548,1,2,0:0:0:0:
320,192,279548,1,0,0:0:0:0:
64,192,279714,1,8,0:0:0:0:
192,192,279714,1,0,0:0:0:60:Hat Open.wav
320,192,279714,1,0,0:0:0:0:
192,192,279881,1,0,0:0:0:0:
64,192,280048,1,2,0:0:0:0:
320,192,280048,1,0,0:0:0:0:
192,192,280214,1,8,0:0:0:0:
448,192,280214,1,0,0:0:0:0:
64,192,280298,1,8,0:0:0:0:
320,192,280298,1,0,0:0:0:0:
192,192,280381,1,8,0:0:0:0:
448,192,280381,1,0,0:0:0:0:
64,192,280548,1,8,0:0:0:0:
320,192,280548,1,0,0:0:0:0:
192,192,280631,1,8,0:0:0:0:
64,192,280714,128,2,280881:0:0:0:0:
320,192,280714,1,4,0:0:0:0:
448,192,280714,1,0,0:0:0:0:
192,192,280881,1,2,0:0:0:0:
448,192,280881,128,0,281048:0:0:0:0:
64,192,281048,1,8,0:0:0:0:
192,192,281048,1,4,0:0:0:0:
320,192,281048,128,0,281298:0:0:0:0:
64,192,281214,1,2,0:0:0:0:
448,192,281214,1,0,0:0:0:0:
192,192,281381,128,2,281631:0:0:0:0:
320,192,281381,1,4,0:0:0:15:soft-hitfinish.wav
64,192,281548,1,2,0:0:0:0:
448,192,281548,1,0,0:0:0:0:
192,192,281714,1,8,0:0:0:0:
320,192,281714,1,4,0:0:0:15:soft-hitfinish.wav
448,192,281714,128,0,281964:0:0:0:0:
64,192,281881,1,2,0:0:0:0:
192,192,281881,1,0,0:0:0:0:
64,192,282048,128,2,282298:0:0:0:0:
448,192,282048,1,4,0:0:0:15:soft-hitfinish.wav
192,192,282214,1,2,0:0:0:0:
320,192,282214,1,0,0:0:0:0:
64,192,282381,1,8,0:0:0:0:
320,192,282381,128,4,282631:0:0:0:15:soft-hitfinish.wav
448,192,282381,1,0,0:0:0:0:
192,192,282548,1,2,0:0:0:0:
448,192,282548,1,0,0:0:0:0:
192,192,282714,128,2,282881:0:0:0:0:
320,192,282714,1,4,0:0:0:15:soft-hitfinish.wav
64,192,282881,1,2,0:0:0:0:
448,192,282881,1,0,0:0:0:0:
320,192,282937,1,0,0:0:0:0:
192,192,282992,1,0,0:0:0:0:
64,192,283048,128,8,283298:0:0:0:0:
320,192,283048,1,4,0:0:0:15:soft-hitfinish.wav
448,192,283048,1,0,0:0:0:0:
192,192,283214,1,2,0:0:0:0:
448,192,283214,1,0,0:0:0:0:
64,192,283381,1,2,0:0:0:0:
320,192,283381,128,4,283548:0:0:0:15:soft-hitfinish.wav
192,192,283548,128,2,283714:0:0:0:0:
448,192,283548,1,0,0:0:0:0:
64,192,283714,1,8,0:0:0:0:
320,192,283714,1,4,0:0:0:15:soft-hitfinish.wav
448,192,283714,128,0,283964:0:0:0:0:
64,192,283881,1,2,0:0:0:0:
192,192,283881,1,0,0:0:0:0:
320,192,284048,128,2,284298:0:0:0:0:
448,192,284048,1,4,0:0:0:15:soft-hitfinish.wav
64,192,284214,1,2,0:0:0:0:
192,192,284214,1,0,0:0:0:0:
64,192,284381,128,8,284631:0:0:0:0:
320,192,284381,1,4,0:0:0:15:soft-hitfinish.wav
448,192,284381,1,0,0:0:0:0:
192,192,284548,1,2,0:0:0:0:
320,192,284548,1,0,0:0:0:0:
64,192,284714,1,2,0:0:0:0:
192,192,284714,1,4,0:0:0:15:soft-hitfinish.wav
448,192,284714,128,0,284964:0:0:0:0:
64,192,284881,1,2,0:0:0:0:
320,192,284881,1,0,0:0:0:0:
192,192,285048,128,8,285214:0:0:0:0:
320,192,285048,1,4,0:0:0:15:soft-hitfinish.wav
448,192,285048,1,0,0:0:0:0:
64,192,285214,1,2,0:0:0:0:
448,192,285214,128,0,285381:0:0:0:0:
64,192,285381,128,8,285548:0:0:0:0:
192,192,285381,1,4,0:0:0:15:soft-hitfinish.wav
320,192,285381,1,0,0:0:0:0:
320,192,285548,1,2,0:0:0:0:
448,192,285548,1,0,0:0:0:0:
64,192,285714,1,8,0:0:0:0:
192,192,285714,128,4,286048:0:0:0:15:soft-hitfinish.wav
448,192,285714,1,0,0:0:0:0:
64,192,286048,1,2,0:0:0:0:
320,192,286048,1,4,0:0:0:0:
448,192,286048,128,0,286298:0:0:0:0:
64,192,286214,1,2,0:0:0:0:
192,192,286214,1,0,0:0:0:0:
64,192,286381,1,8,0:0:0:0:
320,192,286381,1,4,0:0:0:15:soft-hitfinish.wav
448,192,286381,1,0,0:0:0:0:
192,192,286548,1,2,0:0:0:0:
448,192,286548,1,0,0:0:0:0:
64,192,286714,128,2,286964:0:0:0:0:
320,192,286714,1,4,0:0:0:15:soft-hitfinish.wav
192,192,286881,1,2,0:0:0:0:
448,192,286881,1,0,0:0:0:0:
64,192,287048,1,8,0:0:0:0:
320,192,287048,1,4,0:0:0:15:soft-hitfinish.wav
448,192,287048,1,0,0:0:0:0:
64,192,287214,1,2,0:0:0:0:
192,192,287214,1,0,0:0:0:0:
320,192,287381,128,2,287631:0:0:0:0:
448,192,287381,1,4,0:0:0:15:soft-hitfinish.wav
64,192,287548,1,2,0:0:0:0:
192,192,287548,1,0,0:0:0:0:
192,192,287714,1,8,0:0:0:0:
320,192,287714,1,4,0:0:0:15:soft-hitfinish.wav
448,192,287714,1,0,0:0:0:0:
64,192,287881,1,2,0:0:0:0:
448,192,287881,1,0,0:0:0:0:
192,192,288048,128,2,288298:0:0:0:0:
320,192,288048,1,4,0:0:0:15:soft-hitfinish.wav
64,192,288214,1,2,0:0:0:0:
448,192,288214,1,0,0:0:0:0:
64,192,288381,1,8,0:0:0:0:
192,192,288381,1,4,0:0:0:0:
320,192,288381,1,0,0:0:0:0:
192,192,288548,1,2,0:0:0:0:
448,192,288548,1,0,0:0:0:0:
64,192,288714,128,8,288798:0:0:0:0:
320,192,288714,1,4,0:0:0:0:
448,192,288714,128,0,288798:0:0:0:0:
192,192,288881,1,2,0:0:0:0:
320,192,288881,1,0,0:0:0:0:
64,192,289048,1,8,0:0:0:0:
192,192,289048,1,4,0:0:0:0:
448,192,289048,1,0,0:0:0:0:
64,192,289214,1,2,0:0:0:0:
320,192,289214,1,0,0:0:0:0:
192,192,289381,128,8,289464:0:0:0:0:
320,192,289381,128,4,289464:0:0:0:0:
448,192,289381,1,0,0:0:0:0:
64,192,289548,1,2,0:0:0:0:
448,192,289548,1,0,0:0:0:0:
64,192,289714,1,4,0:0:0:0:
192,192,289714,1,8,0:0:0:0:
320,192,289714,1,0,0:0:0:0:
192,192,289881,1,2,0:0:0:0:
448,192,289881,1,0,0:0:0:0:
64,192,290048,1,8,0:0:0:0:
320,192,290048,1,4,0:0:0:0:
448,192,290048,128,0,290298:0:0:0:0:
64,192,290214,1,2,0:0:0:0:
192,192,290214,1,0,0:0:0:0:
192,192,290381,128,8,290631:0:0:0:0:
320,192,290381,1,0,0:0:0:60:Hat Open.wav
448,192,290381,1,0,0:0:0:0:
64,192,290714,1,8,0:0:0:0:
192,192,290714,1,0,0:0:0:0:
448,192,290714,1,0,0:0:0:0:
64,192,290881,1,8,0:0:0:0:
192,192,290881,1,0,0:0:0:0:
448,192,290881,1,0,0:0:0:0:
64,192,291048,1,8,0:0:0:0:
320,192,291048,1,0,0:0:0:0:
448,192,291048,1,0,0:0:0:0:
64,192,291214,1,8,0:0:0:0:
320,192,291214,1,0,0:0:0:0:
448,192,291214,1,0,0:0:0:0:
