osu file format v14

[General]
AudioFilename: audio.mp3
AudioLeadIn: 0
PreviewTime: 59214
Countdown: 0
SampleSet: Soft
StackLeniency: 0.7
Mode: 3
LetterboxInBreaks: 0
SpecialStyle: 0
WidescreenStoryboard: 1

[Editor]
DistanceSpacing: 0.3
BeatDivisor: 2
GridSize: 32
TimelineZoom: 1.8

[Metadata]
Title:Kakurenbo
TitleUnicode:かくれんぼ
Artist:AliA
ArtistUnicode:AliA
Creator:Yuiazu-
Version:Ayase's Normal
Source:
Tags:SuzumeAyase ML-ysg japanese jrock rock j-rock band alive ayame eren tkt rina seiya bob アリア aria hide and seek
BeatmapID:4041816
BeatmapSetID:1951908

[Difficulty]
HPDrainRate:7.5
CircleSize:4
OverallDifficulty:7.5
ApproachRate:5
SliderMultiplier:1.4
SliderTickRate:1

[Events]
//Background and Video events
0,0,"105114285_p0.jpg",0,0
//Break Periods
//Storyboard Layer 0 (Background)
//Storyboard Layer 1 (Fail)
//Storyboard Layer 2 (Pass)
//Storyboard Layer 3 (Foreground)
//Storyboard Layer 4 (Overlay)
//Storyboard Sound Samples
Sample,23048,0,"Tom3.wav",50
Sample,24048,0,"Tom3.wav",50
Sample,24381,0,"Tom2.wav",50
Sample,25714,0,"Tom3.wav",50
Sample,28381,0,"Tom3.wav",50
Sample,29048,0,"Tom3.wav",50
Sample,29381,0,"Tom1.wav",50
Sample,29714,0,"Tom3.wav",50
Sample,31048,0,"Tom3.wav",50
Sample,33381,0,"Hat Close.wav",40
Sample,34048,0,"Hat Close.wav",40
Sample,35381,0,"Hat Close.wav",40
Sample,36048,0,"Hat Close.wav",40
Sample,36714,0,"Hat Close.wav",40
Sample,39381,0,"Hat Close.wav",40
Sample,40714,0,"Hat Close.wav",40
Sample,42048,0,"Hat Close.wav",40
Sample,42881,0,"Tom2.wav",50
Sample,43214,0,"Tom3.wav",50
Sample,47714,0,"Tom3.wav",50
Sample,49048,0,"Tom2.wav",50
Sample,49381,0,"Tom2.wav",50
Sample,49714,0,"Tom2.wav",50
Sample,50381,0,"Tom2.wav",50
Sample,50714,0,"Tom2.wav",50
Sample,51048,0,"Tom3.wav",50
Sample,51714,0,"Tom3.wav",50
Sample,52048,0,"Tom3.wav",50
Sample,52381,0,"Tom3.wav",50
Sample,55048,0,"Tom2.wav",50
Sample,60048,0,"Hat Open.wav",60
Sample,60714,0,"Hat Open.wav",60
Sample,61381,0,"Hat Open.wav",60
Sample,62048,0,"Hat Open.wav",60
Sample,62714,0,"Hat Open.wav",60
Sample,63381,0,"Hat Open.wav",60
Sample,65381,0,"Hat Open.wav",60
Sample,66048,0,"Hat Open.wav",60
Sample,66714,0,"Hat Open.wav",60
Sample,67381,0,"Hat Open.wav",60
Sample,68048,0,"Hat Open.wav",60
Sample,68714,0,"Hat Open.wav",60
Sample,69381,0,"Hat Open.wav",60
Sample,70714,0,"Hat Open.wav",60
Sample,71381,0,"Hat Open.wav",60
Sample,72048,0,"Hat Open.wav",60
Sample,72714,0,"Hat Open.wav",60
Sample,74048,0,"Hat Open.wav",60
Sample,76048,0,"Hat Open.wav",60
Sample,76714,0,"Hat Open.wav",60
Sample,77381,0,"Hat Open.wav",60
Sample,78048,0,"Hat Open.wav",60
Sample,78714,0,"Hat Open.wav",60
Sample,79381,0,"Hat Open.wav",60
Sample,81381,0,"Ride.wav",25
Sample,82714,0,"Ride.wav",25
Sample,83381,0,"Ride.wav",25
Sample,84048,0,"Ride.wav",25
Sample,84714,0,"Ride.wav",25
Sample,85381,0,"Ride.wav",25
Sample,86714,0,"Ride.wav",25
Sample,88048,0,"Ride.wav",25
Sample,88714,0,"Ride.wav",25
Sample,102381,0,"Hat Close.wav",40
Sample,103048,0,"Hat Close.wav",40
Sample,103714,0,"Hat Close.wav",40
Sample,104381,0,"Hat Close.wav",40
Sample,107048,0,"Hat Close.wav",40
Sample,107714,0,"Hat Close.wav",40
Sample,108381,0,"Hat Close.wav",40
Sample,109048,0,"Hat Close.wav",40
Sample,109714,0,"Hat Close.wav",40
Sample,110381,0,"Hat Close.wav",40
Sample,111714,0,"Tom2.wav",50
Sample,112048,0,"Tom2.wav",50
Sample,115214,0,"Tom3.wav",50
Sample,122048,0,"Hat Open.wav",60
Sample,122381,0,"Hat Open.wav",60
Sample,140048,0,"Hat Open.wav",60
Sample,140714,0,"Hat Open.wav",60
Sample,141381,0,"Hat Open.wav",60
Sample,142048,0,"Hat Open.wav",60
Sample,142714,0,"Hat Open.wav",60
Sample,143381,0,"Hat Open.wav",60
Sample,145381,0,"Hat Open.wav",60
Sample,146048,0,"Hat Open.wav",60
Sample,146714,0,"Hat Open.wav",60
Sample,147381,0,"Hat Open.wav",60
Sample,148048,0,"Hat Open.wav",60
Sample,148714,0,"Hat Open.wav",60
Sample,149381,0,"Hat Open.wav",60
Sample,150714,0,"Hat Open.wav",60
Sample,151381,0,"Hat Open.wav",60
Sample,152048,0,"Hat Open.wav",60
Sample,152714,0,"Hat Open.wav",60
Sample,153381,0,"Hat Open.wav",60
Sample,154048,0,"Hat Open.wav",60
Sample,156048,0,"Hat Open.wav",60
Sample,156714,0,"Hat Open.wav",60
Sample,157381,0,"Hat Open.wav",60
Sample,158048,0,"Hat Open.wav",60
Sample,158714,0,"Hat Open.wav",60
Sample,159381,0,"Hat Open.wav",60
Sample,160048,0,"Hat Open.wav",60
Sample,160381,0,"Tom2.wav",50
Sample,161714,0,"Ride.wav",25
Sample,162048,0,"Ride.wav",25
Sample,162381,0,"Ride.wav",25
Sample,162714,0,"Ride.wav",25
Sample,163048,0,"Ride.wav",25
Sample,164381,0,"Ride.wav",25
Sample,164714,0,"Ride.wav",25
Sample,167381,0,"Ride.wav",25
Sample,170048,0,"Ride.wav",25
Sample,172048,0,"Ride.wav",25
Sample,172381,0,"Ride.wav",25
Sample,172714,0,"Ride.wav",25
Sample,174048,0,"Ride.wav",25
Sample,175381,0,"Ride.wav",25
Sample,178048,0,"Ride.wav",25
Sample,179714,0,"Ride.wav",25
Sample,180714,0,"Ride.wav",25
Sample,181048,0,"Hat Open.wav",60
Sample,203714,0,"Hat Open.wav",60
Sample,204714,0,"Hat Open.wav",60
Sample,205048,0,"Hat Open.wav",60
Sample,205714,0,"Hat Open.wav",60
Sample,206381,0,"Hat Open.wav",60
Sample,207381,0,"Hat Open.wav",60
Sample,207714,0,"Hat Open.wav",60
Sample,208381,0,"Hat Open.wav",60
Sample,209048,0,"Hat Open.wav",60
Sample,210048,0,"Hat Open.wav",60
Sample,210381,0,"Hat Open.wav",60
Sample,211048,0,"Hat Open.wav",60
Sample,211714,0,"Hat Open.wav",60
Sample,212714,0,"Hat Open.wav",60
Sample,213048,0,"Hat Open.wav",60
Sample,213714,0,"Tom1.wav",50
Sample,214381,0,"Hat Open.wav",60
Sample,215381,0,"Hat Open.wav",60
Sample,215714,0,"Hat Open.wav",60
Sample,216381,0,"Hat Open.wav",60
Sample,217048,0,"Hat Open.wav",60
Sample,217714,0,"Hat Open.wav",60
Sample,218048,0,"Hat Open.wav",60
Sample,218381,0,"Hat Open.wav",60
Sample,219714,0,"Hat Open.wav",60
Sample,220714,0,"Hat Open.wav",60
Sample,221048,0,"Hat Open.wav",60
Sample,221714,0,"Hat Open.wav",60
Sample,222381,0,"Hat Open.wav",60
Sample,222714,0,"Hat Open.wav",60
Sample,224048,0,"Tom3.wav",50
Sample,224298,0,"Tom3.wav",50
Sample,228048,0,"Hat Open.wav",60
Sample,228714,0,"Hat Open.wav",60
Sample,229381,0,"Hat Open.wav",60
Sample,230048,0,"Hat Open.wav",60
Sample,230714,0,"Hat Open.wav",60
Sample,231381,0,"Hat Open.wav",60
Sample,233381,0,"Hat Open.wav",60
Sample,234048,0,"Hat Open.wav",60
Sample,234714,0,"Hat Open.wav",60
Sample,235381,0,"Hat Open.wav",60
Sample,236048,0,"Hat Open.wav",60
Sample,236714,0,"Hat Open.wav",60
Sample,237381,0,"Hat Open.wav",60
Sample,238714,0,"Hat Open.wav",60
Sample,239381,0,"Hat Open.wav",60
Sample,240048,0,"Hat Open.wav",60
Sample,240714,0,"Hat Open.wav",60
Sample,241381,0,"Hat Open.wav",60
Sample,242048,0,"Hat Open.wav",60
Sample,242714,0,"Hat Open.wav",60
Sample,244048,0,"Hat Open.wav",60
Sample,244714,0,"Hat Open.wav",60
Sample,245381,0,"Hat Open.wav",60
Sample,246048,0,"Hat Open.wav",60
Sample,246714,0,"Hat Open.wav",60
Sample,247381,0,"Hat Open.wav",60
Sample,249381,0,"Ride.wav",25
Sample,250714,0,"Ride.wav",25
Sample,251381,0,"Ride.wav",25
Sample,252714,0,"Ride.wav",25
Sample,253381,0,"Ride.wav",25
Sample,254714,0,"Ride.wav",25
Sample,256714,0,"Ride.wav",25
Sample,257381,0,"Ride.wav",25
Sample,258048,0,"Ride.wav",25
Sample,286381,0,"soft-hitfinish.wav",15
Sample,287048,0,"soft-hitfinish.wav",15
Sample,287714,0,"soft-hitfinish.wav",15

[TimingPoints]
715,333.333333333333,4,2,1,50,1,0
59381,-100.0,4,2,1,50,0,1
90048,-100.0,4,2,1,50,0,0
139381,-100.0,4,2,1,50,0,1
160714,-100.0,4,2,1,50,0,0
227381,-100.0,4,2,1,50,0,1
264714,-100.0,4,2,1,50,0,0

[HitObjects]
64,192,715,128,0,1048:0:0:0:0:
192,192,715,1,0,0:0:0:0:
320,192,1048,128,0,1381:0:0:0:0:
192,192,1381,128,0,1714:0:0:0:0:
448,192,1381,1,0,0:0:0:0:
448,192,1714,128,0,1881:0:0:0:0:
64,192,1881,1,0,0:0:0:0:
192,192,2048,1,0,0:0:0:0:
320,192,2048,1,0,0:0:0:0:
448,192,2214,1,0,0:0:0:0:
192,192,2381,1,0,0:0:0:0:
64,192,2548,1,0,0:0:0:0:
320,192,2714,1,0,0:0:0:0:
448,192,2714,128,0,3048:0:0:0:0:
64,192,3048,128,0,3381:0:0:0:0:
192,192,3381,128,0,4048:0:0:0:0:
320,192,3381,1,0,0:0:0:0:
448,192,3714,1,0,0:0:0:0:
64,192,4048,1,0,0:0:0:0:
320,192,4048,128,0,4381:0:0:0:0:
64,192,4381,128,0,4714:0:0:0:0:
192,192,4714,1,0,0:0:0:0:
448,192,4714,128,0,5214:0:0:0:0:
320,192,5214,128,0,5381:0:0:0:0:
64,192,5381,128,0,5714:0:0:0:0:
192,192,5381,1,0,0:0:0:0:
192,192,5881,1,0,0:0:0:0:
320,192,6048,1,10,0:0:0:0:
448,192,6048,1,4,0:0:0:0:
64,192,6381,128,2,6548:0:0:0:0:
192,192,6381,1,8,0:0:0:0:
320,192,6548,128,0,6714:0:0:0:15:Snare.wav
192,192,6714,128,10,6881:0:0:0:0:
448,192,6881,128,0,7048:0:0:0:15:Snare.wav
64,192,7048,128,10,7214:0:0:0:0:
320,192,7214,128,0,7381:0:0:0:15:Snare.wav
64,192,7381,1,2,0:0:0:0:
192,192,7381,128,8,7548:0:0:0:0:
448,192,7548,128,0,7714:0:0:0:25:Snare.wav
320,192,7714,128,10,7881:0:0:0:0:
64,192,7881,128,0,8048:0:0:0:25:Snare.wav
192,192,8048,128,8,8214:0:0:0:0:
448,192,8048,1,2,0:0:0:0:
320,192,8214,128,0,8381:0:0:0:35:Snare.wav
64,192,8381,128,10,8548:0:0:0:0:
192,192,8548,128,0,8714:0:0:0:35:Snare.wav
320,192,8714,1,2,0:0:0:0:
448,192,8714,128,8,8881:0:0:0:0:
64,192,8881,128,0,9048:0:0:0:35:Snare.wav
192,192,9048,1,2,0:0:0:0:
320,192,9048,128,8,9214:0:0:0:0:
64,192,9214,128,0,9381:0:0:0:35:Snare.wav
320,192,9381,1,8,0:0:0:0:
448,192,9381,128,2,9548:0:0:0:0:
192,192,9548,128,0,9714:0:0:0:35:Snare.wav
64,192,9714,1,8,0:0:0:0:
448,192,9714,128,2,9881:0:0:0:0:
320,192,9881,128,0,10048:0:0:0:35:Snare.wav
64,192,10048,1,2,0:0:0:0:
192,192,10048,1,0,0:0:0:0:
320,192,10714,1,0,0:0:0:0:
448,192,10714,128,0,11048:0:0:0:0:
64,192,11048,128,0,11214:0:0:0:0:
192,192,11214,128,0,11381:0:0:0:0:
320,192,11381,1,2,0:0:0:0:
448,192,11381,1,4,0:0:0:0:
64,192,11714,1,8,0:0:0:0:
192,192,11714,1,0,0:0:0:60:Hat Open.wav
64,192,12048,1,2,0:0:0:0:
448,192,12048,1,0,0:0:0:60:Hat Open.wav
192,192,12214,1,2,0:0:0:0:
320,192,12381,1,8,0:0:0:0:
448,192,12381,1,0,0:0:0:60:Hat Open.wav
64,192,12714,1,2,0:0:0:0:
192,192,12714,1,0,0:0:0:60:Hat Open.wav
64,192,13048,1,8,0:0:0:0:
448,192,13048,1,0,0:0:0:60:Hat Open.wav
320,192,13381,1,2,0:0:0:0:
448,192,13381,1,0,0:0:0:60:Hat Open.wav
192,192,13548,1,2,0:0:0:0:
64,192,13714,1,8,0:0:0:0:
320,192,13714,1,0,0:0:0:60:Hat Open.wav
192,192,14048,1,2,0:0:0:0:
448,192,14048,128,0,14214:0:0:0:60:Hat Open.wav
320,192,14214,128,0,14381:0:0:0:0:
64,192,14381,1,8,0:0:0:0:
192,192,14381,1,0,0:0:0:60:Hat Open.wav
320,192,14714,1,2,0:0:0:0:
448,192,14714,1,0,0:0:0:60:Hat Open.wav
64,192,14881,1,2,0:0:0:0:
192,192,15048,1,8,0:0:0:0:
448,192,15048,1,0,0:0:0:60:Hat Open.wav
64,192,15381,1,2,0:0:0:0:
320,192,15381,1,0,0:0:0:60:Hat Open.wav
192,192,15714,1,8,0:0:0:0:
320,192,15714,1,0,0:0:0:60:Hat Open.wav
448,192,15881,1,2,0:0:0:0:
64,192,16048,1,8,0:0:0:0:
192,192,16048,1,0,0:0:0:60:Hat Open.wav
320,192,16214,1,2,0:0:0:0:
64,192,16381,1,8,0:0:0:0:
448,192,16381,1,0,0:0:0:60:Hat Open.wav
192,192,16714,1,4,0:0:0:0:
320,192,16714,1,2,0:0:0:0:
64,192,17048,1,8,0:0:0:0:
448,192,17048,1,0,0:0:0:60:Hat Open.wav
320,192,17381,1,2,0:0:0:0:
448,192,17381,1,0,0:0:0:60:Hat Open.wav
192,192,17548,1,2,0:0:0:0:
64,192,17714,1,8,0:0:0:0:
320,192,17714,1,0,0:0:0:60:Hat Open.wav
192,192,18048,1,2,0:0:0:0:
448,192,18048,1,0,0:0:0:60:Hat Open.wav
64,192,18381,1,8,0:0:0:0:
448,192,18381,1,0,0:0:0:60:Hat Open.wav
192,192,18714,1,2,0:0:0:0:
320,192,18714,1,0,0:0:0:60:Hat Open.wav
448,192,18881,1,2,0:0:0:0:
64,192,19048,1,8,0:0:0:0:
192,192,19048,1,0,0:0:0:60:Hat Open.wav
320,192,19381,1,2,0:0:0:0:
448,192,19381,1,0,0:0:0:60:Hat Open.wav
64,192,19714,1,8,0:0:0:0:
448,192,19714,1,0,0:0:0:60:Hat Open.wav
64,192,20048,1,2,0:0:0:0:
192,192,20048,1,0,0:0:0:60:Hat Open.wav
320,192,20214,1,2,0:0:0:0:
192,192,20381,1,8,0:0:0:0:
448,192,20381,1,0,0:0:0:60:Hat Open.wav
64,192,20714,1,2,0:0:0:0:
320,192,20714,1,0,0:0:0:60:Hat Open.wav
192,192,20881,1,2,0:0:0:0:
320,192,21048,1,8,0:0:0:0:
448,192,21048,1,0,0:0:0:60:Hat Open.wav
192,192,21214,1,0,0:0:0:35:Snare.wav
64,192,21381,128,8,21548:0:0:0:0:
448,192,21381,1,0,0:0:0:0:
320,192,21548,128,0,21714:0:0:0:35:Snare.wav
64,192,21714,1,8,0:0:0:0:
192,192,21714,128,0,21881:0:0:0:0:
448,192,21881,128,0,22048:0:0:0:50:Tom3.wav
64,192,22048,1,2,0:0:0:0:
320,192,22048,1,4,0:0:0:0:
192,192,22381,1,2,0:0:0:0:
320,192,22548,1,0,0:0:0:50:Tom1.wav
64,192,22714,1,2,0:0:0:0:
448,192,22881,1,0,0:0:0:50:Tom2.wav
320,192,23048,1,2,0:0:0:0:
64,192,23214,1,0,0:0:0:50:Tom3.wav
192,192,23381,1,4,0:0:0:0:
448,192,23381,1,2,0:0:0:0:
320,192,23714,1,2,0:0:0:0:
64,192,23881,1,0,0:0:0:50:Tom3.wav
192,192,23964,1,0,0:0:0:50:Tom3.wav
448,192,24048,1,2,0:0:0:0:
320,192,24381,1,2,0:0:0:0:
192,192,24548,1,0,0:0:0:50:Tom2.wav
64,192,24714,1,4,0:0:0:0:
448,192,24714,1,2,0:0:0:0:
320,192,25048,1,2,0:0:0:0:
192,192,25214,1,0,0:0:0:50:Tom1.wav
448,192,25381,1,2,0:0:0:0:
64,192,25548,1,0,0:0:0:50:Tom2.wav
320,192,25714,1,2,0:0:0:0:
64,192,26048,1,2,0:0:0:0:
448,192,26048,1,4,0:0:0:0:
192,192,26381,1,2,0:0:0:0:
320,192,26548,1,8,0:0:0:0:
448,192,26548,1,0,0:0:0:60:Hat Open.wav
64,192,26714,1,2,0:0:0:0:
192,192,26881,1,8,0:0:0:0:
320,192,26881,1,0,0:0:0:60:Hat Open.wav
448,192,27048,1,2,0:0:0:0:
320,192,27214,1,0,0:0:0:0:
64,192,27381,1,6,0:0:0:0:
192,192,27381,1,8,0:0:0:0:
448,192,27714,1,2,0:0:0:0:
320,192,27881,1,0,0:0:0:50:Tom1.wav
192,192,28048,1,2,0:0:0:0:
448,192,28214,1,0,0:0:0:50:Tom2.wav
64,192,28381,1,2,0:0:0:0:
192,192,28548,1,0,0:0:0:50:Tom3.wav
320,192,28714,1,2,0:0:0:0:
448,192,28714,1,4,0:0:0:0:
192,192,29048,1,2,0:0:0:0:
64,192,29214,1,0,0:0:0:50:Tom3.wav
320,192,29381,1,2,0:0:0:0:
192,192,29548,1,0,0:0:0:50:Tom2.wav
448,192,29714,1,2,0:0:0:0:
320,192,29881,1,0,0:0:0:50:Tom3.wav
64,192,30048,1,2,0:0:0:0:
192,192,30048,1,4,0:0:0:0:
320,192,30381,1,2,0:0:0:0:
64,192,30548,1,0,0:0:0:50:Tom1.wav
192,192,30714,1,2,0:0:0:0:
320,192,30881,1,0,0:0:0:50:Tom3.wav
448,192,31048,1,2,0:0:0:0:
192,192,31214,1,0,0:0:0:50:Tom3.wav
64,192,31381,128,0,31548:0:0:0:0:
320,192,31548,128,0,31714:0:0:0:0:
192,192,31714,128,0,31881:0:0:0:0:
448,192,31881,128,0,32048:0:0:0:0:
320,192,32048,128,0,32214:0:0:0:0:
64,192,32214,128,0,32381:0:0:0:0:
192,192,32381,128,0,32714:0:0:0:0:
320,192,32714,1,2,0:0:0:0:
448,192,32714,1,4,0:0:0:0:
64,192,33048,1,8,0:0:0:0:
192,192,33048,1,0,0:0:0:60:Hat Open.wav
320,192,33381,1,2,0:0:0:0:
192,192,33548,1,2,0:0:0:0:
64,192,33714,1,8,0:0:0:0:
448,192,33714,1,0,0:0:0:40:Hat Close.wav
320,192,34048,1,2,0:0:0:0:
192,192,34214,1,2,0:0:0:0:
64,192,34381,1,8,0:0:0:0:
320,192,34381,1,0,0:0:0:40:Hat Close.wav
448,192,34548,1,2,0:0:0:0:
192,192,34714,1,0,0:0:0:40:Hat Close.wav
448,192,34881,1,2,0:0:0:0:
64,192,35048,1,8,0:0:0:0:
192,192,35048,1,0,0:0:0:40:Hat Close.wav
320,192,35381,1,2,0:0:0:0:
64,192,35714,1,8,0:0:0:0:
448,192,35714,1,0,0:0:0:40:Hat Close.wav
192,192,36048,1,2,0:0:0:0:
320,192,36214,1,2,0:0:0:0:
192,192,36381,1,8,0:0:0:0:
448,192,36381,1,0,0:0:0:40:Hat Close.wav
64,192,36714,1,2,0:0:0:0:
320,192,36881,1,2,0:0:0:0:
64,192,37048,1,8,0:0:0:0:
192,192,37048,1,0,0:0:0:40:Hat Close.wav
448,192,37214,1,2,0:0:0:0:
192,192,37381,1,0,0:0:0:40:Hat Close.wav
448,192,37548,1,2,0:0:0:0:
64,192,37714,1,8,0:0:0:0:
320,192,37714,1,0,0:0:0:40:Hat Close.wav
192,192,38048,1,2,0:0:0:0:
448,192,38048,1,0,0:0:0:60:Hat Open.wav
64,192,38381,1,8,0:0:0:0:
192,192,38381,1,0,0:0:0:40:Hat Close.wav
320,192,38714,1,0,0:0:0:40:Hat Close.wav
192,192,38881,1,2,0:0:0:0:
64,192,39048,1,8,0:0:0:0:
448,192,39048,1,0,0:0:0:40:Hat Close.wav
192,192,39381,1,2,0:0:0:0:
320,192,39548,1,2,0:0:0:0:
192,192,39714,1,8,0:0:0:0:
448,192,39714,1,0,0:0:0:40:Hat Close.wav
64,192,39881,1,2,0:0:0:0:
320,192,40048,1,0,0:0:0:40:Hat Close.wav
64,192,40214,1,2,0:0:0:0:
320,192,40381,1,8,0:0:0:0:
448,192,40381,1,0,0:0:0:40:Hat Close.wav
192,192,40714,1,2,0:0:0:0:
64,192,41048,1,8,0:0:0:0:
448,192,41048,1,0,0:0:0:40:Hat Close.wav
192,192,41381,1,0,0:0:0:40:Hat Close.wav
320,192,41548,1,2,0:0:0:0:
192,192,41714,1,8,0:0:0:0:
448,192,41714,1,0,0:0:0:40:Hat Close.wav
64,192,42048,1,2,0:0:0:0:
320,192,42214,1,2,0:0:0:0:
64,192,42381,1,8,0:0:0:0:
192,192,42381,1,0,0:0:0:60:Hat Open.wav
448,192,42548,1,2,0:0:0:0:
192,192,42714,1,8,0:0:0:0:
320,192,42714,1,0,0:0:0:0:
64,192,42881,1,2,0:0:0:0:
448,192,43048,1,0,0:0:0:50:Tom2.wav
320,192,43214,1,2,0:0:0:0:
64,192,43381,1,2,0:0:0:0:
192,192,43381,1,4,0:0:0:0:
448,192,43548,1,0,0:0:0:0:
320,192,43714,1,0,0:0:0:0:
192,192,43881,1,0,0:0:0:0:
448,192,44048,1,0,0:0:0:0:
64,192,44381,1,0,0:0:0:0:
192,192,44548,1,0,0:0:0:0:
320,192,44714,1,2,0:0:0:0:
448,192,44714,1,4,0:0:0:0:
64,192,44881,1,0,0:0:0:0:
192,192,45048,1,0,0:0:0:0:
320,192,45214,1,0,0:0:0:0:
64,192,45381,1,0,0:0:0:0:
448,192,45714,1,0,0:0:0:0:
320,192,45881,1,0,0:0:0:0:
64,192,46048,1,4,0:0:0:0:
192,192,46048,1,2,0:0:0:0:
448,192,46214,1,0,0:0:0:0:
320,192,46381,1,0,0:0:0:0:
192,192,46548,1,0,0:0:0:0:
448,192,46714,1,0,0:0:0:0:
64,192,47048,1,0,0:0:0:0:
192,192,47214,1,0,0:0:0:0:
320,192,47381,1,4,0:0:0:0:
448,192,47381,1,2,0:0:0:0:
64,192,47548,1,0,0:0:0:0:
192,192,47714,1,2,0:0:0:0:
320,192,47881,1,0,0:0:0:50:Tom1.wav
64,192,48048,1,0,0:0:0:50:Tom2.wav
320,192,48381,1,0,0:0:0:50:Tom3.wav
192,192,48548,1,0,0:0:0:50:Tom3.wav
64,192,48714,1,4,0:0:0:0:
448,192,48714,1,2,0:0:0:0:
320,192,48881,1,0,0:0:0:0:
192,192,49048,1,2,0:0:0:0:
448,192,49214,1,0,0:0:0:0:
320,192,49381,1,2,0:0:0:0:
192,192,49714,1,2,0:0:0:0:
320,192,49881,1,0,0:0:0:50:Tom2.wav
64,192,50048,1,2,0:0:0:0:
448,192,50048,1,4,0:0:0:0:
192,192,50214,1,0,0:0:0:0:
320,192,50381,1,2,0:0:0:0:
64,192,50548,1,0,0:0:0:0:
448,192,50714,1,2,0:0:0:0:
192,192,51048,1,2,0:0:0:0:
64,192,51214,1,0,0:0:0:50:Tom3.wav
320,192,51381,1,2,0:0:0:0:
448,192,51381,1,4,0:0:0:0:
192,192,51548,1,0,0:0:0:0:
64,192,51714,1,2,0:0:0:0:
320,192,51881,1,0,0:0:0:50:Tom3.wav
448,192,52048,1,2,0:0:0:0:
320,192,52381,1,2,0:0:0:0:
64,192,52548,1,0,0:0:0:0:
192,192,52714,1,4,0:0:0:0:
448,192,52714,1,2,0:0:0:0:
320,192,52881,1,0,0:0:0:50:Tom3.wav
192,192,53048,1,0,0:0:0:50:Tom3.wav
64,192,53214,1,8,0:0:0:0:
448,192,53214,1,0,0:0:0:60:Hat Open.wav
320,192,53381,1,0,0:0:0:50:Tom3.wav
64,192,53548,1,8,0:0:0:0:
192,192,53548,1,0,0:0:0:60:Hat Open.wav
320,192,53714,1,0,0:0:0:50:Tom2.wav
64,192,53881,1,0,0:0:0:50:Tom2.wav
320,192,54048,1,4,0:0:0:0:
448,192,54048,128,2,55381:0:0:0:0:
64,192,54381,1,2,0:0:0:0:
192,192,54548,1,0,0:0:0:50:Tom1.wav
320,192,54714,1,2,0:0:0:0:
192,192,55048,1,2,0:0:0:0:
64,192,55381,128,12,56714:0:0:0:0:
320,192,55381,1,2,0:0:0:0:
192,192,55714,1,0,0:0:0:50:Tom3.wav
320,192,55881,1,0,0:0:0:50:Tom3.wav
448,192,56048,1,0,0:0:0:50:Tom3.wav
192,192,56381,1,0,0:0:0:50:Tom3.wav
320,192,56714,1,6,0:0:0:0:
448,192,56714,128,8,57048:0:0:0:0:
64,192,57048,128,8,57214:0:0:0:0:
192,192,57048,1,2,0:0:0:0:
320,192,57214,128,8,57381:0:0:0:0:
192,192,57381,128,10,57548:0:0:0:0:
448,192,57548,128,8,57714:0:0:0:0:
320,192,57714,128,10,57881:0:0:0:0:
64,192,57881,1,8,0:0:0:0:
192,192,58048,128,0,58548:0:0:0:0:
448,192,58548,128,0,58714:0:0:0:0:
320,192,58714,128,0,59048:0:0:0:0:
64,192,59381,128,2,59714:0:0:0:0:
192,192,59381,1,4,0:0:0:0:
320,192,59714,1,8,0:0:0:0:
448,192,59714,128,0,60048:0:0:0:60:Hat Open.wav
64,192,60048,128,2,60381:0:0:0:0:
192,192,60381,1,8,0:0:0:0:
320,192,60381,1,0,0:0:0:60:Hat Open.wav
448,192,60548,1,0,0:0:0:0:
320,192,60714,1,2,0:0:0:0:
64,192,60881,1,0,0:0:0:0:
192,192,61048,1,8,0:0:0:0:
448,192,61048,1,0,0:0:0:60:Hat Open.wav
320,192,61214,1,0,0:0:0:0:
64,192,61381,1,2,0:0:0:0:
192,192,61548,1,2,0:0:0:0:
320,192,61714,1,8,0:0:0:0:
448,192,61714,128,0,62048:0:0:0:60:Hat Open.wav
192,192,62048,128,2,62381:0:0:0:0:
64,192,62381,1,8,0:0:0:0:
320,192,62381,128,0,62714:0:0:0:60:Hat Open.wav
64,192,62714,128,2,63048:0:0:0:0:
320,192,63048,1,8,0:0:0:0:
448,192,63048,128,0,63381:0:0:0:60:Hat Open.wav
64,192,63381,1,2,0:0:0:0:
192,192,63548,1,2,0:0:0:0:
320,192,63714,1,8,0:0:0:0:
448,192,63714,1,0,0:0:0:60:Hat Open.wav
192,192,63881,1,2,0:0:0:0:
64,192,64048,1,8,0:0:0:0:
448,192,64048,1,0,0:0:0:60:Hat Open.wav
320,192,64214,1,2,0:0:0:0:
64,192,64381,1,8,0:0:0:0:
192,192,64381,1,0,0:0:0:60:Hat Open.wav
320,192,64714,1,2,0:0:0:0:
448,192,64714,128,4,65048:0:0:0:0:
64,192,65048,1,8,0:0:0:0:
192,192,65048,1,0,0:0:0:60:Hat Open.wav
320,192,65214,1,0,0:0:0:0:
64,192,65381,1,2,0:0:0:0:
192,192,65548,1,2,0:0:0:0:
320,192,65714,1,8,0:0:0:0:
448,192,65714,1,0,0:0:0:60:Hat Open.wav
192,192,65881,1,0,0:0:0:0:
448,192,66048,1,2,0:0:0:0:
64,192,66214,1,0,0:0:0:0:
192,192,66381,1,8,0:0:0:0:
320,192,66381,1,0,0:0:0:60:Hat Open.wav
448,192,66548,1,0,0:0:0:0:
64,192,66714,1,2,0:0:0:0:
320,192,66881,1,2,0:0:0:0:
64,192,67048,128,8,67381:0:0:0:0:
192,192,67048,1,0,0:0:0:60:Hat Open.wav
448,192,67381,128,2,67714:0:0:0:0:
64,192,67714,1,8,0:0:0:0:
192,192,67714,128,0,68048:0:0:0:60:Hat Open.wav
448,192,68048,1,2,0:0:0:0:
320,192,68214,1,2,0:0:0:0:
64,192,68381,1,8,0:0:0:0:
192,192,68381,1,0,0:0:0:60:Hat Open.wav
320,192,68548,1,0,0:0:0:0:
64,192,68714,128,2,69048:0:0:0:0:
320,192,69048,1,8,0:0:0:0:
448,192,69048,1,0,0:0:0:60:Hat Open.wav
192,192,69214,128,0,69381:0:0:0:0:
448,192,69381,128,2,69548:0:0:0:0:
64,192,69548,1,8,0:0:0:0:
192,192,69631,1,8,0:0:0:0:
320,192,69714,1,8,0:0:0:0:
64,192,69881,1,8,0:0:0:0:
192,192,69964,1,8,0:0:0:0:
320,192,70048,1,4,0:0:0:0:
448,192,70048,128,2,70381:0:0:0:0:
64,192,70381,1,8,0:0:0:0:
192,192,70381,1,0,0:0:0:60:Hat Open.wav
320,192,70548,1,0,0:0:0:0:
64,192,70714,1,2,0:0:0:0:
192,192,70881,1,2,0:0:0:0:
320,192,71048,1,8,0:0:0:0:
448,192,71048,1,0,0:0:0:60:Hat Open.wav
64,192,71214,1,0,0:0:0:0:
192,192,71381,1,2,0:0:0:0:
448,192,71548,1,0,0:0:0:0:
64,192,71714,128,8,72048:0:0:0:0:
320,192,71714,1,0,0:0:0:60:Hat Open.wav
448,192,72048,1,2,0:0:0:0:
320,192,72214,1,2,0:0:0:0:
64,192,72381,128,8,72714:0:0:0:0:
192,192,72381,1,0,0:0:0:60:Hat Open.wav
320,192,72714,128,2,73048:0:0:0:0:
192,192,73048,128,8,73381:0:0:0:0:
448,192,73048,1,0,0:0:0:60:Hat Open.wav
64,192,73381,1,0,0:0:0:60:Hat Open.wav
448,192,73548,1,2,0:0:0:0:
192,192,73714,1,8,0:0:0:0:
320,192,73714,1,0,0:0:0:60:Hat Open.wav
64,192,73881,1,0,0:0:0:0:
448,192,74048,1,2,0:0:0:0:
192,192,74214,1,2,0:0:0:0:
320,192,74381,1,8,0:0:0:0:
448,192,74381,1,0,0:0:0:60:Hat Open.wav
64,192,74548,1,2,0:0:0:0:
192,192,74714,1,0,0:0:0:60:Hat Open.wav
448,192,74881,1,2,0:0:0:0:
64,192,75048,1,8,0:0:0:0:
320,192,75048,1,0,0:0:0:60:Hat Open.wav
192,192,75214,1,0,0:0:0:0:
320,192,75381,1,2,0:0:0:0:
448,192,75381,128,4,75714:0:0:0:0:
64,192,75714,1,8,0:0:0:0:
192,192,75714,1,0,0:0:0:60:Hat Open.wav
320,192,75881,1,0,0:0:0:0:
64,192,76048,1,2,0:0:0:0:
448,192,76214,1,2,0:0:0:0:
192,192,76381,1,8,0:0:0:0:
320,192,76381,1,0,0:0:0:60:Hat Open.wav
64,192,76548,1,0,0:0:0:0:
448,192,76714,1,2,0:0:0:0:
192,192,76881,1,0,0:0:0:0:
320,192,77048,1,8,0:0:0:0:
448,192,77048,1,0,0:0:0:60:Hat Open.wav
64,192,77214,1,0,0:0:0:0:
192,192,77381,1,2,0:0:0:0:
448,192,77548,1,2,0:0:0:0:
64,192,77714,128,8,78048:0:0:0:0:
320,192,77714,1,0,0:0:0:60:Hat Open.wav
192,192,78048,128,2,78381:0:0:0:0:
320,192,78381,1,8,0:0:0:0:
448,192,78381,128,0,78714:0:0:0:60:Hat Open.wav
64,192,78714,1,2,0:0:0:0:
192,192,78881,1,2,0:0:0:0:
320,192,79048,128,8,79381:0:0:0:0:
448,192,79048,1,0,0:0:0:60:Hat Open.wav
64,192,79381,1,2,0:0:0:0:
192,192,79548,1,8,0:0:0:0:
320,192,79631,1,8,0:0:0:0:
448,192,79714,1,8,0:0:0:0:
64,192,79881,1,8,0:0:0:0:
192,192,79964,1,8,0:0:0:0:
320,192,80048,1,8,0:0:0:0:
448,192,80214,128,8,80381:0:0:0:0:
192,192,80381,128,8,80548:0:0:0:0:
320,192,80548,128,0,80714:0:0:0:50:Tom3.wav
64,192,80714,128,4,81048:0:0:0:0:
192,192,80714,1,2,0:0:0:0:
320,192,81048,1,8,0:0:0:0:
448,192,81048,128,0,81381:0:0:0:0:
64,192,81381,1,2,0:0:0:0:
192,192,81548,1,2,0:0:0:0:
320,192,81714,1,8,0:0:0:0:
448,192,81714,1,0,0:0:0:0:
64,192,82048,128,2,82381:0:0:0:0:
192,192,82048,1,0,0:0:0:25:Ride.wav
320,192,82381,1,8,0:0:0:0:
448,192,82381,1,0,0:0:0:0:
448,192,82548,1,0,0:0:0:0:
192,192,82714,1,2,0:0:0:0:
320,192,82881,1,2,0:0:0:0:
64,192,83048,128,8,83381:0:0:0:0:
448,192,83048,1,0,0:0:0:0:
320,192,83381,128,2,83714:0:0:0:0:
64,192,83714,1,8,0:0:0:0:
192,192,83714,128,0,84048:0:0:0:0:
448,192,84048,1,2,0:0:0:0:
320,192,84214,1,2,0:0:0:0:
64,192,84381,128,8,84714:0:0:0:0:
192,192,84381,1,0,0:0:0:25:Ride.wav
320,192,84714,128,2,85048:0:0:0:0:
64,192,85048,1,8,0:0:0:0:
448,192,85048,1,0,0:0:0:0:
192,192,85214,1,0,0:0:0:0:
448,192,85381,1,2,0:0:0:0:
320,192,85548,1,2,0:0:0:0:
64,192,85714,1,8,0:0:0:0:
192,192,85714,1,0,0:0:0:0:
320,192,86048,1,2,0:0:0:0:
448,192,86048,128,4,86381:0:0:0:0:
64,192,86381,128,8,86714:0:0:0:0:
192,192,86381,1,0,0:0:0:25:Ride.wav
448,192,86714,1,2,0:0:0:0:
320,192,86881,1,2,0:0:0:0:
64,192,87048,1,8,0:0:0:0:
192,192,87048,1,0,0:0:0:25:Ride.wav
320,192,87381,1,2,0:0:0:0:
448,192,87381,128,0,87714:0:0:0:0:
64,192,87714,1,8,0:0:0:0:
192,192,87714,1,0,0:0:0:0:
64,192,87881,1,0,0:0:0:0:
320,192,88048,1,2,0:0:0:0:
192,192,88214,1,2,0:0:0:0:
64,192,88381,1,8,0:0:0:0:
448,192,88381,128,0,88714:0:0:0:0:
192,192,88714,128,2,89048:0:0:0:0:
320,192,89048,128,8,89381:0:0:0:0:
448,192,89048,1,0,0:0:0:0:
64,192,89381,1,6,0:0:0:0:
192,192,89548,1,0,0:0:0:0:
320,192,89631,1,8,0:0:0:0:
448,192,89714,1,8,0:0:0:0:
64,192,89881,1,0,0:0:0:0:
192,192,89964,1,0,0:0:0:0:
320,192,90048,1,8,0:0:0:0:
448,192,90048,1,0,0:0:0:0:
64,192,90714,128,0,91048:0:0:0:0:
192,192,90714,1,0,0:0:0:0:
448,192,91048,128,0,91214:0:0:0:0:
320,192,91214,128,0,91381:0:0:0:0:
64,192,91381,1,2,0:0:0:0:
192,192,91381,1,4,0:0:0:0:
320,192,91714,1,8,0:0:0:0:
448,192,91714,1,0,0:0:0:60:Hat Open.wav
64,192,92048,1,2,0:0:0:0:
448,192,92048,1,0,0:0:0:60:Hat Open.wav
320,192,92214,1,2,0:0:0:0:
64,192,92381,1,8,0:0:0:0:
192,192,92381,1,0,0:0:0:60:Hat Open.wav
320,192,92714,1,2,0:0:0:0:
448,192,92714,1,0,0:0:0:60:Hat Open.wav
64,192,93048,1,8,0:0:0:0:
448,192,93048,1,0,0:0:0:60:Hat Open.wav
64,192,93381,1,2,0:0:0:0:
192,192,93381,1,0,0:0:0:60:Hat Open.wav
320,192,93548,1,2,0:0:0:0:
192,192,93714,1,8,0:0:0:0:
448,192,93714,1,0,0:0:0:60:Hat Open.wav
64,192,94048,128,2,94214:0:0:0:0:
320,192,94048,1,0,0:0:0:60:Hat Open.wav
192,192,94214,128,0,94381:0:0:0:0:
320,192,94381,1,8,0:0:0:0:
448,192,94381,1,0,0:0:0:60:Hat Open.wav
64,192,94714,1,2,0:0:0:0:
192,192,94714,1,0,0:0:0:60:Hat Open.wav
448,192,94881,1,2,0:0:0:0:
64,192,95048,1,8,0:0:0:0:
320,192,95048,1,0,0:0:0:60:Hat Open.wav
192,192,95381,1,2,0:0:0:0:
448,192,95381,1,0,0:0:0:60:Hat Open.wav
320,192,95548,1,2,0:0:0:0:
64,192,95714,1,8,0:0:0:0:
192,192,95714,1,4,0:0:0:0:
448,192,95881,1,2,0:0:0:0:
192,192,96048,1,8,0:0:0:0:
320,192,96048,1,4,0:0:0:0:
64,192,96214,1,2,0:0:0:0:
320,192,96381,1,8,0:0:0:0:
448,192,96381,1,4,0:0:0:0:
192,192,96714,1,2,0:0:0:0:
320,192,96714,1,4,0:0:0:0:
64,192,97048,1,8,0:0:0:0:
448,192,97048,1,0,0:0:0:60:Hat Open.wav
64,192,97381,1,2,0:0:0:0:
192,192,97381,1,0,0:0:0:60:Hat Open.wav
320,192,97548,1,2,0:0:0:0:
192,192,97714,1,8,0:0:0:0:
448,192,97714,1,0,0:0:0:60:Hat Open.wav
64,192,98048,1,2,0:0:0:0:
320,192,98048,1,0,0:0:0:60:Hat Open.wav
64,192,98381,1,8,0:0:0:0:
448,192,98381,1,0,0:0:0:60:Hat Open.wav
192,192,98714,1,2,0:0:0:0:
320,192,98714,1,0,0:0:0:60:Hat Open.wav
64,192,98881,1,2,0:0:0:0:
320,192,99048,1,8,0:0:0:0:
448,192,99048,1,0,0:0:0:60:Hat Open.wav
64,192,99381,1,2,0:0:0:0:
192,192,99381,1,0,0:0:0:60:Hat Open.wav
64,192,99714,1,8,0:0:0:0:
448,192,99714,1,0,0:0:0:60:Hat Open.wav
320,192,100048,1,2,0:0:0:0:
448,192,100048,1,0,0:0:0:60:Hat Open.wav
192,192,100214,1,2,0:0:0:0:
64,192,100381,1,8,0:0:0:0:
320,192,100381,1,0,0:0:0:60:Hat Open.wav
448,192,100548,1,2,0:0:0:0:
64,192,100714,1,8,0:0:0:0:
192,192,100714,1,4,0:0:0:0:
320,192,100881,1,2,0:0:0:0:
192,192,101048,1,8,0:0:0:0:
448,192,101048,1,0,0:0:0:50:Tom2.wav
64,192,101214,1,0,0:0:0:50:Tom2.wav
320,192,101381,1,0,0:0:0:50:Tom2.wav
192,192,101548,1,0,0:0:0:50:Tom2.wav
448,192,101714,1,0,0:0:0:50:Tom3.wav
320,192,101881,1,0,0:0:0:50:Tom3.wav
64,192,102048,1,4,0:0:0:0:
192,192,102048,1,2,0:0:0:0:
320,192,102214,1,0,0:0:0:0:
192,192,102381,1,2,0:0:0:0:
448,192,102548,1,0,0:0:0:0:
64,192,102714,1,2,0:0:0:0:
320,192,102714,1,0,0:0:0:40:Hat Close.wav
192,192,102881,1,0,0:0:0:0:
320,192,103048,1,2,0:0:0:0:
64,192,103214,1,0,0:0:0:0:
192,192,103381,1,2,0:0:0:0:
448,192,103381,128,0,103714:0:0:0:40:Hat Close.wav
64,192,103714,1,2,0:0:0:0:
192,192,103881,128,0,104048:0:0:0:0:
320,192,104048,128,2,104381:0:0:0:0:
448,192,104048,1,0,0:0:0:40:Hat Close.wav
64,192,104381,128,2,104714:0:0:0:0:
192,192,104548,128,0,104714:0:0:0:40:Hat Close.wav
320,192,104714,1,2,0:0:0:0:
448,192,104714,128,0,105048:0:0:0:40:Hat Close.wav
64,192,105048,128,2,105381:0:0:0:0:
192,192,105048,1,0,0:0:0:40:Hat Close.wav
320,192,105381,128,2,105714:0:0:0:0:
448,192,105381,1,0,0:0:0:40:Hat Close.wav
64,192,105714,1,2,0:0:0:0:
192,192,105714,128,0,106048:0:0:0:40:Hat Close.wav
320,192,106048,1,2,0:0:0:0:
448,192,106048,128,0,106381:0:0:0:40:Hat Close.wav
64,192,106381,128,2,106714:0:0:0:0:
192,192,106381,1,0,0:0:0:40:Hat Close.wav
320,192,106714,128,2,107048:0:0:0:0:
448,192,106714,1,0,0:0:0:40:Hat Close.wav
64,192,107048,1,2,0:0:0:0:
192,192,107214,1,0,0:0:0:60:Hat Open.wav
320,192,107381,1,2,0:0:0:0:
448,192,107381,128,0,107714:0:0:0:40:Hat Close.wav
64,192,107714,1,2,0:0:0:0:
320,192,107881,1,0,0:0:0:0:
64,192,108048,1,2,0:0:0:0:
192,192,108048,1,0,0:0:0:40:Hat Close.wav
448,192,108214,1,0,0:0:0:0:
320,192,108381,1,2,0:0:0:0:
64,192,108548,1,0,0:0:0:0:
192,192,108714,1,2,0:0:0:0:
448,192,108714,128,0,109048:0:0:0:40:Hat Close.wav
64,192,109048,1,2,0:0:0:0:
192,192,109214,1,0,0:0:0:0:
320,192,109381,128,2,109714:0:0:0:0:
448,192,109381,1,0,0:0:0:40:Hat Close.wav
64,192,109714,1,2,0:0:0:0:
448,192,109881,128,0,110048:0:0:0:0:
64,192,110048,1,2,0:0:0:0:
192,192,110048,128,0,110381:0:0:0:40:Hat Close.wav
320,192,110381,1,2,0:0:0:0:
64,192,110548,128,0,110714:0:0:0:0:
192,192,110714,1,2,0:0:0:0:
448,192,110714,128,0,111048:0:0:0:60:Hat Open.wav
64,192,111048,1,2,0:0:0:0:
320,192,111048,1,0,0:0:0:60:Hat Open.wav
192,192,111381,1,8,0:0:0:0:
448,192,111381,1,0,0:0:0:60:Hat Open.wav
320,192,111548,1,0,0:0:0:50:Tom2.wav
192,192,111631,1,0,0:0:0:50:Tom2.wav
64,192,111714,1,2,0:0:0:0:
320,192,111881,1,8,0:0:0:0:
448,192,111881,1,0,0:0:0:0:
64,192,112048,1,2,0:0:0:0:
192,192,112214,1,8,0:0:0:0:
320,192,112298,1,8,0:0:0:0:
448,192,112381,128,8,112548:0:0:0:0:
320,192,112548,128,0,112714:0:0:0:50:Tom3.wav
64,192,112714,1,4,0:0:0:0:
192,192,112714,1,2,0:0:0:0:
320,192,112881,1,2,0:0:0:0:
320,192,113048,1,2,0:0:0:0:
64,192,113214,1,8,0:0:0:0:
448,192,113214,1,0,0:0:0:60:Hat Open.wav
320,192,113548,1,8,0:0:0:0:
448,192,113548,1,0,0:0:0:50:Tom3.wav
64,192,113714,1,2,0:0:0:0:
64,192,113881,1,2,0:0:0:0:
320,192,114048,1,8,0:0:0:0:
448,192,114048,1,4,0:0:0:0:
192,192,114214,1,2,0:0:0:0:
64,192,114381,1,8,0:0:0:0:
448,192,114381,1,0,0:0:0:0:
192,192,114714,1,0,0:0:0:50:Tom2.wav
192,192,114881,1,0,0:0:0:50:Tom2.wav
448,192,115048,1,0,0:0:0:50:Tom3.wav
448,192,115214,1,2,0:0:0:0:
64,192,115381,1,4,0:0:0:0:
192,192,115381,1,8,0:0:0:0:
320,192,115548,1,2,0:0:0:0:
320,192,115714,1,2,0:0:0:0:
64,192,115881,1,8,0:0:0:0:
448,192,115881,1,0,0:0:0:60:Hat Open.wav
320,192,116214,1,8,0:0:0:0:
448,192,116214,1,0,0:0:0:50:Tom3.wav
64,192,116381,1,2,0:0:0:0:
64,192,116548,1,2,0:0:0:0:
192,192,116714,1,8,0:0:0:0:
320,192,116714,1,4,0:0:0:0:
448,192,116881,1,2,0:0:0:0:
448,192,117048,1,2,0:0:0:0:
192,192,117214,1,0,0:0:0:50:Tom3.wav
320,192,117381,1,2,0:0:0:0:
320,192,117548,1,2,0:0:0:0:
64,192,117714,1,8,0:0:0:0:
192,192,117714,1,4,0:0:0:0:
448,192,117881,1,2,0:0:0:0:
192,192,118048,1,4,0:0:0:0:
320,192,118048,1,8,0:0:0:0:
64,192,118214,1,2,0:0:0:0:
64,192,118381,1,2,0:0:0:0:
320,192,118548,1,8,0:0:0:0:
448,192,118548,1,0,0:0:0:60:Hat Open.wav
64,192,118881,1,8,0:0:0:0:
448,192,118881,1,0,0:0:0:50:Tom3.wav
320,192,119048,1,2,0:0:0:0:
320,192,119214,1,2,0:0:0:0:
64,192,119381,1,8,0:0:0:0:
192,192,119381,1,4,0:0:0:0:
448,192,119548,1,0,0:0:0:50:Tom2.wav
320,192,119714,1,0,0:0:0:50:Tom2.wav
192,192,119881,1,0,0:0:0:50:Tom3.wav
64,192,120048,1,2,0:0:0:0:
448,192,120048,128,4,120714:0:0:0:0:
320,192,120381,128,0,120714:0:0:0:0:
64,192,120714,128,2,121048:0:0:0:0:
192,192,120714,1,4,0:0:0:0:
320,192,121048,1,0,0:0:0:60:Hat Open.wav
192,192,121214,1,2,0:0:0:0:
64,192,121381,1,8,0:0:0:0:
448,192,121381,1,0,0:0:0:60:Hat Open.wav
192,192,121548,1,2,0:0:0:0:
320,192,121714,1,8,0:0:0:0:
448,192,121714,128,4,122048:0:0:0:0:
64,192,122048,1,2,0:0:0:0:
192,192,122214,1,8,0:0:0:0:
320,192,122214,1,0,0:0:0:0:
448,192,122381,1,2,0:0:0:0:
448,192,122548,1,2,0:0:0:0:
64,192,122714,1,8,0:0:0:0:
192,192,122714,1,0,0:0:0:0:
448,192,122881,1,0,0:0:0:50:Tom2.wav
320,192,123048,1,0,0:0:0:50:Tom2.wav
192,192,123214,1,0,0:0:0:50:Tom3.wav
64,192,123381,1,4,0:0:0:0:
448,192,123381,128,2,123714:0:0:0:0:
320,192,123714,128,0,124048:0:0:0:50:Rim.wav
192,192,124048,128,0,124381:0:0:0:50:Rim.wav
448,192,124381,128,0,124548:0:0:0:50:Rim.wav
64,192,124548,128,0,124714:0:0:0:0:
192,192,124714,128,2,124881:0:0:0:0:
448,192,124714,1,0,0:0:0:50:Rim.wav
320,192,124881,128,2,125048:0:0:0:0:
448,192,125048,128,0,125214:0:0:0:50:Rim.wav
192,192,125214,128,0,125381:0:0:0:0:
64,192,125381,128,0,125714:0:0:0:50:Rim.wav
320,192,125714,128,0,125881:0:0:0:50:Rim.wav
192,192,125881,128,0,126048:0:0:0:0:
64,192,126048,1,2,0:0:0:0:
448,192,126048,128,0,126381:0:0:0:50:Rim.wav
320,192,126381,128,0,126714:0:0:0:50:Rim.wav
192,192,126714,128,0,127048:0:0:0:50:Rim.wav
448,192,127048,128,0,127214:0:0:0:50:Rim.wav
64,192,127214,128,0,127381:0:0:0:0:
192,192,127381,128,2,127548:0:0:0:0:
448,192,127381,1,0,0:0:0:50:Rim.wav
320,192,127548,128,2,127714:0:0:0:0:
448,192,127714,128,0,127881:0:0:0:50:Rim.wav
192,192,127881,128,0,128048:0:0:0:0:
64,192,128048,128,0,128381:0:0:0:50:Rim.wav
320,192,128381,128,0,128714:0:0:0:50:Rim.wav
64,192,128714,128,2,129048:0:0:0:0:
448,192,128714,1,0,0:0:0:50:Rim.wav
192,192,129048,128,0,129381:0:0:0:50:Rim.wav
320,192,129381,128,0,129714:0:0:0:50:Rim.wav
64,192,129714,128,0,129881:0:0:0:50:Rim.wav
448,192,129881,128,0,130048:0:0:0:0:
64,192,130048,1,2,0:0:0:0:
320,192,130048,128,0,130214:0:0:0:50:Rim.wav
192,192,130214,128,2,130381:0:0:0:0:
64,192,130381,128,0,130548:0:0:0:50:Rim.wav
320,192,130548,128,0,130714:0:0:0:0:
448,192,130714,128,0,131048:0:0:0:50:Rim.wav
192,192,131048,128,0,131214:0:0:0:50:Rim.wav
320,192,131214,128,0,131381:0:0:0:0:
64,192,131381,128,2,131714:0:0:0:0:
448,192,131381,1,0,0:0:0:50:Rim.wav
192,192,131714,128,0,132048:0:0:0:50:Rim.wav
320,192,132048,128,0,132381:0:0:0:50:Rim.wav
64,192,132381,128,0,132548:0:0:0:50:Rim.wav
448,192,132548,128,0,132714:0:0:0:0:
64,192,132714,1,10,0:0:0:0:
192,192,132714,1,0,0:0:0:60:Hat Open.wav
320,192,132881,1,8,0:0:0:0:
192,192,132964,1,8,0:0:0:0:
64,192,133048,1,8,0:0:0:0:
448,192,133214,1,8,0:0:0:0:
320,192,133381,1,8,0:0:0:0:
64,192,133548,1,0,0:0:0:50:Tom2.wav
192,192,133714,1,0,0:0:0:50:Tom3.wav
320,192,133881,1,0,0:0:0:50:Tom3.wav
64,192,134048,128,8,134381:0:0:0:0:
448,192,134048,1,4,0:0:0:0:
192,192,134381,128,0,134714:0:0:0:50:Tom3.wav
320,192,134714,128,0,135048:0:0:0:50:Tom3.wav
448,192,135048,128,0,135381:0:0:0:50:Tom3.wav
64,192,135381,1,8,0:0:0:0:
192,192,135381,1,4,0:0:0:0:
320,192,135631,1,0,0:0:0:50:Tom2.wav
192,192,135714,1,0,0:0:0:50:Tom2.wav
448,192,135881,1,0,0:0:0:50:Tom2.wav
320,192,136048,1,0,0:0:0:50:Tom3.wav
192,192,136214,1,0,0:0:0:50:Tom3.wav
64,192,136381,128,0,136714:0:0:0:50:Tom3.wav
320,192,136714,1,8,0:0:0:0:
448,192,136714,128,4,137048:0:0:0:0:
64,192,137048,128,8,137381:0:0:0:0:
192,192,137048,1,0,0:0:0:50:Tom3.wav
320,192,137381,128,8,137714:0:0:0:0:
448,192,137381,1,0,0:0:0:50:Tom3.wav
64,192,137714,1,8,0:0:0:0:
192,192,137714,128,0,138048:0:0:0:50:Tom3.wav
320,192,138048,1,4,0:0:0:0:
448,192,138048,128,8,138214:0:0:0:0:
64,192,138214,128,8,138381:0:0:0:0:
320,192,138381,128,10,138548:0:0:0:0:
192,192,138548,128,8,138714:0:0:0:0:
448,192,138714,128,10,138881:0:0:0:0:
320,192,138881,128,8,139048:0:0:0:0:
192,192,139048,128,10,139214:0:0:0:0:
64,192,139214,128,8,139381:0:0:0:0:
320,192,139381,1,4,0:0:0:0:
448,192,139381,128,2,139714:0:0:0:0:
64,192,139714,128,8,140048:0:0:0:0:
192,192,139714,1,0,0:0:0:60:Hat Open.wav
448,192,140048,128,2,140381:0:0:0:0:
192,192,140381,1,8,0:0:0:0:
320,192,140381,1,0,0:0:0:60:Hat Open.wav
64,192,140548,1,0,0:0:0:0:
192,192,140714,1,2,0:0:0:0:
448,192,140881,1,0,0:0:0:0:
64,192,141048,1,8,0:0:0:0:
320,192,141048,1,0,0:0:0:60:Hat Open.wav
192,192,141214,1,0,0:0:0:0:
448,192,141381,1,2,0:0:0:0:
320,192,141548,1,2,0:0:0:0:
64,192,141714,128,8,142048:0:0:0:0:
192,192,141714,1,0,0:0:0:60:Hat Open.wav
320,192,142048,128,2,142381:0:0:0:0:
192,192,142381,128,8,142714:0:0:0:0:
448,192,142381,1,0,0:0:0:60:Hat Open.wav
448,192,142714,128,2,143048:0:0:0:0:
64,192,143048,128,8,143381:0:0:0:0:
192,192,143048,1,0,0:0:0:60:Hat Open.wav
448,192,143381,1,2,0:0:0:0:
320,192,143548,1,2,0:0:0:0:
64,192,143714,1,8,0:0:0:0:
192,192,143714,1,0,0:0:0:60:Hat Open.wav
320,192,143881,1,2,0:0:0:0:
64,192,144048,1,8,0:0:0:0:
448,192,144048,1,0,0:0:0:60:Hat Open.wav
192,192,144214,1,2,0:0:0:0:
320,192,144381,1,8,0:0:0:0:
448,192,144381,1,0,0:0:0:60:Hat Open.wav
64,192,144714,128,2,145048:0:0:0:0:
192,192,144714,1,4,0:0:0:0:
320,192,145048,1,8,0:0:0:0:
448,192,145048,1,0,0:0:0:60:Hat Open.wav
192,192,145214,1,0,0:0:0:0:
448,192,145381,1,2,0:0:0:0:
320,192,145548,1,2,0:0:0:0:
64,192,145714,1,8,0:0:0:0:
192,192,145714,1,0,0:0:0:60:Hat Open.wav
320,192,145881,1,0,0:0:0:0:
64,192,146048,1,2,0:0:0:0:
448,192,146214,1,0,0:0:0:0:
192,192,146381,1,8,0:0:0:0:
320,192,146381,1,0,0:0:0:60:Hat Open.wav
64,192,146548,1,0,0:0:0:0:
448,192,146714,1,2,0:0:0:0:
192,192,146881,1,2,0:0:0:0:
320,192,147048,1,8,0:0:0:0:
448,192,147048,128,0,147381:0:0:0:60:Hat Open.wav
64,192,147381,128,2,147714:0:0:0:0:
320,192,147714,128,8,148048:0:0:0:0:
448,192,147714,1,0,0:0:0:60:Hat Open.wav
64,192,148048,1,2,0:0:0:0:
192,192,148214,1,2,0:0:0:0:
320,192,148381,1,8,0:0:0:0:
448,192,148381,1,0,0:0:0:60:Hat Open.wav
192,192,148548,1,0,0:0:0:0:
448,192,148714,128,2,149048:0:0:0:0:
64,192,149048,1,8,0:0:0:0:
192,192,149048,1,0,0:0:0:60:Hat Open.wav
320,192,149214,128,0,149381:0:0:0:0:
64,192,149381,128,2,149548:0:0:0:0:
448,192,149548,1,8,0:0:0:0:
320,192,149631,1,8,0:0:0:0:
192,192,149714,1,8,0:0:0:0:
448,192,149881,1,0,0:0:0:50:Tom3.wav
320,192,149964,1,0,0:0:0:50:Tom3.wav
64,192,150048,128,4,150381:0:0:0:0:
192,192,150048,1,2,0:0:0:0:
320,192,150381,1,8,0:0:0:0:
448,192,150381,1,0,0:0:0:60:Hat Open.wav
192,192,150548,1,0,0:0:0:0:
448,192,150714,1,2,0:0:0:0:
320,192,150881,1,2,0:0:0:0:
64,192,151048,1,8,0:0:0:0:
192,192,151048,1,0,0:0:0:60:Hat Open.wav
448,192,151214,1,0,0:0:0:0:
320,192,151381,1,2,0:0:0:0:
64,192,151548,1,0,0:0:0:0:
192,192,151714,1,8,0:0:0:0:
448,192,151714,1,0,0:0:0:60:Hat Open.wav
320,192,151881,1,0,0:0:0:0:
64,192,152048,1,2,0:0:0:0:
192,192,152214,1,2,0:0:0:0:
320,192,152381,1,8,0:0:0:0:
448,192,152381,128,0,152714:0:0:0:60:Hat Open.wav
192,192,152714,128,2,153048:0:0:0:0:
64,192,153048,1,8,0:0:0:0:
448,192,153048,1,0,0:0:0:60:Hat Open.wav
320,192,153214,1,0,0:0:0:0:
192,192,153381,1,2,0:0:0:0:
64,192,153714,1,8,0:0:0:0:
320,192,153714,1,0,0:0:0:60:Hat Open.wav
192,192,153881,1,0,0:0:0:0:
448,192,154048,1,2,0:0:0:0:
320,192,154214,1,2,0:0:0:0:
64,192,154381,1,8,0:0:0:0:
192,192,154381,1,0,0:0:0:60:Hat Open.wav
448,192,154548,1,2,0:0:0:0:
320,192,154714,1,0,0:0:0:60:Hat Open.wav
64,192,154881,1,2,0:0:0:0:
192,192,155048,1,8,0:0:0:0:
448,192,155048,1,0,0:0:0:60:Hat Open.wav
64,192,155381,1,2,0:0:0:0:
192,192,155381,1,4,0:0:0:0:
320,192,155548,1,0,0:0:0:0:
64,192,155714,1,8,0:0:0:0:
448,192,155714,1,0,0:0:0:60:Hat Open.wav
192,192,155881,1,0,0:0:0:0:
448,192,156048,1,2,0:0:0:0:
320,192,156214,1,2,0:0:0:0:
64,192,156381,1,8,0:0:0:0:
192,192,156381,1,0,0:0:0:60:Hat Open.wav
320,192,156548,1,0,0:0:0:0:
64,192,156714,1,2,0:0:0:0:
192,192,156881,1,0,0:0:0:0:
320,192,157048,1,8,0:0:0:0:
448,192,157048,1,0,0:0:0:60:Hat Open.wav
192,192,157214,1,0,0:0:0:0:
320,192,157381,1,2,0:0:0:0:
64,192,157548,1,2,0:0:0:0:
192,192,157714,1,8,0:0:0:0:
448,192,157714,128,0,158048:0:0:0:60:Hat Open.wav
320,192,158048,128,2,158381:0:0:0:0:
64,192,158381,128,8,158714:0:0:0:0:
192,192,158381,1,0,0:0:0:60:Hat Open.wav
448,192,158714,1,2,0:0:0:0:
320,192,158881,1,2,0:0:0:0:
64,192,159048,1,8,0:0:0:0:
192,192,159048,128,0,159381:0:0:0:60:Hat Open.wav
448,192,159381,1,2,0:0:0:0:
64,192,159548,1,2,0:0:0:0:
192,192,159714,1,8,0:0:0:0:
320,192,159714,1,0,0:0:0:60:Hat Open.wav
448,192,159881,1,0,0:0:0:0:
64,192,160048,1,2,0:0:0:0:
192,192,160214,1,8,0:0:0:0:
320,192,160298,1,8,0:0:0:0:
448,192,160381,1,8,0:0:0:0:
64,192,160548,1,8,0:0:0:0:
192,192,160631,1,8,0:0:0:0:
320,192,160714,1,4,0:0:0:0:
448,192,160714,128,2,162714:0:0:0:0:
64,192,161048,1,8,0:0:0:0:
192,192,161048,1,4,0:0:0:0:
320,192,161381,1,2,0:0:0:0:
192,192,161548,1,2,0:0:0:0:
64,192,161714,1,8,0:0:0:0:
320,192,162048,1,2,0:0:0:0:
64,192,162214,1,2,0:0:0:0:
192,192,162381,1,8,0:0:0:0:
64,192,162714,128,2,163381:0:0:0:0:
192,192,162881,1,2,0:0:0:0:
320,192,163048,1,8,0:0:0:0:
192,192,163381,1,2,0:0:0:0:
448,192,163381,128,0,164714:0:0:0:25:Ride.wav
64,192,163714,1,8,0:0:0:0:
320,192,163714,1,0,0:0:0:25:Ride.wav
192,192,164048,1,0,0:0:0:25:Ride.wav
320,192,164214,1,2,0:0:0:0:
192,192,164381,1,8,0:0:0:0:
64,192,164714,128,2,165048:0:0:0:0:
192,192,164881,1,2,0:0:0:0:
320,192,165048,1,8,0:0:0:0:
448,192,165048,1,0,0:0:0:25:Ride.wav
192,192,165214,1,2,0:0:0:0:
448,192,165381,128,0,165714:0:0:0:25:Ride.wav
320,192,165548,1,2,0:0:0:0:
64,192,165714,1,8,0:0:0:0:
192,192,165714,1,0,0:0:0:25:Ride.wav
320,192,166048,128,4,166381:0:0:0:0:
448,192,166048,1,2,0:0:0:0:
64,192,166381,1,8,0:0:0:0:
192,192,166381,1,0,0:0:0:25:Ride.wav
320,192,166714,1,0,0:0:0:25:Ride.wav
192,192,166881,1,2,0:0:0:0:
64,192,167048,1,8,0:0:0:0:
448,192,167048,1,0,0:0:0:25:Ride.wav
320,192,167381,1,2,0:0:0:0:
64,192,167548,1,2,0:0:0:0:
192,192,167714,1,8,0:0:0:0:
448,192,167714,1,0,0:0:0:25:Ride.wav
320,192,167881,1,2,0:0:0:0:
320,192,168214,1,2,0:0:0:0:
64,192,168381,1,8,0:0:0:0:
192,192,168381,1,0,0:0:0:25:Ride.wav
320,192,168714,1,2,0:0:0:0:
448,192,168714,128,4,168881:0:0:0:0:
192,192,168881,128,0,169048:0:0:0:0:
64,192,169048,1,8,0:0:0:0:
320,192,169048,128,0,169214:0:0:0:25:Ride.wav
448,192,169214,128,0,169381:0:0:0:0:
192,192,169381,128,0,169548:0:0:0:25:Ride.wav
320,192,169548,128,2,169714:0:0:0:0:
64,192,169714,128,8,169881:0:0:0:0:
448,192,169714,1,0,0:0:0:25:Ride.wav
320,192,169881,128,0,170048:0:0:0:0:
192,192,170048,128,2,170214:0:0:0:0:
64,192,170214,128,2,170381:0:0:0:0:
320,192,170381,128,8,170548:0:0:0:0:
448,192,170381,1,0,0:0:0:25:Ride.wav
192,192,170548,128,0,170714:0:0:0:0:
448,192,170714,128,6,171048:0:0:0:0:
320,192,170881,128,8,171048:0:0:0:0:
64,192,171048,1,8,0:0:0:0:
192,192,171048,1,0,0:0:0:0:
320,192,171214,1,8,0:0:0:0:
192,192,171298,1,8,0:0:0:0:
64,192,171381,1,4,0:0:0:0:
448,192,171381,128,2,172881:0:0:0:0:
192,192,171714,1,4,0:0:0:0:
320,192,171714,1,8,0:0:0:0:
64,192,172048,1,2,0:0:0:0:
192,192,172214,1,2,0:0:0:0:
320,192,172381,1,8,0:0:0:0:
192,192,172714,1,2,0:0:0:0:
320,192,172881,1,2,0:0:0:0:
64,192,173048,1,8,0:0:0:0:
192,192,173048,1,0,0:0:0:25:Ride.wav
448,192,173214,1,2,0:0:0:0:
448,192,173548,1,2,0:0:0:0:
192,192,173714,1,8,0:0:0:0:
320,192,173714,1,0,0:0:0:25:Ride.wav
64,192,174048,128,2,174381:0:0:0:0:
320,192,174381,1,8,0:0:0:0:
448,192,174381,128,0,174548:0:0:0:25:Ride.wav
192,192,174548,128,0,174881:0:0:0:0:
64,192,174881,128,2,175048:0:0:0:0:
320,192,175048,128,8,175214:0:0:0:0:
448,192,175048,1,0,0:0:0:25:Ride.wav
192,192,175214,128,0,175381:0:0:0:0:
448,192,175381,128,2,175548:0:0:0:0:
320,192,175548,128,2,175714:0:0:0:0:
64,192,175714,128,8,175881:0:0:0:0:
192,192,175714,1,0,0:0:0:25:Ride.wav
448,192,175881,1,2,0:0:0:0:
320,192,176048,128,0,176381:0:0:0:25:Ride.wav
192,192,176214,1,2,0:0:0:0:
64,192,176381,1,8,0:0:0:0:
448,192,176381,1,0,0:0:0:25:Ride.wav
64,192,176714,128,2,177048:0:0:0:0:
192,192,176714,1,4,0:0:0:0:
320,192,177048,128,8,177381:0:0:0:0:
448,192,177048,1,0,0:0:0:25:Ride.wav
192,192,177381,128,0,177714:0:0:0:25:Ride.wav
64,192,177548,1,2,0:0:0:0:
320,192,177714,1,8,0:0:0:0:
448,192,177714,128,0,178048:0:0:0:25:Ride.wav
64,192,178048,1,2,0:0:0:0:
192,192,178214,1,2,0:0:0:0:
320,192,178381,1,8,0:0:0:0:
448,192,178381,1,0,0:0:0:25:Ride.wav
192,192,178548,1,2,0:0:0:0:
192,192,178881,1,2,0:0:0:0:
64,192,179048,1,8,0:0:0:0:
448,192,179048,1,0,0:0:0:25:Ride.wav
320,192,179214,1,2,0:0:0:0:
64,192,179381,128,8,179714:0:0:0:0:
192,192,179381,1,4,0:0:0:0:
448,192,179714,1,2,0:0:0:0:
192,192,179881,1,8,0:0:0:0:
320,192,179881,1,0,0:0:0:0:
64,192,180048,1,0,0:0:0:25:Ride.wav
192,192,180214,1,2,0:0:0:0:
320,192,180381,1,8,0:0:0:0:
448,192,180381,128,4,180714:0:0:0:0:
64,192,180714,128,2,181381:0:0:0:0:
192,192,180881,1,8,0:0:0:0:
320,192,181048,1,2,0:0:0:0:
192,192,181381,1,8,0:0:0:0:
448,192,181381,1,0,0:0:0:0:
320,192,181548,1,0,0:0:0:50:Tom1.wav
192,192,181714,1,0,0:0:0:50:Tom2.wav
64,192,181881,1,0,0:0:0:50:Tom3.wav
448,192,182048,1,0,0:0:0:0:
192,192,182214,1,0,0:0:0:0:
320,192,182381,1,0,0:0:0:0:
64,192,182548,1,0,0:0:0:0:
192,192,182714,128,0,183048:0:0:0:0:
320,192,183048,128,0,183381:0:0:0:0:
64,192,183381,128,0,183714:0:0:0:0:
448,192,183714,128,0,184048:0:0:0:0:
192,192,184048,128,0,184381:0:0:0:0:
320,192,184548,1,0,0:0:0:0:
64,192,184714,1,0,0:0:0:0:
192,192,185048,1,0,0:0:0:0:
448,192,185214,1,0,0:0:0:0:
192,192,185381,128,0,185714:0:0:0:0:
448,192,185714,128,0,186048:0:0:0:0:
320,192,186048,128,0,186381:0:0:0:0:
192,192,186381,128,0,186714:0:0:0:0:
64,192,186714,128,0,187048:0:0:0:0:
192,192,187214,1,0,0:0:0:0:
448,192,187381,128,0,187714:0:0:0:0:
64,192,187714,128,0,188048:0:0:0:0:
320,192,188048,128,0,188381:0:0:0:0:
192,192,188381,128,0,188714:0:0:0:0:
448,192,188714,128,0,189048:0:0:0:0:
64,192,189048,1,0,0:0:0:0:
192,192,189214,1,0,0:0:0:0:
320,192,189381,128,0,189714:0:0:0:0:
448,192,189881,1,0,0:0:0:0:
64,192,190048,128,0,190381:0:0:0:0:
320,192,190381,1,0,0:0:0:0:
192,192,190548,1,0,0:0:0:0:
448,192,190714,128,0,191048:0:0:0:0:
320,192,191048,128,0,191381:0:0:0:0:
64,192,191381,128,0,191714:0:0:0:0:
192,192,191714,128,0,192048:0:0:0:0:
448,192,192048,128,0,192381:0:0:0:0:
320,192,192548,1,0,0:0:0:0:
192,192,192714,1,0,0:0:0:0:
64,192,192881,1,0,0:0:0:0:
192,192,193214,1,0,0:0:0:0:
448,192,193381,128,0,193714:0:0:0:0:
320,192,193714,128,0,194048:0:0:0:0:
64,192,194048,128,0,194381:0:0:0:0:
192,192,194381,128,0,194714:0:0:0:0:
320,192,194714,128,0,195048:0:0:0:0:
64,192,195214,1,0,0:0:0:0:
448,192,195381,1,0,0:0:0:0:
192,192,195548,1,0,0:0:0:0:
320,192,195714,1,0,0:0:0:0:
64,192,195881,1,0,0:0:0:0:
448,192,196048,128,0,196381:0:0:0:0:
192,192,196381,128,0,196714:0:0:0:0:
320,192,196714,128,0,197048:0:0:0:0:
64,192,197048,128,0,197381:0:0:0:0:
192,192,197381,128,0,197714:0:0:0:0:
448,192,197881,1,0,0:0:0:0:
320,192,198048,128,0,198381:0:0:0:0:
64,192,198381,128,0,198714:0:0:0:0:
192,192,198714,128,0,199048:0:0:0:0:
320,192,199048,128,0,199381:0:0:0:0:
448,192,199381,128,0,199714:0:0:0:0:
192,192,199714,1,0,0:0:0:0:
320,192,199881,1,0,0:0:0:0:
64,192,200048,128,0,200214:0:0:0:0:
448,192,200381,128,0,200714:0:0:0:0:
192,192,200714,128,0,201048:0:0:0:0:
320,192,201048,1,0,0:0:0:0:
64,192,201214,1,0,0:0:0:0:
448,192,201381,128,0,201714:0:0:0:0:
320,192,201714,128,0,202048:0:0:0:0:
64,192,202048,1,8,0:0:0:0:
192,192,202048,1,0,0:0:0:60:Hat Open.wav
448,192,202214,1,0,0:0:0:50:Tom2.wav
320,192,202548,1,8,0:0:0:0:
448,192,202548,1,0,0:0:0:60:Hat Open.wav
64,192,202714,1,8,0:0:0:0:
192,192,202714,1,0,0:0:0:0:
320,192,202881,1,0,0:0:0:50:Tom2.wav
64,192,203048,1,0,0:0:0:50:Tom3.wav
192,192,203214,1,0,0:0:0:50:Tom3.wav
320,192,203381,1,4,0:0:0:0:
448,192,203381,1,2,0:0:0:0:
192,192,203714,1,2,0:0:0:0:
64,192,204048,1,8,0:0:0:0:
448,192,204048,1,0,0:0:0:60:Hat Open.wav
64,192,204381,1,4,0:0:0:0:
448,192,204381,1,8,0:0:0:0:
320,192,204714,1,2,0:0:0:0:
64,192,204881,1,8,0:0:0:0:
192,192,204881,1,0,0:0:0:0:
448,192,205048,1,2,0:0:0:0:
192,192,205381,1,8,0:0:0:0:
320,192,205381,1,0,0:0:0:60:Hat Open.wav
64,192,205714,1,2,0:0:0:0:
320,192,205881,1,8,0:0:0:0:
448,192,205881,1,0,0:0:0:0:
64,192,206048,1,4,0:0:0:0:
192,192,206048,1,2,0:0:0:0:
320,192,206381,1,2,0:0:0:0:
64,192,206714,1,8,0:0:0:0:
448,192,206714,1,0,0:0:0:60:Hat Open.wav
64,192,207048,1,8,0:0:0:0:
448,192,207048,1,4,0:0:0:0:
192,192,207381,1,2,0:0:0:0:
320,192,207548,1,8,0:0:0:0:
448,192,207548,1,4,0:0:0:0:
64,192,207714,1,2,0:0:0:0:
192,192,208048,1,8,0:0:0:0:
320,192,208048,1,0,0:0:0:60:Hat Open.wav
448,192,208381,1,2,0:0:0:0:
64,192,208548,1,8,0:0:0:0:
192,192,208548,1,0,0:0:0:0:
320,192,208714,1,2,0:0:0:0:
448,192,208714,1,4,0:0:0:0:
192,192,209048,1,2,0:0:0:0:
64,192,209381,1,8,0:0:0:0:
320,192,209381,1,0,0:0:0:60:Hat Open.wav
64,192,209714,1,8,0:0:0:0:
320,192,209714,1,4,0:0:0:0:
192,192,210048,1,2,0:0:0:0:
320,192,210214,1,8,0:0:0:0:
448,192,210214,1,0,0:0:0:0:
64,192,210381,1,2,0:0:0:0:
192,192,210714,1,8,0:0:0:0:
448,192,210714,1,0,0:0:0:60:Hat Open.wav
320,192,211048,1,2,0:0:0:0:
64,192,211214,1,8,0:0:0:0:
192,192,211214,1,0,0:0:0:0:
320,192,211381,1,2,0:0:0:0:
448,192,211381,1,4,0:0:0:0:
192,192,211714,1,2,0:0:0:0:
64,192,212048,1,8,0:0:0:0:
320,192,212048,1,0,0:0:0:60:Hat Open.wav
64,192,212381,1,8,0:0:0:0:
320,192,212381,1,0,0:0:0:60:Hat Open.wav
192,192,212714,1,2,0:0:0:0:
448,192,212937,1,8,0:0:0:0:
320,192,213048,1,2,0:0:0:0:
192,192,213159,1,8,0:0:0:0:
64,192,213270,1,8,0:0:0:0:
448,192,213381,128,8,213714:0:0:0:0:
320,192,213714,128,2,214048:0:0:0:0:
64,192,214048,1,4,0:0:0:0:
192,192,214048,1,2,0:0:0:0:
320,192,214381,1,2,0:0:0:0:
64,192,214714,1,8,0:0:0:0:
448,192,214714,1,0,0:0:0:60:Hat Open.wav
64,192,215048,1,8,0:0:0:0:
448,192,215048,1,4,0:0:0:0:
192,192,215381,1,2,0:0:0:0:
320,192,215548,1,8,0:0:0:0:
448,192,215548,1,0,0:0:0:0:
64,192,215714,1,2,0:0:0:0:
192,192,216048,1,8,0:0:0:0:
320,192,216048,1,0,0:0:0:60:Hat Open.wav
448,192,216381,1,2,0:0:0:0:
64,192,216548,1,8,0:0:0:0:
192,192,216548,1,0,0:0:0:0:
320,192,216714,1,4,0:0:0:0:
448,192,216714,1,2,0:0:0:0:
192,192,217048,1,2,0:0:0:0:
64,192,217381,1,8,0:0:0:0:
448,192,217381,1,0,0:0:0:60:Hat Open.wav
320,192,217714,1,2,0:0:0:0:
64,192,217881,1,8,0:0:0:0:
192,192,217881,1,0,0:0:0:0:
320,192,218048,1,2,0:0:0:0:
64,192,218214,1,8,0:0:0:0:
448,192,218214,1,0,0:0:0:0:
192,192,218381,1,2,0:0:0:0:
448,192,218548,1,8,0:0:0:0:
320,192,218631,1,8,0:0:0:0:
64,192,218714,1,8,0:0:0:0:
192,192,218714,1,0,0:0:0:0:
448,192,218881,1,0,0:0:0:50:Tom1.wav
320,192,219048,1,0,0:0:0:50:Tom2.wav
192,192,219214,1,0,0:0:0:50:Tom3.wav
64,192,219381,1,4,0:0:0:0:
448,192,219381,1,2,0:0:0:0:
320,192,219714,1,2,0:0:0:0:
64,192,220048,1,8,0:0:0:0:
192,192,220048,1,0,0:0:0:60:Hat Open.wav
64,192,220381,1,8,0:0:0:0:
192,192,220381,1,4,0:0:0:0:
448,192,220714,1,2,0:0:0:0:
192,192,220881,1,8,0:0:0:0:
320,192,220881,1,0,0:0:0:0:
64,192,221048,1,2,0:0:0:0:
320,192,221381,1,8,0:0:0:0:
448,192,221381,1,0,0:0:0:60:Hat Open.wav
192,192,221714,1,2,0:0:0:0:
64,192,222048,1,8,0:0:0:0:
448,192,222048,1,4,0:0:0:0:
320,192,222381,1,2,0:0:0:0:
64,192,222548,1,8,0:0:0:0:
192,192,222548,1,0,0:0:0:0:
448,192,222714,1,2,0:0:0:0:
192,192,223048,1,8,0:0:0:0:
320,192,223048,1,4,0:0:0:0:
64,192,223381,1,8,0:0:0:0:
448,192,223381,1,0,0:0:0:50:Tom3.wav
64,192,223631,1,8,0:0:0:0:
320,192,223631,1,0,0:0:0:50:Tom3.wav
64,192,223881,1,8,0:0:0:0:
320,192,223881,1,0,0:0:0:50:Tom3.wav
192,192,224048,1,8,0:0:0:0:
448,192,224048,1,0,0:0:0:60:Hat Open.wav
64,192,224298,1,8,0:0:0:0:
448,192,224298,1,0,0:0:0:60:Hat Open.wav
64,192,224548,1,8,0:0:0:0:
448,192,224548,1,0,0:0:0:50:Tom3.wav
320,192,224714,128,0,225048:0:0:0:60:Hat Open.wav
64,192,225048,128,0,225381:0:0:0:0:
192,192,225381,128,0,225714:0:0:0:0:
448,192,225714,1,0,0:0:0:0:
320,192,225881,1,0,0:0:0:0:
192,192,226048,1,0,0:0:0:0:
64,192,226214,1,0,0:0:0:0:
192,192,226381,128,0,226548:0:0:0:0:
320,192,226548,128,0,226714:0:0:0:0:
448,192,226714,128,0,226881:0:0:0:0:
448,192,227048,128,0,227214:0:0:0:0:
320,192,227214,128,0,227381:0:0:0:0:
64,192,227381,128,2,227714:0:0:0:0:
192,192,227381,1,4,0:0:0:0:
320,192,227714,1,8,0:0:0:0:
448,192,227714,128,0,228048:0:0:0:60:Hat Open.wav
64,192,228048,128,2,228381:0:0:0:0:
192,192,228381,1,8,0:0:0:0:
320,192,228381,1,0,0:0:0:60:Hat Open.wav
448,192,228548,1,0,0:0:0:0:
320,192,228714,1,2,0:0:0:0:
64,192,228881,1,0,0:0:0:0:
192,192,229048,1,8,0:0:0:0:
448,192,229048,1,0,0:0:0:60:Hat Open.wav
320,192,229214,1,0,0:0:0:0:
64,192,229381,1,2,0:0:0:0:
192,192,229548,1,2,0:0:0:0:
320,192,229714,1,8,0:0:0:0:
448,192,229714,128,0,230048:0:0:0:60:Hat Open.wav
192,192,230048,128,2,230381:0:0:0:0:
64,192,230381,1,8,0:0:0:0:
320,192,230381,128,0,230714:0:0:0:60:Hat Open.wav
64,192,230714,128,2,231048:0:0:0:0:
320,192,231048,1,8,0:0:0:0:
448,192,231048,128,0,231381:0:0:0:60:Hat Open.wav
64,192,231381,1,2,0:0:0:0:
192,192,231548,1,2,0:0:0:0:
320,192,231714,1,8,0:0:0:0:
448,192,231714,1,0,0:0:0:60:Hat Open.wav
192,192,231881,1,2,0:0:0:0:
64,192,232048,1,8,0:0:0:0:
448,192,232048,1,0,0:0:0:60:Hat Open.wav
320,192,232214,1,2,0:0:0:0:
64,192,232381,1,8,0:0:0:0:
192,192,232381,1,0,0:0:0:60:Hat Open.wav
320,192,232714,1,4,0:0:0:0:
448,192,232714,128,2,233048:0:0:0:0:
64,192,233048,1,8,0:0:0:0:
192,192,233048,1,0,0:0:0:60:Hat Open.wav
320,192,233214,1,0,0:0:0:0:
64,192,233381,1,2,0:0:0:0:
192,192,233548,1,2,0:0:0:0:
320,192,233714,1,8,0:0:0:0:
448,192,233714,1,0,0:0:0:60:Hat Open.wav
192,192,233881,1,0,0:0:0:0:
448,192,234048,1,2,0:0:0:0:
64,192,234214,1,0,0:0:0:0:
192,192,234381,1,8,0:0:0:0:
320,192,234381,1,0,0:0:0:60:Hat Open.wav
448,192,234548,1,0,0:0:0:0:
64,192,234714,1,2,0:0:0:0:
320,192,234881,1,2,0:0:0:0:
64,192,235048,128,8,235381:0:0:0:0:
192,192,235048,1,0,0:0:0:60:Hat Open.wav
448,192,235381,128,2,235714:0:0:0:0:
64,192,235714,1,8,0:0:0:0:
192,192,235714,128,0,236048:0:0:0:60:Hat Open.wav
448,192,236048,1,2,0:0:0:0:
320,192,236214,1,2,0:0:0:0:
64,192,236381,1,8,0:0:0:0:
192,192,236381,1,0,0:0:0:60:Hat Open.wav
320,192,236548,1,0,0:0:0:0:
64,192,236714,128,2,237048:0:0:0:0:
320,192,237048,1,8,0:0:0:0:
448,192,237048,1,0,0:0:0:60:Hat Open.wav
192,192,237214,128,0,237381:0:0:0:0:
448,192,237381,128,2,237548:0:0:0:0:
64,192,237548,1,8,0:0:0:0:
192,192,237631,1,8,0:0:0:0:
320,192,237714,1,8,0:0:0:0:
64,192,237881,1,8,0:0:0:0:
192,192,237964,1,8,0:0:0:0:
320,192,238048,1,4,0:0:0:0:
448,192,238048,128,2,238381:0:0:0:0:
64,192,238381,1,8,0:0:0:0:
192,192,238381,1,0,0:0:0:60:Hat Open.wav
320,192,238548,1,0,0:0:0:0:
64,192,238714,1,2,0:0:0:0:
192,192,238881,1,2,0:0:0:0:
320,192,239048,1,8,0:0:0:0:
448,192,239048,1,0,0:0:0:60:Hat Open.wav
64,192,239214,1,0,0:0:0:0:
192,192,239381,1,2,0:0:0:0:
448,192,239548,1,0,0:0:0:0:
64,192,239714,128,8,240048:0:0:0:0:
320,192,239714,1,0,0:0:0:60:Hat Open.wav
448,192,240048,1,2,0:0:0:0:
320,192,240214,1,2,0:0:0:0:
64,192,240381,128,8,240714:0:0:0:0:
192,192,240381,1,0,0:0:0:60:Hat Open.wav
320,192,240714,128,2,241048:0:0:0:0:
192,192,241048,128,8,241381:0:0:0:0:
448,192,241048,1,0,0:0:0:60:Hat Open.wav
64,192,241381,1,2,0:0:0:0:
448,192,241548,1,2,0:0:0:0:
192,192,241714,1,8,0:0:0:0:
320,192,241714,1,0,0:0:0:60:Hat Open.wav
64,192,241881,1,0,0:0:0:0:
448,192,242048,1,2,0:0:0:0:
192,192,242214,1,0,0:0:0:0:
320,192,242381,1,8,0:0:0:0:
448,192,242381,1,0,0:0:0:60:Hat Open.wav
64,192,242548,1,0,0:0:0:0:
192,192,242714,1,2,0:0:0:0:
448,192,242881,1,2,0:0:0:0:
64,192,243048,1,8,0:0:0:0:
320,192,243048,1,0,0:0:0:60:Hat Open.wav
192,192,243214,1,0,0:0:0:0:
320,192,243381,1,2,0:0:0:0:
448,192,243381,128,4,243714:0:0:0:0:
64,192,243714,1,8,0:0:0:0:
192,192,243714,1,0,0:0:0:60:Hat Open.wav
320,192,243881,1,0,0:0:0:0:
64,192,244048,1,2,0:0:0:0:
448,192,244214,1,2,0:0:0:0:
192,192,244381,1,8,0:0:0:0:
320,192,244381,1,0,0:0:0:60:Hat Open.wav
64,192,244548,1,0,0:0:0:0:
448,192,244714,1,2,0:0:0:0:
192,192,244881,1,0,0:0:0:0:
320,192,245048,1,8,0:0:0:0:
448,192,245048,1,0,0:0:0:60:Hat Open.wav
64,192,245214,1,0,0:0:0:0:
192,192,245381,1,2,0:0:0:0:
448,192,245548,1,2,0:0:0:0:
64,192,245714,128,8,246048:0:0:0:0:
320,192,245714,1,0,0:0:0:60:Hat Open.wav
192,192,246048,128,2,246381:0:0:0:0:
320,192,246381,1,8,0:0:0:0:
448,192,246381,128,0,246714:0:0:0:60:Hat Open.wav
64,192,246714,1,2,0:0:0:0:
192,192,246881,1,2,0:0:0:0:
320,192,247048,128,8,247381:0:0:0:0:
448,192,247048,1,0,0:0:0:60:Hat Open.wav
64,192,247381,1,2,0:0:0:0:
192,192,247548,1,8,0:0:0:0:
320,192,247631,1,8,0:0:0:0:
448,192,247714,1,8,0:0:0:0:
64,192,247881,1,0,0:0:0:60:Hat Open.wav
448,192,248048,1,10,0:0:0:0:
320,192,248214,1,8,0:0:0:0:
192,192,248298,1,8,0:0:0:0:
64,192,248381,1,8,0:0:0:0:
448,192,248548,1,8,0:0:0:0:
320,192,248631,1,8,0:0:0:0:
64,192,248714,128,4,249048:0:0:0:0:
192,192,248714,1,2,0:0:0:0:
320,192,249048,1,10,0:0:0:0:
448,192,249048,128,4,249381:0:0:0:30:soft-hitfinish.wav
64,192,249381,1,2,0:0:0:0:
192,192,249548,1,2,0:0:0:0:
320,192,249714,1,8,0:0:0:0:
448,192,249714,1,0,0:0:0:25:Ride.wav
64,192,250048,128,2,250381:0:0:0:0:
192,192,250048,1,0,0:0:0:25:Ride.wav
320,192,250381,1,8,0:0:0:0:
448,192,250381,1,0,0:0:0:0:
448,192,250548,1,0,0:0:0:0:
192,192,250714,1,2,0:0:0:0:
320,192,250881,1,2,0:0:0:0:
64,192,251048,128,8,251381:0:0:0:0:
448,192,251048,1,0,0:0:0:0:
320,192,251381,128,2,251714:0:0:0:0:
64,192,251714,1,8,0:0:0:0:
192,192,251714,128,0,252048:0:0:0:0:
448,192,252048,1,2,0:0:0:0:
320,192,252214,1,2,0:0:0:0:
64,192,252381,128,8,252714:0:0:0:0:
192,192,252381,1,0,0:0:0:25:Ride.wav
320,192,252714,128,2,253048:0:0:0:0:
64,192,253048,1,8,0:0:0:0:
448,192,253048,1,0,0:0:0:0:
192,192,253214,1,0,0:0:0:0:
448,192,253381,1,2,0:0:0:0:
320,192,253548,1,2,0:0:0:0:
64,192,253714,1,8,0:0:0:0:
192,192,253714,1,0,0:0:0:25:Ride.wav
320,192,254048,1,4,0:0:0:0:
448,192,254048,128,2,254381:0:0:0:0:
64,192,254381,128,8,254714:0:0:0:0:
192,192,254381,1,0,0:0:0:25:Ride.wav
448,192,254714,1,2,0:0:0:0:
320,192,254881,1,2,0:0:0:0:
64,192,255048,1,8,0:0:0:0:
192,192,255048,1,0,0:0:0:0:
320,192,255381,1,2,0:0:0:0:
448,192,255381,128,0,255714:0:0:0:25:Ride.wav
64,192,255714,1,8,0:0:0:0:
192,192,255714,1,0,0:0:0:0:
64,192,255881,1,0,0:0:0:0:
320,192,256048,1,2,0:0:0:0:
192,192,256214,1,2,0:0:0:0:
64,192,256381,1,8,0:0:0:0:
448,192,256381,128,0,256714:0:0:0:0:
192,192,256714,128,2,257048:0:0:0:0:
320,192,257048,128,8,257381:0:0:0:0:
448,192,257048,1,0,0:0:0:25:Ride.wav
64,192,257381,1,2,0:0:0:0:
192,192,257548,1,2,0:0:0:0:
320,192,257714,1,8,0:0:0:0:
448,192,257714,128,0,258048:0:0:0:0:
192,192,258048,128,2,258381:0:0:0:0:
64,192,258381,1,8,0:0:0:0:
448,192,258381,1,0,0:0:0:0:
320,192,258548,1,2,0:0:0:0:
64,192,258714,1,0,0:0:0:50:Tom2.wav
192,192,258881,128,2,259048:0:0:0:0:
320,192,259048,1,8,0:0:0:0:
448,192,259048,1,4,0:0:0:0:
64,192,259214,128,2,259381:0:0:0:0:
192,192,259381,1,4,0:0:0:0:
448,192,259381,1,8,0:0:0:0:
320,192,259548,1,2,0:0:0:0:
64,192,259714,1,8,0:0:0:0:
192,192,259714,1,0,0:0:0:0:
320,192,259881,1,2,0:0:0:0:
64,192,260048,1,8,0:0:0:0:
448,192,260048,1,0,0:0:0:0:
192,192,260214,1,2,0:0:0:0:
320,192,260381,1,8,0:0:0:0:
448,192,260381,1,0,0:0:0:0:
192,192,260548,128,2,260714:0:0:0:0:
64,192,260714,1,8,0:0:0:0:
448,192,260714,1,0,0:0:0:0:
320,192,260881,1,2,0:0:0:0:
64,192,261048,1,8,0:0:0:0:
192,192,261048,1,0,0:0:0:0:
320,192,261214,1,2,0:0:0:0:
64,192,261381,1,8,0:0:0:0:
448,192,261381,1,0,0:0:0:0:
192,192,261548,1,2,0:0:0:0:
320,192,261714,1,8,0:0:0:0:
448,192,261714,1,0,0:0:0:0:
192,192,261881,128,2,262048:0:0:0:0:
64,192,262048,1,8,0:0:0:0:
448,192,262048,1,4,0:0:0:0:
320,192,262214,1,2,0:0:0:0:
64,192,262381,1,8,0:0:0:0:
192,192,262381,1,0,0:0:0:0:
320,192,262548,1,2,0:0:0:0:
192,192,262714,1,8,0:0:0:0:
448,192,262714,1,0,0:0:0:0:
64,192,262881,1,2,0:0:0:0:
320,192,263048,1,8,0:0:0:0:
448,192,263048,1,0,0:0:0:0:
192,192,263214,1,2,0:0:0:0:
64,192,263381,1,8,0:0:0:0:
320,192,263381,1,0,0:0:0:0:
448,192,263548,1,2,0:0:0:0:
64,192,263714,1,8,0:0:0:0:
192,192,263714,1,0,0:0:0:0:
320,192,263881,1,2,0:0:0:0:
192,192,264048,1,8,0:0:0:0:
448,192,264048,1,0,0:0:0:0:
64,192,264214,1,2,0:0:0:0:
320,192,264381,1,8,0:0:0:0:
448,192,264381,1,0,0:0:0:0:
192,192,264548,1,2,0:0:0:0:
64,192,264714,1,8,0:0:0:0:
320,192,264714,128,0,265048:0:0:0:0:
64,192,265048,128,0,265381:0:0:0:0:
448,192,265381,128,0,265714:0:0:0:0:
64,192,266048,128,0,266381:0:0:0:0:
448,192,266381,128,0,266714:0:0:0:0:
192,192,266714,128,0,267048:0:0:0:0:
320,192,267048,128,0,267381:0:0:0:0:
64,192,267381,128,0,267714:0:0:0:0:
192,192,267714,128,0,268048:0:0:0:0:
448,192,268048,128,0,268381:0:0:0:0:
320,192,268381,128,0,268714:0:0:0:0:
64,192,268714,128,0,269048:0:0:0:0:
320,192,269381,1,0,0:0:0:0:
448,192,269381,128,0,269714:0:0:0:0:
64,192,269714,128,0,269881:0:0:0:0:
192,192,269881,128,0,270048:0:0:0:0:
320,192,270048,1,2,0:0:0:0:
448,192,270048,1,4,0:0:0:0:
64,192,270381,1,8,0:0:0:0:
192,192,270381,1,0,0:0:0:60:Hat Open.wav
64,192,270714,1,2,0:0:0:0:
448,192,270714,1,0,0:0:0:60:Hat Open.wav
192,192,270881,1,2,0:0:0:0:
320,192,271048,1,8,0:0:0:0:
448,192,271048,1,0,0:0:0:60:Hat Open.wav
64,192,271381,1,2,0:0:0:0:
192,192,271381,1,0,0:0:0:60:Hat Open.wav
320,192,271548,1,2,0:0:0:0:
64,192,271714,1,8,0:0:0:0:
448,192,271714,1,0,0:0:0:60:Hat Open.wav
320,192,272048,1,2,0:0:0:0:
448,192,272048,1,0,0:0:0:60:Hat Open.wav
192,192,272214,1,2,0:0:0:0:
64,192,272381,1,8,0:0:0:0:
320,192,272381,1,0,0:0:0:60:Hat Open.wav
192,192,272714,1,2,0:0:0:0:
448,192,272714,128,0,272881:0:0:0:60:Hat Open.wav
320,192,272881,128,0,273048:0:0:0:0:
64,192,273048,1,8,0:0:0:0:
192,192,273048,1,0,0:0:0:60:Hat Open.wav
320,192,273381,1,2,0:0:0:0:
448,192,273381,1,0,0:0:0:60:Hat Open.wav
64,192,273548,1,2,0:0:0:0:
192,192,273714,1,8,0:0:0:0:
448,192,273714,1,0,0:0:0:60:Hat Open.wav
64,192,274048,1,2,0:0:0:0:
320,192,274048,1,0,0:0:0:60:Hat Open.wav
192,192,274214,1,2,0:0:0:0:
320,192,274381,1,8,0:0:0:0:
448,192,274381,1,4,0:0:0:0:
64,192,274548,1,2,0:0:0:0:
192,192,274714,1,8,0:0:0:0:
320,192,274714,1,4,0:0:0:0:
448,192,274881,1,2,0:0:0:0:
64,192,275048,1,8,0:0:0:0:
192,192,275048,1,4,0:0:0:0:
64,192,275381,1,4,0:0:0:0:
320,192,275381,1,2,0:0:0:0:
192,192,275714,1,8,0:0:0:0:
448,192,275714,1,0,0:0:0:60:Hat Open.wav
320,192,276048,1,2,0:0:0:0:
448,192,276048,1,0,0:0:0:60:Hat Open.wav
192,192,276214,1,2,0:0:0:0:
64,192,276381,1,8,0:0:0:0:
320,192,276381,1,0,0:0:0:60:Hat Open.wav
192,192,276714,1,2,0:0:0:0:
448,192,276714,1,0,0:0:0:60:Hat Open.wav
320,192,276881,1,2,0:0:0:0:
64,192,277048,1,8,0:0:0:0:
192,192,277048,1,0,0:0:0:60:Hat Open.wav
320,192,277381,1,2,0:0:0:0:
448,192,277381,1,0,0:0:0:60:Hat Open.wav
64,192,277548,1,2,0:0:0:0:
192,192,277714,1,8,0:0:0:0:
448,192,277714,1,0,0:0:0:60:Hat Open.wav
320,192,277881,1,2,0:0:0:0:
64,192,278048,1,2,0:0:0:0:
192,192,278048,1,0,0:0:0:60:Hat Open.wav
320,192,278381,1,8,0:0:0:0:
448,192,278381,1,0,0:0:0:60:Hat Open.wav
64,192,278714,1,2,0:0:0:0:
192,192,278714,1,0,0:0:0:60:Hat Open.wav
320,192,278881,1,2,0:0:0:0:
192,192,279048,1,8,0:0:0:0:
448,192,279048,1,0,0:0:0:60:Hat Open.wav
64,192,279381,1,2,0:0:0:0:
320,192,279381,1,0,0:0:0:60:Hat Open.wav
192,192,279548,1,2,0:0:0:0:
320,192,279714,1,8,0:0:0:0:
448,192,279714,1,0,0:0:0:60:Hat Open.wav
192,192,279881,1,0,0:0:0:0:
64,192,280048,128,2,280214:0:0:0:0:
448,192,280048,1,0,0:0:0:0:
320,192,280214,128,8,280381:0:0:0:0:
64,192,280381,1,8,0:0:0:0:
192,192,280381,128,0,280548:0:0:0:0:
448,192,280548,128,8,280714:0:0:0:0:
64,192,280714,1,2,0:0:0:0:
320,192,280714,1,4,0:0:0:0:
64,192,280881,1,2,0:0:0:0:
192,192,281048,1,8,0:0:0:0:
448,192,281048,1,4,0:0:0:0:
320,192,281214,1,2,0:0:0:0:
64,192,281381,1,2,0:0:0:0:
192,192,281381,1,4,0:0:0:15:soft-hitfinish.wav
192,192,281548,1,2,0:0:0:0:
320,192,281714,1,8,0:0:0:0:
448,192,281714,1,4,0:0:0:15:soft-hitfinish.wav
64,192,281881,1,2,0:0:0:0:
192,192,282048,1,2,0:0:0:0:
448,192,282048,1,4,0:0:0:15:soft-hitfinish.wav
448,192,282214,1,2,0:0:0:0:
64,192,282381,1,8,0:0:0:0:
320,192,282381,1,4,0:0:0:15:soft-hitfinish.wav
192,192,282548,1,2,0:0:0:0:
320,192,282714,1,2,0:0:0:0:
448,192,282714,1,4,0:0:0:15:soft-hitfinish.wav
320,192,282881,1,2,0:0:0:0:
64,192,283048,1,8,0:0:0:0:
192,192,283048,1,4,0:0:0:15:soft-hitfinish.wav
448,192,283214,1,2,0:0:0:0:
64,192,283381,128,2,283548:0:0:0:0:
320,192,283381,1,4,0:0:0:15:soft-hitfinish.wav
192,192,283548,128,2,283714:0:0:0:0:
320,192,283714,1,8,0:0:0:0:
448,192,283714,1,4,0:0:0:15:soft-hitfinish.wav
64,192,283881,1,2,0:0:0:0:
192,192,284048,1,2,0:0:0:0:
448,192,284048,1,4,0:0:0:15:soft-hitfinish.wav
448,192,284214,1,2,0:0:0:0:
64,192,284381,1,8,0:0:0:0:
320,192,284381,1,4,0:0:0:15:soft-hitfinish.wav
192,192,284548,1,2,0:0:0:0:
320,192,284714,1,2,0:0:0:0:
448,192,284714,1,4,0:0:0:15:soft-hitfinish.wav
320,192,284881,1,2,0:0:0:0:
64,192,285048,1,8,0:0:0:0:
192,192,285048,1,4,0:0:0:15:soft-hitfinish.wav
320,192,285214,1,2,0:0:0:0:
64,192,285381,1,8,0:0:0:0:
448,192,285381,1,4,0:0:0:15:soft-hitfinish.wav
192,192,285548,1,2,0:0:0:0:
320,192,285714,1,8,0:0:0:0:
448,192,285714,128,4,286048:0:0:0:15:soft-hitfinish.wav
64,192,286048,128,2,286714:0:0:0:0:
192,192,286048,1,4,0:0:0:0:
320,192,286214,1,2,0:0:0:0:
192,192,286381,1,8,0:0:0:0:
320,192,286714,1,2,0:0:0:0:
448,192,286714,128,4,287381:0:0:0:15:soft-hitfinish.wav
192,192,286881,1,2,0:0:0:0:
320,192,287048,1,8,0:0:0:0:
64,192,287381,1,2,0:0:0:0:
192,192,287381,128,4,288048:0:0:0:15:soft-hitfinish.wav
320,192,287548,1,2,0:0:0:0:
64,192,287714,1,8,0:0:0:0:
320,192,288048,128,2,288714:0:0:0:0:
448,192,288048,1,4,0:0:0:15:soft-hitfinish.wav
192,192,288214,1,2,0:0:0:0:
448,192,288381,1,12,0:0:0:0:
64,192,288714,1,8,0:0:0:0:
192,192,288714,1,4,0:0:0:0:
320,192,288881,1,2,0:0:0:0:
64,192,289048,1,8,0:0:0:0:
448,192,289048,1,4,0:0:0:0:
192,192,289214,1,2,0:0:0:0:
320,192,289381,1,8,0:0:0:0:
448,192,289381,1,4,0:0:0:0:
192,192,289548,1,2,0:0:0:0:
64,192,289714,1,4,0:0:0:0:
448,192,289714,1,8,0:0:0:0:
320,192,289881,1,2,0:0:0:0:
64,192,290048,1,8,0:0:0:0:
192,192,290048,1,4,0:0:0:0:
320,192,290214,1,2,0:0:0:0:
64,192,290381,128,8,290714:0:0:0:0:
448,192,290381,1,0,0:0:0:60:Hat Open.wav
320,192,290714,1,8,0:0:0:0:
448,192,290714,1,0,0:0:0:0:
320,192,290881,1,8,0:0:0:0:
64,192,291048,1,8,0:0:0:0:
192,192,291048,1,0,0:0:0:0:
192,192,291214,1,8,0:0:0:0:
