osu file format v14

[General]
AudioFilename: audio.mp3
AudioLeadIn: 0
PreviewTime: 61499
Countdown: 0
SampleSet: Soft
StackLeniency: 0.5
Mode: 0
LetterboxInBreaks: 0
WidescreenStoryboard: 1

[Editor]
Bookmarks: 11672,51338,104338,141672,163005,184338,204338,229672,267005,272338
DistanceSpacing: 0.4
BeatDivisor: 4
GridSize: 16
TimelineZoom: 2.999999

[Metadata]
Title:Kakurenbo
TitleUnicode:かくれんぼ
Artist:AliA
ArtistUnicode:AliA
Creator:Chizu-Kun
Version:Kard's Insane
Source:
Tags:AYAME TKT takuto SEIYA RINA EREN Okamura jrock BOB AliVe japanese rock hide and seek kardshark
BeatmapID:2422755
BeatmapSetID:1158561

[Difficulty]
HPDrainRate:5
CircleSize:4
OverallDifficulty:8.5
ApproachRate:9
SliderMultiplier:1.3
SliderTickRate:1

[Events]
//Background and Video events
0,0,"kakurenbo.jpg",0,0
//Break Periods
2,93872,103572
2,184538,194405
2,267205,270905
//Storyboard Layer 0 (Background)
//Storyboard Layer 1 (Fail)
//Storyboard Layer 2 (Pass)
//Storyboard Layer 3 (Foreground)
//Storyboard Layer 4 (Overlay)
//Storyboard Sound Samples

[TimingPoints]
339,333.333333333333,4,2,1,30,1,0
3005,-200,4,2,1,30,0,0
8338,-133.333333333333,4,2,1,40,0,0
8672,-133.333333333333,4,2,1,40,0,0
9672,-133.333333333333,4,2,1,40,0,0
11005,-133.333333333333,4,2,1,50,0,0
12338,-133.333333333333,4,2,1,50,0,0
13005,-133.333333333333,4,2,1,40,0,0
13672,-133.333333333333,4,2,1,60,0,0
14005,-100,4,2,1,60,0,0
24338,-100,4,2,1,50,0,0
35005,-83.3333333333333,4,2,1,60,0,0
59338,-83.3333333333333,4,2,1,65,0,0
59672,-83.3333333333333,4,2,1,65,0,0
60005,-83.3333333333333,4,2,1,65,0,0
61672,-66.6666666666667,4,2,1,70,0,1
92338,-66.6666666666667,4,2,1,70,0,0
93005,-100,4,2,1,40,0,0
93672,-100,4,2,1,60,0,0
104338,-100,4,2,1,50,0,0
115005,-100,4,2,1,60,0,0
125672,-200,4,2,1,50,0,0
136338,-100,4,2,1,50,0,0
139005,-100,4,2,1,60,0,0
140338,-100,4,2,1,65,0,0
140505,-100,4,2,1,65,0,0
141005,-100,4,2,1,65,0,0
141338,-100,4,2,1,65,0,0
141672,-66.6666666666667,4,2,1,75,0,1
163005,-66.6666666666667,4,2,1,60,0,0
168005,-100,4,2,1,60,0,0
168338,-66.6666666666667,4,2,1,60,0,0
184338,-66.6666666666667,4,2,1,30,0,0
184422,-66.6666666666667,4,2,1,10,0,0
195005,-200,4,2,1,30,0,0
203672,-133.333333333333,4,2,1,30,0,0
204338,-100,4,2,1,35,0,0
205005,-100,4,2,1,35,0,0
205672,-100,4,2,1,40,0,0
206338,-83.3333333333333,4,2,1,40,0,0
227005,-83.3333333333333,4,2,1,50,0,0
229672,-66.6666666666667,4,2,1,80,0,1
267005,-66.6666666666667,4,2,1,80,0,0
271672,-133.333333333333,4,2,1,55,0,0
272338,-133.333333333333,4,2,1,60,0,0
272672,-100,4,2,1,60,0,0
283338,-83.3333333333333,4,2,1,60,0,0

[Colours]
Combo1 : 192,192,192
Combo2 : 77,79,168
Combo3 : 230,21,84
Combo4 : 174,150,224

[HitObjects]
107,66,3005,6,0,P|133:86|175:91,1,65,2|0,0:0|0:0,2:0:0:0:
201,182,3672,2,0,P|231:169|256:135,1,65,0|0,2:0|0:0,0:0:0:0:
237,69,4172,1,0,0:0:0:0:
252,145,4338,6,0,L|261:190,1,32.5,0|0,0:0|0:0,2:0:0:0:
281,251,4672,2,0,P|325:263|348:261,1,65,0|2,0:0|0:0,0:0:0:0:
327,159,5338,1,0,0:0:0:0:
485,216,5672,6,0,P|451:199|414:206,1,65,2|0,0:0|0:0,2:0:0:0:
427,336,6338,2,0,P|459:337|487:321,1,65,0|0,2:0|0:0,0:0:0:0:
477,226,7005,6,0,L|467:149,1,65,0|0,0:0|0:0,2:0:0:0:
412,94,7505,1,0,0:0:0:0:
346,157,7672,2,0,P|298:174|281:169,1,65,2|0,0:0|0:0,0:0:0:0:
212,114,8172,5,0,0:0:0:0:
212,114,8338,2,0,L|219:42,1,73.1250000000002,12|0,1:0|2:0,2:0:0:0:
224,27,8672,2,0,P|255:19|268:21,3,24.3750000000001,8|8|8|8,0:0|0:0|0:0|0:0,2:0:0:0:
306,74,9005,2,0,P|317:76|328:81,3,24.3750000000001,8|8|8|8,0:0|0:0|0:0|0:0,2:0:0:0:
384,25,9338,2,0,P|415:17|428:19,3,24.3750000000001,8|8|8|8,0:0|0:0|0:0|0:0,2:0:0:0:
490,69,9672,6,0,P|503:96|495:149,1,73.1250000000002,8|8,0:0|0:0,0:0:0:0:
445,202,10005,2,0,L|454:232,3,24.3750000000001,8|8|8|8,0:0|0:0|0:0|0:0,0:0:0:0:
380,134,10338,2,0,L|389:104,3,24.3750000000001,8|8|8|8,0:0|0:0|0:0|0:0,2:0:0:0:
332,222,10672,2,0,L|341:252,3,24.3750000000001,8|8|8|8,0:0|0:0|0:0|0:0,2:0:0:0:
255,156,11005,6,0,P|217:148|185:156,1,73.1250000000002,8|8,0:0|0:0,0:0:0:0:
97,199,11338,5,8,0:0:0:0:
99,174,11422,1,8,0:0:0:0:
101,150,11505,1,8,0:0:0:0:
103,126,11588,1,8,0:0:0:0:
105,101,11672,2,0,P|101:63|85:45,1,48.7500000000001,8|8,0:0|0:0,0:0:0:0:
0,77,12005,2,0,P|4:115|20:133,1,48.7500000000001,8|8,0:0|0:0,0:0:0:0:
32,5,12338,1,8,0:0:0:0:
300,124,13005,6,0,L|291:229,1,97.5000000000003,2|2,0:0|0:0,2:0:0:0:
182,296,13672,5,6,1:0:0:0:
291,221,13838,1,0,2:0:0:0:
396,298,14005,2,0,P|437:307|492:299,1,97.5,10|0,0:0|0:0,2:0:0:0:
505,310,14338,2,0,L|493:217,1,65,2|0,1:0|1:0,0:0:0:0:
429,158,14672,2,0,L|441:84,1,65,10|0,0:0|2:0,2:0:0:0:
319,2,15005,6,0,L|331:95,1,65,2|0,1:0|2:0,2:0:0:0:
416,165,15338,2,0,P|387:172|342:165,1,65,10|0,0:0|2:0,2:0:0:0:
191,106,15672,5,2,1:0:0:0:
191,106,15838,1,2,1:0:0:0:
249,22,16005,2,0,L|329:25,1,65,10|0,0:0|2:0,2:0:0:0:
316,175,16338,5,2,1:0:0:0:
316,175,16505,1,2,1:0:0:0:
125,198,16672,2,0,P|173:214|196:239,1,65,10|0,0:0|2:0,2:0:0:0:
316,175,17005,2,0,P|277:207|243:215,1,65,2|0,1:0|1:0,0:0:0:0:
240,352,17338,2,0,P|229:301|241:268,1,65,10|0,0:0|2:0,2:0:0:0:
363,268,17672,6,0,P|408:268|471:286,1,97.5,2|0,1:0|0:0,2:0:0:0:
472,289,18005,1,10,0:0:0:0:
402,367,18172,1,2,1:0:0:0:
363,268,18338,6,0,L|372:184,1,65,10|0,0:0|1:0,0:0:0:0:
438,145,18672,2,0,L|429:61,1,65,10|0,0:0|2:0,2:0:0:0:
331,23,19005,6,0,L|346:148,1,97.5,6|0,1:0|0:0,2:0:0:0:
325,133,19338,2,0,P|279:119|256:124,1,65,8|0,0:0|2:0,2:0:0:0:
166,175,19672,5,2,1:0:0:0:
166,175,19838,1,0,1:0:0:0:
67,133,20005,2,0,L|82:11,1,97.5,8|0,0:0|0:0,2:0:0:0:
62,22,20338,6,0,L|175:31,1,97.5,2|0,1:0|0:0,2:0:0:0:
171,53,20672,2,0,P|207:39|252:41,1,65,8|0,0:0|2:0,2:0:0:0:
334,110,21005,5,2,1:0:0:0:
334,110,21172,1,0,1:0:0:0:
456,41,21338,2,0,L|451:120,1,65,8|0,0:0|2:0,2:0:0:0:
401,208,21672,6,0,P|412:246|452:293,1,97.5,2|0,1:0|0:0,2:0:0:0:
475,296,22005,2,0,L|393:304,1,65,8|0,0:0|2:0,2:0:0:0:
321,315,22338,5,2,1:0:0:0:
321,315,22505,1,0,1:0:0:0:
214,222,22672,2,0,L|227:325,1,97.5,8|0,0:0|0:0,2:0:0:0:
226,318,23005,5,2,1:0:0:0:
174,382,23172,1,0,1:0:0:0:
118,235,23338,6,0,L|125:190,3,32.5,8|0|0|0,0:0|0:0|0:0|0:0,2:0:0:0:
81,131,23672,2,0,L|117:104,3,32.5,10|8|8|8,0:0|0:0|0:0|0:0,0:0:0:0:
128,31,24005,2,0,L|173:38,3,32.5,8|0|0|0,0:0|3:0|3:0|3:0,0:0:0:0:
236,3,24338,1,6,1:0:0:0:
236,3,24672,5,2,1:0:0:0:
352,73,24838,2,0,P|385:32|391:-4,1,65,0|2,3:0|1:0,0:0:0:0:
264,81,25172,5,2,3:0:0:0:
234,159,25338,1,2,1:0:0:0:
288,223,25505,1,0,3:0:0:0:
371,211,25672,1,6,1:0:0:0:
371,211,26005,5,0,1:0:0:0:
339,287,26172,1,0,1:0:0:0:
288,223,26338,2,0,P|270:191|265:160,1,65,2|0,1:0|2:0,2:0:0:0:
370,210,26672,2,0,P|378:174|374:143,1,65,2|0,3:2|3:0,2:0:0:0:
298,33,27005,6,0,L|310:107,2,65,6|0|2,1:0|0:0|3:2,2:0:0:0:
198,17,27505,2,0,L|215:124,1,97.5,0|0,3:0|0:0,0:0:0:0:
215,126,27838,1,0,3:0:0:0:
152,183,28005,1,2,3:2:0:0:
152,183,28338,6,0,P|106:213|61:212,1,97.5,6|0,1:0|0:0,2:0:0:0:
48,208,28672,1,2,1:0:0:0:
132,289,28838,1,8,0:0:0:0:
44,369,29005,5,2,1:0:0:0:
127,298,29172,1,8,0:0:0:0:
247,384,29338,1,2,1:0:0:0:
247,384,29672,6,0,L|251:313,1,65,6|0,1:0|2:0,2:0:0:0:
257,218,30005,1,2,3:2:0:0:
437,287,30172,2,0,P|403:271|343:278,1,97.5,0|0,3:0|0:0,0:0:0:0:
339,293,30505,2,0,P|372:302|409:294,1,65,0|2,3:0|3:2,0:0:0:0:
371,187,30838,5,2,3:2:0:0:
298,100,31005,2,0,P|261:90|192:122,1,97.5,6|0,1:0|0:0,2:0:0:0:
192,120,31338,5,0,3:0:0:0:
208,203,31505,1,2,3:2:0:0:
131,240,31672,1,2,3:2:0:0:
185,303,31838,1,0,3:0:0:0:
138,373,32005,5,0,3:0:0:0:
138,373,32172,1,2,3:2:0:0:
138,373,32338,2,0,P|86:361|59:336,1,65,6|0,1:0|0:0,2:0:0:0:
20,284,32672,1,0,3:0:0:0:
111,171,32838,2,0,L|109:256,1,65,2|2,3:2|3:2,0:0:0:0:
35,109,33172,5,0,3:0:0:0:
160,77,33338,1,0,3:0:0:0:
34,96,33505,1,2,3:0:0:0:
305,147,35005,6,0,P|352:102|359:33,1,117,6|0,1:0|0:0,2:0:0:0:
357,36,35338,2,0,P|384:63|443:75,1,78,8|2,0:0|2:0,0:0:0:0:
417,158,35672,1,0,1:0:0:0:
417,158,35838,1,0,1:0:0:0:
267,55,36005,6,0,L|170:65,1,78,10|0,0:0|2:0,2:0:0:0:
102,93,36338,2,0,L|179:85,1,78,2|0,1:0|1:0,2:0:0:0:
24,74,36672,2,0,P|26:113|45:148,1,78,10|0,0:0|1:0,2:0:0:0:
107,240,37005,1,2,2:0:0:0:
107,240,37172,1,0,1:0:0:0:
179,85,37338,6,0,L|170:172,1,78,10|0,0:0|2:0,2:0:0:0:
107,240,37672,2,0,P|146:263|198:259,1,78,2|0,1:0|2:0,2:0:0:0:
270,283,38005,2,0,P|231:260|179:264,1,78,10|0,0:0|2:0,2:0:0:0:
205,348,38338,1,2,1:0:0:0:
205,348,38505,1,0,1:0:0:0:
296,361,38672,6,0,L|281:268,1,78,10|0,0:0|2:0,2:0:0:0:
202,244,39005,2,0,L|217:151,1,78,2|0,1:0|1:0,0:0:0:0:
285,121,39338,2,0,P|251:88|196:85,1,78,8|0,0:0|1:0,2:0:0:0:
150,119,39672,5,2,2:0:0:0:
150,119,39838,1,0,1:0:0:0:
64,51,40005,1,10,0:0:0:0:
2,141,40172,1,2,2:0:0:0:
89,205,40338,6,0,P|99:258|93:300,1,78,2|0,1:0|2:0,0:0:0:0:
24,327,40672,2,0,L|103:304,1,78,10|0,0:0|2:0,0:0:0:0:
203,348,41005,1,2,1:0:0:0:
203,348,41172,1,0,1:0:0:0:
317,288,41338,6,0,L|331:381,1,78,10|0,0:0|2:0,2:0:0:0:
443,313,41672,1,2,1:0:0:0:
443,313,41838,1,0,1:0:0:0:
317,288,42005,1,10,0:0:0:0:
412,211,42172,1,0,1:0:0:0:
346,150,42338,6,0,P|321:104|324:64,1,78,2|0,2:0|1:0,2:0:0:0:
401,3,42672,2,0,P|426:49|423:89,1,78,10|0,0:0|2:0,2:0:0:0:
320,79,43005,6,0,L|223:90,1,78,2|0,1:0|2:0,2:0:0:0:
152,0,43338,2,0,L|249:11,1,78,10|0,0:0|2:0,2:0:0:0:
121,128,43672,2,0,P|100:86|99:43,1,78,2|0,1:0|1:0,0:0:0:0:
205,173,44005,2,0,P|200:211|181:245,1,78,10|0,0:0|2:0,2:0:0:0:
72,233,44338,5,2,1:0:0:0:
72,233,44505,1,0,1:0:0:0:
181,245,44672,1,12,0:0:0:0:
39,331,44838,1,0,1:0:0:0:
166,354,45005,6,0,B|205:333|241:351|241:351|286:376|328:334,1,155.999995239258,10|2,0:0|3:2,0:0:0:0:
374,302,45505,1,2,3:2:0:0:
340,237,45672,1,4,1:0:0:0:
331,132,47005,5,4,1:0:0:0:
196,117,48338,5,4,1:0:0:0:
181,252,49672,5,4,1:0:0:0:
259,175,50005,1,2,1:0:0:0:
259,175,50172,1,2,3:0:0:0:
316,267,50338,6,0,P|356:233|370:195,1,78,2|0,3:0|3:0,0:0:0:0:
259,175,50672,2,0,P|227:197|208:231,1,78,0|0,3:0|3:0,2:0:0:0:
235,327,51005,5,6,1:0:0:0:
322,384,51172,1,2,2:0:0:0:
235,327,51338,1,2,1:0:0:0:
322,384,51505,1,2,2:0:0:0:
235,327,51672,2,0,L|314:306,1,77.999997619629,2|0,1:0|2:0,2:0:0:0:
235,327,52005,2,0,P|180:300|157:300,1,78,2|0,1:0|2:0,2:0:0:0:
138,306,52338,5,6,1:0:0:0:
55,364,52505,1,2,2:0:0:0:
138,306,52672,1,2,1:0:0:0:
55,364,52838,1,2,3:0:0:0:
68,194,53005,1,2,3:2:0:0:
60,272,53338,2,0,L|69:188,1,78,2|0,3:2|3:0,3:0:0:0:
144,109,53672,5,6,1:0:0:0:
27,90,53838,1,2,2:0:0:0:
144,109,54005,1,2,1:0:0:0:
27,90,54171,1,2,2:0:0:0:
225,22,54338,2,0,L|143:12,1,77.999997619629,2|0,1:0|2:0,2:0:0:0:
213,134,54672,2,0,L|295:124,1,77.999997619629,2|2,1:0|2:0,0:0:0:0:
450,129,55005,5,6,1:0:0:0:
363,191,55172,1,2,2:0:0:0:
450,129,55338,5,2,1:0:0:0:
349,64,55505,1,10,0:0:0:0:
436,220,55672,1,2,1:0:0:0:
309,249,55838,1,8,0:0:0:0:
433,339,56005,1,0,1:0:0:0:
433,339,56338,6,0,P|358:316|277:348,1,155.999995239258,6|2,1:0|1:0,2:0:0:0:
286,340,56838,1,0,0:0:0:0:
137,324,57005,6,0,L|144:228,1,78,2|0,1:0|3:0,0:0:0:0:
230,298,57338,2,0,L|217:207,1,78,2|0,1:0|2:0,0:0:0:0:
329,270,57672,6,0,L|301:92,1,156,6|2,1:0|1:0,2:0:0:0:
304,115,58172,1,0,0:0:0:0:
166,51,58338,6,0,P|222:66|264:55,1,78,2|0,1:0|3:0,0:0:0:0:
397,38,58672,2,0,P|341:23|299:34,1,78,2|0,1:0|2:0,2:0:0:0:
447,123,59005,2,2,P|447:78|438:123,1,116.999996429443,6|0,1:0|0:0,2:0:0:0:
447,123,59338,6,0,L|464:191,3,39,8|8|8|8,0:0|0:0|0:0|0:0,0:0:0:0:
382,198,59672,2,0,L|365:266,3,39,10|8|8|8,0:0|0:0|0:0|0:0,0:0:0:0:
466,244,60005,2,0,L|483:312,3,39,10|8|8|8,0:0|0:0|0:0|0:0,0:0:0:0:
401,319,60338,1,2,2:0:0:0:
264,261,60838,5,0,0:0:0:0:
264,261,61005,1,0,0:0:0:0:
129,320,61672,6,0,P|103:256|52:221,1,97.5,6|0,1:0|2:0,2:0:0:0:
37,348,62005,2,0,P|86:356|153:325,1,97.5,10|0,0:0|2:0,2:0:0:0:
247,297,62338,6,0,P|312:300|352:321,1,97.5,2|0,1:0|0:0,2:0:0:0:
418,226,62672,1,10,0:0:0:0:
348,326,62838,1,0,2:0:0:0:
481,342,63005,5,2,1:0:0:0:
356,338,63172,1,2,2:0:0:0:
432,224,63338,1,10,0:0:0:0:
307,220,63505,1,2,2:0:0:0:
372,109,63672,1,0,1:0:0:0:
372,109,64005,6,0,L|360:-3,1,97.5,10|0,0:0|2:0,2:0:0:0:
212,131,64338,2,0,P|255:157|307:144,1,97.5,2|0,1:2|2:0,2:0:0:0:
184,62,64672,2,0,P|141:36|89:49,1,97.5,10|0,0:0|2:0,2:0:0:0:
64,212,65005,6,0,L|80:102,1,97.5,2|0,1:0|1:0,2:0:0:0:
132,298,65338,1,10,0:0:0:0:
132,298,65672,6,0,P|195:328|260:318,1,97.5,2|0,1:0|1:0,2:0:0:0:
352,246,66005,1,8,0:0:0:0:
313,360,66172,1,0,1:0:0:0:
259,245,66338,1,10,0:0:0:0:
401,332,66505,1,0,1:0:0:0:
479,207,66672,2,0,P|490:144|481:78,1,97.5,8|0,0:0|2:0,0:0:0:0:
370,17,67005,5,6,1:0:0:0:
397,101,67172,1,0,2:0:0:0:
282,164,67338,1,10,0:0:0:0:
309,80,67505,1,2,2:0:0:0:
196,33,67672,6,0,P|156:52|76:27,1,97.5,2|2,1:0|1:0,0:0:0:0:
12,0,68005,1,8,0:0:0:0:
52,140,68172,1,2,2:0:0:0:
18,285,68338,5,2,1:0:0:0:
158,269,68505,1,2,2:0:0:0:
26,296,68672,1,10,0:0:0:0:
166,280,68838,1,2,2:0:0:0:
252,347,69005,5,2,1:0:0:0:
360,270,69172,1,2,1:0:0:0:
280,129,69338,2,0,P|251:204|260:246,1,97.5,10|0,0:0|0:0,2:0:0:0:
379,94,69672,6,0,P|347:33|315:10,1,97.5,2|0,1:0|2:0,2:0:0:0:
155,53,70005,2,0,P|113:93|48:115,1,97.5,10|0,0:0|2:0,2:0:0:0:
12,10,70338,5,2,1:0:0:0:
0,139,70505,1,0,1:0:0:0:
155,53,70672,2,0,P|228:57|274:73,1,97.5,10|0,0:0|1:0,0:0:0:0:
288,186,71005,6,0,P|361:182|407:166,1,97.5,2|0,1:0|0:0,2:0:0:0:
448,59,71338,2,0,P|400:48|351:48,1,97.5,8|0,0:0|2:0,2:0:0:0:
450,138,71672,5,0,1:0:0:0:
497,256,71838,1,8,0:0:0:0:
497,256,71922,1,8,0:0:0:0:
497,256,72005,1,10,0:0:0:0:
438,359,72172,1,8,0:0:0:0:
438,359,72255,1,8,0:0:0:0:
438,359,72338,6,0,P|382:381|335:377,1,97.5,6|0,1:0|0:0,2:0:0:0:
225,236,72672,1,8,0:0:0:0:
339,251,72838,1,0,2:0:0:0:
214,355,73005,2,0,P|200:320|207:249,1,97.5,0|0,1:0|1:0,2:0:0:0:
292,178,73338,5,10,0:0:0:0:
225,40,73505,2,0,P|290:68|333:57,1,97.5,2|0,2:0|1:0,0:0:0:0:
398,23,73838,1,0,0:0:0:0:
489,159,74005,2,0,L|477:48,1,97.5,8|0,0:0|2:0,2:0:0:0:
409,191,74338,6,0,P|438:237|488:257,1,97.5,2|0,1:0|1:0,0:0:0:0:
417,335,74672,2,0,P|477:339|544:308,1,97.5,8|0,0:0|0:0,2:0:0:0:
343,267,75005,1,2,1:0:0:0:
175,349,75338,5,10,0:0:0:0:
206,258,75505,1,0,2:0:0:0:
173,355,75672,2,0,P|115:368|53:353,1,97.5,2|0,1:0|1:0,0:0:0:0:
8,287,76005,1,8,0:0:0:0:
50,198,76172,6,0,P|108:185|170:200,1,97.5,0|2,2:0|1:0,0:0:0:0:
206,258,76505,1,0,1:0:0:0:
308,354,76672,6,0,P|308:291|292:242,2,97.5,8|0|2,0:0|0:0|0:0,2:0:0:0:
335,175,77172,1,0,1:0:0:0:
393,83,77338,2,0,P|327:93|281:84,1,97.5,10|0,0:0|2:0,0:0:0:0:
452,12,77672,5,6,1:0:0:0:
478,96,77838,1,0,2:0:0:0:
418,164,78005,1,8,0:0:0:0:
392,248,78172,1,0,2:0:0:0:
414,331,78338,2,0,P|348:311|303:320,1,97.5,0|0,1:0|1:0,2:0:0:0:
313,321,78588,1,0,0:0:0:0:
305,330,78672,1,8,0:0:0:0:
190,371,78838,1,0,2:0:0:0:
73,335,79005,6,0,P|51:285|64:228,1,97.5,2|0,1:0|2:0,2:0:0:0:
164,191,79338,2,0,P|168:238|147:282,1,97.5,10|0,0:0|2:0,0:0:0:0:
19,133,79672,5,2,1:0:0:0:
118,112,79838,1,0,1:0:0:0:
92,7,80005,2,0,L|206:20,1,97.5,10|0,0:0|2:0,2:0:0:0:
278,95,80338,6,0,P|337:57|357:26,1,97.5,2|0,1:0|2:0,2:0:0:0:
422,113,80672,2,0,P|363:151|343:182,1,97.5,8|0,0:0|2:0,2:0:0:0:
451,291,81005,6,0,L|429:189,1,97.5,0|0,1:0|1:0,0:0:0:0:
272,235,81338,2,0,L|383:262,1,97.5,8|0,0:0|2:0,2:0:0:0:
209,315,81672,1,2,1:0:0:0:
105,229,81838,5,8,0:0:0:0:
105,229,81922,1,8,0:0:0:0:
105,229,82005,1,8,0:0:0:0:
173,142,82172,5,10,0:0:0:0:
173,142,82255,1,8,0:0:0:0:
173,142,82338,1,8,0:0:0:0:
105,55,82505,5,8,0:0:0:0:
105,55,82588,1,8,0:0:0:0:
105,55,82672,2,0,P|66:62|23:50,3,48.75,8|8|8|8,0:0|2:0|0:0|0:0,0:0:0:0:
3,29,83005,6,0,L|22:158,1,97.5,6|0,1:0|2:0,2:0:0:0:
89,243,83338,2,0,L|108:114,1,97.5,8|0,0:0|2:0,2:0:0:0:
10,293,83672,5,0,1:0:0:0:
109,362,83838,1,0,1:0:0:0:
283,331,84005,2,0,P|214:312|160:328,1,97.5,8|0,0:0|0:0,2:0:0:0:
280,364,84338,6,0,P|349:383|403:367,1,97.5,0|0,1:0|2:0,2:0:0:0:
441,309,84672,1,10,0:0:0:0:
423,202,84838,1,2,2:0:0:0:
311,191,85005,2,0,P|365:165|430:172,1,97.5,2|0,1:0|1:0,2:0:0:0:
291,280,85338,6,0,P|237:258|204:203,1,97.5,10|0,0:0|2:0,2:0:0:0:
225,131,85672,2,0,L|212:236,1,97.5,2|0,1:0|2:0,2:0:0:0:
92,200,86005,2,0,L|103:103,1,97.5,8|0,0:0|2:0,2:0:0:0:
14,72,86338,6,0,P|67:100|118:101,1,97.5,0|0,1:0|1:0,2:0:0:0:
185,39,86672,2,0,P|233:32|274:8,1,97.5,8|0,0:0|0:0,2:0:0:0:
375,49,87005,6,0,P|371:100|399:166,1,97.5,0|0,1:0|2:0,2:0:0:0:
476,185,87338,1,10,0:0:0:0:
497,83,87505,1,0,2:0:0:0:
384,143,87672,2,0,L|268:156,2,97.5,2|0|8,1:0|1:0|0:0,2:0:0:0:
347,249,88338,6,0,L|203:266,1,97.5,2|0,1:0|2:0,2:0:0:0:
235,356,88672,2,0,L|91:339,1,97.5,10|0,0:0|2:0,2:0:0:0:
39,244,89005,5,0,1:0:0:0:
100,145,89172,1,0,1:0:0:0:
43,36,89338,2,0,P|102:53|152:49,1,97.5,8|0,0:0|0:0,2:0:0:0:
24,15,89672,6,0,L|33:131,1,97.5,0|0,1:0|2:0,2:0:0:0:
130,206,90005,1,8,0:0:0:0:
228,134,90172,1,0,2:0:0:0:
197,25,90338,2,0,P|192:91|212:128,1,97.5,2|0,1:0|1:0,2:0:0:0:
334,202,90672,6,0,P|349:156|341:108,1,97.5,10|0,0:0|0:0,2:0:0:0:
433,83,91005,2,0,P|366:81|330:107,1,97.5,2|0,1:0|2:0,2:0:0:0:
300,281,91338,2,0,P|367:283|403:257,1,97.5,8|0,0:0|2:0,2:0:0:0:
239,92,91672,6,0,L|260:188,1,97.5,0|8,1:0|0:0,2:0:0:0:
255,204,91922,1,8,0:0:0:0:
250,220,92005,1,8,0:0:0:0:
187,298,92172,5,8,0:0:0:0:
193,315,92255,1,0,0:0:0:0:
199,332,92338,1,0,1:0:0:0:
43,100,92838,5,0,0:0:0:0:
43,100,93005,2,0,P|92:70|148:76,1,97.5,2|0,0:0|2:0,2:0:0:0:
213,44,93338,2,0,L|204:124,1,65,2|0,0:0|0:0,2:0:0:0:
187,239,93672,5,6,1:0:0:0:
355,157,104172,5,0,3:0:0:0:
439,155,104338,2,0,P|469:113|472:82,1,65,6|0,1:0|2:0,2:0:0:0:
326,81,104672,2,0,P|336:50|358:26,1,65,2|0,1:0|2:0,2:0:0:0:
444,22,105005,5,2,1:0:0:0:
444,22,105172,1,2,2:0:0:0:
501,136,105338,1,2,1:0:0:0:
501,136,105505,1,0,2:0:0:0:
452,234,105672,6,0,P|451:292|487:360,1,130,2|0,1:0|1:0,2:0:0:0:
329,244,106338,2,0,P|317:300|323:346,1,97.5,2|0,1:0|2:0,2:0:0:0:
341,355,106672,2,0,P|358:306|359:274,1,65,2|0,1:0|0:0,2:0:0:0:
220,317,107005,5,2,1:0:0:0:
140,349,107338,1,2,1:0:0:0:
57,195,107672,5,2,1:0:0:0:
137,227,108005,1,2,1:0:0:0:
220,73,108338,5,2,1:0:0:0:
140,105,108672,1,2,1:0:0:0:
16,45,109005,1,2,1:0:0:0:
16,45,109338,5,2,1:0:0:0:
101,29,109505,1,2,0:0:0:0:
140,105,109672,2,0,P|171:141|226:155,1,97.5,2|0,1:0|0:0,2:0:0:0:
233,157,110005,5,2,1:0:0:0:
319,137,110172,1,2,2:0:0:0:
326,281,110338,5,2,1:0:0:0:
373,206,110505,1,0,2:0:0:0:
468,303,110672,5,2,1:0:0:0:
460,215,110838,1,2,2:0:0:0:
497,110,111005,6,0,P|448:82|364:86,1,130,2|0,1:0|1:0,2:0:0:0:
307,146,111505,1,2,2:0:0:0:
235,94,111672,2,0,L|254:3,2,65,2|0|0,1:0|0:0|1:0,2:0:0:0:
148,138,112172,5,2,2:0:0:0:
38,45,112338,2,0,P|107:35|169:70,1,130,2|0,1:0|1:0,2:0:0:0:
148,138,112838,5,2,2:0:0:0:
196,201,113005,2,0,L|180:344,1,130,2|0,1:0|1:0,2:0:0:0:
35,306,113505,6,0,P|55:297|79:292,1,32.5,2|0,2:0|0:0,0:0:0:0:
181,330,113672,1,10,0:0:0:0:
299,262,113838,1,2,1:0:0:0:
299,262,113922,1,0,1:0:0:0:
299,262,114005,1,2,1:0:0:0:
411,332,114172,1,10,0:0:0:0:
332,167,114338,5,2,1:0:0:0:
307,146,114422,1,0,1:0:0:0:
276,136,114505,1,8,0:0:0:0:
244,138,114588,1,8,0:0:0:0:
215,153,114672,1,2,1:0:0:0:
188,170,114755,1,0,1:0:0:0:
156,177,114838,1,0,1:0:0:0:
124,172,114922,1,0,1:0:0:0:
95,157,115005,6,0,L|109:68,2,65,4|0|0,1:0|0:0|1:0,2:0:0:0:
126,288,115505,1,10,1:0:0:0:
126,288,115838,5,8,1:0:0:0:
223,337,116005,2,0,P|259:339|325:300,1,97.5,2|0,1:0|0:0,2:0:0:0:
329,326,116338,6,0,L|335:240,1,65,6|0,1:0|0:0,2:0:0:0:
417,207,116672,2,0,L|411:121,1,65,6|0,1:0|0:0,2:0:0:0:
330,71,117005,5,2,3:0:0:0:
330,71,117172,1,0,3:0:0:0:
227,108,117338,1,2,3:0:0:0:
227,108,117505,1,0,3:0:0:0:
99,48,117672,6,0,P|109:108|105:140,1,65,14|0,1:0|1:0,2:0:0:0:
50,224,118005,1,2,1:0:0:0:
175,211,118172,2,0,P|217:219|249:234,1,65,8|2,1:0|2:0,0:0:0:0:
314,310,118505,2,0,P|352:327|398:329,1,65,8|2,1:0|2:0,0:0:0:0:
429,264,118838,1,0,1:0:0:0:
512,246,119005,6,0,L|497:169,1,65,14|0,1:0|1:0,2:0:0:0:
423,105,119338,1,0,1:0:0:0:
472,16,119505,1,2,3:0:0:0:
472,16,119838,5,0,1:0:0:0:
358,97,120005,2,0,L|443:107,1,65,14|2,1:0|2:0,0:0:0:0:
299,23,120338,6,0,P|270:52|261:87,1,65,14|2,1:0|1:0,0:0:0:0:
242,164,120672,1,2,1:0:0:0:
113,104,120838,1,10,1:0:0:0:
113,104,121172,5,10,1:0:0:0:
34,214,121338,2,0,L|47:292,1,65,2|0,2:0|0:0,2:0:0:0:
20,377,121672,2,0,P|90:361|146:369,1,130,14|4,1:0|3:0,2:0:0:0:
237,384,122172,1,6,3:0:0:0:
354,359,122338,6,0,L|342:233,1,97.5,6|0,3:0|0:0,2:0:0:0:
323,258,122672,2,0,L|330:150,1,97.5,2|0,1:0|2:0,2:0:0:0:
354,148,123005,6,0,P|372:119|414:104,1,65,6|0,1:0|0:0,2:0:0:0:
488,113,123338,1,2,2:0:0:0:
512,198,123505,1,0,1:0:0:0:
446,252,123672,1,10,1:0:0:0:
446,252,124005,6,0,L|439:349,1,97.5,14|0,1:0|0:0,2:0:0:0:
456,372,124338,1,2,1:0:0:0:
305,317,124505,2,0,P|253:320|195:361,1,97.5,8|0,1:0|0:0,2:0:0:0:
199,356,124838,1,0,1:0:0:0:
134,268,125005,6,0,P|104:304|94:328,1,65,10|4,1:0|3:0,2:0:0:0:
21,378,125338,1,6,3:0:0:0:
7,272,125505,1,6,3:0:0:0:
171,371,125672,6,0,L|250:369,3,65,4|2|2|2,1:0|2:0|2:0|2:0,2:0:0:0:
233,274,127005,5,2,1:0:0:0:
233,274,127172,1,0,1:0:0:0:
233,274,127338,2,0,L|304:300,2,65,2|2|2,2:0|2:0|2:0,2:0:0:0:
354,230,128338,6,0,L|400:293,3,65,2|2|2|2,1:0|2:0|2:0|2:0,2:0:0:0:
469,225,129672,5,2,1:0:0:0:
469,225,129838,1,0,1:0:0:0:
469,225,130005,2,0,L|488:298,2,65,2|2|2,2:0|2:0|2:0,2:0:0:0:
403,143,131005,6,0,L|419:79,1,65,2|2,1:0|2:0,2:0:0:0:
368,13,131505,1,0,0:0:0:0:
300,62,131672,1,2,2:0:0:0:
300,62,132005,6,0,P|274:75|257:75,1,32.5,2|0,2:0|0:0,0:0:0:0:
190,40,132338,2,0,P|170:38|118:52,1,65,2|2,1:0|2:0,0:0:0:0:
74,117,132838,1,0,0:0:0:0:
3,81,133005,2,0,L|15:11,1,65,2|2,2:0|2:0,0:0:0:0:
82,117,133672,6,0,L|93:183,1,65,2|2,1:0|2:0,2:0:0:0:
75,258,134172,1,0,0:0:0:0:
129,315,134338,1,2,2:0:0:0:
129,315,134672,6,0,P|154:322|171:322,1,32.5,2|0,2:0|0:0,0:0:0:0:
327,243,135005,5,12,0:0:0:0:
406,384,135172,1,8,0:0:0:0:
406,384,135255,1,8,0:0:0:0:
406,384,135338,1,8,0:0:0:0:
507,271,135505,1,8,0:0:0:0:
440,164,135672,5,8,0:0:0:0:
505,256,135838,1,0,3:0:0:0:
430,161,136005,1,0,3:0:0:0:
394,281,136172,1,0,3:0:0:0:
334,217,136338,6,0,P|286:204|263:161,1,97.5,4|0,1:0|2:0,2:0:0:0:
276,150,136672,1,0,3:0:0:0:
215,39,136838,1,0,3:0:0:0:
136,134,137005,1,0,3:0:0:0:
210,31,137172,1,0,3:0:0:0:
142,145,137338,2,0,L|159:239,1,65,0|0,3:0|3:0,0:0:0:0:
119,296,137672,6,0,P|89:317|42:321,1,65,4|0,1:0|3:0,2:0:0:0:
44,325,137922,1,0,3:0:0:0:
44,325,138005,1,0,3:0:0:0:
0,247,138172,1,0,3:0:0:0:
1,167,138338,1,0,3:0:0:0:
54,109,138505,1,0,3:0:0:0:
134,107,138672,2,0,P|179:115|233:97,1,97.5,0|0,3:0|0:0,0:0:0:0:
250,76,139005,6,0,L|234:162,1,65,4|0,1:0|2:0,2:0:0:0:
218,268,139338,2,0,L|234:354,1,65,8|0,0:0|1:0,0:0:0:0:
293,371,139672,5,8,0:0:0:0:
145,338,139838,1,0,1:0:0:0:
12,384,140005,1,8,0:0:0:0:
68,259,140172,1,0,1:0:0:0:
99,107,140338,5,8,0:0:0:0:
108,93,140422,1,8,0:0:0:0:
128,84,140505,1,8,0:0:0:0:
157,80,140588,1,8,0:0:0:0:
191,91,140672,2,0,P|213:100|235:103,3,32.5,8|8|8|8,0:0|0:0|0:0|0:0,2:0:0:0:
308,59,141005,5,8,0:0:0:0:
318,89,141088,1,8,0:0:0:0:
318,121,141172,1,8,0:0:0:0:
306,151,141255,1,8,0:0:0:0:
284,175,141338,1,8,0:0:0:0:
273,205,141422,1,8,0:0:0:0:
273,237,141505,1,8,0:0:0:0:
285,267,141588,1,8,0:0:0:0:
307,291,141672,6,0,P|346:307|416:297,1,97.5,6|0,1:0|2:0,2:0:0:0:
461,220,142005,2,0,P|423:158|383:142,1,97.5,8|0,0:0|2:0,2:0:0:0:
289,54,142338,6,0,L|307:162,1,97.5,0|0,1:0|1:0,2:0:0:0:
221,229,142672,1,8,0:0:0:0:
117,178,142838,1,0,2:0:0:0:
134,272,143005,5,0,1:0:0:0:
194,109,143172,1,0,2:0:0:0:
11,140,143338,1,8,0:0:0:0:
137,278,143505,1,0,2:0:0:0:
86,44,143672,1,2,1:0:0:0:
86,44,144005,6,0,P|132:48|188:29,1,97.5,8|0,0:0|0:0,2:0:0:0:
0,20,144338,2,0,L|24:160,1,97.5,2|0,1:0|2:0,2:0:0:0:
153,181,144672,2,0,L|129:321,1,97.5,10|0,0:0|0:0,2:0:0:0:
34,300,145005,6,0,P|97:286|147:300,1,97.5,0|0,1:0|1:0,2:0:0:0:
200,368,145338,2,0,P|263:382|313:368,1,97.5,8|0,0:0|0:0,0:0:0:0:
355,291,145672,5,2,1:0:0:0:
473,360,145838,1,0,1:0:0:0:
461,244,146005,1,8,0:0:0:0:
387,378,146172,1,0,1:0:0:0:
278,249,146338,5,10,0:0:0:0:
194,365,146505,1,0,1:0:0:0:
60,255,146672,2,0,P|50:185|63:115,1,97.5,8|0,0:0|2:0,0:0:0:0:
143,111,147005,5,6,1:0:0:0:
232,169,147172,1,0,2:0:0:0:
343,14,147338,1,8,0:0:0:0:
254,72,147505,1,0,2:0:0:0:
340,124,147672,6,0,P|394:131|447:107,1,97.5,0|0,1:0|1:0,0:0:0:0:
482,32,148005,1,8,0:0:0:0:
454,202,148172,1,0,2:0:0:0:
360,278,148338,5,2,1:0:0:0:
501,315,148505,1,0,2:0:0:0:
363,289,148672,1,10,0:0:0:0:
504,326,148838,1,0,2:0:0:0:
451,210,149005,5,2,1:0:0:0:
417,374,149172,1,0,1:0:0:0:
253,297,149338,2,0,P|307:278|368:283,1,97.5,10|0,0:0|0:0,2:0:0:0:
249,330,149672,6,0,P|200:328|155:311,1,97.5,2|0,1:0|2:0,2:0:0:0:
70,230,150005,2,0,L|86:128,1,97.5,8|0,0:0|2:0,2:0:0:0:
181,91,150338,5,2,1:0:0:0:
26,33,150505,1,0,1:0:0:0:
85,133,150672,2,0,L|188:116,1,97.5,8|0,0:0|2:0,0:0:0:0:
271,35,151005,6,0,P|341:59|407:57,1,97.5,2|0,1:0|0:0,2:0:0:0:
467,126,151338,2,0,L|483:12,1,97.5,8|0,0:0|2:0,2:0:0:0:
383,143,151672,5,0,1:0:0:0:
451,243,151838,1,8,0:0:0:0:
451,243,151922,1,8,0:0:0:0:
451,243,152005,1,8,0:0:0:0:
390,335,152172,1,8,0:0:0:0:
390,335,152255,1,8,0:0:0:0:
390,335,152338,6,0,P|314:320|261:345,1,97.5,6|0,1:0|0:0,2:0:0:0:
134,322,152672,2,0,P|179:347|241:347,1,97.5,8|0,0:0|2:0,2:0:0:0:
125,225,153005,2,0,L|101:357,1,97.5,0|0,1:0|1:0,2:0:0:0:
78,159,153338,5,8,0:0:0:0:
208,90,153505,1,0,2:0:0:0:
84,48,153672,5,0,1:0:0:0:
208,80,153838,1,0,2:0:0:0:
74,148,154005,1,8,0:0:0:0:
172,0,154172,1,0,2:0:0:0:
348,64,154338,1,2,1:0:0:0:
348,64,154672,6,0,L|334:193,1,97.5,8|0,0:0|0:0,2:0:0:0:
435,174,155005,2,0,L|395:291,1,97.5,2|0,1:0|2:0,2:0:0:0:
312,287,155338,1,8,0:0:0:0:
475,328,155505,1,0,2:0:0:0:
341,360,155672,1,2,1:0:0:0:
341,360,156005,5,8,0:0:0:0:
285,213,156172,1,0,2:0:0:0:
161,356,156338,1,2,1:0:0:0:
239,320,156505,1,0,1:0:0:0:
98,264,156672,5,8,0:0:0:0:
87,384,156838,1,0,1:0:0:0:
70,258,157005,6,0,L|46:133,1,97.5,2|0,0:0|1:0,2:0:0:0:
132,119,157338,2,0,L|156:-6,1,97.5,10|0,0:0|2:0,2:0:0:0:
260,55,157672,5,6,1:0:0:0:
398,40,157838,1,0,2:0:0:0:
258,44,158005,5,8,0:0:0:0:
406,138,158172,1,0,2:0:0:0:
508,13,158338,2,0,P|493:77|501:126,1,97.5,0|0,1:0|1:0,2:0:0:0:
416,229,158672,2,0,P|431:293|423:342,1,97.5,8|0,0:0|2:0,2:0:0:0:
356,363,159005,5,2,1:0:0:0:
511,374,159172,1,0,2:0:0:0:
354,350,159338,5,10,0:0:0:0:
202,384,159505,1,0,2:0:0:0:
316,182,159672,5,2,1:0:0:0:
330,266,159838,1,0,1:0:0:0:
229,160,160005,2,0,P|270:101|322:90,1,97.5,10|0,0:0|2:0,2:0:0:0:
465,43,160338,6,0,P|420:71|351:75,1,97.5,2|0,1:0|2:0,2:0:0:0:
225,17,160672,2,0,P|291:12|332:23,1,97.5,8|0,0:0|2:0,2:0:0:0:
166,126,161005,5,0,1:0:0:0:
121,6,161172,1,0,1:0:0:0:
8,142,161338,5,8,0:0:0:0:
28,13,161505,1,0,2:0:0:0:
96,197,161672,5,2,1:0:0:0:
85,94,161838,1,0,0:0:0:0:
110,205,162005,2,0,P|97:275|76:303,1,97.5,8|8,0:0|0:0,0:0:0:0:
24,355,162338,5,8,0:0:0:0:
173,329,162505,1,8,0:0:0:0:
173,329,162588,1,8,0:0:0:0:
173,329,162672,1,8,0:0:0:0:
316,368,162838,1,8,0:0:0:0:
316,368,162922,1,8,0:0:0:0:
316,368,163005,6,0,P|381:369|425:348,1,97.5,6|0,1:0|2:0,2:0:0:0:
393,238,163338,2,0,P|398:308|426:344,1,97.5,12|0,0:0|2:0,2:0:0:0:
493,168,163672,5,0,1:0:0:0:
332,140,163838,1,0,1:0:0:0:
479,53,164005,2,0,L|478:164,1,97.5,8|0,0:0|2:0,2:0:0:0:
359,33,164338,5,0,1:0:0:0:
244,61,164505,1,0,1:0:0:0:
130,92,164672,2,0,P|185:71|213:28,1,97.5,8|0,0:0|2:0,2:0:0:0:
109,198,165005,2,0,P|63:160|12:158,1,97.5,0|0,1:0|1:0,0:0:0:0:
211,163,165338,2,0,P|201:221|224:266,1,97.5,8|0,0:0|2:0,2:0:0:0:
374,302,165672,6,0,P|434:285|470:248,1,97.5,2|2,1:0|2:0,0:0:0:0:
340,203,166005,2,0,L|354:319,1,97.5,10|2,0:0|2:0,0:0:0:0:
464,360,166338,5,2,2:0:0:0:
464,360,166505,1,2,1:0:0:0:
459,262,166672,2,2,L|471:151,1,97.5,10|2,0:0|2:0,2:0:0:0:
413,75,167005,5,0,1:0:0:0:
301,116,167172,1,0,1:0:0:0:
195,72,167338,1,8,0:0:0:0:
122,158,167505,1,0,1:0:0:0:
96,68,167672,5,0,2:0:0:0:
222,176,167838,1,0,1:0:0:0:
276,25,168005,2,0,P|310:39|399:17,1,97.5,10|0,0:0|2:0,2:0:0:0:
379,31,168338,6,0,B|412:48|412:48|395:164,1,146.25,6|0,1:0|0:0,2:0:0:0:
369,175,168672,2,0,B|354:200|354:200|387:274,1,97.5,10|0,0:0|2:0,2:0:0:0:
466,318,169005,5,2,2:0:0:0:
314,315,169172,1,2,1:0:0:0:
454,345,169338,1,8,0:0:0:0:
321,340,169505,6,0,P|292:336|216:346,1,97.5,2|0,2:0|1:0,2:0:0:0:
127,380,169838,1,0,1:0:0:0:
49,315,170005,2,0,L|67:206,1,97.5,8|0,0:0|1:0,0:0:0:0:
30,115,170338,5,2,2:0:0:0:
158,189,170505,1,0,1:0:0:0:
255,71,170672,2,0,P|189:46|117:61,1,146.25,8|0,0:0|2:0,2:0:0:0:
106,68,171005,5,6,1:0:0:0:
29,33,171172,1,2,2:0:0:0:
30,115,171338,1,10,0:0:0:0:
112,183,171505,5,2,2:0:0:0:
189,148,171672,1,2,2:0:0:0:
188,230,171838,1,2,1:0:0:0:
106,298,172005,5,10,0:0:0:0:
29,263,172172,1,2,2:0:0:0:
29,263,172255,1,2,0:0:0:0:
29,263,172338,5,2,1:0:0:0:
185,340,172505,1,2,1:0:0:0:
78,378,172672,5,10,0:0:0:0:
296,328,172838,1,2,1:0:0:0:
480,372,173005,5,2,1:0:0:0:
476,335,173088,1,0,1:0:0:0:
472,299,173172,1,8,0:0:0:0:
469,262,173255,1,8,0:0:0:0:
465,226,173338,1,8,0:0:0:0:
391,148,173505,5,8,0:0:0:0:
394,111,173588,1,8,0:0:0:0:
398,75,173672,2,0,P|359:33|297:18,1,97.5,4|0,1:0|0:0,2:0:0:0:
228,185,174005,2,0,P|272:166|303:129,1,97.5,12|0,0:0|2:0,2:0:0:0:
132,126,174338,5,0,1:0:0:0:
168,269,174505,1,0,1:0:0:0:
112,125,174672,2,0,L|130:26,1,97.5,8|0,0:0|2:0,2:0:0:0:
232,105,175005,5,0,1:0:0:0:
268,248,175172,1,0,1:0:0:0:
212,104,175338,2,0,L|230:5,1,97.5,8|0,0:0|1:0,0:0:0:0:
344,27,175672,2,0,L|326:122,1,97.5,0|2,2:0|1:0,0:0:0:0:
440,140,176005,2,2,L|458:45,1,97.5,10|0,0:0|2:0,2:0:0:0:
373,209,176338,6,0,P|428:238|494:223,1,97.5,2|0,1:0|0:0,2:0:0:0:
440,140,176672,1,10,0:0:0:0:
373,209,176838,2,0,L|387:324,1,97.5,2|2,2:0|2:0,0:0:0:0:
291,148,177172,5,0,1:0:0:0:
224,217,177338,2,0,L|238:332,1,97.5,8|2,0:0|2:0,0:0:0:0:
137,165,177672,5,2,1:0:0:0:
6,206,177838,1,2,1:0:0:0:
93,253,178005,1,10,0:0:0:0:
52,122,178172,1,2,1:0:0:0:
118,15,178338,6,0,P|164:34|228:29,1,97.5,2|0,2:0|1:0,0:0:0:0:
387,0,178672,2,0,P|338:0|293:18,1,97.5,8|0,0:0|2:0,2:0:0:0:
364,93,179005,6,0,B|382:107|382:107|379:149,2,65,6|0|0,1:0|0:0|0:0,2:0:0:0:
268,210,179338,2,0,B|282:192|282:192|324:195,2,65,8|0|0,0:0|0:0|0:0,2:0:0:0:
385,306,179672,2,2,B|367:292|367:292|370:250,2,65,2|0|0,2:0|0:0|0:0,2:0:0:0:
481,189,180005,2,2,B|467:207|467:207|425:204,2,65,10|0|0,0:0|0:0|0:0,2:0:0:0:
446,82,180338,5,0,1:0:0:0:
512,0,180505,1,0,1:0:0:0:
435,77,180672,2,0,P|372:86|307:71,1,97.5,8|0,0:0|1:0,2:0:0:0:
202,1,181005,2,0,P|225:35|242:103,1,97.5,0|0,2:0|1:0,2:0:0:0:
215,197,181338,2,0,P|212:222|219:250,3,48.75,10|2|2|2,0:0|1:2|1:0|1:2,0:0:0:0:
253,253,181672,6,0,P|187:296|139:302,1,97.5,12|0,0:0|0:0,2:0:0:0:
81,233,182005,1,0,1:0:0:0:
182,82,182172,6,0,P|252:117|281:156,1,97.5,8|0,0:0|2:0,0:0:0:0:
250,240,182505,1,0,1:0:0:0:
63,230,182672,6,0,P|58:151|77:106,1,97.5,8|0,0:0|0:0,2:0:0:0:
166,91,183005,1,0,1:0:0:0:
307,133,183172,6,0,P|379:126|430:101,1,97.5,8|0,0:0|1:0,0:0:0:0:
459,20,183505,1,0,1:0:0:0:
405,128,183672,5,10,0:0:0:0:
454,231,183838,1,2,1:0:0:0:
348,306,184005,2,0,P|398:301|442:321,1,97.5,2|2,3:0|1:0,0:0:0:0:
495,371,184338,5,6,0:0:0:0:
106,56,195005,6,0,P|167:75|359:34,1,260,2|2,0:0|0:0,2:0:0:0:
246,261,197672,6,0,P|231:198|100:52,1,260,2|2,0:0|0:0,2:0:0:0:
105,55,199672,1,2,0:0:0:0:
353,36,200338,6,0,P|306:79|245:266,1,260,2|2,0:0|0:0,2:0:0:0:
363,335,203005,6,0,P|375:301|382:262,1,65,2|0,0:0|0:0,2:0:0:0:
266,316,203672,6,0,P|271:273|262:201,1,97.5000000000003,2|2,0:0|0:0,0:0:0:0:
157,322,204338,6,0,P|152:266|143:237,1,65,8|0,0:0|3:0,0:0:0:0:
125,185,204672,2,0,P|105:140|80:111,1,65,0|8,3:0|0:0,0:0:0:0:
0,67,205005,6,0,P|50:90|80:97,1,65,10|0,0:0|3:0,2:0:0:0:
192,106,205338,2,0,P|235:103|266:92,1,65,2|0,3:0|3:0,2:0:0:0:
374,63,205672,5,6,1:0:0:0:
504,146,206005,5,0,1:0:0:0:
506,6,206338,6,0,P|481:62|501:144,1,117,10|0,0:0|0:0,0:0:0:0:
504,146,206672,2,0,P|515:190|508:241,1,78,10|0,0:0|0:0,0:0:0:0:
402,300,207005,5,2,1:0:0:0:
510,328,207172,1,8,0:0:0:0:
406,306,207338,2,0,P|342:319|315:343,1,78,0|0,1:0|0:0,0:0:0:0:
237,368,207672,2,0,L|244:230,1,117,10|0,0:0|0:0,2:0:0:0:
261,239,208005,2,0,L|252:144,1,78,2|8,1:0|0:0,0:0:0:0:
169,72,208338,5,6,1:0:0:0:
39,155,208672,5,0,1:0:0:0:
37,15,209005,6,0,P|62:71|42:153,1,117,8|0,0:0|0:0,0:0:0:0:
39,155,209338,2,0,P|28:199|35:250,1,78,10|0,0:0|0:0,0:0:0:0:
110,300,209672,5,2,1:0:0:0:
2,328,209838,1,8,0:0:0:0:
106,306,210005,2,0,P|170:319|197:343,1,78,0|0,1:0|0:0,0:0:0:0:
275,368,210338,2,0,L|268:230,1,117,8|0,0:0|0:0,0:0:0:0:
251,239,210672,2,0,L|260:144,1,78,2|8,1:0|0:0,0:0:0:0:
270,70,211005,5,6,1:0:0:0:
126,136,211338,5,2,1:0:0:0:
11,37,211672,6,0,L|109:48,1,78,10|0,0:0|0:0,0:0:0:0:
192,61,212005,2,0,L|290:72,1,78,10|0,0:0|0:0,0:0:0:0:
365,138,212338,5,2,1:0:0:0:
402,26,212505,1,8,0:0:0:0:
376,156,212672,2,0,P|387:210|414:258,1,78,2|0,1:0|0:0,0:0:0:0:
490,258,213005,2,0,P|443:258|344:282,1,117,10|0,0:0|0:0,0:0:0:0:
354,297,213338,1,2,1:0:0:0:
297,235,213505,1,8,0:0:0:0:
270,314,213672,5,6,1:0:0:0:
126,248,214005,5,0,1:0:0:0:
11,347,214338,6,0,L|109:336,1,78,10|0,0:0|0:0,0:0:0:0:
192,323,214672,2,0,L|290:312,1,78,10|0,0:0|0:0,0:0:0:0:
389,302,215005,6,0,P|406:274|403:238,1,51.999998413086,14|0,1:0|1:0,0:0:0:0:
354,187,215227,1,8,1:0:0:0:
366,179,215338,2,0,L|375:108,2,52,8|8|8,0:0|0:0|0:0,0:0:0:0:
426,46,215672,2,0,P|383:52|340:46,2,52,10|8|8,0:0|0:0|0:0,0:0:0:0:
306,11,216005,5,0,3:0:0:0:
254,11,216116,1,0,0:0:0:0:
207,33,216227,1,0,3:0:0:0:
146,81,216338,6,0,P|101:67|81:46,2,78,6|0|2,1:0|2:0|1:0,2:0:0:0:
246,126,216838,1,0,2:0:0:0:
166,182,217005,2,0,L|174:267,1,78,10|0,0:0|0:0,0:0:0:0:
252,345,217338,2,0,L|259:267,1,78,10|0,0:0|0:0,0:0:0:0:
88,349,217672,5,2,1:0:0:0:
167,327,217838,1,8,0:0:0:0:
76,336,218005,2,0,L|-3:318,1,78,2|0,1:0|0:0,0:0:0:0:
0,222,218338,1,10,0:0:0:0:
0,222,218672,5,2,1:0:0:0:
51,117,218838,1,8,0:0:0:0:
5,20,219005,2,0,P|47:37|103:37,1,78,6|0,1:0|0:0,2:0:0:0:
155,104,219338,2,0,P|201:78|224:49,1,78,2|0,1:0|0:0,0:0:0:0:
296,11,219672,6,0,L|286:193,1,156,10|2,0:0|1:0,0:0:0:0:
345,251,220172,1,8,0:0:0:0:
283,177,220338,1,2,1:0:0:0:
215,244,220505,2,0,P|169:249|118:241,1,78,8|0,0:0|1:0,0:0:0:0:
92,135,220838,5,8,0:0:0:0:
92,135,220922,1,8,0:0:0:0:
92,135,221005,1,8,0:0:0:0:
119,61,221172,1,0,3:0:0:0:
190,29,221338,1,0,3:0:0:0:
268,30,221505,1,0,3:0:0:0:
366,81,221672,6,0,P|411:67|431:46,2,78,6|0|2,1:0|0:0|1:0,2:0:0:0:
266,126,222172,1,0,0:0:0:0:
346,182,222338,2,0,L|338:267,1,78,10|0,0:0|0:0,0:0:0:0:
260,345,222672,2,0,L|252:267,1,78,10|0,0:0|0:0,0:0:0:0:
424,349,223005,5,2,1:0:0:0:
345,327,223172,1,8,0:0:0:0:
436,336,223338,2,0,L|515:318,1,78,2|0,1:0|0:0,0:0:0:0:
512,222,223672,1,10,0:0:0:0:
512,222,224005,6,0,P|505:164|483:128,1,78,2|0,1:0|0:0,2:0:0:0:
426,54,224338,2,0,P|359:53|290:96,1,117,14|0,0:0|2:0,2:0:0:0:
302,84,224672,1,2,1:0:0:0:
214,55,224838,1,8,0:0:0:0:
112,207,225005,1,2,1:0:0:0:
112,207,225338,6,0,P|162:153|149:86,1,117,10|0,0:0|2:0,2:0:0:0:
152,102,225672,5,10,0:0:0:0:
297,75,225922,1,8,0:0:0:0:
412,160,226172,1,10,0:0:0:0:
414,43,226338,5,10,0:0:0:0:
327,156,226588,1,8,0:0:0:0:
410,280,226838,1,8,0:0:0:0:
84,132,229672,6,0,P|150:148|206:138,1,97.5,6|0,1:0|2:0,2:0:0:0:
55,17,230005,2,0,L|80:148,1,97.5,8|0,0:0|2:0,2:0:0:0:
129,232,230338,2,0,L|104:363,1,97.5,0|0,1:0|0:0,2:0:0:0:
23,372,230672,5,8,0:0:0:0:
206,324,230838,1,0,2:0:0:0:
371,380,231005,5,0,1:0:0:0:
302,302,231172,1,0,2:0:0:0:
400,246,231338,1,8,0:0:0:0:
314,170,231505,1,0,2:0:0:0:
214,219,231672,1,2,1:0:0:0:
214,219,232005,6,0,P|177:165|166:58,1,146.25,8|0,0:0|0:0,2:0:0:0:
184,49,232338,2,0,P|130:78|65:88,1,97.5,2|0,1:0|2:0,2:0:0:0:
0,28,232672,2,0,P|46:40|88:65,1,97.5,8|0,0:0|2:0,2:0:0:0:
71,173,233005,5,2,1:0:0:0:
0,244,233172,1,0,1:0:0:0:
78,184,233338,2,0,P|140:180|209:202,1,97.5,8|0,0:0|2:0,2:0:0:0:
269,228,233672,5,2,1:0:0:0:
357,334,233838,1,0,1:0:0:0:
238,316,234005,1,8,0:0:0:0:
367,222,234172,1,0,1:0:0:0:
465,351,234338,5,10,0:0:0:0:
374,233,234505,1,0,1:0:0:0:
424,138,234672,2,0,P|435:73|428:29,1,97.5,8|0,0:0|2:0,0:0:0:0:
293,8,235005,6,0,P|293:65|313:118,1,97.5,6|0,1:0|2:0,2:0:0:0:
425,35,235338,1,8,0:0:0:0:
308,108,235505,1,0,2:0:0:0:
187,50,235672,1,0,1:0:0:0:
92,123,235838,2,0,P|20:108|-4:78,1,97.5,0|8,1:0|0:0,2:0:0:0:
89,6,236172,1,0,2:0:0:0:
101,128,236338,6,0,L|82:233,1,97.5,2|0,1:0|2:0,0:0:0:0:
10,302,236672,1,10,0:0:0:0:
156,280,236838,1,0,2:0:0:0:
13,284,237005,1,2,1:0:0:0:
161,302,237172,1,0,1:0:0:0:
289,228,237338,2,0,P|340:169|355:76,1,146.25,10|0,0:0|2:0,2:0:0:0:
329,59,237672,6,0,P|369:101|420:121,1,97.5,2|0,1:0|2:0,2:0:0:0:
466,211,238005,2,0,P|506:157|511:91,1,97.5,8|0,0:0|2:0,2:0:0:0:
452,4,238338,5,2,1:0:0:0:
501,118,238505,1,0,1:0:0:0:
340,31,238672,2,0,P|408:39|459:22,1,97.5,8|0,0:0|2:0,0:0:0:0:
263,0,239005,6,0,B|240:28|240:28|273:150,1,146.25,2|0,1:0|2:0,2:0:0:0:
289,160,239338,2,0,P|295:217|264:277,1,97.5,8|0,0:0|2:0,2:0:0:0:
263,267,239588,1,0,0:0:0:0:
263,267,239672,1,0,1:0:0:0:
365,331,239838,5,8,0:0:0:0:
365,331,239922,1,8,0:0:0:0:
365,331,240005,1,8,0:0:0:0:
461,273,240172,5,8,0:0:0:0:
461,273,240255,1,8,0:0:0:0:
461,273,240338,2,0,P|475:201|470:151,1,97.5,6|0,1:0|0:0,2:0:0:0:
406,54,240672,5,8,0:0:0:0:
474,157,240838,1,0,2:0:0:0:
395,52,241005,2,0,P|330:42|277:51,1,97.5,0|0,1:0|1:0,2:0:0:0:
234,122,241338,5,8,0:0:0:0:
121,0,241505,2,0,L|144:116,1,97.5,0|0,2:0|1:0,0:0:0:0:
162,205,241838,5,0,0:0:0:0:
98,293,242005,2,0,P|154:289|203:311,1,97.5,8|0,0:0|2:0,2:0:0:0:
291,326,242338,2,0,P|245:341|197:336,1,97.5,2|0,1:0|1:0,2:0:0:0:
338,256,242672,2,0,B|373:271|373:271|366:398,1,146.25,8|0,0:0|2:0,2:0:0:0:
399,377,243005,6,0,L|405:262,1,97.5,2|0,1:0|2:0,2:0:0:0:
381,154,243338,1,8,0:0:0:0:
495,202,243505,1,0,2:0:0:0:
374,148,243672,2,0,P|317:153|273:172,1,97.5,2|0,1:0|1:0,2:0:0:0:
189,219,244005,5,8,0:0:0:0:
75,178,244172,1,0,2:0:0:0:
11,276,244338,1,2,1:0:0:0:
82,181,244505,1,0,1:0:0:0:
49,81,244672,2,0,P|35:24|-1:-3,1,97.5,8|0,0:0|0:0,2:0:0:0:
41,93,245005,6,0,P|109:108|163:97,1,97.5,2|0,1:0|1:0,2:0:0:0:
243,42,245338,2,0,P|323:49|399:86,1,146.25,10|0,0:0|0:0,0:0:0:0:
408,55,245672,6,0,P|397:109|405:170,1,97.5,6|0,0:0|2:0,0:0:0:0:
439,248,246005,1,8,0:0:0:0:
511,177,246172,1,0,2:0:0:0:
446,258,246338,2,0,P|448:318|431:374,1,97.5,0|0,1:0|1:0,2:0:0:0:
312,349,246672,2,0,P|302:301|305:252,1,97.5,8|0,0:0|2:0,0:0:0:0:
254,149,247005,5,0,1:0:0:0:
184,80,247172,1,0,2:0:0:0:
81,88,247338,1,8,0:0:0:0:
24,172,247505,1,0,2:0:0:0:
69,84,247672,5,0,1:0:0:0:
31,182,247838,1,0,1:0:0:0:
68,279,248005,2,0,P|131:317|164:323,1,97.5,8|0,0:0|2:0,2:0:0:0:
293,218,248338,6,0,P|243:237|214:285,1,97.5,0|0,1:0|2:0,2:0:0:0:
376,254,248672,2,0,L|357:130,1,97.5,8|0,0:0|2:0,2:0:0:0:
214,62,249005,2,0,P|275:92|332:90,1,97.5,0|0,1:0|1:0,2:0:0:0:
469,36,249338,2,0,P|403:60|370:110,1,97.5,8|0,0:0|2:0,2:0:0:0:
481,162,249672,5,2,1:0:0:0:
494,285,249838,1,8,0:0:0:0:
461,268,249922,1,8,0:0:0:0:
425,263,250005,1,8,0:0:0:0:
390,270,250088,1,8,2:0:0:0:
358,288,250172,1,10,0:0:0:0:
301,206,250338,5,8,0:0:0:0:
268,223,250422,1,8,2:0:0:0:
232,228,250505,1,8,0:0:0:0:
197,221,250588,1,8,0:0:0:0:
165,203,250672,1,8,0:0:0:0:
133,185,250755,1,8,2:0:0:0:
98,178,250838,1,8,0:0:0:0:
62,183,250922,1,8,0:0:0:0:
29,200,251005,6,0,L|48:317,1,97.5,6|0,1:0|2:0,2:0:0:0:
113,147,251338,2,0,L|132:30,1,97.5,8|0,0:0|2:0,2:0:0:0:
15,3,251672,5,0,1:0:0:0:
142,45,251838,1,0,1:0:0:0:
272,84,252005,2,0,P|334:71|394:23,1,97.5,8|0,0:0|0:0,2:0:0:0:
451,96,252338,6,0,L|432:-45,1,97.5,0|0,1:0|2:0,2:0:0:0:
382,134,252672,1,8,0:0:0:0:
512,193,252838,1,0,2:0:0:0:
413,309,253005,2,0,L|432:168,1,97.5,2|0,1:0|1:0,2:0:0:0:
418,327,253338,6,0,P|351:308|276:323,1,146.25,8|0,0:0|0:0,2:0:0:0:
269,348,253672,2,0,L|252:221,1,97.5,2|0,1:0|2:0,2:0:0:0:
152,260,254005,2,0,L|164:356,1,97.5,8|0,0:0|2:0,2:0:0:0:
65,246,254338,6,0,P|95:188|154:167,1,97.5,0|0,1:0|1:0,2:0:0:0:
214,144,254672,2,0,P|175:115|157:70,1,97.5,8|0,0:0|0:0,2:0:0:0:
251,37,255005,6,0,L|119:57,1,97.5,0|0,1:0|2:0,2:0:0:0:
52,95,255338,1,8,0:0:0:0:
112,178,255505,1,0,2:0:0:0:
172,262,255672,2,0,P|237:293|290:285,1,97.5,0|0,1:0|1:0,2:0:0:0:
301,163,256005,2,0,P|364:148|421:169,1,97.5,8|0,0:0|0:0,2:0:0:0:
483,200,256338,6,0,L|464:317,1,97.5,6|0,1:0|2:0,2:0:0:0:
399,147,256672,2,0,L|380:30,1,97.5,8|0,0:0|2:0,2:0:0:0:
497,3,257005,5,0,1:0:0:0:
370,45,257172,1,0,1:0:0:0:
240,84,257338,2,0,P|178:71|118:23,1,97.5,8|0,0:0|0:0,2:0:0:0:
61,96,257672,6,0,L|80:-45,1,97.5,0|0,1:0|2:0,2:0:0:0:
130,134,258005,1,8,0:0:0:0:
0,193,258172,1,0,2:0:0:0:
99,309,258338,2,0,L|80:168,1,97.5,2|0,1:0|1:0,2:0:0:0:
94,327,258672,6,0,P|161:308|236:323,1,146.25,8|0,0:0|0:0,2:0:0:0:
243,348,259005,2,0,L|260:221,1,97.5,2|0,1:0|2:0,2:0:0:0:
360,260,259338,2,0,L|347:356,1,97.5,8|0,0:0|2:0,2:0:0:0:
447,246,259672,6,0,P|417:188|358:167,1,97.5,0|0,1:0|1:0,2:0:0:0:
298,144,260005,2,0,P|336:115|354:70,1,97.5,8|0,0:0|0:0,2:0:0:0:
261,37,260338,6,0,L|393:57,1,97.5,0|0,1:0|1:0,2:0:0:0:
460,95,260672,1,8,0:0:0:0:
512,4,260838,1,0,1:0:0:0:
455,107,261005,2,0,P|457:159|475:213,1,97.5,0|0,3:0|3:0,0:0:0:0:
381,315,261338,2,0,P|379:263|361:209,1,97.5,8|0,0:0|1:0,0:0:0:0:
85,50,261672,5,8,0:0:0:0:
238,83,261838,1,0,1:0:0:0:
89,67,262005,5,8,0:0:0:0:
242,100,262172,1,0,1:0:0:0:
139,167,262338,5,8,0:0:0:0:
181,20,262505,1,0,1:0:0:0:
181,20,262588,1,0,1:0:0:0:
181,20,262672,1,8,0:0:0:0:
145,172,262838,1,0,1:0:0:0:
295,237,263005,5,8,0:0:0:0:
448,204,263172,1,0,1:0:0:0:
299,220,263338,5,8,0:0:0:0:
452,187,263505,1,0,1:0:0:0:
394,292,263672,5,8,0:0:0:0:
359,140,263838,1,0,1:0:0:0:
399,300,264005,2,0,P|342:342|291:346,1,97.5,8|0,0:0|1:0,0:0:0:0:
293,340,264255,1,0,1:0:0:0:
271,329,264338,6,0,P|210:319|150:339,1,97.5,8|0,0:0|1:0,0:0:0:0:
115,230,264672,2,0,P|78:281|67:335,1,97.5,8|0,0:0|1:0,0:0:0:0:
4,213,265005,6,0,P|56:235|128:237,1,97.5,8|0,0:0|1:0,0:0:0:0:
165,155,265338,2,0,P|230:132|267:98,1,97.5,8|0,0:0|1:0,0:0:0:0:
219,24,265672,5,8,0:0:0:0:
321,169,265838,1,0,1:0:0:0:
390,84,266005,5,8,0:0:0:0:
372,280,266172,1,0,1:0:0:0:
481,245,266338,5,8,0:0:0:0:
310,369,266505,1,0,1:0:0:0:
181,253,266672,1,8,0:0:0:0:
80,332,266838,1,0,1:0:0:0:
0,263,267005,5,8,0:0:0:0:
286,112,271505,5,0,0:0:0:0:
296,122,271672,2,0,L|287:227,1,97.5000000000003,2|2,0:0|0:0,2:0:0:0:
178,294,272338,5,6,1:0:0:0:
287,219,272505,1,0,2:0:0:0:
392,296,272672,2,0,P|433:305|488:297,1,97.5,10|0,0:0|0:0,2:0:0:0:
508,282,273005,2,0,L|501:350,1,65,2|0,1:0|1:0,0:0:0:0:
402,169,273338,2,0,L|482:159,1,65,10|0,0:0|2:0,2:0:0:0:
293,23,273672,6,0,L|305:116,1,65,2|0,1:0|2:0,2:0:0:0:
413,157,274005,2,0,L|422:68,1,65,10|0,0:0|2:0,2:0:0:0:
229,87,274338,5,2,1:0:0:0:
229,87,274505,1,2,1:0:0:0:
293,23,274672,2,0,L|373:26,1,65,10|0,0:0|2:0,2:0:0:0:
286,169,275005,6,0,L|221:163,1,65,2|2,1:0|1:0,2:0:0:0:
79,294,275338,2,0,P|128:279|161:286,1,65,10|0,0:0|2:0,2:0:0:0:
221,163,275672,2,0,P|209:212|186:238,1,65,2|0,1:0|1:0,0:0:0:0:
263,351,276005,2,0,P|225:316|215:283,1,65,10|0,0:0|2:0,2:0:0:0:
359,266,276338,6,0,P|404:266|467:284,1,97.5,2|0,1:0|0:0,2:0:0:0:
468,287,276672,1,10,0:0:0:0:
398,365,276838,1,2,1:0:0:0:
359,266,277005,6,0,L|368:182,1,65,10|0,0:0|1:0,0:0:0:0:
434,143,277338,2,0,L|425:59,1,65,10|0,0:0|2:0,2:0:0:0:
299,18,277672,6,0,L|281:144,1,97.5,6|0,1:0|0:0,2:0:0:0:
290,133,278005,2,0,P|250:125|216:137,1,65,8|0,0:0|2:0,2:0:0:0:
146,199,278338,5,2,1:0:0:0:
146,199,278505,1,0,1:0:0:0:
63,131,278672,2,0,L|78:9,1,97.5,8|0,0:0|0:0,2:0:0:0:
58,20,279005,6,0,L|171:29,1,97.5,2|0,1:0|0:0,0:0:0:0:
172,47,279338,2,0,P|208:61|253:59,1,65,8|0,0:0|2:0,2:0:0:0:
342,26,279672,5,2,1:0:0:0:
308,117,279838,1,0,1:0:0:0:
437,96,280005,2,0,L|439:31,1,65,8|0,0:0|2:0,0:0:0:0:
361,175,280338,6,0,P|372:213|412:260,1,97.5,2|0,1:0|0:0,2:0:0:0:
435,263,280672,2,0,L|353:271,1,65,8|0,0:0|2:0,2:0:0:0:
302,344,281005,5,2,1:0:0:0:
302,344,281172,1,0,1:0:0:0:
186,223,281338,2,0,L|199:326,1,97.5,8|0,0:0|0:0,2:0:0:0:
198,319,281672,5,2,1:0:0:0:
146,383,281838,1,0,1:0:0:0:
43,309,282005,2,0,L|58:197,1,97.5,8|0,0:0|0:0,2:0:0:0:
57,190,282338,2,0,L|93:163,3,32.5,10|0|8|8,0:0|0:0|0:0|0:0,0:0:0:0:
122,99,282672,2,0,L|167:106,3,32.5,10|8|8|8,0:0|2:0|0:0|0:0,0:0:0:0:
226,54,283005,5,6,1:0:0:0:
357,125,283172,1,2,1:0:0:0:
487,52,283338,2,0,B|467:90|467:90|484:186,1,116.999996429443,10|0,0:0|0:0,2:0:0:0:
494,181,283672,2,0,P|490:230|466:278,1,78,2|0,1:0|1:0,0:0:0:0:
305,272,284005,2,0,P|345:258|385:264,1,78,10|0,0:0|1:0,2:0:0:0:
331,367,284338,5,2,1:0:0:0:
342,189,284505,1,0,1:0:0:0:
322,369,284672,2,0,P|265:382|235:371,1,78,10|0,0:0|1:0,2:0:0:0:
157,253,285005,6,0,L|148:339,1,78,2|2,1:0|1:0,0:0:0:0:
146,350,285255,1,2,1:0:0:0:
136,367,285338,2,0,P|89:376|55:365,1,78,10|0,0:0|1:0,0:0:0:0:
67,239,285672,6,0,P|114:230|148:241,1,78,2|2,1:0|1:0,0:0:0:0:
243,282,286005,2,0,P|290:291|324:280,1,78,10|0,0:0|1:0,0:0:0:0:
399,174,286338,6,0,L|412:262,1,78,2|0,1:0|1:0,0:0:0:0:
499,294,286672,2,0,L|486:382,1,78,10|0,0:0|1:0,2:0:0:0:
388,365,287005,5,2,1:0:0:0:
274,335,287172,1,0,1:0:0:0:
386,348,287338,1,10,0:0:0:0:
273,350,287505,1,2,1:0:0:0:
194,263,287672,5,10,0:0:0:0:
155,369,287838,1,0,1:0:0:0:
206,268,288005,2,0,P|208:209|192:163,1,78,10|0,0:0|1:0,2:0:0:0:
150,86,288338,5,6,1:0:0:0:
231,179,288505,1,0,1:0:0:0:
365,38,288672,1,8,0:0:0:0:
243,21,288838,1,0,1:0:0:0:
342,155,289005,1,2,1:0:0:0:
246,31,289172,1,0,1:0:0:0:
150,95,289338,2,0,P|100:106|55:92,1,78,8|0,0:0|1:0,0:0:0:0:
23,21,289672,5,2,1:0:0:0:
150,95,289838,1,0,1:0:0:0:
0,212,290005,1,8,0:0:0:0:
58,102,290172,1,0,1:0:0:0:
126,210,290338,1,2,1:0:0:0:
49,105,290505,1,0,1:0:0:0:
173,26,290672,2,0,P|171:70|150:121,1,78,8|0,0:0|1:0,0:0:0:0:
206,222,291005,5,14,0:0:0:0:
327,191,291172,1,0,1:0:0:0:
421,270,291338,1,8,0:0:0:0:
337,186,291505,1,0,1:0:0:0:
369,69,291672,1,10,0:0:0:0:
326,177,291838,1,0,1:0:0:0:
206,213,292005,2,0,P|137:223|92:211,1,117,8|0,0:0|0:0,0:0:0:0:
76,211,292338,6,0,L|88:292,1,78,10|0,0:0|1:0,0:0:0:0:
137,52,292672,2,0,L|130:141,1,78,8|0,0:0|1:0,0:0:0:0:
156,206,293005,5,10,0:0:0:0:
137,52,293172,1,8,0:0:0:0:
290,33,293338,1,8,0:0:0:0:
309,187,293505,1,8,0:0:0:0:
