osu file format v14

[General]
AudioFilename: audio.mp3
AudioLeadIn: 0
PreviewTime: 79812
Countdown: 0
SampleSet: Normal
StackLeniency: 0.7
Mode: 2
LetterboxInBreaks: 0
WidescreenStoryboard: 1

[Editor]
Bookmarks: 25974,46731,67488,123272,154083,154893,157650,166731
DistanceSpacing: 0.9
BeatDivisor: 8
GridSize: 4
TimelineZoom: 1.900001

[Metadata]
Title:calling
TitleUnicode:calling
Artist:Alfakyun. x Camellia
ArtistUnicode:+α/あるふぁきゅん。x かめりあ
Creator:alienflybot
Version:Rew's Rain
Source:アンダンテ
Tags:+a alfa10alfa KamelCamellia cametek 日日日 Akira 坂ノハル Sakanoharu oto_to_ne 紅緒 Benio murAta Yuz m_Yz WEB小説 Novel Project Andante Opening Theme OPソング 2nd Album αβ叫喚 kyoukan kyokan 歌ってみた utaite utattemita AFB Hareimu rew0825 AJamez Jemzuu
BeatmapID:1604193
BeatmapSetID:649285

[Difficulty]
HPDrainRate:6
CircleSize:4
OverallDifficulty:9.1
ApproachRate:9.1
SliderMultiplier:1.92
SliderTickRate:2

[Events]
//Background and Video events
0,0,"capture.jpg",0,0
//Break Periods
//Storyboard Layer 0 (Background)
//Storyboard Layer 1 (Fail)
//Storyboard Layer 2 (Pass)
//Storyboard Layer 3 (Foreground)
//Storyboard Layer 4 (Overlay)
//Storyboard Sound Samples

[TimingPoints]
29,324.324324324324,4,2,1,80,1,0
3920,-100,4,2,1,100,0,0
4083,-100,4,2,1,60,0,0
4245,-100,4,2,1,60,0,0
4569,-100,4,2,1,80,0,0
4650,-100,4,2,1,60,0,0
4731,-100,4,2,1,80,0,0
4974,-100,4,2,1,40,0,0
5056,-100,4,2,1,80,0,0
5218,-100,4,2,1,60,0,0
5380,-100,4,2,1,60,0,0
5542,-100,4,2,1,80,0,0
5623,-100,4,2,1,60,0,0
5704,-100,4,2,1,80,0,0
5866,-100,4,3,1,100,0,0
6191,-100,4,2,1,80,0,0
6245,-100,4,2,1,60,0,0
6272,-100,4,2,1,60,0,0
6299,-100,4,2,1,45,0,0
6353,-100,4,2,1,65,0,0
6407,-100,4,2,1,55,0,0
6434,-100,4,2,1,55,0,0
6461,-100,4,2,1,45,0,0
6515,-100,4,2,1,80,0,0
6758,-100,4,2,1,40,0,0
6839,-100,4,2,1,60,0,0
7164,-100,4,2,1,80,0,0
7245,-100,4,2,1,60,0,0
7326,-100,4,2,1,80,0,0
7569,-100,4,2,1,40,0,0
7650,-100,4,2,1,80,0,0
7812,-100,4,2,1,60,0,0
7974,-100,4,2,1,60,0,0
8137,-100,4,2,1,80,0,0
8218,-100,4,2,1,60,0,0
8299,-100,4,2,1,80,0,0
8461,-100,4,3,1,100,0,0
8623,-100,4,2,1,60,0,0
8785,-100,4,2,1,80,0,0
8839,-100,4,2,1,60,0,0
8866,-100,4,2,1,60,0,0
8893,-100,4,2,1,45,0,0
8947,-100,4,2,1,65,0,0
9001,-100,4,2,1,55,0,0
9028,-100,4,2,1,55,0,0
9055,-100,4,2,1,45,0,0
9110,-100,4,2,1,80,0,0
9353,-100,4,2,1,40,0,0
9434,-100,4,2,1,60,0,0
9435,-100,4,2,1,60,0,0
9758,-100,4,2,1,80,0,0
9759,-100,4,2,1,80,0,0
9839,-100,4,2,1,40,0,0
9920,-100,4,2,1,80,0,0
10001,-100,4,2,1,40,0,0
10083,-100,4,2,1,80,0,0
10407,-100,4,2,1,60,0,0
10570,-100,4,2,1,60,0,0
10731,-100,4,2,1,80,0,0
10732,-100,4,2,1,80,0,0
10812,-100,4,2,1,60,0,0
10813,-100,4,2,1,60,0,0
10893,-100,4,2,1,80,0,0
10894,-100,4,2,1,80,0,0
11056,-100,4,3,1,100,0,0
11218,-100,4,2,1,60,0,0
11380,-100,4,2,1,80,0,0
11381,-100,4,2,1,80,0,0
11434,-100,4,2,1,60,0,0
11462,-100,4,2,1,60,0,0
11488,-100,4,2,1,45,0,0
11542,-100,4,2,1,65,0,0
11543,-100,4,2,1,65,0,0
11596,-100,4,2,1,55,0,0
11624,-100,4,2,1,55,0,0
11650,-100,4,2,1,45,0,0
11704,-100,4,2,1,80,0,0
11705,-100,4,2,1,80,0,0
11866,-100,4,2,1,60,0,0
12029,-100,4,2,1,60,0,0
12191,-100,4,2,1,80,0,0
12272,-100,4,2,1,60,0,0
12353,-100,4,2,1,80,0,0
12515,-100,4,2,1,100,0,0
12758,-100,4,2,1,40,0,0
12839,-100,4,2,1,100,0,0
12920,-100,4,2,1,40,0,0
13001,-100,4,2,1,60,0,0
13083,-100,4,2,1,55,0,0
13164,-100,4,2,1,60,0,0
13245,-100,4,2,1,65,0,0
13326,-100,4,2,1,70,0,0
13407,-100,4,2,1,75,0,0
13488,-100,4,3,1,80,0,0
13569,-100,4,3,1,40,0,0
13650,-100,4,2,1,100,0,0
13974,-100,4,2,1,40,0,0
14137,-100,4,2,0,80,0,0
14299,-100,4,2,1,40,0,0
14623,-100,4,2,1,60,0,0
14785,-100,4,3,1,80,0,0
14866,-100,4,3,1,60,0,0
14947,-100,4,3,1,80,0,0
15110,-100,4,2,1,60,0,0
15434,-100,4,2,0,100,0,0
15596,-100,4,2,1,40,0,0
15758,-100,4,3,1,40,0,0
15839,-100,4,3,1,42,0,0
15920,-100,4,3,1,45,0,0
16001,-100,4,3,1,50,0,0
16083,-100,4,3,1,57,0,0
16164,-100,4,3,1,67,0,0
16245,-100,4,3,1,80,0,0
16353,-100,4,3,1,70,0,0
16461,-100,4,3,1,85,0,0
16569,-100,4,3,1,75,0,0
16677,-100,4,3,1,90,0,0
16785,-100,4,3,1,80,0,0
16893,-100,4,2,0,80,0,0
17056,-100,4,2,1,40,0,0
17379,-100,4,2,1,60,0,0
17380,-100,4,2,1,60,0,0
17542,-100,4,3,1,80,0,0
17543,-100,4,3,1,80,0,0
17623,-100,4,3,1,60,0,0
17624,-100,4,3,1,60,0,0
17704,-100,4,3,1,80,0,0
17705,-100,4,3,1,80,0,0
17785,-100,4,3,1,60,0,0
17786,-100,4,3,1,60,0,0
17866,-100,4,2,1,60,0,0
17867,-100,4,2,1,60,0,0
18028,-100,4,2,0,100,0,0
18191,-100,4,2,1,40,0,0
18353,-100,4,2,1,100,0,0
18515,-100,4,2,1,60,0,0
18677,-100,4,2,1,100,0,0
18839,-100,4,2,1,60,0,0
19001,-100,4,2,1,100,0,0
19163,-100,4,2,1,40,0,0
19164,-100,4,2,1,40,0,0
19326,-100,4,2,1,53,0,0
19407,-100,4,2,1,66,0,0
19488,-100,4,2,0,80,0,0
19650,-100,4,2,1,60,0,0
19974,-100,4,3,1,80,0,0
20056,-100,4,3,1,40,0,0
20137,-100,4,2,1,80,0,0
20299,-100,4,2,1,60,0,0
20623,-100,4,3,1,80,0,0
20705,-100,4,3,1,40,0,0
20785,-100,4,2,1,60,0,0
21110,-100,4,2,1,80,0,0
21272,-100,4,3,1,60,0,0
21326,-100,4,3,1,40,0,0
21380,-100,4,3,1,60,0,0
21434,-100,4,2,1,80,0,0
21596,-100,4,2,1,60,0,0
21758,-100,4,2,1,80,0,0
21920,-100,4,2,1,60,0,0
22083,-100,4,2,1,80,0,0
22245,-100,4,2,1,40,0,0
22407,-100,4,2,1,80,0,0
22569,-100,4,2,1,40,0,0
22731,-100,4,2,1,80,0,0
22893,-100,4,2,1,40,0,0
22974,-100,4,2,1,60,0,0
23056,-100,4,2,1,80,0,0
23461,-100,4,2,1,40,0,0
23542,-100,4,2,1,80,0,0
23623,-100,4,2,1,40,0,0
23704,-100,4,2,1,60,0,0
23866,-100,4,2,1,40,0,0
24028,-100,4,2,1,60,0,0
24353,-100,4,2,1,50,0,0
24515,-100,4,2,1,60,0,0
24677,-100,4,2,1,45,0,0
24758,-100,4,2,1,50,0,0
24839,-100,4,2,1,55,0,0
24920,-100,4,2,1,60,0,0
25001,-100,4,2,1,65,0,0
25083,-100,4,2,1,60,0,0
25164,-100,4,2,1,70,0,0
25245,-100,4,2,1,65,0,0
25326,-100,4,2,1,75,0,0
25407,-100,4,2,1,70,0,0
25488,-100,4,2,1,75,0,0
25569,-100,4,2,1,70,0,0
25650,-100,4,2,20,90,0,0
25974,-100,4,2,0,80,0,1
26137,-100,4,1,1,40,0,0
26299,-100,4,1,1,80,0,0
26461,-100,4,1,1,60,0,0
26623,-100,4,1,1,70,0,0
26785,-100,4,1,1,50,0,0
26947,-100,4,1,1,80,0,0
27109,-100,4,1,1,70,0,0
27272,-100,4,1,20,60,0,0
27434,-100,4,1,20,70,0,0
27596,-100,4,1,20,60,0,0
27758,-100,4,1,20,70,0,0
27920,-100,4,1,20,60,0,0
28083,-100,4,1,20,70,0,0
28245,-100,4,1,20,60,0,0
28407,-100,4,1,20,70,0,0
28569,-100,4,1,1,70,0,0
28731,-100,4,1,1,40,0,0
28893,-100,4,1,1,80,0,0
29055,-100,4,1,1,60,0,0
29218,-100,4,1,1,70,0,0
29380,-100,4,1,1,50,0,0
29542,-100,4,1,1,80,0,0
29704,-100,4,1,1,70,0,0
29867,-100,4,1,20,60,0,0
30029,-100,4,1,20,70,0,0
30191,-100,4,1,20,60,0,0
30353,-100,4,1,20,70,0,0
30515,-100,4,1,20,60,0,0
30678,-100,4,1,20,70,0,0
30840,-100,4,1,20,60,0,0
31083,-100,4,1,20,40,0,0
31164,-100,4,2,0,70,0,0
31326,-100,4,1,1,40,0,0
31488,-100,4,1,1,80,0,0
31650,-100,4,1,1,60,0,0
31812,-100,4,1,1,70,0,0
31974,-100,4,1,1,50,0,0
32137,-100,4,1,1,80,0,0
32299,-100,4,1,1,70,0,0
32462,-100,4,1,20,60,0,0
32623,-100,4,1,20,60,0,0
32624,-100,4,1,20,70,0,0
32786,-100,4,1,20,60,0,0
32948,-100,4,1,20,70,0,0
33110,-100,4,1,20,60,0,0
33273,-100,4,1,20,70,0,0
33435,-100,4,1,20,60,0,0
33597,-100,4,1,20,70,0,0
33758,-100,4,1,1,70,0,0
33920,-100,4,1,1,40,0,0
34083,-100,4,1,1,80,0,0
34245,-100,4,1,1,60,0,0
34407,-100,4,1,1,70,0,0
34569,-100,4,1,1,50,0,0
34731,-100,4,1,1,80,0,0
34893,-100,4,1,0,90,0,0
35056,-100,4,1,1,70,0,0
35218,-100,4,1,2,90,0,0
35299,-100,4,1,19,53,0,0
35380,-100,4,1,19,48,0,0
35461,-100,4,1,19,45,0,0
35542,-100,4,1,19,48,0,0
35623,-100,4,1,19,53,0,0
35704,-100,4,1,2,90,0,0
35785,-100,4,1,19,65,0,0
35866,-100,4,1,19,55,0,0
35947,-100,4,1,19,60,0,0
36028,-100,4,1,1,80,0,1
36110,-100,4,1,1,70,0,1
36191,-100,4,1,1,60,0,1
36273,-100,4,1,1,50,0,1
36353,-100,4,2,0,80,0,0
36515,-100,4,1,1,40,0,0
36677,-100,4,1,1,80,0,0
36839,-100,4,1,1,60,0,0
37001,-100,4,1,1,70,0,0
37163,-100,4,1,1,50,0,0
37325,-100,4,1,1,80,0,0
37488,-100,4,1,1,70,0,0
37651,-100,4,1,20,60,0,0
37813,-100,4,1,20,70,0,0
37975,-100,4,1,20,60,0,0
38137,-100,4,1,20,70,0,0
38299,-100,4,1,20,60,0,0
38462,-100,4,1,20,70,0,0
38624,-100,4,1,20,60,0,0
38786,-100,4,1,20,70,0,0
38947,-100,4,1,1,70,0,0
39110,-100,4,1,1,40,0,0
39272,-100,4,1,1,80,0,0
39434,-100,4,1,1,60,0,0
39596,-100,4,1,1,70,0,0
39758,-100,4,1,1,60,0,0
39920,-100,4,1,1,80,0,0
40001,-100,4,1,1,60,0,0
40083,-100,4,2,0,80,0,0
40245,-100,4,1,1,40,0,0
40407,-100,4,2,0,80,0,0
40569,-100,4,1,1,40,0,0
40731,-100,4,2,0,60,0,0
40893,-100,4,1,1,40,0,0
41056,-100,4,2,0,70,0,0
41218,-100,4,1,1,40,0,0
41380,-100,4,2,0,80,0,0
41420,-100,4,1,1,67,0,0
41461,-100,4,1,1,57,0,0
41501,-100,4,1,1,50,0,0
41542,-100,4,1,1,45,0,0
41583,-100,4,1,1,42,0,0
41623,-100,4,1,1,40,0,0
41704,-100,4,1,1,50,0,0
41785,-100,4,1,1,60,0,0
41866,-100,4,2,0,80,0,0
42028,-100,4,1,1,60,0,0
42191,-100,4,1,1,70,0,0
42353,-100,4,1,1,60,0,0
42434,-100,4,1,1,40,0,0
42515,-100,4,1,1,80,0,0
42677,-100,4,1,0,70,0,0
42839,-100,4,1,1,40,0,0
43001,-100,4,1,1,70,0,0
43164,-100,4,1,1,80,0,0
43326,-100,4,1,1,60,0,0
43488,-100,4,1,1,70,0,0
43650,-100,4,1,1,60,0,0
43731,-100,4,1,1,40,0,0
43812,-100,4,1,1,80,0,0
43974,-100,4,1,0,75,0,0
44137,-100,4,1,1,40,0,0
44299,-100,4,1,1,70,0,0
44461,-100,4,1,1,80,0,0
44623,-100,4,1,1,60,0,0
44704,-100,4,1,1,40,0,0
44785,-100,4,1,1,70,0,0
44866,-100,4,1,1,70,0,0
44947,-100,4,1,1,80,0,0
45028,-100,4,1,1,40,0,0
45110,-100,4,1,1,80,0,0
45191,-100,4,1,1,40,0,0
45272,-100,4,1,0,80,0,0
45434,-100,4,1,1,40,0,0
45596,-100,4,1,0,90,0,0
45758,-100,4,1,1,40,0,0
46083,-100,4,1,1,60,0,0
46164,-100,4,1,19,53,0,0
46245,-100,4,1,1,48,0,0
46326,-100,4,1,19,45,0,0
46407,-100,4,1,1,48,0,0
46488,-100,4,1,19,53,0,0
46569,-100,4,1,19,60,0,0
46610,-100,4,1,19,63,0,0
46650,-100,4,1,19,60,0,0
46731,-100,4,2,0,60,0,0
46893,-100,4,1,1,40,0,0
47056,-100,4,2,0,60,0,0
47218,-100,4,1,1,40,0,0
47704,-100,4,2,0,60,0,0
47866,-100,4,1,1,40,0,0
48353,-100,4,2,0,60,0,0
48515,-100,4,1,1,40,0,0
49001,-100,4,2,0,60,0,0
49163,-100,4,1,1,40,0,0
49650,-100,4,2,0,60,0,0
49812,-100,4,1,1,40,0,0
50299,-100,4,2,0,60,0,0
50461,-100,4,1,1,40,0,0
50947,-100,4,2,0,60,0,0
51109,-100,4,1,1,40,0,0
51596,-100,4,2,0,60,0,0
51758,-100,4,1,1,40,0,0
51839,-100,4,1,1,20,0,0
51920,-100,4,2,0,60,0,0
52083,-100,4,1,1,40,0,0
52245,-100,4,1,1,80,0,0
52407,-100,4,1,1,40,0,0
52569,-100,4,1,1,80,0,0
52731,-100,4,1,1,40,0,0
52893,-100,4,1,1,80,0,0
53055,-100,4,1,1,40,0,0
53218,-100,4,1,1,60,0,0
53380,-100,4,1,1,40,0,0
53542,-100,4,1,1,80,0,0
53704,-100,4,1,1,40,0,0
53866,-100,4,1,2,80,0,0
53947,-100,4,1,1,43,0,0
54028,-100,4,1,1,38,0,0
54110,-100,4,1,1,35,0,0
54191,-100,4,1,1,38,0,0
54272,-100,4,1,1,43,0,0
54353,-100,4,1,1,58,0,0
54434,-100,4,1,1,63,0,0
54515,-100,4,2,0,80,0,0
54677,-100,4,1,1,40,0,0
55001,-100,4,1,1,60,0,0
55164,-100,4,1,1,80,0,0
55326,-100,4,1,1,40,0,0
55650,-100,4,1,1,50,0,0
55812,-100,4,1,1,60,0,0
55974,-100,4,1,1,40,0,0
56137,-100,4,1,1,60,0,0
56299,-100,4,1,1,40,0,0
56461,-100,4,1,1,80,0,0
56623,-100,4,1,1,40,0,0
56785,-100,4,1,1,80,0,0
56947,-100,4,1,1,40,0,0
57110,-100,4,2,0,70,0,0
57272,-100,4,1,1,40,0,0
57596,-100,4,1,1,70,0,0
57758,-100,4,1,1,90,0,0
57920,-100,4,1,1,40,0,0
58245,-100,4,1,1,60,0,0
58407,-100,4,1,1,40,0,0
58569,-100,4,1,1,60,0,0
58731,-100,4,1,1,40,0,0
58893,-100,4,1,1,70,0,0
59056,-100,4,1,1,90,0,0
59218,-100,4,1,1,40,0,0
59542,-100,4,1,1,60,0,0
59704,-100,4,1,1,80,0,0
59866,-100,4,1,1,40,0,0
60191,-100,4,1,1,70,0,0
60353,-100,4,1,1,90,0,0
60515,-100,4,1,1,40,0,0
60839,-100,4,1,1,60,0,0
61001,-100,4,1,1,40,0,0
61163,-100,4,1,1,60,0,0
61325,-100,4,1,1,40,0,0
61487,-100,4,1,1,70,0,0
61650,-100,4,1,1,90,0,0
61812,-100,4,1,1,40,0,0
61974,-100,4,1,1,60,0,0
62137,-100,4,1,1,40,0,0
62299,-100,4,1,1,80,0,0
62461,-100,4,1,1,40,0,0
62785,-100,4,1,1,70,0,0
62947,-100,4,1,1,90,0,0
63109,-100,4,1,1,40,0,0
63434,-100,4,1,1,60,0,0
63596,-100,4,1,1,40,0,0
63758,-100,4,1,1,60,0,0
63920,-100,4,1,1,40,0,0
64082,-100,4,1,1,70,0,0
64245,-100,4,1,1,90,0,0
64407,-100,4,1,1,40,0,0
64569,-100,4,1,1,60,0,0
64731,-100,4,1,1,40,0,0
64893,-100,4,1,1,60,0,0
65055,-100,4,1,1,50,0,0
65218,-100,4,1,1,70,0,0
65380,-100,4,1,1,50,0,0
65542,-100,4,1,1,60,0,0
65704,-100,4,1,1,50,0,0
65866,-100,4,1,1,70,0,0
66028,-100,4,1,1,50,0,0
66191,-100,4,1,1,60,0,0
66272,-100,4,1,1,50,0,0
66515,-100,4,1,1,70,0,0
66677,-100,4,1,1,50,0,0
66839,-100,4,1,1,60,0,0
67001,-100,4,1,1,50,0,0
67164,-100,4,1,1,70,0,0
67245,-100,4,1,1,50,0,0
67326,-100,4,1,1,70,0,0
67407,-100,4,1,1,50,0,0
67488,-100,4,2,0,60,0,0
67650,-100,4,1,1,50,0,0
67812,-100,4,1,1,60,0,0
67974,-100,4,1,1,50,0,0
68137,-100,4,1,1,30,0,0
68299,-100,4,1,1,50,0,0
68461,-100,4,1,1,60,0,0
68623,-100,4,1,1,50,0,0
68785,-100,4,1,1,30,0,0
68947,-100,4,1,1,50,0,0
69110,-100,4,1,1,60,0,0
69272,-100,4,1,1,50,0,0
69758,-100,4,1,1,60,0,0
69812,-100,4,1,1,43,0,0
69866,-100,4,1,1,38,0,0
69920,-100,4,1,1,35,0,0
70083,-100,4,1,2,80,0,0
70245,-100,4,1,1,50,0,0
70407,-100,4,1,1,60,0,0
70569,-100,4,1,1,50,0,0
70731,-100,4,1,1,40,0,0
70893,-100,4,1,1,50,0,0
71056,-100,4,1,1,30,0,0
71218,-100,4,1,1,50,0,0
71542,-100,4,1,1,30,0,0
71704,-100,4,1,1,40,0,0
71866,-100,4,1,1,50,0,0
72028,-100,4,2,0,30,0,0
72137,-100,4,1,19,32,0,0
72245,-100,4,1,19,35,0,0
72353,-100,4,1,19,40,0,0
72461,-100,4,1,19,47,0,0
72569,-100,4,1,19,55,0,0
72677,-100,4,2,0,70,0,0
72839,-100,4,1,1,40,0,0
73001,-100,4,1,2,60,0,0
73164,-100,4,1,1,40,0,0
73326,-100,4,1,2,60,0,0
73489,-100,4,1,1,40,0,0
73650,-100,4,1,2,60,0,0
73813,-100,4,1,1,40,0,0
73974,-100,4,1,1,60,0,0
74137,-100,4,1,1,40,0,0
74299,-100,4,1,2,60,0,0
74462,-100,4,1,1,40,0,0
74623,-100,4,1,2,60,0,0
74786,-100,4,1,1,40,0,0
74947,-100,4,1,1,60,0,0
75028,-100,4,1,1,40,0,0
75109,-100,4,1,1,60,0,0
75190,-100,4,1,1,40,0,0
75272,-100,4,2,0,60,0,0
75434,-100,4,1,2,40,0,0
75596,-100,4,1,2,60,0,0
75920,-100,4,1,2,40,0,0
76082,-100,4,1,2,60,0,0
76407,-100,4,1,2,80,0,0
76731,-100,4,1,2,40,0,0
76893,-100,4,1,2,60,0,0
77218,-100,4,1,2,40,0,0
77380,-100,4,1,2,60,0,0
77542,-100,4,1,19,40,0,0
77623,-100,4,1,19,37,0,0
77704,-100,4,1,19,40,0,0
77785,-100,4,1,19,45,0,0
77866,-100,4,2,0,70,0,0
78028,-100,4,1,2,50,0,0
78191,-100,4,1,2,70,0,0
78515,-100,4,1,2,50,0,0
78678,-100,4,1,2,70,0,0
78839,-100,4,1,2,50,0,0
79001,-100,4,2,0,80,0,0
79083,-100,4,1,19,50,0,0
79164,-100,4,1,19,37,0,0
79245,-100,4,1,19,27,0,0
79326,-100,4,1,19,20,0,0
79407,-100,4,1,19,15,0,0
79488,-100,4,1,19,12,0,0
79569,-100,4,1,19,15,0,0
79650,-100,4,1,19,20,0,0
79731,-100,4,1,19,27,0,0
79812,-100,4,1,2,60,0,0
79893,-100,4,1,19,50,0,0
79974,-100,4,1,19,43,0,0
80056,-100,4,1,19,38,0,0
80137,-100,4,1,1,35,0,0
80299,-100,4,1,19,25,0,0
80461,-100,4,2,0,80,0,1
80623,-100,4,1,1,20,0,1
80785,-100,4,1,1,80,0,1
80947,-100,4,1,1,60,0,1
81110,-100,4,1,1,70,0,1
81272,-100,4,1,1,60,0,1
81434,-100,4,1,1,80,0,1
81596,-100,4,1,1,60,0,1
81758,-100,4,1,1,70,0,1
81920,-100,4,1,1,60,0,1
82083,-100,4,1,1,80,0,1
82245,-100,4,1,1,60,0,1
82407,-100,4,1,1,70,0,1
82569,-100,4,1,1,60,0,1
82731,-100,4,1,1,80,0,1
82812,-100,4,1,1,60,0,1
82893,-100,4,1,1,80,0,1
82974,-100,4,1,1,60,0,1
83056,-100,4,1,1,80,0,1
83218,-100,4,1,1,20,0,1
83380,-100,4,1,1,80,0,1
83542,-100,4,1,1,60,0,1
83704,-100,4,1,1,70,0,1
83866,-100,4,1,1,60,0,1
84028,-100,4,1,1,80,0,1
84190,-100,4,1,1,60,0,1
84353,-100,4,1,1,70,0,1
84515,-100,4,1,1,60,0,1
84677,-100,4,1,1,80,0,1
84839,-100,4,1,1,60,0,1
85001,-100,4,1,1,70,0,1
85163,-100,4,1,1,60,0,1
85326,-100,4,1,1,80,0,1
85569,-100,4,1,1,60,0,1
85650,-100,4,2,0,80,0,1
85812,-100,4,1,1,20,0,1
85974,-100,4,1,1,80,0,1
86137,-100,4,1,1,60,0,1
86299,-100,4,1,1,70,0,1
86461,-100,4,1,1,60,0,1
86623,-100,4,1,1,80,0,1
86786,-100,4,1,1,60,0,1
86947,-100,4,1,1,70,0,1
87109,-100,4,1,1,60,0,1
87272,-100,4,1,1,80,0,1
87435,-100,4,1,1,60,0,1
87596,-100,4,1,1,70,0,1
87758,-100,4,1,1,60,0,1
87920,-100,4,1,1,80,0,1
88083,-100,4,1,1,60,0,1
88245,-100,4,1,1,70,0,1
88407,-100,4,1,1,60,0,1
88569,-100,4,1,1,80,0,1
88732,-100,4,1,1,60,0,1
88893,-100,4,1,1,70,0,1
89055,-100,4,1,1,60,0,1
89218,-100,4,1,1,80,0,1
89381,-100,4,1,1,60,0,1
89542,-100,4,1,2,90,0,0
89623,-100,4,1,19,48,0,0
89704,-100,4,1,19,53,0,0
89785,-100,4,1,19,48,0,0
89866,-100,4,1,2,90,0,0
89947,-100,4,1,19,48,0,0
90028,-100,4,1,19,53,0,0
90110,-100,4,1,19,60,0,0
90191,-100,4,1,2,90,0,0
90272,-100,4,1,19,60,0,0
90353,-100,4,1,19,55,0,0
90434,-100,4,1,19,52,0,0
90515,-100,4,1,1,80,0,0
90597,-100,4,1,1,70,0,0
90678,-100,4,1,1,60,0,0
90760,-100,4,1,1,50,0,0
90839,-100,4,2,0,80,0,1
91001,-100,4,2,0,20,0,1
91164,-100,4,1,1,80,0,1
91326,-100,4,1,1,60,0,1
91488,-100,4,1,1,70,0,1
91650,-100,4,1,1,60,0,1
91812,-100,4,1,1,80,0,1
91974,-100,4,1,1,60,0,1
92137,-100,4,1,1,70,0,1
92299,-100,4,1,1,60,0,1
92461,-100,4,1,1,80,0,1
92623,-100,4,1,1,60,0,1
92785,-100,4,1,1,70,0,1
92947,-100,4,1,1,60,0,1
93109,-100,4,1,1,80,0,1
93190,-100,4,1,1,60,0,1
93271,-100,4,1,1,80,0,1
93352,-100,4,1,1,60,0,1
93434,-100,4,1,1,80,0,1
93596,-100,4,1,1,20,0,1
93758,-100,4,1,1,80,0,1
93920,-100,4,1,1,60,0,1
94083,-100,4,1,1,70,0,1
94164,-100,4,1,1,60,0,1
94245,-100,4,1,1,70,0,1
94326,-100,4,1,1,60,0,1
94407,-100,4,1,1,80,0,1
94488,-100,4,1,1,60,0,1
94569,-100,4,2,0,70,0,1
94731,-100,4,1,1,20,0,1
94893,-100,4,2,0,80,0,1
95056,-100,4,1,1,40,0,1
95218,-100,4,2,0,70,0,1
95381,-100,4,1,1,40,0,1
95542,-100,4,2,0,80,0,1
95704,-100,4,1,1,20,0,1
95866,-100,4,1,1,33,0,1
95947,-100,4,1,1,46,0,1
96028,-100,4,1,1,80,0,0
96191,-100,4,2,1,40,0,0
96353,-100,4,2,1,60,0,0
96515,-100,4,3,1,80,0,0
96597,-100,4,3,1,40,0,0
96678,-100,4,2,1,80,0,0
96840,-100,4,2,1,60,0,0
97164,-100,4,3,1,80,0,0
97326,-100,4,2,1,60,0,0
97651,-100,4,2,1,80,0,0
97813,-100,4,3,1,60,0,0
97867,-100,4,3,1,40,0,0
97921,-100,4,3,1,60,0,0
97974,-100,4,3,1,60,0,0
97975,-100,4,2,1,80,0,0
98136,-100,4,2,1,80,0,0
98137,-100,4,2,1,60,0,0
98298,-100,4,2,1,60,0,0
98299,-100,4,2,1,80,0,0
98460,-100,4,2,1,80,0,0
98461,-100,4,2,1,60,0,0
98622,-100,4,2,1,60,0,0
98623,-100,4,2,1,80,0,0
98784,-100,4,2,1,80,0,0
98785,-100,4,2,1,40,0,0
98946,-100,4,2,1,40,0,0
98947,-100,4,2,1,80,0,0
99108,-100,4,2,1,80,0,0
99109,-100,4,2,1,40,0,0
99270,-100,4,2,1,40,0,0
99271,-100,4,2,1,80,0,0
99432,-100,4,2,1,80,0,0
99433,-100,4,2,1,40,0,0
99513,-100,4,2,1,40,0,0
99514,-100,4,2,1,60,0,0
99595,-100,4,2,1,60,0,0
99596,-100,4,2,1,80,0,0
100001,-100,4,2,1,40,0,0
100082,-100,4,2,1,80,0,0
100163,-100,4,2,1,40,0,0
100244,-100,4,2,1,60,0,0
100406,-100,4,2,1,40,0,0
100568,-100,4,2,1,60,0,0
100893,-100,4,2,1,50,0,0
101055,-100,4,2,1,60,0,0
101218,-100,4,2,1,45,0,0
101299,-100,4,2,1,50,0,0
101380,-100,4,2,1,55,0,0
101461,-100,4,2,1,60,0,0
101542,-100,4,2,1,65,0,0
101624,-100,4,2,1,60,0,0
101705,-100,4,2,1,70,0,0
101786,-100,4,2,1,65,0,0
101867,-100,4,2,1,75,0,0
101947,-100,4,2,1,75,0,0
101948,-100,4,2,1,70,0,0
102028,-100,4,2,1,70,0,0
102029,-100,4,2,1,75,0,0
102110,-100,4,2,1,70,0,0
102191,-100,4,2,20,90,0,0
102515,-100,4,2,0,80,0,1
102677,-100,4,1,1,40,0,0
102839,-100,4,1,1,80,0,0
103002,-100,4,1,1,60,0,0
103164,-100,4,1,1,70,0,0
103326,-100,4,1,1,50,0,0
103488,-100,4,1,1,80,0,0
103650,-100,4,1,1,70,0,0
103813,-100,4,1,20,60,0,0
103975,-100,4,1,20,70,0,0
104137,-100,4,1,20,60,0,0
104299,-100,4,1,20,70,0,0
104461,-100,4,1,20,60,0,0
104624,-100,4,1,20,70,0,0
104786,-100,4,1,20,60,0,0
104948,-100,4,1,20,70,0,0
105110,-100,4,1,1,70,0,0
105272,-100,4,1,1,40,0,0
105434,-100,4,1,1,80,0,0
105596,-100,4,1,1,60,0,0
105759,-100,4,1,1,70,0,0
105921,-100,4,1,1,50,0,0
106083,-100,4,1,1,80,0,0
106245,-100,4,1,1,70,0,0
106407,-100,4,1,20,60,0,0
106569,-100,4,1,20,70,0,0
106731,-100,4,1,20,60,0,0
106893,-100,4,1,20,70,0,0
107055,-100,4,1,20,60,0,0
107218,-100,4,1,20,70,0,0
107380,-100,4,1,20,60,0,0
107623,-100,4,1,20,40,0,0
107704,-100,4,2,0,70,0,0
107866,-100,4,1,1,40,0,0
108028,-100,4,1,1,80,0,0
108190,-100,4,1,1,60,0,0
108352,-100,4,1,1,70,0,0
108514,-100,4,1,1,50,0,0
108677,-100,4,1,1,80,0,0
108839,-100,4,1,1,70,0,0
109001,-100,4,1,20,60,0,0
109163,-100,4,1,20,70,0,0
109325,-100,4,1,20,60,0,0
109487,-100,4,1,20,70,0,0
109649,-100,4,1,20,60,0,0
109812,-100,4,1,20,70,0,0
109974,-100,4,1,20,60,0,0
110136,-100,4,1,20,70,0,0
110299,-100,4,1,1,70,0,0
110461,-100,4,1,1,40,0,0
110623,-100,4,1,1,80,0,0
110785,-100,4,1,1,60,0,0
110947,-100,4,1,1,70,0,0
111110,-100,4,1,1,50,0,0
111272,-100,4,1,1,80,0,0
111434,-100,4,1,0,90,0,0
111596,-100,4,1,1,70,0,0
111758,-100,4,1,2,90,0,0
111839,-100,4,1,19,53,0,0
111920,-100,4,1,19,48,0,0
112001,-100,4,1,19,45,0,0
112082,-100,4,1,19,48,0,0
112163,-100,4,1,19,53,0,0
112244,-100,4,1,2,90,0,0
112325,-100,4,1,19,65,0,0
112406,-100,4,1,19,55,0,0
112487,-100,4,1,19,60,0,0
112569,-100,4,1,1,80,0,1
112651,-100,4,1,1,70,0,1
112732,-100,4,1,1,60,0,1
112814,-100,4,1,1,50,0,1
112893,-100,4,2,0,80,0,0
113056,-100,4,1,1,40,0,0
113218,-100,4,1,1,80,0,0
113380,-100,4,1,1,60,0,0
113542,-100,4,1,1,70,0,0
113704,-100,4,1,1,50,0,0
113866,-100,4,1,1,80,0,0
114029,-100,4,1,1,70,0,0
114192,-100,4,1,20,60,0,0
114354,-100,4,1,20,70,0,0
114516,-100,4,1,20,60,0,0
114678,-100,4,1,20,70,0,0
114840,-100,4,1,20,60,0,0
115003,-100,4,1,20,70,0,0
115165,-100,4,1,20,60,0,0
115327,-100,4,1,20,70,0,0
115488,-100,4,1,1,70,0,0
115651,-100,4,1,1,40,0,0
115813,-100,4,1,1,80,0,0
115975,-100,4,1,1,60,0,0
116137,-100,4,1,1,70,0,0
116299,-100,4,1,1,60,0,0
116461,-100,4,1,1,80,0,0
116542,-100,4,1,1,60,0,0
116623,-100,4,2,0,80,0,0
116785,-100,4,1,1,40,0,0
116947,-100,4,2,0,80,0,0
117109,-100,4,1,1,40,0,0
117271,-100,4,2,0,60,0,0
117433,-100,4,1,1,40,0,0
117596,-100,4,2,0,70,0,0
117758,-100,4,1,1,40,0,0
117920,-100,4,2,0,80,0,0
117960,-100,4,1,1,67,0,0
118001,-100,4,1,1,57,0,0
118041,-100,4,1,1,50,0,0
118082,-100,4,1,1,45,0,0
118123,-100,4,1,1,42,0,0
118163,-100,4,1,1,40,0,0
118244,-100,4,1,1,50,0,0
118325,-100,4,1,1,60,0,0
118406,-100,4,2,0,80,0,0
118568,-100,4,1,1,60,0,0
118731,-100,4,1,1,70,0,0
118893,-100,4,1,1,60,0,0
118974,-100,4,1,1,40,0,0
119055,-100,4,1,1,80,0,0
119217,-100,4,1,0,70,0,0
119379,-100,4,1,1,40,0,0
119541,-100,4,1,1,70,0,0
119704,-100,4,1,1,80,0,0
119866,-100,4,1,1,60,0,0
120028,-100,4,1,1,70,0,0
120190,-100,4,1,1,60,0,0
120271,-100,4,1,1,40,0,0
120352,-100,4,1,1,80,0,0
120515,-100,4,1,0,75,0,0
120678,-100,4,1,1,40,0,0
120840,-100,4,1,1,70,0,0
121002,-100,4,1,1,80,0,0
121164,-100,4,1,1,60,0,0
121245,-100,4,1,1,40,0,0
121326,-100,4,1,1,70,0,0
121488,-100,4,1,1,80,0,0
121569,-100,4,1,1,40,0,0
121650,-100,4,1,1,80,0,0
121731,-100,4,1,1,40,0,0
121812,-100,4,1,0,80,0,0
121975,-100,4,1,1,40,0,0
122137,-100,4,1,0,90,0,0
122299,-100,4,1,1,40,0,0
122623,-100,4,1,1,60,0,0
122704,-100,4,1,19,53,0,0
122785,-100,4,1,1,48,0,0
122866,-100,4,1,19,45,0,0
122947,-100,4,1,1,48,0,0
123028,-100,4,1,19,53,0,0
123110,-100,4,1,19,60,0,0
123150,-100,4,1,19,63,0,0
123191,-100,4,1,19,60,0,0
123272,-100,4,2,0,60,0,0
123758,-100,4,1,1,40,0,0
123920,-100,4,2,0,60,0,0
124083,-100,4,1,1,40,0,0
124569,-100,4,2,0,60,0,0
124732,-100,4,1,1,40,0,0
124893,-100,4,2,0,60,0,0
125056,-100,4,1,1,20,0,0
125380,-100,4,1,1,40,0,0
125542,-100,4,1,1,60,0,0
125562,-100,4,1,1,30,0,0
125623,-100,4,1,1,15,0,0
125704,-100,4,1,1,8,0,0
125785,-100,4,1,1,5,0,0
125866,-100,4,2,0,60,0,0
126515,-100,4,1,1,40,0,0
126677,-100,4,1,1,20,0,0
127001,-100,4,1,1,40,0,0
127164,-100,4,2,0,60,0,0
127326,-100,4,1,1,40,0,0
127488,-100,4,2,0,60,0,0
127650,-100,4,1,1,40,0,0
127731,-100,4,1,1,20,0,0
127812,-100,4,1,1,60,0,0
127893,-100,4,1,1,40,0,0
127974,-100,4,1,1,20,0,0
128056,-100,4,1,1,60,0,0
128137,-100,4,1,1,40,0,0
128218,-100,4,1,1,20,0,0
128299,-100,4,1,1,60,0,0
128380,-100,4,1,1,20,0,0
128461,-100,4,2,0,60,0,0
129272,-100,4,1,1,40,0,0
129326,-100,4,1,1,30,0,0
129353,-100,4,1,1,30,0,0
129380,-100,4,1,1,23,0,0
129434,-100,4,1,1,30,0,0
129596,-100,4,1,1,40,0,0
129839,-100,4,1,1,20,0,0
129920,-100,4,1,1,10,0,0
130001,-100,4,1,1,40,0,0
130083,-100,4,1,1,20,0,0
130164,-100,4,1,1,10,0,0
130245,-100,4,1,1,40,0,0
130327,-100,4,1,1,20,0,0
130407,-100,4,1,1,60,0,0
130488,-100,4,1,1,40,0,0
130569,-100,4,1,1,20,0,0
130650,-100,4,1,1,60,0,0
130731,-100,4,1,1,40,0,0
130812,-100,4,1,1,20,0,0
130894,-100,4,1,1,60,0,0
130975,-100,4,1,1,20,0,0
131056,-100,4,2,0,80,0,0
131218,-100,4,1,1,40,0,0
131542,-100,4,1,1,60,0,0
131705,-100,4,1,1,80,0,0
131867,-100,4,1,1,40,0,0
132191,-100,4,1,1,50,0,0
132353,-100,4,1,1,60,0,0
132515,-100,4,1,1,40,0,0
132678,-100,4,1,1,60,0,0
132840,-100,4,1,1,40,0,0
133002,-100,4,1,1,80,0,0
133164,-100,4,1,1,40,0,0
133326,-100,4,1,1,80,0,0
133488,-100,4,1,1,40,0,0
133650,-100,4,2,0,70,0,0
133812,-100,4,1,1,40,0,0
133974,-100,4,1,1,50,0,0
134137,-100,4,1,1,40,0,0
134299,-100,4,2,17,50,0,0
134461,-100,4,1,1,40,0,0
134623,-100,4,1,1,50,0,0
134786,-100,4,1,1,40,0,0
134947,-100,4,2,17,50,0,0
135109,-100,4,1,1,40,0,0
135271,-100,4,1,1,50,0,0
135434,-100,4,1,1,40,0,0
135596,-100,4,2,17,60,0,0
135759,-100,4,1,1,40,0,0
135920,-100,4,2,17,60,0,0
136083,-100,4,1,1,40,0,0
136245,-100,4,2,17,50,0,0
136407,-100,4,1,1,40,0,0
136569,-100,4,1,1,50,0,0
136732,-100,4,1,1,40,0,0
136893,-100,4,2,17,50,0,0
137055,-100,4,1,1,40,0,0
137218,-100,4,1,1,50,0,0
137381,-100,4,1,1,40,0,0
137542,-100,4,2,17,50,0,0
137704,-100,4,1,1,40,0,0
137867,-100,4,1,1,50,0,0
138030,-100,4,1,1,40,0,0
138191,-100,4,2,17,60,0,0
138353,-100,4,1,1,20,0,0
138515,-100,4,1,1,60,0,0
138677,-100,4,1,1,40,0,0
138758,-100,4,1,1,20,0,0
138839,-100,4,2,17,50,0,0
139001,-100,4,1,1,40,0,0
139163,-100,4,1,1,50,0,0
139326,-100,4,1,1,40,0,0
139488,-100,4,2,17,50,0,0
139650,-100,4,1,1,40,0,0
139813,-100,4,1,1,50,0,0
139976,-100,4,1,1,40,0,0
140137,-100,4,2,17,50,0,0
140299,-100,4,1,1,40,0,0
140461,-100,4,1,1,50,0,0
140624,-100,4,1,1,40,0,0
140785,-100,4,1,1,60,0,0
140947,-100,4,1,1,40,0,0
141110,-100,4,1,1,60,0,0
141191,-100,4,1,1,40,0,0
141272,-100,4,1,1,20,0,0
141434,-100,4,1,1,60,0,0
141596,-100,4,1,1,50,0,0
141759,-100,4,1,1,70,0,0
141921,-100,4,1,1,50,0,0
142083,-100,4,1,1,60,0,0
142245,-100,4,1,1,50,0,0
142407,-100,4,1,1,70,0,0
142569,-100,4,1,1,50,0,0
142731,-100,4,1,1,60,0,0
142812,-100,4,1,1,50,0,0
143055,-100,4,1,1,70,0,0
143217,-100,4,1,1,50,0,0
143380,-100,4,1,1,60,0,0
143542,-100,4,1,1,50,0,0
143705,-100,4,1,1,70,0,0
143786,-100,4,1,1,50,0,0
143867,-100,4,1,1,70,0,0
143948,-100,4,1,1,50,0,0
144029,-100,4,2,0,60,0,0
144191,-100,4,1,1,50,0,0
144353,-100,4,1,1,60,0,0
144515,-100,4,1,1,50,0,0
144678,-100,4,1,1,30,0,0
144840,-100,4,1,1,50,0,0
145002,-100,4,1,1,60,0,0
145164,-100,4,1,1,50,0,0
145326,-100,4,1,1,30,0,0
145488,-100,4,1,1,50,0,0
145651,-100,4,1,1,60,0,0
145813,-100,4,1,1,50,0,0
146299,-100,4,1,1,60,0,0
146353,-100,4,1,1,43,0,0
146407,-100,4,1,1,38,0,0
146461,-100,4,1,1,35,0,0
146623,-100,4,1,2,80,0,0
146785,-100,4,1,1,50,0,0
146947,-100,4,1,1,60,0,0
147109,-100,4,1,1,50,0,0
147271,-100,4,1,1,30,0,0
147433,-100,4,1,1,50,0,0
147596,-100,4,1,1,40,0,0
147758,-100,4,1,1,50,0,0
148082,-100,4,1,1,30,0,0
148244,-100,4,1,1,40,0,0
148406,-100,4,1,1,50,0,0
148569,-100,4,2,0,30,0,0
148678,-100,4,1,19,32,0,0
148786,-100,4,1,19,35,0,0
148894,-100,4,1,19,40,0,0
149002,-100,4,1,19,47,0,0
149110,-100,4,1,19,55,0,0
149218,-100,4,2,0,70,0,0
149380,-100,4,1,1,40,0,0
149542,-100,4,1,2,60,0,0
149705,-100,4,1,1,40,0,0
149867,-100,4,1,2,60,0,0
150030,-100,4,1,1,40,0,0
150191,-100,4,1,2,60,0,0
150354,-100,4,1,1,40,0,0
150515,-100,4,1,1,60,0,0
150678,-100,4,1,1,40,0,0
150840,-100,4,1,2,60,0,0
151003,-100,4,1,1,40,0,0
151164,-100,4,1,2,60,0,0
151327,-100,4,1,1,40,0,0
151488,-100,4,1,1,60,0,0
151569,-100,4,1,1,40,0,0
151650,-100,4,1,1,60,0,0
151731,-100,4,1,1,40,0,0
151813,-100,4,2,0,60,0,0
151975,-100,4,1,2,40,0,0
152137,-100,4,1,2,60,0,0
152461,-100,4,1,2,40,0,0
152623,-100,4,1,2,60,0,0
152948,-100,4,1,2,80,0,0
153272,-100,4,1,2,40,0,0
153434,-100,4,1,2,60,0,0
153759,-100,4,1,2,40,0,0
153921,-100,4,1,2,60,0,0
154083,-100,4,1,19,40,0,0
154164,-100,4,1,19,37,0,0
154245,-100,4,1,19,40,0,0
154326,-100,4,1,19,45,0,0
154407,-100,4,2,0,70,0,0
154569,-100,4,1,2,50,0,0
154732,-100,4,1,2,70,0,0
155056,-100,4,1,2,50,0,0
155219,-100,4,1,2,70,0,0
155380,-100,4,1,2,50,0,0
155542,-100,4,2,0,80,0,0
155624,-100,4,1,19,50,0,0
155704,-100,4,1,19,50,0,0
155705,-100,4,1,19,37,0,0
155786,-100,4,1,19,27,0,0
155867,-100,4,1,19,20,0,0
155948,-100,4,1,19,15,0,0
156029,-100,4,1,19,12,0,0
156110,-100,4,1,19,15,0,0
156191,-100,4,1,19,20,0,0
156272,-100,4,1,19,27,0,0
156353,-100,4,1,2,40,0,0
156434,-100,4,1,19,30,0,0
156515,-100,4,1,19,23,0,0
156597,-100,4,1,19,18,0,0
156677,-100,4,1,19,23,0,0
156758,-100,4,1,19,30,0,0
156839,-100,4,1,19,23,0,0
156920,-100,4,1,19,30,0,0
157001,-100,4,1,2,60,0,0
157083,-100,4,1,19,45,0,0
157164,-100,4,1,19,35,0,0
157245,-100,4,1,19,40,0,0
157326,-100,4,1,1,60,0,0
157408,-100,4,1,1,50,0,0
157489,-100,4,1,1,40,0,0
157571,-100,4,1,1,30,0,0
157650,324.324324324324,4,2,0,60,1,0
158298,-100,4,1,1,40,0,0
158622,-100,4,1,1,20,0,0
158785,-100,4,1,1,40,0,0
158947,-100,4,1,1,10,0,0
159109,-100,4,1,1,20,0,0
159271,-100,4,1,1,40,0,0
159433,-100,4,1,1,20,0,0
159595,-100,4,1,1,40,0,0
159920,-100,4,1,1,20,0,0
160082,-100,4,1,1,40,0,0
160244,-100,4,2,0,40,0,0
160406,-100,4,1,1,20,0,0
160568,-100,4,1,1,40,0,0
160731,-100,4,1,1,20,0,0
160893,-100,4,1,1,40,0,0
161217,-100,4,1,1,20,0,0
161379,-100,4,1,1,40,0,0
161541,-100,4,1,1,20,0,0
161704,-100,4,1,1,40,0,0
162190,-100,4,1,1,20,0,0
162352,-100,4,1,1,40,0,0
162514,-100,4,1,1,20,0,0
162676,-100,4,1,1,40,0,0
162839,-100,4,2,0,40,0,0
163001,-100,4,1,1,20,0,0
163163,-100,4,1,1,40,0,0
163325,-100,4,1,1,20,0,0
163487,-100,4,1,1,40,0,0
163650,-100,4,1,1,40,0,0
163812,-100,4,1,1,20,0,0
163974,-100,4,1,1,40,0,0
164136,-100,4,1,1,20,0,0
164298,-100,4,1,1,40,0,0
164460,-100,4,1,1,20,0,0
164622,-100,4,1,1,40,0,0
164785,-100,4,1,1,20,0,0
164947,-100,4,1,1,40,0,0
165110,-100,4,1,1,20,0,0
165271,-100,4,2,0,40,0,0
165433,-100,4,1,1,20,0,0
165595,-100,4,2,0,40,0,0
165758,-100,4,1,1,20,0,0
166244,-100,4,1,1,40,0,0
166406,-100,4,1,1,20,0,0
166568,-100,4,1,1,40,0,0
166730,-100,4,1,1,50,0,0
166893,-100,4,1,1,40,0,0
167055,-100,4,1,1,60,0,0
167136,-100,4,1,1,40,0,0
167217,-100,4,1,1,33,0,0
167298,-100,4,1,1,40,0,0
167379,-100,4,1,1,70,0,0
167704,-100,4,1,1,20,0,0
167866,-100,4,2,0,80,0,0
168028,-100,4,2,1,40,0,0
168352,-100,4,2,1,60,0,0
168514,-100,4,3,1,80,0,0
168595,-100,4,3,1,60,0,0
168676,-100,4,3,1,80,0,0
168839,-100,4,2,1,60,0,0
169163,-100,4,2,0,100,0,0
169325,-100,4,2,1,40,0,0
169487,-100,4,3,1,40,0,0
169568,-100,4,3,1,42,0,0
169649,-100,4,3,1,45,0,0
169730,-100,4,3,1,50,0,0
169812,-100,4,3,1,57,0,0
169893,-100,4,3,1,67,0,0
169974,-100,4,3,1,80,0,0
170082,-100,4,3,1,70,0,0
170190,-100,4,3,1,85,0,0
170298,-100,4,3,1,75,0,0
170406,-100,4,3,1,90,0,0
170514,-100,4,3,1,80,0,0
170622,-100,4,2,0,80,0,0
170785,-100,4,2,1,40,0,0
171108,-100,4,2,1,60,0,0
171271,-100,4,3,1,80,0,0
171352,-100,4,3,1,60,0,0
171433,-100,4,3,1,80,0,0
171514,-100,4,3,1,60,0,0
171595,-100,4,2,1,60,0,0
171758,-100,4,2,0,100,0,0
171920,-100,4,2,1,40,0,0
172082,-100,4,2,1,100,0,0
172244,-100,4,2,1,60,0,0
172406,-100,4,2,1,100,0,0
172568,-100,4,2,1,60,0,0
172731,-100,4,2,1,100,0,0
172893,-100,4,2,1,40,0,0
173056,-100,4,2,1,53,0,0
173137,-100,4,2,1,66,0,0
173217,-100,4,2,0,80,0,0
173379,-100,4,2,1,60,0,0
173541,-100,4,3,1,40,0,0
173704,-100,4,3,1,42,0,0
173866,-100,4,3,1,45,0,0
174028,-100,4,3,1,50,0,0
174190,-100,4,3,1,57,0,0
174514,-100,4,3,1,45,0,0
174677,-100,4,3,1,47,0,0
174839,-100,4,3,1,50,0,0
175001,-100,4,3,1,55,0,0
175163,-100,4,3,1,62,0,0
175325,-100,4,3,1,72,0,0
175487,-100,4,3,1,60,0,0
175649,-100,4,3,1,70,0,0
175812,-100,4,3,1,40,0,0
175893,-100,4,3,1,38,0,0
175974,-100,4,3,1,40,0,0
176055,-100,4,3,1,42,0,0
176136,-100,4,3,1,45,0,0
176217,-100,4,3,1,50,0,0
176298,-100,4,3,1,45,0,0
176379,-100,4,3,1,40,0,0
176460,-100,4,3,1,38,0,0
176541,-100,4,3,1,40,0,0
176622,-100,4,3,1,42,0,0
176704,-100,4,3,1,45,0,0
176785,-100,4,3,1,40,0,0
176866,-100,4,3,1,45,0,0
176947,-100,4,3,1,52,0,0
177028,-100,4,3,1,60,0,0
177109,-100,4,1,1,60,0,0
177190,-100,4,1,1,58,0,0
177271,-100,4,1,1,55,0,0
177352,-100,4,1,1,62,0,0
177433,-100,4,1,1,60,0,0
177514,-100,4,1,1,57,0,0
177595,-100,4,1,1,64,0,0
177677,-100,4,1,1,62,0,0
177758,-100,4,1,1,59,0,0
177839,-100,4,1,1,20,0,0
178001,-100,4,1,1,50,0,0
178082,-100,4,1,1,20,0,0
178244,-100,4,1,1,60,0,0
178325,-100,4,1,1,20,0,0
178406,-100,4,2,0,60,0,0
178568,-100,4,1,2,40,0,0
178730,-100,4,1,2,60,0,0
179054,-100,4,1,2,40,0,0
179216,-100,4,1,2,60,0,0
179541,-100,4,1,2,80,0,0
179865,-100,4,1,2,40,0,0
180027,-100,4,1,2,60,0,0
180352,-100,4,1,2,40,0,0
180514,-100,4,1,2,60,0,0
180677,-100,4,1,19,40,0,0
180758,-100,4,1,19,37,0,0
180839,-100,4,1,19,40,0,0
180920,-100,4,1,19,45,0,0
181001,-100,4,2,0,70,0,0
181163,-100,4,1,2,50,0,0
181326,-100,4,1,2,70,0,0
181650,-100,4,1,2,50,0,0
181813,-100,4,1,2,70,0,0
181974,-100,4,1,2,50,0,0
182136,-100,4,2,0,80,0,0
182218,-100,4,1,19,50,0,0
182298,-100,4,1,19,50,0,0
182299,-100,4,1,19,37,0,0
182380,-100,4,1,19,27,0,0
182461,-100,4,1,19,20,0,0
182542,-100,4,1,19,15,0,0
182623,-100,4,1,19,12,0,0
182704,-100,4,1,19,15,0,0
182785,-100,4,1,19,20,0,0
182825,-100,4,1,19,23,0,0
182866,-100,4,1,19,27,0,0
182947,-100,4,1,2,60,0,0
183028,-100,4,1,19,50,0,0
183109,-100,4,1,19,43,0,0
183190,-100,4,1,19,38,0,0
183271,-100,4,1,2,55,0,0
183352,-100,4,1,19,48,0,0
183433,-100,4,2,1,60,0,0
183595,-100,4,2,1,10,0,0
183758,-100,4,2,1,10,0,0
183920,-100,4,2,0,80,0,1
184082,-100,4,1,1,60,0,1
184245,-100,4,1,1,70,0,1
184407,-100,4,1,1,60,0,1
184569,-100,4,1,1,80,0,1
184731,-100,4,1,1,60,0,1
184893,-100,4,1,1,70,0,1
185055,-100,4,1,1,60,0,1
185218,-100,4,1,1,80,0,1
185380,-100,4,1,1,60,0,1
185542,-100,4,1,1,70,0,1
185704,-100,4,1,1,60,0,1
185866,-100,4,1,1,80,0,1
185947,-100,4,1,1,60,0,1
186028,-100,4,1,1,80,0,1
186109,-100,4,1,1,60,0,1
186190,-100,4,1,1,80,0,1
186352,-100,4,1,1,20,0,1
186514,-100,4,1,1,80,0,1
186676,-100,4,1,1,60,0,1
186838,-100,4,1,1,70,0,1
187000,-100,4,1,1,60,0,1
187162,-100,4,1,1,80,0,1
187324,-100,4,1,1,60,0,1
187487,-100,4,1,1,70,0,1
187649,-100,4,1,1,60,0,1
187811,-100,4,1,1,80,0,1
187973,-100,4,1,1,60,0,1
188135,-100,4,1,1,70,0,1
188298,-100,4,1,1,60,0,1
188461,-100,4,1,1,80,0,1
188704,-100,4,1,1,60,0,1
188785,-100,4,2,0,80,0,1
188947,-100,4,1,1,20,0,1
189109,-100,4,1,1,80,0,1
189271,-100,4,1,1,60,0,1
189433,-100,4,1,1,70,0,1
189595,-100,4,1,1,60,0,1
189758,-100,4,1,1,80,0,1
189920,-100,4,1,1,60,0,1
190081,-100,4,1,1,70,0,1
190244,-100,4,1,1,60,0,1
190406,-100,4,1,1,80,0,1
190568,-100,4,1,1,60,0,1
190731,-100,4,1,1,70,0,1
190893,-100,4,1,1,60,0,1
191055,-100,4,1,1,80,0,1
191217,-100,4,1,1,60,0,1
191379,-100,4,1,1,70,0,1
191541,-100,4,1,1,60,0,1
191704,-100,4,1,1,80,0,1
191866,-100,4,1,1,60,0,1
192028,-100,4,1,1,70,0,1
192677,-100,4,1,2,90,0,0
192758,-100,4,1,19,48,0,0
192839,-100,4,1,19,53,0,0
192920,-100,4,1,19,48,0,0
193001,-100,4,1,2,90,0,0
193082,-100,4,1,19,48,0,0
193163,-100,4,1,19,53,0,0
193245,-100,4,1,19,60,0,0
193326,-100,4,1,2,90,0,0
193407,-100,4,1,19,60,0,0
193488,-100,4,1,19,55,0,0
193569,-100,4,1,19,52,0,0
193650,-100,4,1,1,80,0,0
193732,-100,4,1,1,70,0,0
193813,-100,4,1,1,60,0,0
193895,-100,4,1,1,50,0,0
193974,-100,4,2,0,80,0,1
194136,-100,4,2,0,20,0,1
194298,-100,4,1,1,80,0,1
194460,-100,4,1,1,60,0,1
194622,-100,4,1,1,70,0,1
194785,-100,4,1,1,60,0,1
194947,-100,4,1,1,80,0,1
195109,-100,4,1,1,60,0,1
195271,-100,4,1,1,70,0,1
195433,-100,4,1,1,60,0,1
195595,-100,4,1,1,80,0,1
195758,-100,4,1,1,60,0,1
195920,-100,4,1,1,70,0,1
196082,-100,4,1,1,60,0,1
196244,-100,4,1,1,80,0,1
196325,-100,4,1,1,60,0,1
196406,-100,4,1,1,80,0,1
196487,-100,4,1,1,60,0,1
196568,-100,4,1,1,80,0,1
196731,-100,4,1,1,20,0,1
196893,-100,4,1,1,80,0,1
197055,-100,4,1,1,60,0,1
197217,-100,4,1,1,70,0,1
197298,-100,4,1,1,60,0,1
197379,-100,4,1,1,70,0,1
197460,-100,4,1,1,60,0,1
197541,-100,4,1,1,80,0,1
197622,-100,4,1,1,60,0,1
197704,-100,4,2,0,70,0,1
197866,-100,4,1,1,20,0,1
198028,-100,4,2,0,80,0,1
198190,-100,4,1,1,40,0,1
198352,-100,4,2,0,70,0,1
198514,-100,4,1,1,40,0,1
198677,-100,4,2,0,80,0,1
198839,-100,4,1,1,20,0,1
199001,-100,4,1,1,33,0,1
199082,-100,4,1,1,46,0,1
199163,-100,4,1,1,80,0,0
199325,-100,4,2,1,40,0,0
199487,-100,4,2,1,60,0,0
199649,-100,4,3,1,80,0,0
199731,-100,4,3,1,40,0,0
199812,-100,4,2,1,80,0,0
199974,-100,4,2,1,60,0,0
200298,-100,4,3,1,80,0,0
200460,-100,4,2,1,60,0,0
200785,-100,4,2,1,80,0,0
200947,-100,4,3,1,60,0,0
201001,-100,4,3,1,40,0,0
201055,-100,4,3,1,60,0,0
201109,-100,4,2,1,80,0,0
201271,-100,4,2,1,60,0,0
201433,-100,4,2,1,80,0,0
201595,-100,4,2,1,60,0,0
201758,-100,4,2,1,80,0,0
201920,-100,4,2,1,40,0,0
202082,-100,4,2,1,80,0,0
202244,-100,4,2,1,40,0,0
202406,-100,4,2,1,80,0,0
202568,-100,4,2,1,40,0,0
202649,-100,4,2,1,60,0,0
202731,-100,4,2,1,80,0,0
203055,-100,4,2,1,80,0,0
203136,-100,4,2,1,40,0,0
203217,-100,4,2,1,80,0,0
203298,-100,4,2,1,40,0,0
203379,-100,4,2,1,60,0,0
203541,-100,4,2,1,40,0,0
203704,-100,4,2,1,60,0,0
204028,-100,4,2,1,50,0,0
204190,-100,4,2,1,60,0,0
204352,-100,4,2,1,45,0,0
204433,-100,4,2,1,50,0,0
204514,-100,4,2,1,55,0,0
204595,-100,4,2,1,60,0,0
204677,-100,4,2,1,65,0,0
204758,-100,4,2,1,60,0,0
204839,-100,4,2,1,70,0,0
204920,-100,4,2,1,65,0,0
205001,-100,4,2,1,75,0,0
205082,-100,4,2,1,70,0,0
205163,-100,4,2,1,75,0,0
205244,-100,4,2,1,70,0,0
205325,-100,4,2,20,90,0,0
205649,-100,4,2,0,80,0,1
205812,-100,4,1,1,40,0,0
205974,-100,4,1,1,80,0,0
206136,-100,4,1,1,60,0,0
206298,-100,4,1,1,70,0,0
206460,-100,4,1,1,50,0,0
206622,-100,4,1,1,80,0,0
206785,-100,4,1,1,70,0,0
206947,-100,4,1,20,60,0,0
207109,-100,4,1,20,70,0,0
207271,-100,4,1,20,60,0,0
207433,-100,4,1,20,70,0,0
207595,-100,4,1,20,60,0,0
207758,-100,4,1,20,70,0,0
207920,-100,4,1,20,60,0,0
208082,-100,4,1,20,70,0,0
208244,-100,4,1,1,70,0,0
208406,-100,4,1,1,40,0,0
208568,-100,4,1,1,80,0,0
208731,-100,4,1,1,60,0,0
208893,-100,4,1,1,70,0,0
209055,-100,4,1,1,50,0,0
209217,-100,4,1,1,80,0,0
209379,-100,4,1,1,70,0,0
209541,-100,4,1,20,60,0,0
209704,-100,4,1,20,70,0,0
209866,-100,4,1,20,60,0,0
210028,-100,4,1,20,70,0,0
210190,-100,4,1,20,60,0,0
210352,-100,4,1,20,70,0,0
210514,-100,4,1,20,60,0,0
210758,-100,4,1,20,40,0,0
210839,-100,4,2,0,70,0,0
211001,-100,4,1,1,40,0,0
211163,-100,4,1,1,80,0,0
211325,-100,4,1,1,60,0,0
211487,-100,4,1,1,70,0,0
211649,-100,4,1,1,50,0,0
211812,-100,4,1,1,80,0,0
211974,-100,4,1,1,70,0,0
212136,-100,4,1,20,60,0,0
212298,-100,4,1,20,70,0,0
212460,-100,4,1,20,60,0,0
212622,-100,4,1,20,70,0,0
212785,-100,4,1,20,60,0,0
212947,-100,4,1,20,70,0,0
213109,-100,4,1,20,60,0,0
213271,-100,4,1,20,70,0,0
213433,-100,4,1,1,70,0,0
213595,-100,4,1,1,40,0,0
213758,-100,4,1,1,80,0,0
213920,-100,4,1,1,60,0,0
214082,-100,4,1,1,70,0,0
214244,-100,4,1,1,50,0,0
214406,-100,4,1,1,80,0,0
214568,-100,4,1,0,90,0,0
214731,-100,4,1,1,70,0,0
214893,-100,4,1,2,90,0,0
214974,-100,4,1,19,53,0,0
215055,-100,4,1,19,48,0,0
215136,-100,4,1,19,45,0,0
215217,-100,4,1,19,48,0,0
215298,-100,4,1,19,53,0,0
215379,-100,4,1,2,90,0,0
215460,-100,4,1,19,65,0,0
215541,-100,4,1,19,55,0,0
215622,-100,4,1,19,60,0,0
215704,-100,4,1,1,80,0,1
215785,-100,4,1,1,70,0,1
215866,-100,4,1,1,60,0,1
215947,-100,4,1,1,50,0,1
216028,-100,4,2,0,80,0,0
216190,-100,4,1,1,40,0,0
216352,-100,4,1,1,80,0,0
216514,-100,4,1,1,60,0,0
216677,-100,4,1,1,70,0,0
216839,-100,4,1,1,50,0,0
217001,-100,4,1,1,80,0,0
217163,-100,4,1,1,70,0,0
217325,-100,4,1,20,60,0,0
217487,-100,4,1,20,70,0,0
217649,-100,4,1,20,60,0,0
217812,-100,4,1,20,70,0,0
217974,-100,4,1,20,60,0,0
218136,-100,4,1,20,70,0,0
218298,-100,4,1,20,60,0,0
218460,-100,4,1,20,70,0,0
218622,-100,4,1,1,70,0,0
218785,-100,4,1,1,40,0,0
218947,-100,4,1,1,80,0,0
219109,-100,4,1,1,60,0,0
219271,-100,4,1,1,70,0,0
219433,-100,4,1,1,60,0,0
219595,-100,4,1,1,80,0,0
219677,-100,4,1,1,60,0,0
219758,-100,4,2,0,80,0,0
219920,-100,4,1,1,40,0,0
220082,-100,4,2,0,80,0,0
220244,-100,4,1,1,40,0,0
220406,-100,4,2,0,60,0,0
220568,-100,4,1,1,40,0,0
220731,-100,4,2,0,70,0,0
220893,-100,4,1,1,40,0,0
221055,-100,4,2,0,80,0,0
221095,-100,4,1,1,67,0,0
221136,-100,4,1,1,57,0,0
221177,-100,4,1,1,50,0,0
221217,-100,4,1,1,45,0,0
221258,-100,4,1,1,42,0,0
221298,-100,4,1,1,40,0,0
221379,-100,4,1,1,50,0,0
221460,-100,4,1,1,60,0,0
221541,-100,4,2,0,80,0,0
221704,-100,4,1,1,60,0,0
221866,-100,4,1,1,70,0,0
222028,-100,4,1,1,60,0,0
222109,-100,4,1,1,40,0,0
222190,-100,4,1,1,80,0,0
222352,-100,4,1,0,70,0,0
222514,-100,4,1,1,40,0,0
222677,-100,4,1,1,70,0,0
222839,-100,4,1,1,80,0,0
223001,-100,4,1,1,60,0,0
223163,-100,4,1,1,70,0,0
223325,-100,4,1,1,60,0,0
223406,-100,4,1,1,40,0,0
223487,-100,4,1,1,80,0,0
223649,-100,4,1,0,75,0,0
223812,-100,4,1,1,40,0,0
223974,-100,4,1,1,70,0,0
224136,-100,4,1,1,80,0,0
224298,-100,4,1,1,60,0,0
224379,-100,4,1,1,40,0,0
224460,-100,4,1,1,70,0,0
224622,-100,4,1,1,80,0,0
224704,-100,4,1,1,40,0,0
224785,-100,4,1,1,80,0,0
224866,-100,4,1,1,40,0,0
224947,-100,4,1,0,80,0,0
225109,-100,4,1,1,40,0,0
225271,-100,4,1,0,90,0,0
225433,-100,4,1,1,40,0,0
225758,-100,4,1,1,60,0,0
225839,-100,4,1,19,53,0,0
225920,-100,4,1,1,48,0,0
226001,-100,4,1,19,45,0,0
226082,-100,4,1,1,48,0,0
226122,-100,4,1,1,50,0,0
226163,-100,4,1,19,53,0,0
226244,-100,4,2,0,80,0,0
226325,-100,4,1,0,80,0,0
226406,-100,4,1,0,60,0,0
226731,-100,4,1,0,50,0,0
227055,-100,4,1,0,43,0,0
227379,-100,4,1,0,35,0,0
227704,-100,4,1,0,30,0,0
228028,-100,4,1,0,23,0,0
228352,-100,4,1,0,20,0,0
228677,-100,4,1,0,17,0,0
228839,-100,4,1,0,10,0,0
229001,-100,4,1,0,20,0,0
229325,-100,4,1,0,23,0,0
229649,-100,4,1,0,30,0,0
229974,-100,4,1,0,38,0,0
230298,-100,4,1,0,43,0,0
230622,-100,4,1,0,10,0,0
230947,-100,4,1,1,60,0,0
231109,-100,4,1,0,40,0,1
231129,-100,4,1,19,30,0,1
231149,-100,4,1,19,23,0,1
231170,-100,4,1,19,18,0,1
231190,-100,4,1,19,15,0,1
231535,-100,4,1,19,18,0,1
231555,-100,4,1,19,23,0,1
231575,-100,4,1,19,30,0,1
231595,-100,4,1,60,20,0,0

[Colours]
Combo1 : 34,208,210
Combo2 : 34,252,108
Combo3 : 238,218,20
Combo4 : 240,51,249

[HitObjects]
256,328,3272,5,2,0:0:0:0:
104,328,3434,2,0,L|100:136,1,192,2|2,0:0|0:0,0:0:0:0:
340,136,3920,5,4,0:0:0:0:
436,196,4083,1,0,0:0:0:0:
340,264,4245,1,0,0:0:0:0:
100,264,4407,1,0,0:0:0:0:
96,216,4488,1,0,0:0:0:0:
184,216,4569,2,0,L|284:216,2,96,2|2|0,0:0|0:0|0:0,0:0:0:0:
424,216,5056,6,0,P|480:140|416:100,1,192,0|0,0:0|0:0,0:0:0:0:
264,100,5542,1,2,0:0:0:0:
216,116,5623,1,0,0:0:0:0:
192,156,5704,1,2,0:0:0:0:
432,156,5866,2,0,L|440:252,1,96,8|8,0:0|0:0,0:0:0:0:
344,252,6191,1,2,0:0:0:0:
320,208,6272,1,0,0:0:0:0:
344,164,6353,1,2,0:0:0:0:
320,120,6434,1,0,0:0:0:0:
176,120,6515,5,4,0:0:0:0:
80,180,6678,1,0,0:0:0:0:
176,248,6840,1,0,0:0:0:0:
416,248,7002,1,0,0:0:0:0:
420,200,7083,1,0,0:0:0:0:
332,200,7164,2,0,L|232:200,2,96,2|2|0,0:0|0:0|0:0,0:0:0:0:
92,200,7650,6,0,L|84:104,1,96,0|0,0:0|0:0,0:0:0:0:
228,104,7974,2,0,L|336:104,1,96,0|2,0:0|0:0,0:0:0:0:
300,148,8218,1,0,0:0:0:0:
252,168,8299,1,2,0:0:0:0:
108,168,8461,1,8,0:0:0:0:
348,168,8623,1,0,0:0:0:0:
252,168,8785,1,2,0:0:0:0:
228,212,8866,1,0,0:0:0:0:
252,256,8947,1,2,0:0:0:0:
228,300,9028,1,0,0:0:0:0:
372,300,9110,6,0,P|432:248|364:188,1,192,4|0,0:0|0:0,0:0:0:0:
124,188,9596,1,0,0:0:0:0:
120,140,9677,1,0,0:0:0:0:
208,140,9758,2,0,L|308:140,2,96,2|2|0,0:0|0:0|0:0,0:0:0:0:
448,140,10245,6,0,L|456:236,1,96,0|0,0:0|0:0,0:0:0:0:
304,236,10569,2,0,L|400:236,1,96,0|2,0:0|0:0,0:0:0:0:
376,196,10812,1,0,0:0:0:0:
328,176,10893,1,2,0:0:0:0:
184,176,11056,1,8,0:0:0:0:
424,176,11218,1,0,0:0:0:0:
328,176,11380,1,2,0:0:0:0:
304,132,11461,1,0,0:0:0:0:
328,88,11542,1,2,0:0:0:0:
304,44,11623,1,0,0:0:0:0:
160,44,11704,6,0,P|100:96|168:156,1,192,4|0,0:0|0:0,0:0:0:0:
408,156,12191,2,0,L|412:204,1,48,2|0,0:0|0:0,0:0:0:0:
315,203,12353,1,2,0:0:0:0:
172,204,12515,1,2,0:0:0:0:
76,160,12677,1,0,0:0:0:0:
176,120,12839,1,2,0:0:0:0:
416,120,13001,5,0,0:0:0:0:
440,164,13083,1,0,0:0:0:0:
416,208,13164,1,0,0:0:0:0:
368,208,13245,1,0,0:0:0:0:
272,208,13326,1,0,0:0:0:0:
248,252,13408,1,0,0:0:0:0:
272,296,13489,1,8,0:0:0:0:
320,296,13570,1,0,0:0:0:0:
464,296,13650,1,4,0:0:0:0:
332,296,13812,1,4,0:0:0:0:
128,296,14137,6,0,P|96:228|184:188,1,192,4|0,0:0|0:0,0:0:0:0:
304,188,14623,1,0,0:0:0:0:
160,188,14785,1,8,0:0:0:0:
112,176,14866,1,0,0:0:0:0:
88,132,14947,1,8,0:0:0:0:
232,132,15110,2,0,L|332:132,1,96,0|0,0:0|0:0,0:0:0:0:
88,132,15434,6,0,P|68:204|160:248,1,192,4|8,0:0|0:0,0:0:0:0:
200,264,15839,1,8,0:0:0:0:
220,300,15920,1,8,0:0:0:0:
200,264,16001,1,8,0:0:0:0:
152,248,16083,1,8,0:0:0:0:
392,248,16245,1,8,0:0:0:0:
200,248,16461,1,8,0:0:0:0:
392,248,16677,1,8,0:0:0:0:
104,248,16893,6,0,L|100:152,1,96,4|0,0:0|0:0,0:0:0:0:
244,152,17218,2,0,L|248:56,1,96,0|0,0:0|0:0,0:0:0:0:
103,55,17542,1,8,0:0:0:0:
200,56,17704,1,8,0:0:0:0:
103,55,17866,1,0,0:0:0:0:
344,56,18028,6,0,L|440:56,1,96,4|0,0:0|0:0,0:0:0:0:
176,56,18353,2,0,L|80:56,1,96,4|0,0:0|0:0,0:0:0:0:
368,56,18677,2,0,L|468:56,1,96,4|0,0:0|0:0,0:0:0:0:
152,56,19001,2,0,P|92:120|160:164,1,192,4|0,0:0|0:0,0:0:0:0:
400,164,19488,6,0,P|460:228|392:272,1,192,4|0,0:0|0:0,0:0:0:0:
248,272,19974,1,8,0:0:0:0:
200,272,20056,1,0,0:0:0:0:
296,272,20137,2,0,L|392:272,2,96,8|0|0,0:0|0:0|0:0,0:0:0:0:
56,272,20623,6,0,L|52:172,1,96,8|0,0:0|0:0,0:0:0:0:
292,176,20947,2,0,L|296:80,1,96
151,80,21272,1,8,0:0:0:0:
120,80,21326,1,0,0:0:0:0:
151,80,21380,1,0,0:0:0:0:
223,80,21434,2,0,L|328:80,2,96,8|0|0,0:0|0:0|0:0,0:0:0:0:
79,80,21920,1,0,0:0:0:0:
319,80,22083,5,8,0:0:0:0:
463,80,22245,1,0,0:0:0:0:
199,80,22407,2,0,L|196:176,1,96,8|0,0:0|0:0,0:0:0:0:
484,176,22731,2,0,L|488:272,1,96,8|0,0:0|0:0,0:0:0:0:
439,271,22974,1,0,0:0:0:0:
271,271,23056,2,0,L|167:271,1,96,8|8,0:0|0:0,0:0:0:0:
416,272,23380,5,4,0:0:0:0:
176,272,23542,1,4,0:0:0:0:
368,272,24677,5,2,0:0:0:0:
416,256,24758,1,0,0:0:0:0:
408,204,24839,1,2,0:0:0:0:
360,188,24920,1,0,0:0:0:0:
264,188,25001,1,2,0:0:0:0:
216,172,25082,1,0,0:0:0:0:
224,120,25163,1,2,0:0:0:0:
272,104,25244,1,0,0:0:0:0:
416,104,25326,1,4,0:0:0:0:
368,104,25407,1,4,0:0:0:0:
224,104,25488,1,4,0:0:0:0:
272,104,25569,1,4,0:0:0:0:
440,104,25650,1,4,0:0:0:0:
296,104,25974,6,0,P|208:120|152:200,1,192,4|8,0:0|0:0,0:0:0:0:
392,200,26461,2,0,L|396:296,1,96,0|2,0:0|0:0,0:0:0:0:
252,296,26785,2,0,L|248:200,1,96,0|8,0:0|0:0,0:0:0:0:
416,200,27110,2,0,L|420:104,1,96,2|0,0:0|0:0,0:0:0:0:
180,104,27434,6,0,L|176:200,1,96,2|8,0:0|0:0,0:0:0:0:
320,199,27758,2,0,L|416:200,1,96,2|0,0:0|0:0,0:0:0:0:
247,200,28083,1,2,0:0:0:0:
151,200,28245,1,8,0:0:0:0:
247,200,28407,1,2,0:0:0:0:
488,200,28569,6,0,P|480:144|368:92,1,192,2|8,0:0|0:0,0:0:0:0:
124,92,29056,2,0,L|120:188,1,96,0|2,0:0|0:0,0:0:0:0:
264,188,29380,2,0,L|268:285,1,96,0|8,0:0|0:0,0:0:0:0:
99,283,29704,2,0,L|96:184,1,96,2|0,0:0|0:0,0:0:0:0:
240,187,30028,5,2,0:0:0:0:
144,187,30191,1,8,0:0:0:0:
383,187,30353,2,0,P|440:128|368:80,1,192,2|2,0:0|0:0,0:0:0:0:
127,79,30839,2,0,L|124:176,1,96,8|8,0:0|0:0,0:0:0:0:
388,176,31164,6,0,P|288:192|244:264,1,192,4|8,0:0|0:0,0:0:0:0:
388,264,31650,2,0,L|392:168,1,96,0|2,0:0|0:0,0:0:0:0:
247,168,31974,2,0,L|252:72,1,96,0|8,0:0|0:0,0:0:0:0:
83,72,32299,2,0,L|88:-24,1,96,2|0,0:0|0:0,0:0:0:0:
328,72,32623,6,0,L|424:72,1,96,2|8,0:0|0:0,0:0:0:0:
280,168,32947,2,0,L|176:168,1,96,2|0,0:0|0:0,0:0:0:0:
352,168,33272,1,2,0:0:0:0:
448,168,33434,1,8,0:0:0:0:
352,168,33596,1,2,0:0:0:0:
112,168,33758,6,0,P|64:248|132:292,1,192,2|8,0:0|0:0,0:0:0:0:
372,292,34245,2,0,L|376:192,1,96,0|2,0:0|0:0,0:0:0:0:
231,196,34569,2,0,L|236:100,1,96,0|8,0:0|0:0,0:0:0:0:
475,100,34893,2,0,L|472:4,1,96,2|2,0:0|0:0,0:0:0:0:
232,4,35218,5,4,0:0:0:0:
192,32,35299,1,0,0:0:0:0:
184,84,35380,1,0,0:0:0:0:
208,124,35461,1,0,0:0:0:0:
256,128,35542,1,0,0:0:0:0:
424,128,35704,1,4,0:0:0:0:
464,156,35785,1,0,0:0:0:0:
472,208,35866,1,0,0:0:0:0:
448,248,35947,1,0,0:0:0:0:
232,248,36028,1,4,0:0:0:0:
112,248,36191,1,4,0:0:0:0:
352,248,36353,6,0,P|444:196|424:128,1,192,4|8,0:0|0:0,0:0:0:0:
184,128,36839,2,0,L|180:228,1,96,0|0,0:0|0:0,0:0:0:0:
324,224,37164,2,0,L|328:324,1,96,0|8,0:0|0:0,0:0:0:0:
159,319,37488,2,0,L|156:224,1,96,2|0,0:0|0:0,0:0:0:0:
396,224,37812,6,0,L|400:120,1,96,2|8,0:0|0:0,0:0:0:0:
255,128,38137,2,0,L|152:128,1,96,2|0,0:0|0:0,0:0:0:0:
327,128,38461,1,2,0:0:0:0:
423,128,38623,1,8,0:0:0:0:
327,128,38785,1,2,0:0:0:0:
88,128,38947,6,0,P|56:208|136:240,1,192,2|8,0:0|0:0,0:0:0:0:
376,240,39434,1,0,0:0:0:0:
232,240,39596,2,0,L|136:240,2,96,2|0|8,0:0|0:0|0:0,0:0:0:0:
472,240,40083,6,0,L|480:48,1,192,4|4,0:0|0:0,0:0:0:0:
40,240,40731,2,0,L|32:48,1,192,4|4,0:0|0:0,0:0:0:0:
416,48,41380,6,0,L|208:48,1,192,4|2,0:0|0:0,0:0:0:0:
464,48,41866,2,0,L|468:148,1,96,4|0,0:0|0:0,0:0:0:0:
323,143,42191,1,2,0:0:0:0:
227,143,42353,1,0,0:0:0:0:
323,143,42515,1,8,0:0:0:0:
84,144,42677,6,0,P|24:196|96:248,1,192,2|2,0:0|0:0,0:0:0:0:
336,248,43164,2,0,L|341:153,1,96,8|0,0:0|0:0,0:0:0:0:
197,153,43488,1,2,0:0:0:0:
100,153,43650,1,0,0:0:0:0:
197,153,43812,1,8,0:0:0:0:
436,152,43974,6,0,P|496:204|424:256,1,192,2|2,0:0|0:0,0:0:0:0:
184,256,44461,2,0,L|80:256,1,96,8|0,0:0|0:0,0:0:0:0:
327,252,44785,1,2,0:0:0:0:
367,224,44866,1,0,0:0:0:0:
375,172,44947,1,8,0:0:0:0:
351,132,45028,1,0,0:0:0:0:
303,128,45109,1,8,0:0:0:0:
64,128,45272,6,0,L|60:228,1,96,2|0,0:0|0:0,0:0:0:0:
324,224,45596,2,0,P|380:168|304:128,1,192,2|0,0:0|0:0,0:0:0:0:
159,128,46083,1,2,0:0:0:0:
259,128,46245,1,2,0:0:0:0:
159,128,46407,1,2,0:0:0:0:
304,128,46569,2,0,L|304:176,1,48,0|0,0:0|0:0,0:0:0:0:
112,176,46731,6,0,P|60:224|132:292,1,192,4|2,0:0|0:0,0:0:0:0:
264,292,47218,1,0,0:0:0:0:
132,292,47380,1,2,0:0:0:0:
288,292,47704,1,2,0:0:0:0:
384,292,47866,1,0,0:0:0:0:
236,192,48028,6,0,L|140:192,1,96,2|0,0:0|0:0,0:0:0:0:
284,196,48353,1,2,0:0:0:0:
476,196,48677,1,0,0:0:0:0:
432,128,48839,1,0,0:0:0:0:
348,100,49001,1,2,0:0:0:0:
216,100,49164,1,0,0:0:0:0:
348,100,49326,6,0,P|436:160|408:220,1,192,2|2,0:0|0:0,0:0:0:0:
276,220,49812,1,0,0:0:0:0:
407,219,49974,1,2,0:0:0:0:
252,220,50299,1,2,0:0:0:0:
156,220,50461,1,2,0:0:0:0:
304,124,50623,6,0,L|400:124,1,96,2|0,0:0|0:0,0:0:0:0:
256,124,50947,1,2,0:0:0:0:
64,124,51272,2,0,P|28:192|112:240,1,192,2|2,0:0|0:0,0:0:0:0:
254,240,51758,1,4,0:0:0:0:
16,240,51920,5,4,0:0:0:0:
184,240,52245,1,0,0:0:0:0:
280,240,52407,1,0,0:0:0:0:
184,240,52569,1,0,0:0:0:0:
40,240,52731,1,0,0:0:0:0:
184,240,52893,2,0,L|300:240,1,96
424,240,53218,6,0,L|428:144,1,96,2|0,0:0|0:0,0:0:0:0:
283,143,53542,2,0,L|280:48,1,96
427,144,53866,1,4,0:0:0:0:
411,192,53947,1,0,0:0:0:0:
379,224,54028,1,0,0:0:0:0:
331,240,54110,1,0,0:0:0:0:
187,240,54191,1,8,0:0:0:0:
139,224,54273,1,0,0:0:0:0:
107,192,54354,1,8,0:0:0:0:
91,144,54435,1,0,0:0:0:0:
284,144,54515,6,0,P|356:176|311:255,1,192,4|0,0:0|0:0,0:0:0:0:
168,256,55001,1,2,0:0:0:0:
164,208,55083,1,2,0:0:0:0:
312,256,55164,2,0,P|384:256|428:156,1,192,8|0,0:0|0:0,0:0:0:0:
284,156,55650,1,2,0:0:0:0:
44,156,55812,6,0,L|148:156,1,96,2|0,0:0|0:0,0:0:0:0:
284,156,56137,2,0,L|380:156,1,96,2|0,0:0|0:0,0:0:0:0:
332,156,56380,1,0,0:0:0:0:
188,156,56461,2,0,L|88:156,2,96,8|0|2,0:0|0:0|0:0,0:0:0:0:
332,156,56947,1,0,0:0:0:0:
92,156,57110,6,0,P|56:224|140:268,1,192,4|0,0:0|0:0,0:0:0:0:
284,267,57596,1,2,0:0:0:0:
288,219,57677,1,2,0:0:0:0:
140,267,57758,2,0,P|104:224|188:156,1,192,8|0,0:0|0:0,0:0:0:0:
332,156,58245,1,2,0:0:0:0:
92,156,58407,6,0,L|88:256,1,96,0|2,0:0|0:0,0:0:0:0:
232,251,58731,2,0,L|228:352,1,96,0|2,0:0|0:0,0:0:0:0:
276,348,58974,1,0,0:0:0:0:
420,348,59056,1,8,0:0:0:0:
492,348,59218,1,0,0:0:0:0:
420,348,59380,1,0,0:0:0:0:
180,348,59704,6,0,L|172:158,1,192,2|0,0:0|0:0,0:0:0:0:
316,157,60191,1,2,0:0:0:0:
319,109,60272,1,2,0:0:0:0:
172,156,60353,2,0,P|144:224|232:272,1,192,8|0,0:0|0:0,0:0:0:0:
376,252,60839,1,2,0:0:0:0:
136,252,61001,6,0,L|132:156,1,96,0|2,0:0|0:0,0:0:0:0:
276,156,61326,2,0,L|280:60,1,96,0|2,0:0|0:0,0:0:0:0:
232,60,61569,1,0,0:0:0:0:
88,60,61650,1,8,0:0:0:0:
16,60,61812,1,0,0:0:0:0:
88,60,61974,1,0,0:0:0:0:
327,60,62299,6,0,P|400:140|356:184,1,192,2|0,0:0|0:0,0:0:0:0:
211,183,62785,1,2,0:0:0:0:
208,231,62866,1,2,0:0:0:0:
356,184,62947,2,0,P|340:252|232:280,1,192,8|0,0:0|0:0,0:0:0:0:
88,280,63434,1,2,0:0:0:0:
328,281,63596,6,0,L|424:281,1,96,0|2,0:0|0:0,0:0:0:0:
280,281,63920,2,0,L|184:281,1,96,0|2,0:0|0:0,0:0:0:0:
232,281,64164,1,0,0:0:0:0:
376,281,64245,2,0,L|380:184,1,96,8|0,0:0|0:0,0:0:0:0:
115,185,64569,2,0,L|112:88,1,96,4|0,0:0|0:0,0:0:0:0:
376,88,64893,5,2,0:0:0:0:
448,88,65056,1,0,0:0:0:0:
376,88,65218,1,8,0:0:0:0:
280,88,65380,1,0,0:0:0:0:
136,88,65542,2,0,L|228:112,1,96,2|0,0:0|0:0,0:0:0:0:
372,112,65866,2,0,L|376:208,1,96,8|0,0:0|0:0,0:0:0:0:
135,207,66191,5,2,0:0:0:0:
63,207,66353,1,0,0:0:0:0:
135,207,66516,1,8,0:0:0:0:
231,207,66677,1,0,0:0:0:0:
376,208,66839,2,0,L|380:112,1,96,2|0,0:0|0:0,0:0:0:0:
139,112,67164,1,8,0:0:0:0:
108,148,67245,1,0,0:0:0:0:
116,196,67326,1,8,0:0:0:0:
164,208,67407,1,0,0:0:0:0:
376,208,67488,5,4,0:0:0:0:
472,208,67650,1,0,0:0:0:0:
376,208,67812,1,2,0:0:0:0:
232,208,67974,2,0,P|180:144|252:92,1,192,0|0,0:0|0:0,0:0:0:0:
396,92,68461,1,2,0:0:0:0:
252,92,68623,6,0,P|152:124|136:200,1,192,0|0,0:0|0:0,0:0:0:0:
279,199,69110,1,2,0:0:0:0:
423,199,69272,2,0,P|472:256|404:332,1,192,0|0,0:0|0:0,0:0:0:0:
240,332,69758,1,2,0:0:0:0:
192,312,69839,1,0,0:0:0:0:
168,280,69920,1,0,0:0:0:0:
408,280,70083,6,0,P|444:184|384:140,1,192,6|2,0:0|0:0,0:0:0:0:
239,139,70569,2,0,P|164:184|168:280,1,192,0|0,0:0|0:0,0:0:0:0:
311,279,71056,1,8,0:0:0:0:
168,280,71218,6,0,P|108:236|144:140,1,192,0|0,0:0|0:0,0:0:0:0:
288,140,71704,2,0,L|400:140,1,96,8|0,0:0|0:0,0:0:0:0:
116,48,72028,1,4,0:0:0:0:
64,84,72137,1,0,0:0:0:0:
40,144,72245,1,0,0:0:0:0:
56,204,72353,1,0,0:0:0:0:
108,240,72461,1,0,0:0:0:0:
172,240,72569,1,0,0:0:0:0:
396,240,72677,6,0,P|452:168|388:116,1,192,4|6,0:0|0:0,0:0:0:0:
248,116,73164,1,0,0:0:0:0:
392,116,73326,2,0,L|300:144,1,96,4|0,0:0|0:0,0:0:0:0:
156,144,73650,2,0,L|64:168,1,96,6|0,0:0|0:0,0:0:0:0:
303,168,73974,5,2,0:0:0:0:
399,168,74137,1,2,0:0:0:0:
255,168,74299,2,0,L|251:264,1,96,6|0,0:0|0:0,0:0:0:0:
395,263,74623,2,0,L|399:364,1,96,4|0,0:0|0:0,0:0:0:0:
158,359,74947,1,8,0:0:0:0:
124,320,75028,1,0,0:0:0:0:
136,272,75110,1,8,0:0:0:0:
184,256,75191,1,0,0:0:0:0:
376,256,75272,6,0,L|380:160,1,96,4|4,0:0|0:0,0:0:0:0:
236,160,75596,1,4,0:0:0:0:
92,160,75920,1,4,0:0:0:0:
236,160,76083,1,4,0:0:0:0:
428,160,76407,5,4,0:0:0:0:
236,160,76731,1,4,0:0:0:0:
380,160,76893,1,4,0:0:0:0:
188,160,77218,1,4,0:0:0:0:
332,160,77380,1,4,0:0:0:0:
188,160,77542,1,0,0:0:0:0:
164,116,77623,1,0,0:0:0:0:
188,72,77704,1,0,0:0:0:0:
164,28,77785,1,0,0:0:0:0:
356,28,77866,6,0,L|456:28,1,96,4|4,0:0|0:0,0:0:0:0:
308,28,78191,1,4,0:0:0:0:
116,28,78515,1,4,0:0:0:0:
260,28,78677,1,4,0:0:0:0:
164,28,78839,1,0,0:0:0:0:
404,28,79001,6,0,P|460:112|332:196,1,288,4|0,0:0|0:0,0:0:0:0:
164,196,79650,1,0,0:0:0:0:
404,196,79812,1,4,0:0:0:0:
440,164,79893,1,0,0:0:0:0:
432,112,79974,1,0,0:0:0:0:
384,96,80056,1,0,0:0:0:0:
192,96,80137,1,4,0:0:0:0:
72,96,80299,1,0,0:0:0:0:
360,96,80461,6,0,L|364:192,1,96,4|0,0:0|0:0,0:0:0:0:
219,191,80785,2,0,L|215:287,1,96,8|0,0:0|0:0,0:0:0:0:
384,287,81110,1,2,0:0:0:0:
492,220,81272,1,0,0:0:0:0:
384,156,81434,1,8,0:0:0:0:
144,156,81596,6,0,L|140:56,1,96,0|2,0:0|0:0,0:0:0:0:
284,60,81920,1,0,0:0:0:0:
44,60,82083,2,0,L|40:160,1,96,8|0,0:0|0:0,0:0:0:0:
184,155,82407,2,0,L|180:256,1,96,2|0,0:0|0:0,0:0:0:0:
348,251,82731,1,8,0:0:0:0:
392,232,82812,1,0,0:0:0:0:
420,196,82893,1,8,0:0:0:0:
432,148,82974,1,0,0:0:0:0:
240,136,83056,6,0,L|148:112,1,96,2|0,0:0|0:0,0:0:0:0:
292,112,83380,2,0,L|384:88,1,96,8|0,0:0|0:0,0:0:0:0:
216,87,83704,1,2,0:0:0:0:
109,154,83866,1,0,0:0:0:0:
216,218,84028,1,8,0:0:0:0:
455,216,84191,6,0,L|460:312,1,96,0|2,0:0|0:0,0:0:0:0:
315,312,84515,2,0,L|224:284,1,96,0|8,0:0|0:0,0:0:0:0:
80,284,84839,2,0,L|76:188,1,96,0|2,0:0|0:0,0:0:0:0:
220,188,85164,2,0,L|311:160,1,96,0|8,0:0|0:0,0:0:0:0:
168,164,85488,1,8,0:0:0:0:
408,164,85650,6,0,P|464:208|396:276,1,192,4|8,0:0|0:0,0:0:0:0:
228,276,86137,1,0,0:0:0:0:
120,216,86299,1,2,0:0:0:0:
228,164,86461,1,0,0:0:0:0:
372,164,86623,1,8,0:0:0:0:
132,164,86785,6,0,L|40:188,1,96,0|2,0:0|0:0,0:0:0:0:
184,188,87110,2,0,L|180:284,1,96,0|8,0:0|0:0,0:0:0:0:
348,283,87434,2,0,L|440:260,1,96,0|2,0:0|0:0,0:0:0:0:
296,259,87758,2,0,L|300:164,1,96,0|8,0:0|0:0,0:0:0:0:
59,164,88083,5,0,0:0:0:0:
156,104,88245,1,2,0:0:0:0:
60,44,88407,1,0,0:0:0:0:
300,44,88569,1,8,0:0:0:0:
204,108,88731,1,0,0:0:0:0:
300,164,88893,1,2,0:0:0:0:
156,164,89056,1,0,0:0:0:0:
56,224,89218,1,8,0:0:0:0:
156,288,89380,1,0,0:0:0:0:
396,288,89542,5,4,0:0:0:0:
348,280,89623,1,0,0:0:0:0:
312,248,89704,1,0,0:0:0:0:
300,196,89785,1,0,0:0:0:0:
312,144,89866,1,4,0:0:0:0:
348,108,89947,1,0,0:0:0:0:
396,92,90028,1,0,0:0:0:0:
444,96,90110,1,0,0:0:0:0:
252,144,90191,1,4,0:0:0:0:
204,136,90272,1,0,0:0:0:0:
172,104,90353,1,0,0:0:0:0:
156,56,90434,1,0,0:0:0:0:
348,56,90515,1,4,0:0:0:0:
468,56,90677,1,0,0:0:0:0:
180,56,90839,6,0,L|176:152,1,96,4|0,0:0|0:0,0:0:0:0:
320,151,91164,2,0,L|324:248,1,96,8|0,0:0|0:0,0:0:0:0:
155,247,91488,1,2,0:0:0:0:
47,180,91650,1,0,0:0:0:0:
155,116,91812,1,8,0:0:0:0:
396,116,91974,6,0,L|488:92,1,96,0|2,0:0|0:0,0:0:0:0:
344,91,92299,1,0,0:0:0:0:
104,88,92461,2,0,L|196:112,1,96,8|0,0:0|0:0,0:0:0:0:
340,112,92785,2,0,L|248:136,1,96,2|0,0:0|0:0,0:0:0:0:
80,136,93110,1,8,0:0:0:0:
40,164,93191,1,0,0:0:0:0:
48,212,93272,1,8,0:0:0:0:
96,228,93353,1,0,0:0:0:0:
288,228,93434,6,0,L|380:204,1,96,2|0,0:0|0:0,0:0:0:0:
236,203,93758,2,0,L|144:184,1,96,8|0,0:0|0:0,0:0:0:0:
192,184,94001,1,0,0:0:0:0:
384,184,94083,1,2,0:0:0:0:
480,120,94245,1,2,0:0:0:0:
384,64,94407,1,8,0:0:0:0:
144,60,94569,6,0,L|140:160,1,96,4|0,0:0|0:0,0:0:0:0:
404,155,94893,2,0,L|408:251,1,96,4|0,0:0|0:0,0:0:0:0:
119,252,95218,2,0,L|116:157,1,96,4|0,0:0|0:0,0:0:0:0:
428,156,95542,2,0,P|481:217|409:273,1,192,4|2,0:0|0:0,0:0:0:0:
169,273,96028,6,0,P|116:212|188:156,1,192,4|0,0:0|0:0,0:0:0:0:
332,156,96515,1,8,0:0:0:0:
380,156,96596,1,0,0:0:0:0:
284,156,96677,2,0,L|180:156,2,96,8|0|0,0:0|0:0|0:0,0:0:0:0:
428,156,97164,6,0,L|432:252,1,96
192,252,97488,2,0,L|188:156,1,96
336,224,97812,1,0,0:0:0:0:
356,192,97866,1,0,0:0:0:0:
360,156,97920,1,0,0:0:0:0:
285,157,97974,2,0,L|185:157,2,96,8|0|0,0:0|0:0|0:0,0:0:0:0:
424,156,98461,1,0,0:0:0:0:
188,156,98623,5,8,0:0:0:0:
44,156,98785,1,0,0:0:0:0:
380,252,98947,2,0,L|383:156,1,96,8|0,0:0|0:0,0:0:0:0:
95,156,99271,2,0,L|91:60,1,96,8|0,0:0|0:0,0:0:0:0:
140,61,99514,1,0,0:0:0:0:
308,61,99596,2,0,L|412:61,1,96,8|8,0:0|0:0,0:0:0:0:
163,60,99920,5,4,0:0:0:0:
403,60,100082,1,4,0:0:0:0:
212,60,101218,5,2,0:0:0:0:
164,76,101299,1,0,0:0:0:0:
172,128,101380,1,2,0:0:0:0:
220,144,101461,1,0,0:0:0:0:
316,144,101542,1,2,0:0:0:0:
364,160,101623,1,0,0:0:0:0:
356,212,101704,1,2,0:0:0:0:
308,228,101785,1,0,0:0:0:0:
164,228,101867,1,4,0:0:0:0:
212,228,101948,1,4,0:0:0:0:
356,228,102029,1,4,0:0:0:0:
308,228,102110,1,4,0:0:0:0:
140,228,102191,1,4,0:0:0:0:
276,272,102515,6,0,P|372:240|396:160,1,192,4|8,0:0|0:0,0:0:0:0:
156,160,103001,2,0,L|64:136,1,96,0|2,0:0|0:0,0:0:0:0:
208,136,103326,2,0,L|212:236,1,96,0|8,0:0|0:0,0:0:0:0:
43,231,103650,2,0,L|40:332,1,96,2|0,0:0|0:0,0:0:0:0:
304,328,103974,6,0,L|396:300,1,96,2|8,0:0|0:0,0:0:0:0:
251,300,104299,2,0,L|160:272,1,96,2|0,0:0|0:0,0:0:0:0:
328,272,104623,1,2,0:0:0:0:
424,196,104785,1,8,0:0:0:0:
328,132,104947,1,2,0:0:0:0:
88,132,105110,6,0,P|80:216|164:272,1,192,2|8,0:0|0:0,0:0:0:0:
400,268,105596,2,0,L|404:172,1,96,0|2,0:0|0:0,0:0:0:0:
259,172,105920,2,0,L|168:144,1,96,0|8,0:0|0:0,0:0:0:0:
336,148,106245,6,0,L|340:48,1,96,2|0,0:0|0:0,0:0:0:0:
195,52,106569,1,2,0:0:0:0:
291,52,106731,1,8,0:0:0:0:
51,52,106893,2,0,P|64:124|168:160,1,192,2|2,0:0|0:0,0:0:0:0:
408,160,107380,2,0,L|412:260,1,96,8|8,0:0|0:0,0:0:0:0:
172,256,107704,6,0,P|104:216|168:160,1,192,4|8,0:0|0:0,0:0:0:0:
432,160,108191,2,0,L|436:256,1,96,0|2,0:0|0:0,0:0:0:0:
291,255,108515,2,0,L|199:231,1,96,0|8,0:0|0:0,0:0:0:0:
56,232,108839,2,0,L|52:136,1,96,2|0,0:0|0:0,0:0:0:0:
292,136,109164,6,0,L|384:112,1,96,2|8,0:0|0:0,0:0:0:0:
240,111,109488,2,0,L|332:84,1,96,2|0,0:0|0:0,0:0:0:0:
500,84,109812,2,0,L|408:108,1,96,2|8,0:0|0:0,0:0:0:0:
168,112,110137,6,0,P|92:136|48:232,1,192,2|0,0:0|0:0,0:0:0:0:
192,232,110623,1,8,0:0:0:0:
432,232,110785,2,0,L|436:136,1,96,0|2,0:0|0:0,0:0:0:0:
291,136,111110,2,0,L|296:36,1,96,2|8,0:0|0:0,0:0:0:0:
128,188,111434,2,0,L|132:88,1,96,2|2,0:0|0:0,0:0:0:0:
371,92,111758,5,4,0:0:0:0:
411,120,111839,1,0,0:0:0:0:
419,172,111920,1,0,0:0:0:0:
395,212,112001,1,0,0:0:0:0:
347,216,112082,1,0,0:0:0:0:
179,216,112244,1,4,0:0:0:0:
139,244,112325,1,0,0:0:0:0:
131,296,112406,1,0,0:0:0:0:
155,336,112487,1,0,0:0:0:0:
347,336,112568,1,4,0:0:0:0:
467,336,112731,1,4,0:0:0:0:
227,336,112893,6,0,P|144:284|180:216,1,192,4|8,0:0|0:0,0:0:0:0:
420,216,113380,2,0,L|328:192,1,96,0|2,0:0|0:0,0:0:0:0:
184,192,113704,2,0,L|92:168,1,96,0|8,0:0|0:0,0:0:0:0:
260,168,114028,2,0,L|352:144,1,96,2|0,0:0|0:0,0:0:0:0:
112,143,114353,6,0,L|108:244,1,96,2|8,0:0|0:0,0:0:0:0:
252,239,114677,2,0,L|256:336,1,96,2|0,0:0|0:0,0:0:0:0:
88,336,115001,2,0,L|84:240,1,96,2|8,0:0|0:0,0:0:0:0:
324,240,115326,6,0,P|416:208|424:124,1,192,2|0,0:0|0:0,0:0:0:0:
184,124,115812,2,0,L|180:224,1,96,8|0,0:0|0:0,0:0:0:0:
328,124,116137,2,0,L|424:124,2,96,2|0|8,0:0|0:0|0:0,0:0:0:0:
40,240,116623,6,0,L|32:48,1,192,4|4,0:0|0:0,0:0:0:0:
472,240,117271,2,0,L|480:48,1,192,4|4,0:0|0:0,0:0:0:0:
96,48,117920,6,0,L|304:48,1,192,4|2,0:0|0:0,0:0:0:0:
48,48,118407,2,0,L|44:148,1,96,4|0,0:0|0:0,0:0:0:0:
188,143,118731,1,2,0:0:0:0:
116,204,118893,1,0,0:0:0:0:
20,232,119056,1,0,0:0:0:0:
260,232,119218,6,0,P|360:204|380:128,1,192,2|2,0:0|0:0,0:0:0:0:
139,124,119704,2,0,L|136:224,1,96,8|0,0:0|0:0,0:0:0:0:
280,219,120028,1,0,0:0:0:0:
376,228,120191,1,0,0:0:0:0:
448,288,120353,1,8,0:0:0:0:
208,288,120515,6,0,P|116:268|88:184,1,192,2|2,0:0|0:0,0:0:0:0:
328,183,121001,2,0,L|420:156,1,96,8|0,0:0|0:0,0:0:0:0:
180,155,121326,1,2,0:0:0:0:
140,183,121407,1,0,0:0:0:0:
132,235,121488,1,8,0:0:0:0:
156,275,121569,1,0,0:0:0:0:
204,279,121650,1,8,0:0:0:0:
443,279,121813,6,0,L|447:179,1,96,2|0,0:0|0:0,0:0:0:0:
183,183,122137,2,0,P|127:239|203:279,1,192,2|0,0:0|0:0,0:0:0:0:
347,279,122624,1,2,0:0:0:0:
443,279,122786,1,2,0:0:0:0:
347,279,122948,1,2,0:0:0:0:
203,279,123110,1,0,0:0:0:0:
443,279,123272,5,4,0:0:0:0:
203,279,123434,1,4,0:0:0:0:
83,279,123758,2,0,L|79:183,1,96,0|2,0:0|0:0,0:0:0:0:
272,184,124245,1,0,0:0:0:0:
324,132,124407,1,2,0:0:0:0:
300,64,124569,5,2,0:0:0:0:
232,56,124731,1,0,0:0:0:0:
88,56,124893,2,0,L|80:252,1,192,2|0,0:0|0:0,0:0:0:0:
320,244,125542,1,8,0:0:0:0:
364,200,125623,1,0,0:0:0:0:
344,144,125704,1,0,0:0:0:0:
284,132,125785,1,0,0:0:0:0:
140,132,125866,5,4,0:0:0:0:
20,132,126028,1,4,0:0:0:0:
260,132,126191,1,4,0:0:0:0:
380,132,126353,1,4,0:0:0:0:
236,132,126515,2,0,L|228:324,1,192,0|0,0:0|0:0,0:0:0:0:
288,276,127001,1,2,0:0:0:0:
272,196,127164,5,2,0:0:0:0:
204,160,127326,1,0,0:0:0:0:
60,160,127488,2,0,L|56:64,1,96,2|2,0:0|0:0,0:0:0:0:
295,60,127812,2,0,L|387:84,1,96,8|0,0:0|0:0,0:0:0:0:
243,84,128056,2,0,L|151:108,1,96,8|0,0:0|0:0,0:0:0:0:
198,108,128299,1,8,0:0:0:0:
438,108,128461,5,4,0:0:0:0:
320,176,128623,1,4,0:0:0:0:
439,248,128785,1,4,0:0:0:0:
248,248,129272,1,0,0:0:0:0:
224,232,129353,1,0,0:0:0:0:
212,196,129434,1,0,0:0:0:0:
356,196,129596,1,2,0:0:0:0:
116,196,129758,5,8,0:0:0:0:
284,196,130001,1,8,0:0:0:0:
116,196,130245,1,8,0:0:0:0:
396,196,130407,1,8,0:0:0:0:
228,196,130650,1,8,0:0:0:0:
396,196,130894,1,8,0:0:0:0:
156,196,131056,6,0,P|104:116|168:76,1,192,4|0,0:0|0:0,0:0:0:0:
312,76,131542,1,2,0:0:0:0:
316,128,131623,1,2,0:0:0:0:
172,128,131704,2,0,P|84:152|52:240,1,192,8|0,0:0|0:0,0:0:0:0:
195,239,132191,1,2,0:0:0:0:
435,239,132353,6,0,L|344:216,1,96,2|0,0:0|0:0,0:0:0:0:
200,216,132677,2,0,L|108:192,1,96,2|0,0:0|0:0,0:0:0:0:
156,192,132920,1,0,0:0:0:0:
300,192,133001,2,0,L|412:192,2,96,8|0|2,0:0|0:0|0:0,0:0:0:0:
156,192,133488,1,0,0:0:0:0:
396,192,133650,6,0,P|444:248|368:308,1,192,4|2,0:0|0:0,0:0:0:0:
224,308,134137,1,0,0:0:0:0:
368,308,134299,1,2,0:0:0:0:
176,308,134623,2,0,L|172:212,1,96,2|0,0:0|0:0,0:0:0:0:
316,212,134947,5,2,0:0:0:0:
412,212,135110,1,0,0:0:0:0:
268,212,135272,1,2,0:0:0:0:
76,116,135596,2,0,L|72:212,1,96,2|0,0:0|0:0,0:0:0:0:
216,211,135920,1,2,0:0:0:0:
72,211,136083,1,0,0:0:0:0:
312,212,136245,6,0,P|292:288|192:312,1,192,2|2,0:0|0:0,0:0:0:0:
335,311,136731,1,0,0:0:0:0:
192,312,136893,1,2,0:0:0:0:
384,312,137218,2,0,L|388:212,1,96,2|0,0:0|0:0,0:0:0:0:
243,216,137542,5,2,0:0:0:0:
148,148,137704,1,0,0:0:0:0:
292,148,137866,1,2,0:0:0:0:
484,72,138191,2,0,L|488:168,1,96,2|0,0:0|0:0,0:0:0:0:
344,168,138515,1,2,0:0:0:0:
488,168,138677,1,4,0:0:0:0:
248,160,138839,6,0,L|244:256,1,96,2|0,0:0|0:0,0:0:0:0:
100,255,139164,2,0,L|104:360,1,96,2|0,0:0|0:0,0:0:0:0:
271,351,139488,2,0,L|276:248,1,96,2|0,0:0|0:0,0:0:0:0:
419,256,139812,2,0,L|416:152,1,96,2|0,0:0|0:0,0:0:0:0:
176,160,140137,6,0,L|88:124,1,96,2|0,0:0|0:0,0:0:0:0:
232,124,140461,2,0,L|324:100,1,96,2|0,0:0|0:0,0:0:0:0:
84,99,140785,2,0,L|80:208,1,96,8|0,0:0|0:0,0:0:0:0:
344,196,141110,2,0,L|436:172,1,96,12|0,0:0|0:0,0:0:0:0:
152,196,141434,6,0,L|148:292,1,96,2|0,0:0|0:0,0:0:0:0:
292,291,141758,2,0,L|296:192,1,96,8|0,0:0|0:0,0:0:0:0:
55,195,142083,2,0,L|52:96,1,96,2|0,0:0|0:0,0:0:0:0:
196,100,142407,2,0,L|288:76,1,96,8|0,0:0|0:0,0:0:0:0:
48,75,142731,5,2,0:0:0:0:
44,124,142812,1,0,0:0:0:0:
40,172,142893,1,0,0:0:0:0:
184,172,143056,2,0,L|88:172,1,96,8|0,0:0|0:0,0:0:0:0:
328,172,143380,2,0,L|428:172,1,96,2|0,0:0|0:0,0:0:0:0:
280,172,143704,1,8,0:0:0:0:
244,208,143785,1,0,0:0:0:0:
252,260,143866,1,8,0:0:0:0:
300,272,143947,1,0,0:0:0:0:
468,272,144028,5,4,0:0:0:0:
471,176,144191,1,0,0:0:0:0:
375,176,144353,1,2,0:0:0:0:
231,176,144515,2,0,P|256:120|376:92,1,192,0|0,0:0|0:0,0:0:0:0:
229,80,145001,2,0,L|230:180,1,96,2|0,0:0|0:0,0:0:0:0:
470,175,145326,5,0,0:0:0:0:
400,236,145488,1,0,0:0:0:0:
304,260,145650,1,2,0:0:0:0:
160,260,145812,2,0,P|120:208|200:140,1,192,0|0,0:0|0:0,0:0:0:0:
343,139,146299,2,0,L|348:236,1,96,2|0,0:0|0:0,0:0:0:0:
107,235,146623,6,0,P|100:164|200:140,1,192,6|2,0:0|0:0,0:0:0:0:
343,139,147110,1,0,0:0:0:0:
440,188,147272,1,0,0:0:0:0:
344,248,147434,1,0,0:0:0:0:
108,240,147596,2,0,L|104:144,1,96,10|0,0:0|0:0,0:0:0:0:
248,144,147920,6,0,L|244:48,1,96,0|0,0:0|0:0,0:0:0:0:
76,48,148245,2,0,L|80:151,1,96,8|0,0:0|0:0,0:0:0:0:
344,144,148569,1,4,0:0:0:0:
396,180,148678,1,0,0:0:0:0:
420,240,148786,1,0,0:0:0:0:
404,300,148894,1,0,0:0:0:0:
352,336,149002,1,0,0:0:0:0:
288,336,149110,1,0,0:0:0:0:
96,336,149218,6,0,P|60:252|136:220,1,192,4|6,0:0|0:0,0:0:0:0:
256,220,149704,1,0,0:0:0:0:
136,220,149866,2,0,L|236:220,1,96,4|0,0:0|0:0,0:0:0:0:
376,220,150191,2,0,L|472:220,1,96,6|0,0:0|0:0,0:0:0:0:
232,220,150515,5,0,0:0:0:0:
112,220,150677,1,2,0:0:0:0:
256,220,150839,2,0,L|260:124,1,96,6|0,0:0|0:0,0:0:0:0:
115,124,151164,2,0,L|118:23,1,96,4|0,0:0|0:0,0:0:0:0:
358,27,151488,1,8,0:0:0:0:
396,56,151569,1,0,0:0:0:0:
388,104,151650,1,8,0:0:0:0:
344,128,151731,1,0,0:0:0:0:
152,128,151812,6,0,L|148:224,1,96,4|4,0:0|0:0,0:0:0:0:
292,224,152136,1,4,0:0:0:0:
436,224,152461,1,4,0:0:0:0:
292,224,152623,1,4,0:0:0:0:
100,224,152947,5,4,0:0:0:0:
292,224,153272,1,4,0:0:0:0:
148,224,153434,1,4,0:0:0:0:
340,224,153758,1,4,0:0:0:0:
196,224,153920,1,4,0:0:0:0:
340,224,154083,1,0,0:0:0:0:
364,180,154164,1,0,0:0:0:0:
340,136,154245,1,0,0:0:0:0:
364,92,154326,1,0,0:0:0:0:
172,92,154407,6,0,L|72:92,1,96,4|4,0:0|0:0,0:0:0:0:
220,92,154732,1,4,0:0:0:0:
412,92,155056,1,4,0:0:0:0:
268,92,155218,1,4,0:0:0:0:
364,92,155380,1,0,0:0:0:0:
124,92,155542,6,0,P|68:176|196:260,1,288,4|0,0:0|0:0,0:0:0:0:
339,260,156191,1,0,0:0:0:0:
200,212,156353,1,4,0:0:0:0:
160,184,156434,1,0,0:0:0:0:
168,132,156515,1,0,0:0:0:0:
216,116,156596,1,0,0:0:0:0:
360,116,156677,1,0,0:0:0:0:
400,88,156758,1,0,0:0:0:0:
392,36,156839,1,0,0:0:0:0:
344,20,156920,1,0,0:0:0:0:
200,20,157001,6,0,L|148:20,1,48,4|0,0:0|0:0,0:0:0:0:
296,20,157164,2,0,L|348:20,1,48,0|0,0:0|0:0,0:0:0:0:
152,20,157326,2,0,L|148:116,1,96,4|4,0:0|0:0,0:0:0:0:
392,116,157650,5,4,0:0:0:0:
148,117,157812,1,4,0:0:0:0:
392,116,158298,1,2,0:0:0:0:
488,180,158460,1,2,0:0:0:0:
392,248,158622,1,0,0:0:0:0:
248,248,158785,6,0,P|156:216|176:140,1,192,2|0,0:0|0:0,0:0:0:0:
319,139,159271,2,0,L|324:40,1,96,2|0,0:0|0:0,0:0:0:0:
224,44,159595,1,2,0:0:0:0:
83,43,159758,1,2,0:0:0:0:
180,108,159920,1,0,0:0:0:0:
84,176,160082,1,2,0:0:0:0:
232,272,160244,6,0,L|328:272,1,96,2|0,0:0|0:0,0:0:0:0:
184,176,160568,2,0,L|180:272,1,96,2|0,0:0|0:0,0:0:0:0:
327,271,160893,1,2,0:0:0:0:
423,208,161055,1,2,0:0:0:0:
327,144,161217,1,0,0:0:0:0:
184,144,161379,6,0,L|88:144,1,96,2|0,0:0|0:0,0:0:0:0:
232,144,161704,1,2,0:0:0:0:
328,216,161866,1,0,0:0:0:0:
236,296,162028,1,2,0:0:0:0:
92,296,162190,2,0,L|96:200,1,96,0|2,0:0|0:0,0:0:0:0:
239,200,162514,2,0,L|336:200,1,96,0|2,0:0|0:0,0:0:0:0:
191,200,162839,5,2,0:0:0:0:
94,124,163001,1,0,0:0:0:0:
190,68,163163,1,2,0:0:0:0:
334,68,163325,2,0,P|392:120|336:200,1,192,0|2,0:0|0:0,0:0:0:0:
192,199,163812,1,0,0:0:0:0:
336,200,163974,6,0,P|316:276|216:316,1,192,2|2,0:0|0:0,0:0:0:0:
73,316,164460,2,0,L|68:216,1,96,0|2,0:0|0:0,0:0:0:0:
212,220,164785,1,0,0:0:0:0:
308,148,164947,1,2,0:0:0:0:
212,76,165109,1,0,0:0:0:0:
360,176,165271,6,0,L|456:176,1,96,2|0,0:0|0:0,0:0:0:0:
312,172,165595,2,0,L|316:272,1,96,2|0,0:0|0:0,0:0:0:0:
147,268,165920,2,0,L|152:368,1,96,0|0,0:0|0:0,0:0:0:0:
320,364,166244,1,2,0:0:0:0:
420,312,166406,1,0,0:0:0:0:
320,216,166568,1,2,0:0:0:0:
152,216,166731,6,0,L|40:216,1,96,8|0,0:0|0:0,0:0:0:0:
200,216,167055,1,8,0:0:0:0:
244,192,167136,1,0,0:0:0:0:
256,140,167217,1,0,0:0:0:0:
236,92,167298,1,0,0:0:0:0:
188,72,167379,1,8,0:0:0:0:
44,72,167541,2,0,L|40:172,1,96,8|0,0:0|0:0,0:0:0:0:
280,167,167866,6,0,P|364:184|408:280,1,192,4|0,0:0|0:0,0:0:0:0:
264,276,168352,2,0,L|160:276,1,96,0|8,0:0|0:0,0:0:0:0:
216,276,168595,1,0,0:0:0:0:
312,276,168677,2,0,L|408:277,2,96,0|0|0,0:0|0:0|0:0,0:0:0:0:
72,192,169163,6,0,P|92:236|220:272,1,192,4|0,0:0|0:0,0:0:0:0:
264,264,169568,1,8,0:0:0:0:
308,244,169650,1,8,0:0:0:0:
332,200,169730,1,0,0:0:0:0:
340,148,169812,1,0,0:0:0:0:
100,144,169974,1,8,0:0:0:0:
292,144,170190,1,8,0:0:0:0:
100,144,170406,1,8,0:0:0:0:
464,132,170622,6,0,L|468:228,1,96,4|0,0:0|0:0,0:0:0:0:
323,227,170947,2,0,L|216:228,1,96,0|0,0:0|0:0,0:0:0:0:
83,227,171271,1,8,0:0:0:0:
176,152,171433,1,8,0:0:0:0:
80,88,171595,1,0,0:0:0:0:
320,88,171758,6,0,L|324:184,1,96,4|0,0:0|0:0,0:0:0:0:
83,183,172082,2,0,L|80:284,1,96,4|0,0:0|0:0,0:0:0:0:
344,279,172406,2,0,L|348:180,1,96,4|0,0:0|0:0,0:0:0:0:
108,184,172731,2,0,P|55:123|127:67,1,192,4|0,0:0|0:0,0:0:0:0:
366,67,173217,6,0,L|472:68,1,96,4|0,0:0|0:0,0:0:0:0:
320,68,173541,1,8,0:0:0:0:
248,112,173704,1,8,0:0:0:0:
260,192,173866,1,8,0:0:0:0:
352,208,174028,1,8,0:0:0:0:
112,208,174190,2,0,L|12:208,1,96,12|12,0:0|0:0,0:0:0:0:
158,209,174514,5,8,0:0:0:0:
230,253,174677,1,8,0:0:0:0:
218,333,174839,1,8,0:0:0:0:
126,349,175001,1,8,0:0:0:0:
365,348,175163,2,0,L|372:248,1,96,12|8,0:0|0:0,0:0:0:0:
230,253,175487,2,0,L|128:252,1,96,12|12,0:0|0:0,0:0:0:0:
376,156,175812,5,8,0:0:0:0:
372,104,175893,1,8,0:0:0:0:
348,68,175974,1,8,0:0:0:0:
300,52,176055,1,8,0:0:0:0:
256,52,176136,1,12,0:0:0:0:
208,68,176217,1,8,0:0:0:0:
184,104,176298,1,12,0:0:0:0:
180,156,176379,1,8,0:0:0:0:
324,156,176460,5,8,0:0:0:0:
372,176,176541,1,8,0:0:0:0:
368,232,176622,1,8,0:0:0:0:
320,244,176704,1,8,0:0:0:0:
172,156,176785,1,12,0:0:0:0:
124,176,176866,1,8,0:0:0:0:
128,232,176947,1,12,0:0:0:0:
176,244,177029,1,8,0:0:0:0:
344,244,177109,6,0,L|492:244,2,144,8|2|2,0:0|0:0|0:0,0:0:0:0:
168,244,177758,2,0,L|20:244,2,144,8|2|8,0:0|0:0|0:0,0:0:0:0:
408,244,178406,6,0,L|412:148,1,96,4|4,0:0|0:0,0:0:0:0:
268,148,178730,1,4,0:0:0:0:
124,148,179054,1,4,0:0:0:0:
268,148,179217,1,4,0:0:0:0:
460,148,179541,5,4,0:0:0:0:
268,148,179865,1,4,0:0:0:0:
412,148,180027,1,4,0:0:0:0:
220,148,180352,1,4,0:0:0:0:
364,148,180514,1,4,0:0:0:0:
220,148,180676,1,0,0:0:0:0:
172,140,180758,1,0,0:0:0:0:
136,104,180839,1,0,0:0:0:0:
120,56,180920,1,0,0:0:0:0:
312,56,181001,6,0,L|424:56,1,96,4|2,0:0|0:0,0:0:0:0:
264,56,181325,1,4,0:0:0:0:
72,56,181649,1,4,0:0:0:0:
216,56,181812,1,4,0:0:0:0:
120,56,181974,1,2,0:0:0:0:
360,56,182136,1,4,0:0:0:0:
264,56,182298,5,0,0:0:0:0:
220,76,182379,1,0,0:0:0:0:
208,128,182460,1,0,0:0:0:0:
232,172,182541,1,0,0:0:0:0:
280,184,182622,1,0,0:0:0:0:
324,204,182703,1,0,0:0:0:0:
336,256,182784,1,0,0:0:0:0:
312,300,182865,1,0,0:0:0:0:
168,300,182947,5,4,0:0:0:0:
128,264,183028,1,0,0:0:0:0:
136,208,183109,1,0,0:0:0:0:
188,184,183190,1,0,0:0:0:0:
332,184,183271,2,0,L|332:120,1,48,0|0,0:0|0:0,0:0:0:0:
140,136,183433,2,0,P|100:224|168:264,1,192,2|0,0:0|0:0,0:0:0:0:
408,264,183920,6,0,L|412:168,1,96,4|0,0:0|0:0,0:0:0:0:
267,168,184244,1,2,0:0:0:0:
340,96,184406,1,0,0:0:0:0:
436,80,184568,1,8,0:0:0:0:
196,84,184731,6,0,L|192:180,1,96,0|2,0:0|0:0,0:0:0:0:
336,175,185055,1,0,0:0:0:0:
96,175,185217,2,0,L|92:276,1,96,8|0,0:0|0:0,0:0:0:0:
236,271,185541,2,0,L|332:272,1,96,2|0,0:0|0:0,0:0:0:0:
164,272,185866,1,8,0:0:0:0:
128,236,185947,1,0,0:0:0:0:
144,188,186028,1,8,0:0:0:0:
192,172,186109,1,0,0:0:0:0:
336,172,186190,6,0,L|432:172,1,96,2|0,0:0|0:0,0:0:0:0:
288,172,186514,2,0,L|192:172,1,96,8|0,0:0|0:0,0:0:0:0:
360,172,186839,1,2,0:0:0:0:
460,108,187001,1,0,0:0:0:0:
360,48,187163,1,8,0:0:0:0:
68,48,187325,6,0,L|64:144,1,96,0|2,0:0|0:0,0:0:0:0:
208,143,187649,2,0,L|300:168,1,96,0|8,0:0|0:0,0:0:0:0:
444,167,187974,2,0,L|439:267,1,96,0|2,0:0|0:0,0:0:0:0:
295,263,188298,2,0,L|200:288,1,96,0|8,0:0|0:0,0:0:0:0:
444,288,188622,1,8,0:0:0:0:
204,288,188785,6,0,P|112:264|68:184,1,192,4|8,0:0|0:0,0:0:0:0:
236,184,189271,1,0,0:0:0:0:
348,116,189433,1,2,0:0:0:0:
236,56,189595,1,0,0:0:0:0:
92,56,189758,1,8,0:0:0:0:
332,52,189920,6,0,L|336:148,1,96,0|2,0:0|0:0,0:0:0:0:
191,148,190244,2,0,L|196:245,1,96,0|8,0:0|0:0,0:0:0:0:
363,243,190568,2,0,L|360:340,1,96,0|2,0:0|0:0,0:0:0:0:
216,340,190893,2,0,L|112:340,1,96,0|8,0:0|0:0,0:0:0:0:
360,340,191217,5,0,0:0:0:0:
452,272,191379,1,2,0:0:0:0:
360,208,191541,1,0,0:0:0:0:
216,208,191704,1,8,0:0:0:0:
112,140,191866,1,0,0:0:0:0:
216,76,192028,1,2,0:0:0:0:
456,76,192190,2,0,L|360:76,1,96,0|8,0:0|0:0,0:0:0:0:
116,76,192514,1,0,0:0:0:0:
360,76,192677,5,4,0:0:0:0:
400,104,192758,1,0,0:0:0:0:
396,160,192839,1,0,0:0:0:0:
348,176,192920,1,0,0:0:0:0:
300,188,193001,1,0,0:0:0:0:
260,216,193082,1,0,0:0:0:0:
264,272,193163,1,0,0:0:0:0:
312,288,193244,1,0,0:0:0:0:
456,288,193325,2,0,L|460:192,1,96,4|0,0:0|0:0,0:0:0:0:
316,192,193649,1,4,0:0:0:0:
76,192,193812,1,4,0:0:0:0:
316,192,193974,6,0,L|320:96,1,96,4|0,0:0|0:0,0:0:0:0:
79,96,194298,2,0,L|76:192,1,96,8|0,0:0|0:0,0:0:0:0:
220,192,194622,1,2,0:0:0:0:
316,248,194785,1,0,0:0:0:0:
216,308,194947,1,8,0:0:0:0:
456,308,195109,6,0,L|460:212,1,96,0|2,0:0|0:0,0:0:0:0:
315,212,195433,1,0,0:0:0:0:
75,212,195595,2,0,L|72:116,1,96,8|0,0:0|0:0,0:0:0:0:
216,116,195920,2,0,L|220:16,1,96,2|0,0:0|0:0,0:0:0:0:
387,20,196244,1,8,0:0:0:0:
424,52,196325,1,0,0:0:0:0:
416,104,196406,1,8,0:0:0:0:
372,124,196487,1,0,0:0:0:0:
180,124,196568,6,0,L|72:124,1,96,2|0,0:0|0:0,0:0:0:0:
228,124,196893,2,0,L|328:124,1,96,8|0,0:0|0:0,0:0:0:0:
156,124,197217,1,2,0:0:0:0:
300,124,197379,1,2,0:0:0:0:
60,124,197541,1,8,0:0:0:0:
300,124,197704,6,0,L|408:124,1,96,4|0,0:0|0:0,0:0:0:0:
132,124,198028,2,0,L|128:224,1,96,4|0,0:0|0:0,0:0:0:0:
380,124,198352,2,0,L|384:224,1,96,4|0,0:0|0:0,0:0:0:0:
119,219,198677,2,0,P|60:164|128:108,1,192,4|2,0:0|0:0,0:0:0:0:
368,108,199163,6,0,P|428:160|360:220,1,192,4|0,0:0|0:0,0:0:0:0:
224,108,199649,1,8,0:0:0:0:
176,108,199730,1,0,0:0:0:0:
272,108,199811,2,0,L|376:108,2,96,8|0|0,0:0|0:0|0:0,0:0:0:0:
32,108,200298,6,0,L|124:132,1,96,0|0,0:0|0:0,0:0:0:0:
364,132,200622,2,0,L|272:156,1,96,0|0,0:0|0:0,0:0:0:0:
128,155,200946,1,8,0:0:0:0:
108,192,201001,1,0,0:0:0:0:
104,240,201055,1,0,0:0:0:0:
176,155,201109,2,0,L|276:155,2,96,8|0|0,0:0|0:0|0:0,0:0:0:0:
32,155,201595,1,0,0:0:0:0:
272,252,201757,5,8,0:0:0:0:
416,252,201919,1,0,0:0:0:0:
152,252,202081,2,0,L|149:156,1,96,8|0,0:0|0:0,0:0:0:0:
437,156,202405,2,0,L|441:60,1,96,8|0,0:0|0:0,0:0:0:0:
392,61,202648,1,0,0:0:0:0:
224,61,202730,2,0,L|120:61,1,96,8|8,0:0|0:0,0:0:0:0:
369,60,203054,5,4,0:0:0:0:
129,60,203216,1,4,0:0:0:0:
296,60,204352,5,2,0:0:0:0:
344,76,204433,1,0,0:0:0:0:
336,128,204514,1,2,0:0:0:0:
288,144,204595,1,0,0:0:0:0:
192,144,204676,1,2,0:0:0:0:
144,160,204757,1,0,0:0:0:0:
152,212,204838,1,2,0:0:0:0:
200,228,204919,1,0,0:0:0:0:
344,228,205001,1,4,0:0:0:0:
296,228,205082,1,4,0:0:0:0:
152,228,205163,1,4,0:0:0:0:
200,228,205244,1,4,0:0:0:0:
368,228,205325,1,4,0:0:0:0:
224,228,205649,6,0,P|164:180|232:120,1,192,4|8,0:0|0:0,0:0:0:0:
472,120,206136,2,0,L|468:220,1,96,0|2,0:0|0:0,0:0:0:0:
324,215,206460,2,0,L|212:216,1,96,0|8,0:0|0:0,0:0:0:0:
84,215,206785,2,0,L|80:120,1,96,2|0,0:0|0:0,0:0:0:0:
223,119,207109,6,0,L|319:119,1,96,2|8,0:0|0:0,0:0:0:0:
79,119,207433,2,0,L|188:120,1,96,2|0,0:0|0:0,0:0:0:0:
344,120,207758,1,2,0:0:0:0:
440,192,207920,1,8,0:0:0:0:
344,264,208082,1,2,0:0:0:0:
100,264,208244,6,0,P|48:212|120:148,1,192,2|8,0:0|0:0,0:0:0:0:
359,148,208731,2,0,L|364:244,1,96,0|2,0:0|0:0,0:0:0:0:
219,243,209055,2,0,L|120:244,1,96,0|8,0:0|0:0,0:0:0:0:
268,244,209379,6,0,L|368:244,1,96,2|0,0:0|0:0,0:0:0:0:
216,244,209704,2,0,L|212:148,1,96,2|0,0:0|0:0,0:0:0:0:
452,148,210028,2,0,P|484:212|396:260,1,192,2|0,0:0|0:0,0:0:0:0:
156,260,210514,2,0,L|60:260,1,96,8|8,0:0|0:0,0:0:0:0:
300,260,210839,6,0,P|388:232|416:144,1,192,4|8,0:0|0:0,0:0:0:0:
271,143,211325,2,0,L|176:144,1,96,0|2,0:0|0:0,0:0:0:0:
319,144,211649,2,0,L|324:240,1,96,0|8,0:0|0:0,0:0:0:0:
83,240,211974,6,0,L|80:340,1,96,2|0,0:0|0:0,0:0:0:0:
224,335,212298,2,0,L|124:336,1,96,2|8,0:0|0:0,0:0:0:0:
368,336,212622,2,0,L|372:240,1,96,2|0,0:0|0:0,0:0:0:0:
227,240,212947,2,0,L|332:240,1,96,2|8,0:0|0:0,0:0:0:0:
83,240,213271,6,0,P|20:184|80:120,1,192,2|0,0:0|0:0,0:0:0:0:
224,119,213758,1,8,0:0:0:0:
464,119,213920,2,0,L|460:223,1,96,0|2,0:0|0:0,0:0:0:0:
316,214,214244,2,0,L|312:311,1,96,2|8,0:0|0:0,0:0:0:0:
72,310,214568,6,0,L|68:211,1,96,2|2,0:0|0:0,0:0:0:0:
312,311,214893,5,4,0:0:0:0:
352,283,214974,1,0,0:0:0:0:
360,231,215055,1,0,0:0:0:0:
336,191,215136,1,0,0:0:0:0:
288,187,215217,1,0,0:0:0:0:
120,187,215379,1,4,0:0:0:0:
80,159,215460,1,0,0:0:0:0:
72,107,215541,1,0,0:0:0:0:
96,67,215622,1,0,0:0:0:0:
288,67,215703,1,4,0:0:0:0:
408,67,215866,1,4,0:0:0:0:
168,68,216028,6,0,P|84:124|120:184,1,192,4|8,0:0|0:0,0:0:0:0:
360,184,216514,2,0,L|364:288,1,96,0|2,0:0|0:0,0:0:0:0:
219,279,216839,2,0,L|112:280,1,96,0|8,0:0|0:0,0:0:0:0:
267,279,217163,2,0,L|372:280,1,96,2|0,0:0|0:0,0:0:0:0:
123,280,217487,6,0,L|120:184,1,96,2|8,0:0|0:0,0:0:0:0:
264,184,217812,2,0,L|360:184,1,96,2|0,0:0|0:0,0:0:0:0:
216,184,218136,2,0,L|212:88,1,96,2|8,0:0|0:0,0:0:0:0:
452,88,218460,6,0,P|424:176|340:220,1,192,2|0,0:0|0:0,0:0:0:0:
100,220,218947,2,0,L|96:124,1,96,8|0,0:0|0:0,0:0:0:0:
336,124,219271,1,2,0:0:0:0:
456,204,219433,1,0,0:0:0:0:
332,296,219595,1,8,0:0:0:0:
40,240,219758,6,0,L|32:48,1,192,4|4,0:0|0:0,0:0:0:0:
472,240,220406,2,0,L|480:48,1,192,4|4,0:0|0:0,0:0:0:0:
96,48,221055,6,0,L|304:48,1,192,4|2,0:0|0:0,0:0:0:0:
48,48,221541,2,0,L|44:152,1,96,4|0,0:0|0:0,0:0:0:0:
188,143,221866,1,2,0:0:0:0:
280,208,222028,1,0,0:0:0:0:
184,280,222190,1,8,0:0:0:0:
424,280,222352,6,0,P|480:224|416:156,1,192,2|0,0:0|0:0,0:0:0:0:
175,155,222839,2,0,L|172:60,1,96,8|0,0:0|0:0,0:0:0:0:
316,60,223163,1,2,0:0:0:0:
407,124,223325,1,0,0:0:0:0:
311,196,223487,1,8,0:0:0:0:
71,196,223649,6,0,P|88:280|180:312,1,192,2|0,0:0|0:0,0:0:0:0:
420,311,224136,2,0,L|424:208,1,96,8|0,0:0|0:0,0:0:0:0:
184,216,224460,1,2,0:0:0:0:
144,188,224541,1,0,0:0:0:0:
136,136,224622,1,8,0:0:0:0:
160,96,224703,1,0,0:0:0:0:
208,92,224784,1,8,0:0:0:0:
447,92,224947,6,0,L|348:92,1,96,2|0,0:0|0:0,0:0:0:0:
112,92,225271,2,0,L|207:92,1,96,2|0,0:0|0:0,0:0:0:0:
324,188,225758,5,2,0:0:0:0:
188,188,225920,1,2,0:0:0:0:
324,188,226082,1,2,0:0:0:0:
60,188,226244,1,4,0:0:0:0:
256,192,226406,12,0,231595,0:0:0:0:
