osu file format v14

[General]
AudioFilename: audio.mp3
AudioLeadIn: 0
PreviewTime: 79812
Countdown: 0
SampleSet: Soft
StackLeniency: 0.7
Mode: 2
LetterboxInBreaks: 0
WidescreenStoryboard: 1

[Editor]
DistanceSpacing: 0.9
BeatDivisor: 4
GridSize: 4
TimelineZoom: 3.999999

[Metadata]
Title:calling
TitleUnicode:calling
Artist:Alfakyun. x Camellia
ArtistUnicode:+α/あるふぁきゅん。x かめりあ
Creator:alienflybot
Version:Platter
Source:アンダンテ
Tags:+a alfa10alfa KamelCamellia cametek 日日日 Akira 坂ノハル Sakanoharu oto_to_ne 紅緒 Benio murAta Yuz m_Yz WEB小説 Novel Project Andante Opening Theme OPソング 2nd Album αβ叫喚 kyoukan kyokan 歌ってみた utaite utattemita AFB Hareimu rew0825 AJamez Jemzuu
BeatmapID:1679478
BeatmapSetID:649285

[Difficulty]
HPDrainRate:5
CircleSize:3.8
OverallDifficulty:8.2
ApproachRate:8.2
SliderMultiplier:1.68
SliderTickRate:2

[Events]
//Background and Video events
Video,0,"vid.flv"
0,0,"capture.jpg",0,0
//Break Periods
//Storyboard Layer 0 (Background)
//Storyboard Layer 1 (Fail)
//Storyboard Layer 2 (Pass)
//Storyboard Layer 3 (Foreground)
//Storyboard Layer 4 (Overlay)
//Storyboard Sound Samples

[TimingPoints]
29,324.324324324324,4,2,1,80,1,0
3920,-100,4,2,1,100,0,0
4083,-100,4,2,1,60,0,0
4407,-100,4,2,1,60,0,0
4569,-100,4,2,1,80,0,0
5380,-100,4,2,1,60,0,0
5542,-100,4,2,1,80,0,0
5623,-100,4,2,1,60,0,0
5704,-100,4,2,1,80,0,0
5866,-100,4,3,1,100,0,0
6353,-100,4,2,1,80,0,0
6677,-100,4,2,1,60,0,0
7164,-100,4,2,1,80,0,0
7245,-100,4,2,1,60,0,0
7326,-100,4,2,1,80,0,0
7974,-100,4,2,1,60,0,0
8137,-100,4,2,1,80,0,0
8218,-100,4,2,1,60,0,0
8299,-100,4,2,1,80,0,0
8461,-100,4,3,1,100,0,0
8623,-100,4,2,1,60,0,0
9110,-100,4,2,1,80,0,0
9434,-100,4,2,1,60,0,0
9758,-100,4,2,1,80,0,0
10001,-100,4,2,1,40,0,0
10083,-100,4,2,1,80,0,0
10569,-100,4,2,1,60,0,0
10731,-100,4,2,1,80,0,0
10812,-100,4,2,1,60,0,0
10893,-100,4,2,1,80,0,0
11056,-100,4,3,1,100,0,0
11218,-100,4,2,1,60,0,0
11704,-100,4,2,1,80,0,0
11866,-100,4,2,1,60,0,0
12191,-100,4,2,1,80,0,0
12272,-100,4,2,1,60,0,0
12353,-100,4,2,1,80,0,0
12515,-100,4,2,1,100,0,0
12677,-100,4,2,1,40,0,0
12839,-100,4,2,1,100,0,0
13001,-100,4,2,1,60,0,0
13083,-100,4,2,1,55,0,0
13164,-100,4,2,1,60,0,0
13245,-100,4,2,1,65,0,0
13326,-100,4,2,1,70,0,0
13407,-100,4,2,1,75,0,0
13488,-100,4,3,1,80,0,0
13569,-100,4,3,1,40,0,0
13650,-100,4,2,1,100,0,0
14137,-100,4,2,0,80,0,0
14299,-100,4,2,1,40,0,0
14623,-100,4,2,1,60,0,0
14785,-100,4,3,1,80,0,0
14866,-100,4,3,1,60,0,0
14947,-100,4,3,1,80,0,0
15110,-100,4,2,1,60,0,0
15434,-100,4,2,0,100,0,0
15596,-100,4,3,1,40,0,0
15920,-100,4,3,1,45,0,0
16001,-100,4,3,1,50,0,0
16083,-100,4,3,1,57,0,0
16245,-100,4,3,1,80,0,0
16461,-100,4,3,1,85,0,0
16677,-100,4,3,1,90,0,0
16893,-100,4,2,0,80,0,0
17056,-100,4,2,1,40,0,0
17379,-100,4,2,1,60,0,0
17542,-100,4,3,1,80,0,0
17623,-100,4,3,1,60,0,0
17704,-100,4,3,1,80,0,0
17866,-100,4,2,1,60,0,0
18028,-100,4,2,0,100,0,0
18191,-100,4,2,1,100,0,0
18515,-100,4,2,1,60,0,0
18677,-100,4,2,1,100,0,0
19001,-100,4,2,1,100,0,0
19326,-100,4,2,1,53,0,0
19488,-100,4,2,0,80,0,0
19650,-100,4,2,1,60,0,0
19974,-100,4,3,1,80,0,0
20056,-100,4,3,1,40,0,0
20137,-100,4,2,1,80,0,0
20461,-100,4,2,1,60,0,0
20623,-100,4,3,1,80,0,0
20705,-100,4,3,1,40,0,0
20785,-100,4,2,1,60,0,0
21110,-100,4,2,1,80,0,0
21272,-100,4,3,1,60,0,0
21434,-100,4,2,1,80,0,0
21596,-100,4,2,1,60,0,0
22083,-100,4,2,1,80,0,0
22245,-100,4,2,1,40,0,0
22407,-100,4,2,1,80,0,0
22569,-100,4,2,1,40,0,0
22731,-100,4,2,1,80,0,0
22893,-100,4,2,1,40,0,0
22974,-100,4,2,1,60,0,0
23056,-100,4,2,1,80,0,0
23380,-100,4,2,1,80,0,0
24515,-100,4,2,1,60,0,0
24677,-100,4,2,1,45,0,0
24839,-100,4,2,1,55,0,0
25001,-100,4,2,1,65,0,0
25164,-100,4,2,1,70,0,0
25326,-100,4,2,1,75,0,0
25407,-100,4,2,1,70,0,0
25488,-100,4,2,1,75,0,0
25650,-100,4,2,20,90,0,0
25974,-100,4,2,0,80,0,1
26137,-100,4,1,1,40,0,0
26299,-100,4,1,1,80,0,0
26461,-100,4,1,1,60,0,0
26623,-100,4,1,1,70,0,0
26785,-100,4,1,1,50,0,0
26947,-100,4,1,1,80,0,0
27109,-100,4,1,1,70,0,0
27434,-100,4,1,20,70,0,0
27596,-100,4,1,20,60,0,0
27758,-100,4,1,20,70,0,0
27920,-100,4,1,20,60,0,0
28083,-100,4,1,20,70,0,0
28245,-100,4,1,20,60,0,0
28569,-100,4,1,1,70,0,0
28731,-100,4,1,1,40,0,0
28893,-100,4,1,1,80,0,0
29055,-100,4,1,1,60,0,0
29218,-100,4,1,1,70,0,0
29380,-100,4,1,1,50,0,0
29542,-100,4,1,1,80,0,0
29704,-100,4,1,1,70,0,0
30029,-100,4,1,20,70,0,0
30191,-100,4,1,20,60,0,0
30353,-100,4,1,20,70,0,0
30515,-100,4,1,20,60,0,0
30678,-100,4,1,20,70,0,0
30840,-100,4,1,20,60,0,0
31164,-100,4,2,0,70,0,0
31326,-100,4,1,1,40,0,0
31488,-100,4,1,1,80,0,0
31650,-100,4,1,1,60,0,0
31812,-100,4,1,1,70,0,0
31974,-100,4,1,1,50,0,0
32137,-100,4,1,1,80,0,0
32299,-100,4,1,1,70,0,0
32462,-100,4,1,1,60,0,0
32624,-100,4,1,20,70,0,0
32786,-100,4,1,20,60,0,0
32948,-100,4,1,20,70,0,0
33110,-100,4,1,20,60,0,0
33273,-100,4,1,20,70,0,0
33435,-100,4,1,20,60,0,0
33597,-100,4,1,20,70,0,0
34083,-100,4,1,1,80,0,0
34245,-100,4,1,1,60,0,0
34407,-100,4,1,1,70,0,0
34569,-100,4,1,1,50,0,0
34731,-100,4,1,1,80,0,0
34893,-100,4,1,0,90,0,0
35218,-100,4,1,2,90,0,0
35299,-100,4,1,19,53,0,0
35380,-100,4,1,19,48,0,0
35461,-100,4,1,19,45,0,0
35542,-100,4,1,19,48,0,0
35704,-100,4,1,2,90,0,0
35785,-100,4,1,19,65,0,0
35866,-100,4,1,19,55,0,0
36028,-100,4,1,1,80,0,1
36353,-100,4,2,0,80,0,0
36515,-100,4,1,1,40,0,0
36677,-100,4,1,1,80,0,0
36839,-100,4,1,1,60,0,0
37001,-100,4,1,1,70,0,0
37163,-100,4,1,1,50,0,0
37325,-100,4,1,1,80,0,0
37488,-100,4,1,1,70,0,0
37813,-100,4,1,20,70,0,0
37975,-100,4,1,20,60,0,0
38137,-100,4,1,20,70,0,0
38299,-100,4,1,1,70,0,0
38461,-100,4,1,20,70,0,0
38786,-100,4,1,20,70,0,0
38947,-100,4,1,1,70,0,0
39110,-100,4,1,1,40,0,0
39272,-100,4,1,1,80,0,0
39434,-100,4,1,1,60,0,0
39596,-100,4,1,1,70,0,0
39758,-100,4,1,1,60,0,0
39920,-100,4,1,1,80,0,0
40083,-100,4,2,0,80,0,0
40245,-100,4,1,1,40,0,0
40407,-100,4,2,0,80,0,0
40569,-100,4,1,1,40,0,0
40731,-100,4,2,0,60,0,0
40893,-100,4,1,1,40,0,0
41056,-100,4,2,0,70,0,0
41380,-100,4,2,0,80,0,0
41542,-100,4,1,1,45,0,0
41704,-100,4,1,1,50,0,0
41866,-100,4,2,0,80,0,0
42028,-100,4,1,1,60,0,0
42191,-100,4,1,1,70,0,0
42353,-100,4,1,1,60,0,0
42677,-100,4,1,0,70,0,0
42839,-100,4,1,1,40,0,0
43001,-100,4,1,1,70,0,0
43164,-100,4,1,1,80,0,0
43326,-100,4,1,1,60,0,0
43488,-100,4,1,1,70,0,0
43650,-100,4,1,1,60,0,0
43974,-100,4,1,0,75,0,0
44137,-100,4,1,1,40,0,0
44299,-100,4,1,1,70,0,0
44461,-100,4,1,1,80,0,0
44623,-100,4,1,1,60,0,0
44704,-100,4,1,1,40,0,0
44785,-100,4,1,1,70,0,0
44947,-100,4,1,1,80,0,0
45272,-100,4,1,0,80,0,0
45434,-100,4,1,1,40,0,0
45596,-100,4,1,0,90,0,0
46083,-100,4,1,1,60,0,0
46245,-100,4,1,1,48,0,0
46488,-100,4,1,19,53,0,0
46569,-100,4,1,19,60,0,0
46731,-100,4,2,0,60,0,0
46893,-100,4,1,1,40,0,0
47056,-100,4,2,0,60,0,0
47218,-100,4,1,1,40,0,0
47704,-100,4,2,0,60,0,0
47866,-100,4,1,1,40,0,0
48353,-100,4,2,0,60,0,0
48677,-100,4,1,1,40,0,0
49001,-100,4,2,0,60,0,0
49163,-100,4,1,1,40,0,0
49650,-100,4,2,0,60,0,0
49812,-100,4,1,1,40,0,0
50299,-100,4,2,0,60,0,0
50461,-100,4,1,1,40,0,0
50947,-100,4,2,0,60,0,0
51272,-100,4,1,1,40,0,0
51596,-100,4,2,0,60,0,0
51758,-100,4,1,1,40,0,0
51920,-100,4,2,0,60,0,0
52245,-100,4,1,1,80,0,0
52407,-100,4,1,1,40,0,0
52569,-100,4,1,1,80,0,0
52731,-100,4,1,1,40,0,0
52893,-100,4,1,1,80,0,0
53218,-100,4,1,1,60,0,0
53542,-100,4,1,1,80,0,0
53866,-100,4,1,2,80,0,0
54028,-100,4,1,1,38,0,0
54272,-100,4,1,1,43,0,0
54353,-100,4,1,1,58,0,0
54515,-100,4,2,0,80,0,0
54677,-100,4,1,1,40,0,0
55001,-100,4,1,1,60,0,0
55164,-100,4,1,1,80,0,0
55326,-100,4,1,1,40,0,0
55650,-100,4,1,1,50,0,0
55812,-100,4,1,1,60,0,0
55974,-100,4,1,1,40,0,0
56137,-100,4,1,1,60,0,0
56299,-100,4,1,1,40,0,0
56461,-100,4,1,1,80,0,0
56947,-100,4,1,1,40,0,0
57110,-100,4,2,0,70,0,0
57272,-100,4,1,1,40,0,0
57596,-100,4,1,1,70,0,0
57758,-100,4,1,1,90,0,0
58083,-100,4,1,1,40,0,0
58245,-100,4,1,1,60,0,0
58407,-100,4,1,1,40,0,0
58569,-100,4,1,1,60,0,0
58731,-100,4,1,1,40,0,0
59056,-100,4,1,1,90,0,0
59218,-100,4,1,1,40,0,0
59542,-100,4,1,1,60,0,0
59704,-100,4,1,1,80,0,0
59866,-100,4,1,1,40,0,0
60191,-100,4,1,1,70,0,0
60353,-100,4,1,1,90,0,0
60677,-100,4,1,1,40,0,0
60839,-100,4,1,1,60,0,0
61001,-100,4,1,1,40,0,0
61164,-100,4,1,1,60,0,0
61326,-100,4,1,1,40,0,0
61650,-100,4,1,1,90,0,0
61812,-100,4,1,1,40,0,0
61974,-100,4,1,1,60,0,0
62299,-100,4,1,1,80,0,0
62461,-100,4,1,1,40,0,0
62785,-100,4,1,1,70,0,0
62947,-100,4,1,1,90,0,0
63272,-100,4,1,1,40,0,0
63434,-100,4,1,1,60,0,0
63596,-100,4,1,1,40,0,0
63758,-100,4,1,1,60,0,0
63920,-100,4,1,1,40,0,0
64245,-100,4,1,1,90,0,0
64407,-100,4,1,1,40,0,0
64569,-100,4,1,1,60,0,0
64731,-100,4,1,1,40,0,0
64893,-100,4,1,1,60,0,0
65055,-100,4,1,1,50,0,0
65218,-100,4,1,1,70,0,0
65542,-100,4,1,1,60,0,0
65704,-100,4,1,1,50,0,0
65866,-100,4,1,1,70,0,0
66028,-100,4,1,1,50,0,0
66191,-100,4,1,1,60,0,0
66353,-100,4,1,1,50,0,0
66515,-100,4,1,1,70,0,0
66839,-100,4,1,1,60,0,0
67001,-100,4,1,1,50,0,0
67164,-100,4,1,1,70,0,0
67488,-100,4,2,0,60,0,0
67812,-100,4,1,1,60,0,0
67974,-100,4,1,1,50,0,0
68137,-100,4,1,1,30,0,0
68299,-100,4,1,1,50,0,0
68461,-100,4,1,1,60,0,0
68623,-100,4,1,1,50,0,0
68785,-100,4,1,1,30,0,0
68947,-100,4,1,1,50,0,0
69110,-100,4,1,1,60,0,0
69272,-100,4,1,1,50,0,0
69758,-100,4,1,1,60,0,0
69839,-100,4,1,1,45,0,0
69920,-100,4,1,1,35,0,0
70083,-100,4,1,2,80,0,0
70245,-100,4,1,1,50,0,0
70407,-100,4,1,1,60,0,0
70569,-100,4,1,1,50,0,0
70731,-100,4,1,1,30,0,0
70893,-100,4,1,1,50,0,0
71056,-100,4,1,1,40,0,0
71218,-100,4,1,1,50,0,0
71542,-100,4,1,1,30,0,0
71704,-100,4,1,1,40,0,0
72028,-100,4,2,0,30,0,0
72191,-100,4,1,1,40,0,0
72353,-100,4,1,19,40,0,0
72515,-100,4,1,19,50,0,0
72677,-100,4,2,0,70,0,0
72839,-100,4,1,1,40,0,0
73001,-100,4,1,2,60,0,0
73164,-100,4,1,1,40,0,0
73326,-100,4,1,2,60,0,0
73974,-100,4,1,1,60,0,0
74137,-100,4,1,1,40,0,0
74299,-100,4,1,2,60,0,0
74462,-100,4,1,1,40,0,0
74623,-100,4,1,2,60,0,0
74786,-100,4,1,1,40,0,0
74947,-100,4,1,1,60,0,0
75028,-100,4,1,1,40,0,0
75109,-100,4,1,1,60,0,0
75272,-100,4,2,0,60,0,0
75434,-100,4,1,2,40,0,0
75596,-100,4,1,2,60,0,0
75920,-100,4,1,2,40,0,0
76082,-100,4,1,2,60,0,0
76407,-100,4,1,2,80,0,0
76731,-100,4,1,2,40,0,0
76893,-100,4,1,2,60,0,0
77218,-100,4,1,2,40,0,0
77380,-100,4,1,2,60,0,0
77542,-100,4,1,19,40,0,0
77623,-100,4,1,19,37,0,0
77704,-100,4,1,19,40,0,0
77866,-100,4,2,0,70,0,0
78028,-100,4,1,2,50,0,0
78191,-100,4,1,2,70,0,0
78515,-100,4,1,2,50,0,0
78678,-100,4,1,2,70,0,0
78839,-100,4,1,2,50,0,0
79001,-100,4,2,0,80,0,0
79164,-100,4,1,1,37,0,0
79488,-100,4,1,19,12,0,0
79812,-100,4,1,2,60,0,0
79974,-100,4,1,19,43,0,0
80137,-100,4,1,1,35,0,0
80299,-100,4,1,19,25,0,0
80461,-100,4,2,0,80,0,1
80623,-100,4,1,1,20,0,1
80785,-100,4,1,1,80,0,1
81110,-100,4,1,1,70,0,1
81272,-100,4,1,1,60,0,1
81434,-100,4,1,1,80,0,1
81596,-100,4,1,1,60,0,1
81758,-100,4,1,1,70,0,1
81920,-100,4,1,1,60,0,1
82083,-100,4,1,1,80,0,1
82245,-100,4,1,1,60,0,1
82407,-100,4,1,1,70,0,1
82569,-100,4,1,1,60,0,1
82731,-100,4,1,1,80,0,1
83218,-100,4,1,1,20,0,1
83380,-100,4,1,1,80,0,1
83704,-100,4,1,1,70,0,1
83866,-100,4,1,1,60,0,1
84028,-100,4,1,1,80,0,1
84190,-100,4,1,1,60,0,1
84353,-100,4,1,1,70,0,1
84515,-100,4,1,1,60,0,1
84677,-100,4,1,1,80,0,1
84839,-100,4,1,1,60,0,1
85001,-100,4,1,1,70,0,1
85163,-100,4,1,1,60,0,1
85326,-100,4,1,1,80,0,1
85650,-100,4,2,0,80,0,1
85812,-100,4,1,1,20,0,1
85974,-100,4,1,1,80,0,1
86299,-100,4,1,1,70,0,1
86461,-100,4,1,1,60,0,1
86623,-100,4,1,1,80,0,1
86786,-100,4,1,1,60,0,1
86947,-100,4,1,1,70,0,1
87109,-100,4,1,1,60,0,1
87272,-100,4,1,1,80,0,1
87435,-100,4,1,1,60,0,1
87596,-100,4,1,1,70,0,1
87758,-100,4,1,1,60,0,1
88245,-100,4,1,1,70,0,1
88407,-100,4,1,1,60,0,1
88569,-100,4,1,1,80,0,1
88732,-100,4,1,1,60,0,1
88893,-100,4,1,1,70,0,1
89055,-100,4,1,1,60,0,1
89218,-100,4,1,1,80,0,1
89381,-100,4,1,1,60,0,1
89542,-100,4,1,2,90,0,0
89704,-100,4,1,19,53,0,0
89785,-100,4,1,19,48,0,0
89866,-100,4,1,2,90,0,0
90028,-100,4,1,19,53,0,0
90110,-100,4,1,19,60,0,0
90191,-100,4,1,2,90,0,0
90353,-100,4,1,19,55,0,0
90515,-100,4,1,1,80,0,0
90678,-100,4,1,1,60,0,0
90839,-100,4,2,0,80,0,1
91001,-100,4,2,0,20,0,1
91164,-100,4,1,1,80,0,1
91488,-100,4,1,1,70,0,1
91650,-100,4,1,1,60,0,1
91812,-100,4,1,1,80,0,1
91974,-100,4,1,1,60,0,1
92137,-100,4,1,1,70,0,1
92299,-100,4,1,1,60,0,1
92461,-100,4,1,1,80,0,1
92623,-100,4,1,1,60,0,1
92785,-100,4,1,1,70,0,1
92947,-100,4,1,1,60,0,1
93109,-100,4,1,1,80,0,1
93271,-100,4,1,1,80,0,1
93596,-100,4,1,1,20,0,1
93758,-100,4,1,1,80,0,1
94083,-100,4,1,1,70,0,1
94407,-100,4,1,1,80,0,1
94569,-100,4,2,0,70,0,1
94731,-100,4,1,1,20,0,1
94893,-100,4,2,0,80,0,1
95056,-100,4,1,1,40,0,1
95218,-100,4,2,0,70,0,1
95381,-100,4,1,1,40,0,1
95542,-100,4,2,0,80,0,1
95866,-100,4,1,1,33,0,1
96028,-100,4,1,1,80,0,0
96191,-100,4,2,1,40,0,0
96353,-100,4,2,1,60,0,0
96515,-100,4,3,1,80,0,0
96597,-100,4,3,1,40,0,0
96678,-100,4,2,1,80,0,0
96840,-100,4,2,1,60,0,0
97001,-100,4,3,1,80,0,0
97245,-100,4,3,1,40,0,0
97326,-100,4,2,1,60,0,0
97651,-100,4,2,1,80,0,0
97813,-100,4,3,1,60,0,0
97975,-100,4,2,1,80,0,0
98137,-100,4,2,1,60,0,0
98623,-100,4,2,1,80,0,0
98785,-100,4,2,1,40,0,0
98947,-100,4,2,1,80,0,0
99109,-100,4,2,1,40,0,0
99271,-100,4,2,1,80,0,0
99433,-100,4,2,1,40,0,0
99514,-100,4,2,1,60,0,0
99596,-100,4,2,1,80,0,0
99920,-100,4,2,1,80,0,0
101055,-100,4,2,1,60,0,0
101218,-100,4,2,1,45,0,0
101380,-100,4,2,1,55,0,0
101542,-100,4,2,1,65,0,0
101705,-100,4,2,1,70,0,0
101867,-100,4,2,1,75,0,0
101948,-100,4,2,1,70,0,0
102029,-100,4,2,1,75,0,0
102191,-100,4,2,20,90,0,0
102515,-100,4,2,0,80,0,1
102677,-100,4,1,1,40,0,0
102839,-100,4,1,1,80,0,0
103002,-100,4,1,1,60,0,0
103164,-100,4,1,1,70,0,0
103326,-100,4,1,1,50,0,0
103488,-100,4,1,1,80,0,0
103650,-100,4,1,1,70,0,0
103813,-100,4,1,1,60,0,0
103975,-100,4,1,20,70,0,0
104137,-100,4,1,20,60,0,0
104299,-100,4,1,20,70,0,0
104461,-100,4,1,20,60,0,0
104624,-100,4,1,20,70,0,0
104786,-100,4,1,20,60,0,0
105110,-100,4,1,1,70,0,0
105272,-100,4,1,1,40,0,0
105434,-100,4,1,1,80,0,0
105596,-100,4,1,1,60,0,0
105759,-100,4,1,1,70,0,0
105921,-100,4,1,1,50,0,0
106083,-100,4,1,1,80,0,0
106245,-100,4,1,1,70,0,0
106407,-100,4,1,1,60,0,0
106569,-100,4,1,20,70,0,0
106731,-100,4,1,20,60,0,0
106893,-100,4,1,20,70,0,0
107055,-100,4,1,20,60,0,0
107218,-100,4,1,20,70,0,0
107380,-100,4,1,20,60,0,0
107704,-100,4,2,0,70,0,0
107866,-100,4,1,1,40,0,0
108028,-100,4,1,1,80,0,0
108190,-100,4,1,1,60,0,0
108352,-100,4,1,1,70,0,0
108514,-100,4,1,1,50,0,0
108677,-100,4,1,1,80,0,0
108839,-100,4,1,1,70,0,0
109001,-100,4,1,1,60,0,0
109163,-100,4,1,20,70,0,0
109325,-100,4,1,20,60,0,0
109487,-100,4,1,20,70,0,0
109649,-100,4,1,20,60,0,0
109812,-100,4,1,20,70,0,0
109974,-100,4,1,20,60,0,0
110136,-100,4,1,20,70,0,0
110623,-100,4,1,1,80,0,0
110785,-100,4,1,1,60,0,0
110947,-100,4,1,1,70,0,0
111110,-100,4,1,1,50,0,0
111272,-100,4,1,1,80,0,0
111434,-100,4,1,0,90,0,0
111758,-100,4,1,2,90,0,0
111839,-100,4,1,19,53,0,0
111920,-100,4,1,19,48,0,0
112001,-100,4,1,19,45,0,0
112082,-100,4,1,19,48,0,0
112244,-100,4,1,2,90,0,0
112325,-100,4,1,19,65,0,0
112406,-100,4,1,19,55,0,0
112569,-100,4,1,1,80,0,1
112893,-100,4,2,0,80,0,0
113056,-100,4,1,1,40,0,0
113218,-100,4,1,1,80,0,0
113380,-100,4,1,1,60,0,0
113542,-100,4,1,1,70,0,0
113704,-100,4,1,1,50,0,0
113866,-100,4,1,1,80,0,0
114029,-100,4,1,1,70,0,0
114192,-100,4,1,1,60,0,0
114354,-100,4,1,20,70,0,0
114516,-100,4,1,20,60,0,0
114678,-100,4,1,20,70,0,0
114840,-100,4,1,1,60,0,0
115003,-100,4,1,20,70,0,0
115488,-100,4,1,1,70,0,0
115651,-100,4,1,1,40,0,0
115813,-100,4,1,1,80,0,0
115975,-100,4,1,1,60,0,0
116137,-100,4,1,1,70,0,0
116299,-100,4,1,1,60,0,0
116461,-100,4,1,1,80,0,0
116623,-100,4,2,0,80,0,0
116785,-100,4,1,1,40,0,0
116947,-100,4,2,0,80,0,0
117109,-100,4,1,1,40,0,0
117271,-100,4,2,0,60,0,0
117433,-100,4,1,1,40,0,0
117596,-100,4,2,0,70,0,0
117920,-100,4,2,0,80,0,0
118082,-100,4,1,1,45,0,0
118244,-100,4,1,1,50,0,0
118406,-100,4,2,0,80,0,0
118568,-100,4,1,1,60,0,0
118731,-100,4,1,1,70,0,0
118893,-100,4,1,1,60,0,0
119217,-100,4,1,0,70,0,0
119379,-100,4,1,1,40,0,0
119541,-100,4,1,1,70,0,0
119704,-100,4,1,1,80,0,0
119866,-100,4,1,1,60,0,0
120028,-100,4,1,1,70,0,0
120190,-100,4,1,1,60,0,0
120515,-100,4,1,0,75,0,0
120678,-100,4,1,1,40,0,0
120840,-100,4,1,1,70,0,0
121002,-100,4,1,1,80,0,0
121164,-100,4,1,1,60,0,0
121245,-100,4,1,1,40,0,0
121326,-100,4,1,1,70,0,0
121488,-100,4,1,1,80,0,0
121812,-100,4,1,0,80,0,0
121975,-100,4,1,1,40,0,0
122137,-100,4,1,0,90,0,0
122623,-100,4,1,1,60,0,0
122785,-100,4,1,1,48,0,0
123028,-100,4,1,19,53,0,0
123110,-100,4,1,19,60,0,0
123272,-100,4,2,0,60,0,0
123758,-100,4,1,1,40,0,0
123920,-100,4,2,0,60,0,0
124407,-100,4,1,1,40,0,0
124569,-100,4,2,0,60,0,0
124732,-100,4,1,1,40,0,0
124893,-100,4,2,0,60,0,0
125056,-100,4,1,1,20,0,0
125542,-100,4,1,1,60,0,0
125704,-100,4,1,1,8,0,0
125866,-100,4,2,0,60,0,0
126515,-100,4,1,1,40,0,0
127164,-100,4,2,0,60,0,0
127326,-100,4,1,1,40,0,0
127488,-100,4,2,0,60,0,0
127812,-100,4,1,1,60,0,0
127974,-100,4,1,1,20,0,0
128056,-100,4,1,1,60,0,0
128137,-100,4,1,1,40,0,0
128299,-100,4,1,1,60,0,0
128461,-100,4,2,0,60,0,0
129272,-100,4,1,1,40,0,0
129353,-100,4,1,1,25,0,0
129434,-100,4,1,1,30,0,0
129596,-100,4,1,1,40,0,0
129920,-100,4,1,1,10,0,0
130001,-100,4,1,1,40,0,0
130083,-100,4,1,1,20,0,0
130245,-100,4,1,1,40,0,0
130407,-100,4,1,1,60,0,0
131056,-100,4,2,0,80,0,0
131218,-100,4,1,1,40,0,0
131542,-100,4,1,1,60,0,0
131705,-100,4,1,1,80,0,0
131867,-100,4,1,1,40,0,0
132191,-100,4,1,1,50,0,0
132353,-100,4,1,1,60,0,0
132515,-100,4,1,1,40,0,0
132678,-100,4,1,1,60,0,0
132840,-100,4,1,1,40,0,0
133002,-100,4,1,1,80,0,0
133488,-100,4,1,1,40,0,0
133650,-100,4,2,0,70,0,0
133812,-100,4,1,1,40,0,0
133974,-100,4,1,1,50,0,0
134137,-100,4,1,1,40,0,0
134299,-100,4,2,17,50,0,0
134623,-100,4,1,1,50,0,0
134786,-100,4,1,1,40,0,0
134947,-100,4,2,17,50,0,0
135109,-100,4,1,1,40,0,0
135271,-100,4,1,1,50,0,0
135596,-100,4,2,17,60,0,0
135759,-100,4,1,1,40,0,0
135920,-100,4,2,17,60,0,0
136083,-100,4,1,1,40,0,0
136245,-100,4,2,17,50,0,0
136407,-100,4,1,1,40,0,0
136569,-100,4,1,1,50,0,0
136732,-100,4,1,1,40,0,0
136893,-100,4,2,17,50,0,0
137218,-100,4,1,1,50,0,0
137381,-100,4,1,1,40,0,0
137542,-100,4,2,17,50,0,0
137704,-100,4,1,1,40,0,0
137867,-100,4,1,1,50,0,0
138191,-100,4,2,17,60,0,0
138353,-100,4,1,1,30,0,0
138515,-100,4,1,1,60,0,0
138677,-100,4,1,1,40,0,0
138758,-100,4,1,1,20,0,0
138839,-100,4,2,17,50,0,0
139001,-100,4,1,1,40,0,0
139163,-100,4,1,1,50,0,0
139488,-100,4,2,17,50,0,0
139650,-100,4,1,1,40,0,0
139813,-100,4,1,1,50,0,0
139976,-100,4,1,1,40,0,0
140137,-100,4,2,17,50,0,0
140299,-100,4,1,1,40,0,0
140785,-100,4,1,1,60,0,0
140947,-100,4,1,1,40,0,0
141110,-100,4,1,1,60,0,0
141272,-100,4,1,1,20,0,0
141434,-100,4,1,1,60,0,0
141596,-100,4,1,1,50,0,0
141759,-100,4,1,1,70,0,0
142083,-100,4,1,1,60,0,0
142245,-100,4,1,1,50,0,0
142407,-100,4,1,1,70,0,0
142569,-100,4,1,1,50,0,0
143055,-100,4,1,1,70,0,0
143380,-100,4,1,1,60,0,0
143542,-100,4,1,1,50,0,0
143705,-100,4,1,1,70,0,0
144029,-100,4,2,0,60,0,0
144191,-100,4,1,1,50,0,0
144353,-100,4,1,1,60,0,0
144515,-100,4,1,1,50,0,0
144678,-100,4,1,1,30,0,0
144840,-100,4,1,1,50,0,0
145002,-100,4,1,1,60,0,0
145164,-100,4,1,1,50,0,0
145326,-100,4,1,1,30,0,0
145488,-100,4,1,1,50,0,0
145651,-100,4,1,1,60,0,0
145813,-100,4,1,1,50,0,0
146299,-100,4,1,1,60,0,0
146380,-100,4,1,1,50,0,0
146461,-100,4,1,1,35,0,0
146623,-100,4,1,2,80,0,0
146785,-100,4,1,1,50,0,0
146947,-100,4,1,1,60,0,0
147109,-100,4,1,1,50,0,0
147271,-100,4,1,1,30,0,0
147433,-100,4,1,1,50,0,0
147596,-100,4,1,1,40,0,0
147758,-100,4,1,1,50,0,0
148082,-100,4,1,1,30,0,0
148244,-100,4,1,1,40,0,0
148569,-100,4,2,0,30,0,0
148731,-100,4,1,1,40,0,0
148894,-100,4,1,19,40,0,0
149056,-100,4,1,19,50,0,0
149218,-100,4,2,0,70,0,0
149380,-100,4,1,1,40,0,0
149542,-100,4,1,2,60,0,0
149705,-100,4,1,1,40,0,0
149867,-100,4,1,2,60,0,0
150515,-100,4,1,1,60,0,0
150678,-100,4,1,1,40,0,0
150840,-100,4,1,2,60,0,0
151003,-100,4,1,1,40,0,0
151164,-100,4,1,2,60,0,0
151327,-100,4,1,1,40,0,0
151488,-100,4,1,1,60,0,0
151569,-100,4,1,1,40,0,0
151650,-100,4,1,1,60,0,0
151813,-100,4,2,0,60,0,0
151975,-100,4,1,2,40,0,0
152137,-100,4,1,2,60,0,0
152461,-100,4,1,2,40,0,0
152623,-100,4,1,2,60,0,0
152948,-100,4,1,2,80,0,0
153272,-100,4,1,2,40,0,0
153434,-100,4,1,2,60,0,0
153759,-100,4,1,2,40,0,0
153921,-100,4,1,2,60,0,0
154083,-100,4,1,19,40,0,0
154164,-100,4,1,19,37,0,0
154245,-100,4,1,19,40,0,0
154407,-100,4,2,0,70,0,0
154569,-100,4,1,2,50,0,0
154732,-100,4,1,2,70,0,0
155056,-100,4,1,2,50,0,0
155219,-100,4,1,2,70,0,0
155380,-100,4,1,2,50,0,0
155542,-100,4,2,0,80,0,0
155705,-100,4,1,19,40,0,0
156028,-100,4,1,19,30,0,0
156353,-100,4,1,19,22,0,0
156677,-100,4,1,19,16,0,0
157001,-100,4,1,19,10,0,0
157326,-100,4,1,1,60,0,0
157650,324.324324324324,4,2,0,60,1,0
157974,-100,4,2,0,40,0,0
158298,-100,4,1,1,40,0,0
158947,-100,4,1,1,10,0,0
159109,-100,4,1,1,20,0,0
159271,-100,4,1,1,40,0,0
160082,-100,4,2,0,40,0,0
160244,-100,4,1,1,40,0,0
160406,-100,4,1,1,20,0,0
160568,-100,4,1,1,40,0,0
160731,-100,4,1,1,20,0,0
160893,-100,4,1,1,40,0,0
161541,-100,4,1,1,20,0,0
161704,-100,4,1,1,40,0,0
162190,-100,4,1,1,20,0,0
162352,-100,4,1,1,40,0,0
162677,-100,4,2,0,40,0,0
163325,-100,4,1,1,20,0,0
163487,-100,4,1,1,40,0,0
164136,-100,4,1,1,20,0,0
164298,-100,4,1,1,40,0,0
164460,-100,4,1,1,20,0,0
164622,-100,4,1,1,40,0,0
164785,-100,4,1,1,20,0,0
164947,-100,4,1,1,40,0,0
165271,-100,4,2,0,40,0,0
165433,-100,4,1,1,20,0,0
165595,-100,4,2,0,40,0,0
165920,-100,4,1,1,20,0,0
166244,-100,4,1,1,40,0,0
166406,-100,4,1,1,20,0,0
166568,-100,4,1,1,40,0,0
166730,-100,4,1,1,50,0,0
166893,-100,4,1,1,40,0,0
167055,-100,4,1,1,60,0,0
167136,-100,4,1,1,40,0,0
167217,-100,4,1,1,33,0,0
167379,-100,4,1,1,70,0,0
167866,-100,4,2,0,80,0,0
168028,-100,4,2,1,40,0,0
168352,-100,4,2,1,60,0,0
168514,-100,4,3,1,80,0,0
168595,-100,4,3,1,60,0,0
168676,-100,4,3,1,80,0,0
168839,-100,4,2,1,60,0,0
169163,-100,4,2,0,100,0,0
169325,-100,4,2,1,40,0,0
169487,-100,4,3,1,40,0,0
169649,-100,4,3,1,45,0,0
169730,-100,4,3,1,50,0,0
169812,-100,4,3,1,57,0,0
169974,-100,4,3,1,80,0,0
170190,-100,4,3,1,85,0,0
170406,-100,4,3,1,90,0,0
170622,-100,4,2,0,80,0,0
170785,-100,4,2,1,40,0,0
171108,-100,4,2,1,60,0,0
171271,-100,4,3,1,80,0,0
171352,-100,4,3,1,60,0,0
171433,-100,4,3,1,80,0,0
171595,-100,4,2,1,60,0,0
171758,-100,4,2,0,100,0,0
171920,-100,4,2,1,40,0,0
172082,-100,4,2,1,100,0,0
172244,-100,4,2,1,60,0,0
172406,-100,4,2,1,100,0,0
172568,-100,4,2,1,60,0,0
172731,-100,4,2,1,100,0,0
173056,-100,4,2,1,53,0,0
173217,-100,4,2,0,80,0,0
173379,-100,4,2,1,60,0,0
173541,-100,4,3,1,40,0,0
173866,-100,4,3,1,45,0,0
174028,-100,4,3,1,50,0,0
174190,-100,4,3,1,57,0,0
174514,-100,4,3,1,45,0,0
174677,-100,4,3,1,47,0,0
174839,-100,4,3,1,50,0,0
175163,-100,4,3,1,62,0,0
175325,-100,4,3,1,72,0,0
175487,-100,4,3,1,60,0,0
175649,-100,4,3,1,70,0,0
175812,-100,4,3,1,40,0,0
176136,-100,4,3,1,45,0,0
176460,-100,4,3,1,38,0,0
176622,-100,4,3,1,42,0,0
176785,-100,4,3,1,40,0,0
176947,-100,4,3,1,52,0,0
177109,-100,4,1,1,60,0,0
177352,-100,4,1,1,62,0,0
177595,-100,4,1,1,64,0,0
177758,-100,4,1,1,60,0,0
178001,-100,4,1,1,62,0,0
178244,-100,4,1,1,64,0,0
178406,-100,4,2,0,60,0,0
178568,-100,4,1,2,40,0,0
178730,-100,4,1,2,60,0,0
179054,-100,4,1,2,40,0,0
179216,-100,4,1,2,60,0,0
179541,-100,4,1,2,80,0,0
179865,-100,4,1,2,40,0,0
180027,-100,4,1,2,60,0,0
180352,-100,4,1,2,40,0,0
180514,-100,4,1,2,60,0,0
180677,-100,4,1,19,40,0,0
180758,-100,4,1,19,37,0,0
180839,-100,4,1,19,40,0,0
181001,-100,4,2,0,70,0,0
181163,-100,4,1,2,50,0,0
181326,-100,4,1,2,70,0,0
181650,-100,4,1,2,50,0,0
181813,-100,4,1,2,70,0,0
181974,-100,4,1,2,50,0,0
182136,-100,4,2,0,80,0,0
182299,-100,4,1,19,37,0,0
182461,-100,4,1,19,20,0,0
182623,-100,4,1,19,12,0,0
182947,-100,4,1,2,60,0,0
183109,-100,4,1,19,43,0,0
183271,-100,4,1,2,55,0,0
183433,-100,4,2,1,60,0,0
183595,-100,4,2,1,10,0,0
183920,-100,4,2,0,80,0,1
184245,-100,4,1,1,70,0,1
184407,-100,4,1,1,60,0,1
184569,-100,4,1,1,80,0,1
184731,-100,4,1,1,60,0,1
184893,-100,4,1,1,70,0,1
185055,-100,4,1,1,60,0,1
185218,-100,4,1,1,80,0,1
185380,-100,4,1,1,60,0,1
185542,-100,4,1,1,70,0,1
185704,-100,4,1,1,60,0,1
185866,-100,4,1,1,80,0,1
186352,-100,4,1,1,20,0,1
186514,-100,4,1,1,80,0,1
186839,-100,4,1,1,70,0,1
187001,-100,4,1,1,60,0,1
187163,-100,4,1,1,80,0,1
187325,-100,4,1,1,60,0,1
187487,-100,4,1,1,70,0,1
187649,-100,4,1,1,60,0,1
187811,-100,4,1,1,80,0,1
187973,-100,4,1,1,60,0,1
188135,-100,4,1,1,70,0,1
188298,-100,4,1,1,60,0,1
188461,-100,4,1,1,80,0,1
188785,-100,4,2,0,80,0,1
188947,-100,4,1,1,20,0,1
189109,-100,4,1,1,80,0,1
189433,-100,4,1,1,70,0,1
189595,-100,4,1,1,60,0,1
189758,-100,4,1,1,80,0,1
189920,-100,4,1,1,60,0,1
190081,-100,4,1,1,70,0,1
190244,-100,4,1,1,60,0,1
190406,-100,4,1,1,80,0,1
190568,-100,4,1,1,60,0,1
190731,-100,4,1,1,70,0,1
190893,-100,4,1,1,60,0,1
191379,-100,4,1,1,70,0,1
191541,-100,4,1,1,60,0,1
191704,-100,4,1,1,80,0,1
191866,-100,4,1,1,60,0,1
192028,-100,4,1,1,70,0,1
192677,-100,4,1,2,90,0,0
192839,-100,4,1,19,53,0,0
192920,-100,4,1,19,48,0,0
193001,-100,4,1,2,90,0,0
193163,-100,4,1,19,53,0,0
193245,-100,4,1,19,60,0,0
193326,-100,4,1,2,90,0,0
193488,-100,4,1,19,55,0,0
193650,-100,4,1,1,80,0,0
193813,-100,4,1,1,60,0,0
193974,-100,4,2,0,80,0,1
194136,-100,4,2,0,20,0,1
194298,-100,4,1,1,80,0,1
194622,-100,4,1,1,70,0,1
194785,-100,4,1,1,60,0,1
194947,-100,4,1,1,80,0,1
195109,-100,4,1,1,60,0,1
195271,-100,4,1,1,70,0,1
195433,-100,4,1,1,60,0,1
195595,-100,4,1,1,80,0,1
195758,-100,4,1,1,60,0,1
195920,-100,4,1,1,70,0,1
196082,-100,4,1,1,60,0,1
196244,-100,4,1,1,80,0,1
196731,-100,4,1,1,20,0,1
196893,-100,4,1,1,80,0,1
197217,-100,4,1,1,70,0,1
197541,-100,4,1,1,80,0,1
197704,-100,4,2,0,70,0,1
197866,-100,4,1,1,20,0,1
198028,-100,4,2,0,80,0,1
198190,-100,4,1,1,40,0,1
198352,-100,4,2,0,70,0,1
198514,-100,4,1,1,40,0,1
198677,-100,4,2,0,80,0,1
199001,-100,4,1,1,33,0,1
199163,-100,4,1,1,80,0,0
199325,-100,4,2,1,40,0,0
199487,-100,4,2,1,60,0,0
199649,-100,4,3,1,80,0,0
199731,-100,4,3,1,40,0,0
199812,-100,4,2,1,80,0,0
199974,-100,4,2,1,60,0,0
200136,-100,4,3,1,80,0,0
200379,-100,4,3,1,40,0,0
200460,-100,4,2,1,60,0,0
200785,-100,4,2,1,80,0,0
200947,-100,4,3,1,60,0,0
201109,-100,4,2,1,80,0,0
201271,-100,4,2,1,60,0,0
201758,-100,4,2,1,80,0,0
201920,-100,4,2,1,40,0,0
202082,-100,4,2,1,80,0,0
202244,-100,4,2,1,40,0,0
202406,-100,4,2,1,80,0,0
202568,-100,4,2,1,40,0,0
202649,-100,4,2,1,60,0,0
202731,-100,4,2,1,80,0,0
204190,-100,4,2,1,60,0,0
204352,-100,4,2,1,45,0,0
204514,-100,4,2,1,55,0,0
204677,-100,4,2,1,65,0,0
204839,-100,4,2,1,70,0,0
205001,-100,4,2,1,75,0,0
205082,-100,4,2,1,70,0,0
205163,-100,4,2,1,75,0,0
205325,-100,4,2,20,90,0,0
205649,-100,4,2,0,80,0,1
205812,-100,4,1,1,40,0,0
205974,-100,4,1,1,80,0,0
206136,-100,4,1,1,60,0,0
206298,-100,4,1,1,70,0,0
206460,-100,4,1,1,50,0,0
206622,-100,4,1,1,80,0,0
206785,-100,4,1,1,70,0,0
206947,-100,4,1,1,60,0,0
207109,-100,4,1,20,70,0,0
207271,-100,4,1,20,60,0,0
207433,-100,4,1,20,70,0,0
207595,-100,4,1,20,60,0,0
207758,-100,4,1,20,70,0,0
207920,-100,4,1,20,60,0,0
208244,-100,4,1,1,70,0,0
208406,-100,4,1,1,40,0,0
208568,-100,4,1,1,80,0,0
208731,-100,4,1,1,60,0,0
208893,-100,4,1,1,70,0,0
209055,-100,4,1,1,50,0,0
209217,-100,4,1,1,80,0,0
209379,-100,4,1,1,70,0,0
209541,-100,4,1,1,60,0,0
209704,-100,4,1,20,70,0,0
209866,-100,4,1,20,60,0,0
210028,-100,4,1,20,70,0,0
210190,-100,4,1,20,60,0,0
210352,-100,4,1,20,70,0,0
210514,-100,4,1,20,60,0,0
210839,-100,4,2,0,70,0,0
211001,-100,4,1,1,40,0,0
211163,-100,4,1,1,80,0,0
211325,-100,4,1,1,60,0,0
211487,-100,4,1,1,70,0,0
211649,-100,4,1,1,50,0,0
211812,-100,4,1,1,80,0,0
211974,-100,4,1,1,70,0,0
212136,-100,4,1,1,60,0,0
212298,-100,4,1,20,70,0,0
212460,-100,4,1,20,60,0,0
212622,-100,4,1,20,70,0,0
212785,-100,4,1,20,60,0,0
212947,-100,4,1,20,70,0,0
213109,-100,4,1,20,60,0,0
213271,-100,4,1,20,70,0,0
213595,-100,4,1,1,40,0,0
213758,-100,4,1,1,80,0,0
213920,-100,4,1,1,60,0,0
214082,-100,4,1,1,70,0,0
214244,-100,4,1,1,50,0,0
214406,-100,4,1,1,80,0,0
214568,-100,4,1,0,90,0,0
214893,-100,4,1,2,90,0,0
214974,-100,4,1,19,53,0,0
215055,-100,4,1,19,48,0,0
215136,-100,4,1,19,45,0,0
215217,-100,4,1,19,48,0,0
215379,-100,4,1,2,90,0,0
215460,-100,4,1,19,65,0,0
215541,-100,4,1,19,55,0,0
215704,-100,4,1,1,80,0,1
216028,-100,4,2,0,80,0,0
216190,-100,4,1,1,40,0,0
216352,-100,4,1,1,80,0,0
216514,-100,4,1,1,60,0,0
216677,-100,4,1,1,70,0,0
216839,-100,4,1,1,50,0,0
217001,-100,4,1,1,80,0,0
217163,-100,4,1,1,70,0,0
217325,-100,4,1,1,60,0,0
217487,-100,4,1,20,70,0,0
217649,-100,4,1,20,60,0,0
217812,-100,4,1,20,70,0,0
217974,-100,4,1,1,60,0,0
218136,-100,4,1,20,70,0,0
218622,-100,4,1,1,70,0,0
218785,-100,4,1,1,40,0,0
218947,-100,4,1,1,80,0,0
219109,-100,4,1,1,60,0,0
219271,-100,4,1,1,70,0,0
219433,-100,4,1,1,60,0,0
219595,-100,4,1,1,80,0,0
219758,-100,4,2,0,80,0,0
219920,-100,4,1,1,40,0,0
220082,-100,4,2,0,80,0,0
220244,-100,4,1,1,40,0,0
220406,-100,4,2,0,60,0,0
220568,-100,4,1,1,40,0,0
220731,-100,4,2,0,70,0,0
221055,-100,4,2,0,80,0,0
221217,-100,4,1,1,45,0,0
221379,-100,4,1,1,50,0,0
221541,-100,4,2,0,80,0,0
221704,-100,4,1,1,60,0,0
221866,-100,4,1,1,70,0,0
222028,-100,4,1,1,60,0,0
222352,-100,4,1,0,70,0,0
222514,-100,4,1,1,40,0,0
222677,-100,4,1,1,70,0,0
222839,-100,4,1,1,80,0,0
223001,-100,4,1,1,60,0,0
223163,-100,4,1,1,70,0,0
223325,-100,4,1,1,60,0,0
223649,-100,4,1,0,75,0,0
223812,-100,4,1,1,40,0,0
223974,-100,4,1,1,70,0,0
224136,-100,4,1,1,80,0,0
224298,-100,4,1,1,60,0,0
224379,-100,4,1,1,40,0,0
224460,-100,4,1,1,70,0,0
224622,-100,4,1,1,80,0,0
224947,-100,4,1,0,80,0,0
225109,-100,4,1,1,40,0,0
225271,-100,4,1,0,90,0,0
225758,-100,4,1,1,60,0,0
225920,-100,4,1,1,48,0,0
226244,-100,4,2,0,80,0,0
226406,-100,4,1,0,60,0,0
226731,-100,4,1,0,50,0,0
227055,-100,4,1,0,43,0,0
227379,-100,4,1,0,35,0,0
227704,-100,4,1,0,30,0,0
228028,-100,4,1,0,23,0,0
228352,-100,4,1,0,20,0,0
228677,-100,4,1,0,17,0,0
228839,-100,4,1,0,10,0,0
229001,-100,4,1,0,20,0,0
229325,-100,4,1,0,22,0,0
229649,-100,4,1,0,25,0,0
229974,-100,4,1,0,29,0,0
230298,-100,4,1,0,34,0,0
230622,-100,4,1,0,40,0,0
230947,-100,4,1,0,47,0,0
231109,-100,4,1,0,60,0,1
231595,-100,4,1,60,20,0,0

[Colours]
Combo1 : 34,208,210
Combo2 : 34,252,108
Combo3 : 238,218,20
Combo4 : 240,51,249

[HitObjects]
400,328,3272,5,2,0:0:0:0:
496,296,3434,2,0,L|504:128,1,168,2|2,0:0|0:0,0:0:0:0:
280,236,3920,5,4,0:0:0:0:
196,184,4083,1,0,0:0:0:0:
284,140,4245,1,0,0:0:0:0:
452,108,4407,1,0,0:0:0:0:
464,68,4488,1,0,0:0:0:0:
452,28,4569,2,0,L|368:20,1,84,2|2,0:0|0:0,0:0:0:0:
224,284,5056,6,0,P|178:227|244:195,1,168
404,160,5542,1,2,0:0:0:0:
400,120,5623,1,0,0:0:0:0:
396,80,5704,1,2,0:0:0:0:
164,44,5866,2,0,L|80:36,1,84,8|8,0:0|0:0,0:0:0:0:
224,300,6353,6,0,L|392:284,1,168,4|0,0:0|0:0,0:0:0:0:
476,272,6839,1,0,0:0:0:0:
484,192,7001,1,0,0:0:0:0:
316,160,7164,1,2,0:0:0:0:
304,120,7245,1,0,0:0:0:0:
316,80,7326,1,2,0:0:0:0:
400,28,7488,1,0,0:0:0:0:
232,304,7650,6,0,P|155:279|125:204,1,168
220,172,8137,1,0,0:0:0:0:
260,160,8218,1,0,0:0:0:0:
300,148,8299,1,0,0:0:0:0:
140,84,8461,1,8,0:0:0:0:
52,52,8623,2,0,L|44:220,1,168,2|0,0:0|0:0,0:0:0:0:
280,336,9110,6,0,P|326:279|260:247,1,168,4|0,0:0|0:0,0:0:0:0:
176,196,9596,1,0,0:0:0:0:
336,152,9758,1,2,0:0:0:0:
424,120,9920,1,2,0:0:0:0:
428,80,10001,1,0,0:0:0:0:
432,40,10083,1,2,0:0:0:0:
264,328,10245,6,0,P|293:252|370:226,1,168
284,168,10731,1,2,0:0:0:0:
244,156,10812,1,0,0:0:0:0:
204,144,10893,1,2,0:0:0:0:
364,80,11056,1,8,0:0:0:0:
460,48,11218,2,0,L|468:216,1,168,2|0,0:0|0:0,0:0:0:0:
244,332,11704,6,0,P|166:306|137:230,1,168,4|0,0:0|0:0,0:0:0:0:
232,200,12191,1,2,0:0:0:0:
272,188,12272,1,0,0:0:0:0:
312,176,12353,1,2,0:0:0:0:
88,112,12515,1,2,0:0:0:0:
4,60,12677,1,0,0:0:0:0:
92,16,12839,1,2,0:0:0:0:
320,304,13001,5,0,0:0:0:0:
364,284,13083,1,0,0:0:0:0:
392,248,13164,1,0,0:0:0:0:
408,204,13245,1,0,0:0:0:0:
400,160,13326,1,0,0:0:0:0:
376,120,13407,1,0,0:0:0:0:
336,92,13488,2,0,L|294:88,2,42,8|0|4,0:0|0:0|0:0,0:0:0:0:
432,60,13812,1,4,0:0:0:0:
180,364,14137,6,0,L|172:196,1,168,4|0,0:0|0:0,0:0:0:0:
260,172,14623,1,0,0:0:0:0:
348,148,14785,1,8,0:0:0:0:
384,124,14866,1,0,0:0:0:0:
400,84,14947,1,8,0:0:0:0:
316,28,15110,1,0,0:0:0:0:
64,260,15434,6,0,P|18:203|84:171,1,168,4|8,0:0|0:0,0:0:0:0:
168,120,15920,1,8,0:0:0:0:
208,108,16001,1,8,0:0:0:0:
248,96,16083,1,8,0:0:0:0:
148,44,16245,2,0,L|36:32,2,112,8|8|8,0:0|0:0|0:0,0:0:0:0:
432,324,16893,6,0,P|402:248|324:222,1,168,4|0,0:0|0:0,0:0:0:0:
408,168,17380,1,0,0:0:0:0:
320,124,17542,1,8,0:0:0:0:
284,100,17623,1,0,0:0:0:0:
268,60,17704,1,8,0:0:0:0:
352,4,17866,1,0,0:0:0:0:
112,36,18028,6,0,P|66:93|132:125,1,168,4|4,0:0|0:0,0:0:0:0:
216,176,18515,1,0,0:0:0:0:
300,224,18677,2,0,P|346:281|280:313,1,168,4|4,0:0|0:0,0:0:0:0:
120,320,19326,1,0,0:0:0:0:
352,356,19488,6,0,P|429:329|458:253,1,168,4|0,0:0|0:0,0:0:0:0:
372,148,19974,1,8,0:0:0:0:
332,144,20056,1,0,0:0:0:0:
292,140,20137,2,0,P|215:113|186:37,1,168,8|0,0:0|0:0,0:0:0:0:
272,304,20623,1,8,0:0:0:0:
284,264,20704,1,0,0:0:0:0:
272,224,20785,5,0,0:0:0:0:
188,172,20947,1,0,0:0:0:0:
104,120,21110,1,0,0:0:0:0:
192,76,21272,1,8,0:0:0:0:
416,12,21434,2,0,L|419:95,1,84,8|0,0:0|0:0,0:0:0:0:
272,216,21920,1,0,0:0:0:0:
496,280,22083,6,0,L|493:197,1,84,8|0,0:0|0:0,0:0:0:0:
404,132,22407,2,0,L|320:122,1,84,8|0,0:0|0:0,0:0:0:0:
408,56,22731,2,0,L|491:46,1,84,8|0,0:0|0:0,0:0:0:0:
476,84,22974,1,0,0:0:0:0:
440,108,23056,5,8,0:0:0:0:
356,188,23218,1,0,0:0:0:0:
100,244,23380,2,0,L|97:161,1,84,4|4,0:0|0:0,0:0:0:0:
340,356,24515,6,0,L|172:340,1,168,0|2,0:0|0:0,0:0:0:0:
256,276,25001,2,0,L|259:193,1,84,2|2,0:0|0:0,0:0:0:0:
100,160,25326,1,4,0:0:0:0:
96,120,25407,1,4,0:0:0:0:
92,80,25488,1,4,0:0:0:0:
352,48,25650,1,4,0:0:0:0:
492,336,25974,6,0,L|324:320,1,168,4|8,0:0|0:0,0:0:0:0:
168,268,26461,2,0,L|165:185,1,84,0|2,0:0|0:0,0:0:0:0:
256,152,26785,2,0,L|259:69,1,84,0|8,0:0|0:0,0:0:0:0:
96,16,27110,6,0,P|50:73|116:105,1,168,2|2,0:0|0:0,0:0:0:0:
204,156,27596,2,0,L|288:146,1,84,8|2,0:0|0:0,0:0:0:0:
128,320,27920,1,0,0:0:0:0:
44,268,28083,1,2,0:0:0:0:
132,224,28245,1,8,0:0:0:0:
276,340,28569,6,0,P|353:314|383:238,1,168,2|8,0:0|0:0,0:0:0:0:
220,224,29056,1,0,0:0:0:0:
172,180,29218,1,2,0:0:0:0:
160,112,29380,1,0,0:0:0:0:
192,52,29542,1,8,0:0:0:0:
356,36,29704,6,0,P|402:93|336:125,1,168,2|2,0:0|0:0,0:0:0:0:
240,176,30191,2,0,L|243:259,1,84,8|2,0:0|0:0,0:0:0:0:
420,292,30515,1,0,0:0:0:0:
504,240,30677,1,2,0:0:0:0:
416,196,30839,1,8,0:0:0:0:
160,356,31164,6,0,P|114:299|180:267,1,168,4|8,0:0|0:0,0:0:0:0:
344,252,31650,2,0,L|341:169,1,84,0|2,0:0|0:0,0:0:0:0:
248,136,31974,2,0,L|245:53,1,84,0|8,0:0|0:0,0:0:0:0:
408,20,32299,6,0,P|454:77|388:109,1,168,2|2,0:0|0:0,0:0:0:0:
304,160,32785,1,8,0:0:0:0:
220,208,32947,2,0,L|217:291,1,84,2|0,0:0|0:0,0:0:0:0:
380,264,33272,2,0,L|383:347,1,84,2|8,0:0|0:0,0:0:0:0:
144,380,33596,1,2,0:0:0:0:
312,300,34083,5,8,0:0:0:0:
388,248,34245,1,0,0:0:0:0:
308,204,34407,1,2,0:0:0:0:
384,152,34569,2,0,P|430:95|364:63,1,168,0|2,0:0|0:0,0:0:0:0:
108,308,35218,5,4,0:0:0:0:
76,272,35299,1,0,0:0:0:0:
68,228,35380,1,0,0:0:0:0:
88,184,35461,1,0,0:0:0:0:
124,156,35542,1,0,0:0:0:0:
296,140,35704,1,4,0:0:0:0:
308,100,35785,1,0,0:0:0:0:
296,60,35866,1,0,0:0:0:0:
68,44,36028,1,4,0:0:0:0:
228,40,36353,6,0,P|305:66|335:142,1,168,4|8,0:0|0:0,0:0:0:0:
176,192,36839,2,0,L|173:275,1,84,0|2,0:0|0:0,0:0:0:0:
256,328,37164,1,0,0:0:0:0:
168,372,37326,1,8,0:0:0:0:
12,320,37488,6,0,P|41:244|119:218,1,168,2|2,0:0|0:0,0:0:0:0:
204,168,37974,1,8,0:0:0:0:
288,120,38137,2,0,L|120:104,1,168,2|2,0:0|0:0,0:0:0:0:
372,336,38785,2,0,P|449:309|478:233,1,168,2|0,0:0|0:0,0:0:0:0:
320,184,39272,6,0,L|236:174,1,84,8|0,0:0|0:0,0:0:0:0:
332,108,39596,1,2,0:0:0:0:
416,56,39758,1,0,0:0:0:0:
328,12,39920,1,8,0:0:0:0:
84,28,40083,6,0,P|38:85|104:117,1,168,4|4,0:0|0:0,0:0:0:0:
188,168,40569,1,0,0:0:0:0:
428,184,40731,2,0,P|474:241|408:273,1,168,4|4,0:0|0:0,0:0:0:0:
264,344,41380,2,0,L|96:328,1,168,4|2,0:0|0:0,0:0:0:0:
336,264,41866,6,0,L|339:181,1,84,4|0,0:0|0:0,0:0:0:0:
256,128,42191,1,2,0:0:0:0:
344,84,42353,1,0,0:0:0:0:
504,40,42677,2,0,L|336:24,1,168,2|0,0:0|0:0,0:0:0:0:
112,304,43164,6,0,L|109:221,1,84,8|0,0:0|0:0,0:0:0:0:
192,168,43488,2,0,L|195:85,1,84,2|0,0:0|0:0,0:0:0:0:
36,40,43974,2,0,L|204:24,1,168,2|0,0:0|0:0,0:0:0:0:
428,308,44461,5,8,0:0:0:0:
344,256,44623,1,0,0:0:0:0:
332,216,44704,1,0,0:0:0:0:
344,176,44785,1,2,0:0:0:0:
504,140,44947,2,0,L|507:57,1,84,8|8,0:0|0:0,0:0:0:0:
280,112,45272,2,0,P|203:85|174:9,1,168,2|2,0:0|0:0,0:0:0:0:
340,8,46083,6,0,L|343:91,1,84,2|2,0:0|0:0,0:0:0:0:
248,152,46407,1,2,0:0:0:0:
244,192,46488,1,0,0:0:0:0:
240,232,46569,1,0,0:0:0:0:
464,292,46731,6,0,P|510:235|444:203,1,168,4|2,0:0|0:0,0:0:0:0:
360,152,47218,1,0,0:0:0:0:
276,104,47380,1,2,0:0:0:0:
436,196,47704,6,0,L|439:113,1,84,2|0,0:0|0:0,0:0:0:0:
276,160,48028,2,0,P|199:133|170:57,1,168,2|2,0:0|0:0,0:0:0:0:
312,20,48677,1,2,0:0:0:0:
360,64,48839,1,0,0:0:0:0:
372,132,49001,1,2,0:0:0:0:
340,192,49164,1,0,0:0:0:0:
176,240,49326,6,0,L|8:224,1,168,2|2,0:0|0:0,0:0:0:0:
92,172,49812,1,0,0:0:0:0:
4,128,49974,1,2,0:0:0:0:
164,336,50299,6,0,L|248:326,1,84,2|0,0:0|0:0,0:0:0:0:
84,276,50623,2,0,P|38:219|104:187,1,168,2|2,0:0|0:0,0:0:0:0:
248,148,51272,2,0,P|294:91|228:59,1,168,2|2,0:0|0:0,0:0:0:0:
144,8,51758,1,4,0:0:0:0:
368,8,51920,1,4,0:0:0:0:
444,32,52245,5,0,0:0:0:0:
496,88,52407,1,0,0:0:0:0:
512,160,52569,1,0,0:0:0:0:
484,232,52731,1,0,0:0:0:0:
424,276,52893,1,0,0:0:0:0:
276,180,53218,5,0,0:0:0:0:
428,104,53542,1,0,0:0:0:0:
176,348,53866,2,0,L|173:265,1,84,4|0,0:0|0:0,0:0:0:0:
264,220,54191,1,8,0:0:0:0:
304,208,54272,1,0,0:0:0:0:
344,196,54353,1,8,0:0:0:0:
120,148,54515,6,0,P|74:91|140:59,1,168,4|2,0:0|0:0,0:0:0:0:
228,16,55001,1,0,0:0:0:0:
392,148,55164,2,0,P|438:91|372:59,1,168,8|2,0:0|0:0,0:0:0:0:
284,16,55650,1,0,0:0:0:0:
120,324,55812,6,0,P|43:299|13:224,1,168,2|0,0:0|0:0,0:0:0:0:
108,192,56299,1,0,0:0:0:0:
204,160,56461,1,8,0:0:0:0:
44,128,56785,2,0,L|41:45,1,84,2|0,0:0|0:0,0:0:0:0:
264,12,57110,6,0,P|341:37|371:112,1,168,4|2,0:0|0:0,0:0:0:0:
276,144,57596,1,0,0:0:0:0:
264,184,57677,1,0,0:0:0:0:
276,224,57758,1,8,0:0:0:0:
436,236,58083,2,0,L|439:319,1,84,0|2,0:0|0:0,0:0:0:0:
344,350,58407,5,0,0:0:0:0:
260,298,58569,1,2,0:0:0:0:
348,254,58731,1,0,0:0:0:0:
96,212,59056,2,0,P|50:155|116:123,1,168,8|0,0:0|0:0,0:0:0:0:
200,72,59542,1,0,0:0:0:0:
364,24,59704,6,0,L|196:8,1,168,2|2,0:0|0:0,0:0:0:0:
100,40,60191,1,0,0:0:0:0:
96,80,60272,1,0,0:0:0:0:
92,120,60353,1,8,0:0:0:0:
252,88,60677,1,0,0:0:0:0:
336,140,60839,1,2,0:0:0:0:
248,184,61001,5,0,0:0:0:0:
164,236,61164,2,0,L|161:319,1,84,2|0,0:0|0:0,0:0:0:0:
412,360,61650,2,0,P|458:303|392:271,1,168,8|0,0:0|0:0,0:0:0:0:
140,156,62299,6,0,L|308:140,1,168,2|2,0:0|0:0,0:0:0:0:
212,72,62785,1,0,0:0:0:0:
172,60,62866,1,0,0:0:0:0:
132,48,62947,1,8,0:0:0:0:
292,16,63272,1,0,0:0:0:0:
376,68,63434,1,2,0:0:0:0:
460,120,63596,5,0,0:0:0:0:
372,164,63758,1,2,0:0:0:0:
456,216,63920,1,0,0:0:0:0:
204,260,64245,2,0,L|120:270,1,84,8|0,0:0|0:0,0:0:0:0:
276,312,64569,2,0,L|360:322,1,84,4|0,0:0|0:0,0:0:0:0:
136,352,64893,5,2,0:0:0:0:
132,268,65056,1,0,0:0:0:0:
212,216,65218,1,8,0:0:0:0:
372,248,65542,1,2,0:0:0:0:
376,164,65704,1,0,0:0:0:0:
296,112,65866,1,8,0:0:0:0:
380,60,66028,1,0,0:0:0:0:
156,264,66191,5,2,0:0:0:0:
84,236,66353,1,0,0:0:0:0:
56,168,66515,1,8,0:0:0:0:
216,136,66839,2,0,L|300:126,1,84,2|0,0:0|0:0,0:0:0:0:
204,68,67164,2,0,L|120:58,1,84,8|8,0:0|0:0,0:0:0:0:
348,32,67488,1,4,0:0:0:0:
436,76,67812,5,2,0:0:0:0:
352,128,67974,2,0,L|344:296,1,168,2|0,0:0|0:0,0:0:0:0:
428,348,68461,1,2,0:0:0:0:
272,348,68623,6,0,P|195:323|165:248,1,168,2|0,0:0|0:0,0:0:0:0:
248,196,69110,2,0,L|251:113,1,84,2|0,0:0|0:0,0:0:0:0:
168,60,69434,1,0,0:0:0:0:
12,80,69596,2,0,L|9:163,1,84,0|2,0:0|0:0,0:0:0:0:
48,176,69839,1,0,0:0:0:0:
88,188,69920,1,0,0:0:0:0:
320,224,70083,6,0,P|290:299|213:325,1,168,6|0,0:0|0:0,0:0:0:0:
128,272,70569,2,0,P|158:197|235:171,1,168,2|0,0:0|0:0,0:0:0:0:
392,156,71056,2,0,L|395:73,1,84,8|0,0:0|0:0,0:0:0:0:
316,124,71380,5,2,0:0:0:0:
236,72,71542,1,0,0:0:0:0:
320,20,71704,1,8,0:0:0:0:
67,323,72028,2,0,P|84:242|139:179,1,168,4|0,0:0|0:0,0:0:0:0:
220,128,72515,1,0,0:0:0:0:
456,92,72677,6,0,P|502:149|436:181,1,168,4|6,0:0|0:0,0:0:0:0:
352,232,73164,1,0,0:0:0:0:
268,280,73326,1,6,0:0:0:0:
428,328,73650,1,6,0:0:0:0:
176,288,73974,6,0,L|173:205,1,84,2|0,0:0|0:0,0:0:0:0:
260,140,74299,2,0,L|344:130,1,84,6|0,0:0|0:0,0:0:0:0:
256,64,74623,2,0,L|173:54,1,84,4|0,0:0|0:0,0:0:0:0:
16,88,74947,1,8,0:0:0:0:
12,48,75028,1,0,0:0:0:0:
8,8,75110,1,8,0:0:0:0:
232,268,75272,5,4,0:0:0:0:
312,216,75434,1,4,0:0:0:0:
228,164,75596,1,4,0:0:0:0:
388,112,75920,2,0,L|391:29,1,84,4|4,0:0|0:0,0:0:0:0:
140,156,76407,1,4,0:0:0:0:
60,284,76731,6,0,L|57:201,1,84,4|4,0:0|0:0,0:0:0:0:
216,148,77218,2,0,L|219:65,1,84,4|4,0:0|0:0,0:0:0:0:
140,208,77542,1,0,0:0:0:0:
128,168,77623,1,0,0:0:0:0:
140,128,77704,1,0,0:0:0:0:
364,272,77866,5,4,0:0:0:0:
444,220,78028,1,4,0:0:0:0:
360,168,78191,1,4,0:0:0:0:
200,116,78515,1,4,0:0:0:0:
120,64,78677,1,4,0:0:0:0:
204,12,78839,1,0,0:0:0:0:
456,64,79001,6,0,P|479:180|380:246,1,252,4|0,0:0|0:0,0:0:0:0:
232,352,79812,2,0,L|220:268,1,84,4|0,0:0|0:0,0:0:0:0:
304,216,80137,2,0,L|316:132,1,84,4|0,0:0|0:0,0:0:0:0:
92,120,80461,6,0,P|46:63|112:31,1,168,4|8,0:0|0:0,0:0:0:0:
272,80,81110,2,0,L|275:163,1,84,2|0,0:0|0:0,0:0:0:0:
192,216,81434,1,8,0:0:0:0:
344,264,81596,6,0,P|390:321|324:353,1,168,2|0,0:0|0:0,0:0:0:0:
176,304,82083,2,0,L|173:221,1,84,8|0,0:0|0:0,0:0:0:0:
256,168,82407,2,0,P|333:141|362:65,1,168,2|8,0:0|0:0,0:0:0:0:
280,12,82893,1,8,0:0:0:0:
132,64,83056,6,0,P|55:91|26:167,1,168,2|8,0:0|0:0,0:0:0:0:
184,216,83704,1,2,0:0:0:0:
264,268,83866,1,0,0:0:0:0:
180,320,84028,1,8,0:0:0:0:
32,368,84191,6,0,P|49:287|104:224,1,168,2|2,0:0|0:0,0:0:0:0:
184,172,84677,1,8,0:0:0:0:
332,124,84839,2,0,L|164:108,2,168,2|2|8,0:0|0:0|0:0,0:0:0:0:
92,212,85650,6,0,P|46:155|112:123,1,168,4|8,0:0|0:0,0:0:0:0:
272,72,86299,1,2,0:0:0:0:
352,124,86461,1,0,0:0:0:0:
432,176,86623,1,8,0:0:0:0:
283,223,86785,6,0,P|228:285|211:366,1,168,2|2,0:0|0:0,0:0:0:0:
292,312,87272,1,8,0:0:0:0:
440,264,87434,2,0,P|423:182|369:119,1,168,2|2,0:0|0:0,0:0:0:0:
116,312,88083,5,0,0:0:0:0:
36,260,88245,1,2,0:0:0:0:
120,208,88407,1,0,0:0:0:0:
288,156,88569,2,0,P|334:99|268:67,1,168,8|2,0:0|0:0,0:0:0:0:
184,16,89056,2,0,P|138:73|204:105,1,168
364,76,89542,5,4,0:0:0:0:
452,108,89704,1,0,0:0:0:0:
464,148,89785,1,0,0:0:0:0:
452,188,89866,1,0,0:0:0:0:
356,220,90028,1,0,0:0:0:0:
344,260,90110,1,0,0:0:0:0:
360,304,90191,6,0,L|444:294,1,84,4|0,0:0|0:0,0:0:0:0:
280,224,90515,2,0,L|196:214,1,84,4|0,0:0|0:0,0:0:0:0:
444,168,90839,6,0,P|490:111|424:79,1,168,4|8,0:0|0:0,0:0:0:0:
264,28,91488,1,2,0:0:0:0:
184,80,91650,1,0,0:0:0:0:
268,132,91812,1,8,0:0:0:0:
416,180,91974,6,0,L|424:348,1,168,2|0,0:0|0:0,0:0:0:0:
276,296,92461,1,8,0:0:0:0:
196,244,92623,1,0,0:0:0:0:
280,192,92785,2,0,L|112:176,1,168,2|8,0:0|0:0,0:0:0:0:
108,92,93272,1,8,0:0:0:0:
256,40,93434,6,0,L|424:56,1,168,2|8,0:0|0:0,0:0:0:0:
268,116,94083,2,0,L|271:199,1,84,2|2,0:0|0:0,0:0:0:0:
356,252,94407,1,8,0:0:0:0:
120,284,94569,6,0,P|74:227|140:195,1,168,4|4,0:0|0:0,0:0:0:0:
220,140,95056,1,0,0:0:0:0:
136,88,95218,2,0,L|304:72,1,168,4|4,0:0|0:0,0:0:0:0:
464,56,95866,1,0,0:0:0:0:
240,20,96028,6,0,P|194:77|260:109,1,168,4|0,0:0|0:0,0:0:0:0:
344,116,96515,1,8,0:0:0:0:
356,156,96596,1,0,0:0:0:0:
344,196,96677,2,0,L|176:212,1,168,8|0,0:0|0:0,0:0:0:0:
260,308,97164,1,8,0:0:0:0:
300,304,97245,1,0,0:0:0:0:
340,300,97326,5,0,0:0:0:0:
388,256,97488,1,0,0:0:0:0:
400,188,97650,1,0,0:0:0:0:
368,128,97812,1,8,0:0:0:0:
144,64,97974,2,0,L|141:147,1,84,8|0,0:0|0:0,0:0:0:0:
288,268,98461,1,0,0:0:0:0:
60,332,98623,5,8,0:0:0:0:
12,288,98785,1,0,0:0:0:0:
0,220,98947,1,8,0:0:0:0:
32,160,99110,1,0,0:0:0:0:
96,136,99272,1,8,0:0:0:0:
184,128,99434,1,0,0:0:0:0:
196,88,99515,1,0,0:0:0:0:
184,48,99596,5,8,0:0:0:0:
92,40,99758,1,8,0:0:0:0:
328,128,99920,2,0,L|412:118,1,84,4|4,0:0|0:0,0:0:0:0:
264,332,101056,6,0,P|218:275|284:243,1,168,0|2,0:0|0:0,0:0:0:0:
368,192,101542,1,2,0:0:0:0:
280,148,101704,1,2,0:0:0:0:
440,136,101866,1,4,0:0:0:0:
452,96,101947,1,4,0:0:0:0:
440,56,102028,1,4,0:0:0:0:
172,44,102191,1,4,0:0:0:0:
32,336,102515,6,0,P|61:260|139:234,1,168,4|8,0:0|0:0,0:0:0:0:
296,288,103001,2,0,L|293:205,1,84,0|2,0:0|0:0,0:0:0:0:
212,152,103326,1,0,0:0:0:0:
296,100,103488,1,8,0:0:0:0:
452,152,103650,6,0,P|498:95|432:63,1,168,2|2,0:0|0:0,0:0:0:0:
344,12,104137,2,0,L|260:22,1,84,8|2,0:0|0:0,0:0:0:0:
420,196,104461,1,0,0:0:0:0:
504,144,104623,1,2,0:0:0:0:
416,100,104785,1,8,0:0:0:0:
280,216,105110,6,0,P|234:273|300:305,1,168,2|8,0:0|0:0,0:0:0:0:
464,288,105596,1,0,0:0:0:0:
496,228,105758,1,2,0:0:0:0:
476,164,105920,1,0,0:0:0:0:
416,132,106083,1,8,0:0:0:0:
260,164,106245,6,0,L|92:148,1,168,2|2,0:0|0:0,0:0:0:0:
180,96,106731,2,0,L|183:13,1,84,8|2,0:0|0:0,0:0:0:0:
8,44,107056,2,0,L|5:127,1,84,0|2,0:0|0:0,0:0:0:0:
88,180,107380,1,8,0:0:0:0:
344,340,107704,6,0,L|176:324,1,168,4|8,0:0|0:0,0:0:0:0:
12,308,108191,1,0,0:0:0:0:
96,256,108353,1,2,0:0:0:0:
8,212,108515,2,0,L|5:129,1,84,0|8,0:0|0:0,0:0:0:0:
168,84,108839,6,0,P|245:110|274:186,1,168,2|2,0:0|0:0,0:0:0:0:
188,240,109326,1,0,0:0:0:0:
276,284,109488,2,0,L|360:274,1,84,2|0,0:0|0:0,0:0:0:0:
196,160,109812,2,0,L|112:150,1,84,2|0,0:0|0:0,0:0:0:0:
352,36,110137,1,2,0:0:0:0:
184,72,110623,5,8,0:0:0:0:
108,124,110785,1,0,0:0:0:0:
188,168,110947,1,2,0:0:0:0:
112,220,111110,2,0,P|66:277|132:309,1,168,0|2,0:0|0:0,0:0:0:0:
388,348,111758,5,4,0:0:0:0:
424,340,111839,1,0,0:0:0:0:
456,320,111920,1,0,0:0:0:0:
476,288,112001,1,0,0:0:0:0:
484,252,112083,1,0,0:0:0:0:
312,192,112245,1,4,0:0:0:0:
276,168,112326,1,0,0:0:0:0:
260,132,112407,1,0,0:0:0:0:
484,72,112569,1,4,0:0:0:0:
324,68,112893,6,0,P|278:125|344:157,1,168,4|8,0:0|0:0,0:0:0:0:
504,208,113380,1,0,0:0:0:0:
484,272,113542,1,2,0:0:0:0:
436,320,113704,1,0,0:0:0:0:
368,332,113866,1,8,0:0:0:0:
212,320,114028,6,0,P|166:263|232:231,1,168,2|2,0:0|0:0,0:0:0:0:
316,176,114515,1,8,0:0:0:0:
400,120,114677,2,0,P|446:63|380:31,1,168,2|2,0:0|0:0,0:0:0:0:
128,316,115326,2,0,L|120:148,1,168,2|0,0:0|0:0,0:0:0:0:
280,232,115812,6,0,L|283:149,1,84,8|0,0:0|0:0,0:0:0:0:
200,96,116137,1,2,0:0:0:0:
116,44,116299,1,0,0:0:0:0:
204,0,116461,1,8,0:0:0:0:
448,16,116623,6,0,P|431:97|376:160,1,168,4|4,0:0|0:0,0:0:0:0:
296,212,117110,1,0,0:0:0:0:
56,188,117272,2,0,P|73:269|128:332,1,168,4|4,0:0|0:0,0:0:0:0:
272,352,117920,2,0,P|318:295|252:263,1,168,4|2,0:0|0:0,0:0:0:0:
16,200,118407,6,0,L|13:117,1,84,4|0,0:0|0:0,0:0:0:0:
96,64,118731,1,2,0:0:0:0:
8,20,118893,1,0,0:0:0:0:
168,240,119218,2,0,P|214:183|148:151,1,168,2|0,0:0|0:0,0:0:0:0:
372,200,119704,5,8,0:0:0:0:
448,148,119866,1,0,0:0:0:0:
368,104,120028,1,2,0:0:0:0:
444,52,120191,1,0,0:0:0:0:
284,320,120515,2,0,L|116:304,1,168,2|0,0:0|0:0,0:0:0:0:
340,256,121001,5,8,0:0:0:0:
424,196,121164,1,0,0:0:0:0:
408,160,121245,1,0,0:0:0:0:
372,136,121326,1,2,0:0:0:0:
215,99,121488,2,0,P|233:62|268:39,1,84,8|8,0:0|0:0,0:0:0:0:
492,40,121812,6,0,P|475:121|420:184,1,168,2|2,0:0|0:0,0:0:0:0:
256,76,122623,6,0,L|253:159,1,84,2|2,0:0|0:0,0:0:0:0:
348,220,122947,1,2,0:0:0:0:
360,260,123028,1,0,0:0:0:0:
348,300,123110,1,0,0:0:0:0:
124,360,123272,6,0,L|121:277,1,84,4|4,0:0|0:0,0:0:0:0:
280,184,123758,2,0,L|283:101,1,84,0|2,0:0|0:0,0:0:0:0:
112,268,124407,5,0,0:0:0:0:
80,208,124569,1,2,0:0:0:0:
100,144,124731,1,0,0:0:0:0:
160,112,124893,2,0,L|328:96,1,168,2|0,0:0|0:0,0:0:0:0:
168,32,125542,2,0,L|84:42,1,84,8|0,0:0|0:0,0:0:0:0:
308,80,125867,5,4,0:0:0:0:
360,136,126029,1,4,0:0:0:0:
376,208,126191,1,4,0:0:0:0:
348,280,126353,1,4,0:0:0:0:
288,324,126515,1,0,0:0:0:0:
116,356,127001,5,0,0:0:0:0:
32,304,127164,2,0,L|29:221,1,84,2|0,0:0|0:0,0:0:0:0:
112,168,127488,1,2,0:0:0:0:
272,104,127812,2,0,L|397:92,2,126,8|8|8,0:0|0:0|0:0,0:0:0:0:
48,144,128461,6,0,L|45:227,1,84,4|4,0:0|0:0,0:0:0:0:
128,280,128785,1,4,0:0:0:0:
300,312,129272,1,0,0:0:0:0:
312,272,129353,1,0,0:0:0:0:
300,232,129434,2,0,L|216:224,1,84,0|2,0:0|0:0,0:0:0:0:
372,144,129758,6,0,L|497:132,2,126,8|8|8,0:0|0:0|0:0,0:0:0:0:
216,80,130407,1,8,0:0:0:0:
100,68,130650,2,0,P|84:129|100:189,1,126,8|8,0:0|0:0,0:0:0:0:
328,320,131056,6,0,P|406:293|435:217,1,168,4|2,0:0|0:0,0:0:0:0:
348,176,131542,1,0,0:0:0:0:
184,320,131704,2,0,P|106:293|77:217,1,168,8|2,0:0|0:0,0:0:0:0:
164,176,132191,1,0,0:0:0:0:
328,320,132353,6,0,P|374:263|308:231,1,168,2|0,0:0|0:0,0:0:0:0:
232,176,132839,1,0,0:0:0:0:
312,132,133001,1,8,0:0:0:0:
476,164,133326,2,0,L|473:81,1,84,2|0,0:0|0:0,0:0:0:0:
248,48,133650,6,0,P|202:105|268:137,1,168,4|2,0:0|0:0,0:0:0:0:
360,168,134137,2,0,L|357:251,1,84,0|2,0:0|0:0,0:0:0:0:
196,264,134623,1,2,0:0:0:0:
112,316,134785,1,0,0:0:0:0:
200,360,134947,6,0,L|368:344,1,168,2|2,0:0|0:0,0:0:0:0:
208,276,135596,2,0,L|205:193,1,84,2|0,0:0|0:0,0:0:0:0:
296,160,135920,2,0,L|299:77,1,84,2|0,0:0|0:0,0:0:0:0:
136,28,136245,6,0,P|58:53|28:128,1,168,2|2,0:0|0:0,0:0:0:0:
112,176,136731,1,0,0:0:0:0:
196,224,136893,1,2,0:0:0:0:
36,236,137218,2,0,L|33:319,1,84,2|0,0:0|0:0,0:0:0:0:
108,268,137542,5,2,0:0:0:0:
28,224,137704,1,0,0:0:0:0:
104,172,137866,1,2,0:0:0:0:
264,160,138191,2,0,P|342:135|372:60,1,168,2|2,0:0|0:0,0:0:0:0:
208,12,138677,1,4,0:0:0:0:
212,52,138758,1,0,0:0:0:0:
240,84,138839,5,2,0:0:0:0:
324,136,139001,1,0,0:0:0:0:
236,180,139163,1,2,0:0:0:0:
76,304,139488,1,2,0:0:0:0:
52,232,139650,1,0,0:0:0:0:
72,160,139812,1,2,0:0:0:0:
124,108,139974,1,0,0:0:0:0:
208,56,140137,5,2,0:0:0:0:
120,12,140299,1,0,0:0:0:0:
280,0,140623,2,0,L|448:16,1,168,2|0,0:0|0:0,0:0:0:0:
287,124,141110,2,0,L|204:116,1,84,4|0,0:0|0:0,0:0:0:0:
456,348,141433,5,2,0:0:0:0:
460,264,141596,1,0,0:0:0:0:
380,212,141758,1,8,0:0:0:0:
220,296,142083,1,2,0:0:0:0:
216,212,142245,1,0,0:0:0:0:
296,160,142407,1,8,0:0:0:0:
300,76,142569,1,0,0:0:0:0:
76,264,142731,5,2,0:0:0:0:
72,180,142894,1,0,0:0:0:0:
152,128,143056,1,8,0:0:0:0:
312,236,143380,2,0,L|315:153,1,84,2|0,0:0|0:0,0:0:0:0:
408,100,143704,2,0,L|405:17,1,84,8|8,0:0|0:0,0:0:0:0:
184,8,144028,1,4,0:0:0:0:
96,52,144353,5,2,0:0:0:0:
180,104,144515,2,0,P|226:161|160:193,1,168,2|0,0:0|0:0,0:0:0:0:
76,244,145001,1,2,0:0:0:0:
232,296,145164,6,0,P|309:271|339:196,1,168,2|0,0:0|0:0,0:0:0:0:
256,144,145650,1,2,0:0:0:0:
172,92,145812,1,0,0:0:0:0:
260,44,145974,1,0,0:0:0:0:
416,64,146137,2,0,L|419:147,1,84,0|2,0:0|0:0,0:0:0:0:
380,160,146380,1,0,0:0:0:0:
340,172,146461,1,0,0:0:0:0:
108,328,146623,6,0,P|62:271|128:239,1,168,6|0,0:0|0:0,0:0:0:0:
212,184,147110,2,0,P|258:127|192:95,1,168,2|0,0:0|0:0,0:0:0:0:
36,184,147596,2,0,L|33:101,1,84,8|0,0:0|0:0,0:0:0:0:
112,152,147920,6,0,L|115:69,1,84,2|0,0:0|0:0,0:0:0:0:
32,16,148245,1,8,0:0:0:0:
285,319,148569,2,0,P|362:294|392:219,1,168,4|0,0:0|0:0,0:0:0:0:
312,168,149056,1,0,0:0:0:0:
88,216,149218,6,0,P|42:159|108:127,1,168,4|6,0:0|0:0,0:0:0:0:
188,72,149704,1,0,0:0:0:0:
268,16,149866,1,6,0:0:0:0:
108,172,150191,1,6,0:0:0:0:
360,328,150515,5,2,0:0:0:0:
444,276,150677,1,0,0:0:0:0:
356,228,150839,1,6,0:0:0:0:
308,184,151002,1,0,0:0:0:0:
296,116,151164,1,4,0:0:0:0:
328,56,151326,1,0,0:0:0:0:
484,88,151488,1,8,0:0:0:0:
496,48,151569,1,0,0:0:0:0:
484,8,151650,1,8,0:0:0:0:
260,268,151812,5,4,0:0:0:0:
184,244,151974,1,4,0:0:0:0:
152,168,152137,1,4,0:0:0:0:
312,116,152461,2,0,L|315:33,1,84,4|4,0:0|0:0,0:0:0:0:
64,160,152947,1,4,0:0:0:0:
144,288,153272,6,0,L|228:278,1,84,4|4,0:0|0:0,0:0:0:0:
388,200,153759,1,4,0:0:0:0:
304,148,153921,1,4,0:0:0:0:
392,100,154082,1,0,0:0:0:0:
396,60,154163,1,0,0:0:0:0:
400,20,154245,1,0,0:0:0:0:
172,300,154407,5,4,0:0:0:0:
92,248,154569,1,4,0:0:0:0:
176,196,154732,1,4,0:0:0:0:
336,144,155056,1,4,0:0:0:0:
416,92,155218,1,4,0:0:0:0:
332,40,155380,1,0,0:0:0:0:
80,92,155542,1,4,0:0:0:0:
256,192,155704,12,4,157326,0:0:0:0:
384,348,157649,5,4,0:0:0:0:
464,296,157811,1,4,0:0:0:0:
380,244,157974,1,4,0:0:0:0:
220,296,158298,6,0,L|217:213,1,84,2|0,0:0|0:0,0:0:0:0:
364,228,158785,2,0,P|410:171|344:139,1,168,2|0,0:0|0:0,0:0:0:0:
264,84,159271,1,2,0:0:0:0:
408,152,159595,2,0,L|411:69,1,84,2|0,0:0|0:0,0:0:0:0:
160,348,160082,6,0,P|82:321|53:245,1,168,2|0,0:0|0:0,0:0:0:0:
136,200,160568,2,0,L|139:117,1,84,2|0,0:0|0:0,0:0:0:0:
60,64,160893,1,2,0:0:0:0:
144,12,161055,1,2,0:0:0:0:
304,64,161379,6,0,P|350:121|284:153,1,168,2|2,0:0|0:0,0:0:0:0:
200,200,161866,1,0,0:0:0:0:
116,248,162028,2,0,L|284:264,1,168,2|2,0:0|0:0,0:0:0:0:
32,312,162677,1,2,0:0:0:0:
272,360,163325,6,0,L|269:277,1,84,2|2,0:0|0:0,0:0:0:0:
188,224,163650,1,0,0:0:0:0:
348,172,163974,2,0,P|426:145|455:69,1,168,2|0,0:0|0:0,0:0:0:0:
368,48,164460,1,0,0:0:0:0:
280,24,164622,2,0,P|202:50|172:125,1,168,2|0,0:0|0:0,0:0:0:0:
332,188,165271,6,0,P|378:245|312:277,1,168,2|2,0:0|0:0,0:0:0:0:
152,328,165920,2,0,L|155:245,1,84,2|2,0:0|0:0,0:0:0:0:
236,192,166244,2,0,L|404:176,1,168,2|2,0:0|0:0,0:0:0:0:
172,228,166730,5,8,0:0:0:0:
92,176,166892,1,0,0:0:0:0:
176,124,167055,1,8,0:0:0:0:
188,84,167136,1,0,0:0:0:0:
176,44,167217,1,0,0:0:0:0:
16,124,167379,2,0,L|13:41,1,84,8|8,0:0|0:0,0:0:0:0:
264,344,167866,6,0,L|272:176,1,168,4|0,0:0|0:0,0:0:0:0:
192,124,168352,1,0,0:0:0:0:
276,72,168514,1,8,0:0:0:0:
316,60,168596,1,0,0:0:0:0:
356,48,168677,2,0,L|359:131,1,84,8|0,0:0|0:0,0:0:0:0:
104,336,169163,6,0,P|58:279|124:247,1,168,4|8,0:0|0:0,0:0:0:0:
208,220,169650,1,8,0:0:0:0:
220,180,169731,1,0,0:0:0:0:
208,140,169812,1,8,0:0:0:0:
107,112,169974,2,0,P|56:93|35:42,2,112,8|8|8,0:0|0:0|0:0,0:0:0:0:
392,336,170622,6,0,P|438:279|372:247,1,168,4|0,0:0|0:0,0:0:0:0:
284,204,171109,1,0,0:0:0:0:
196,160,171271,1,8,0:0:0:0:
184,120,171352,1,0,0:0:0:0:
196,80,171433,1,8,0:0:0:0:
296,36,171595,1,0,0:0:0:0:
72,360,171758,6,0,P|45:283|90:216,1,168,4|4,0:0|0:0,0:0:0:0:
176,172,172244,1,0,0:0:0:0:
264,128,172406,2,0,L|96:112,1,168,4|4,0:0|0:0,0:0:0:0:
256,44,173055,1,0,0:0:0:0:
24,8,173217,6,0,P|41:89|96:152,1,168,4|8,0:0|0:0,0:0:0:0:
240,344,173866,2,0,L|243:261,1,84,8|8,0:0|0:0,0:0:0:0:
160,208,174190,1,12,0:0:0:0:
248,164,174352,1,12,0:0:0:0:
416,128,174514,6,0,P|462:71|396:39,1,168,8|8,0:0|0:0,0:0:0:0:
256,76,175163,1,8,0:0:0:0:
204,132,175325,1,12,0:0:0:0:
188,204,175488,1,12,0:0:0:0:
216,276,175649,1,12,0:0:0:0:
276,320,175812,5,8,0:0:0:0:
352,268,175974,1,8,0:0:0:0:
272,224,176136,1,12,0:0:0:0:
348,172,176298,1,12,0:0:0:0:
424,120,176460,2,0,L|427:37,1,84,8|8,0:0|0:0,0:0:0:0:
268,120,176785,2,0,L|265:37,1,84,12|12,0:0|0:0,0:0:0:0:
424,120,177109,6,0,P|458:168|420:213,1,126,8|2,0:0|0:0,0:0:0:0:
304,256,177595,1,2,0:0:0:0:
136,296,177758,2,0,P|102:248|140:203,1,126,8|2,0:0|0:0,0:0:0:0:
256,160,178244,1,2,0:0:0:0:
32,160,178406,5,4,0:0:0:0:
28,76,178569,1,4,0:0:0:0:
108,24,178731,1,4,0:0:0:0:
264,192,179055,2,0,L|267:109,1,84,4|4,0:0|0:0,0:0:0:0:
16,276,179541,1,4,0:0:0:0:
176,360,179866,6,0,L|92:350,1,84,4|4,0:0|0:0,0:0:0:0:
252,192,180352,1,0,0:0:0:0:
336,140,180515,1,4,0:0:0:0:
248,96,180677,1,0,0:0:0:0:
236,56,180758,1,0,0:0:0:0:
248,16,180839,1,0,0:0:0:0:
472,236,181001,5,4,0:0:0:0:
476,152,181164,1,4,0:0:0:0:
396,100,181326,1,4,0:0:0:0:
240,268,181649,1,4,0:0:0:0:
156,216,181812,1,4,0:0:0:0:
244,172,181974,1,4,0:0:0:0:
468,340,182136,6,0,P|491:224|392:158,1,252,4|0,0:0|0:0,0:0:0:0:
252,340,182947,1,4,0:0:0:0:
176,288,183109,1,0,0:0:0:0:
256,244,183271,1,0,0:0:0:0:
180,192,183433,2,0,P|102:165|73:89,1,168,2|0,0:0|0:0,0:0:0:0:
296,40,183920,1,4,0:0:0:0:
400,92,184244,5,2,0:0:0:0:
480,144,184406,1,0,0:0:0:0:
396,196,184568,1,8,0:0:0:0:
244,244,184731,6,0,P|198:301|264:333,1,168,2|0,0:0|0:0,0:0:0:0:
412,292,185217,2,0,L|409:209,1,84,8|0,0:0|0:0,0:0:0:0:
324,156,185541,2,0,L|492:140,1,168,2|8,0:0|0:0,0:0:0:0:
412,88,186028,1,8,0:0:0:0:
256,36,186190,6,0,L|88:52,1,168,2|8,0:0|0:0,0:0:0:0:
248,116,186839,1,2,0:0:0:0:
328,168,187001,1,0,0:0:0:0:
324,252,187163,1,8,0:0:0:0:
172,344,187325,6,0,P|174:262|237:211,1,168,2|0,0:0|0:0,0:0:0:0:
316,160,187812,1,8,0:0:0:0:
168,112,187974,2,0,L|0:96,2,168,2|2|8,0:0|0:0|0:0,0:0:0:0:
416,200,188785,6,0,P|462:143|396:111,1,168,4|8,0:0|0:0,0:0:0:0:
252,60,189434,1,2,0:0:0:0:
172,112,189596,1,0,0:0:0:0:
256,164,189758,1,8,0:0:0:0:
404,212,189920,6,0,P|387:293|332:355,1,168,2|2,0:0|0:0,0:0:0:0:
252,300,190406,1,8,0:0:0:0:
96,348,190568,2,0,P|113:266|167:203,1,168,2|2,0:0|0:0,0:0:0:0:
416,40,191217,5,0,0:0:0:0:
496,92,191379,1,2,0:0:0:0:
500,176,191541,1,0,0:0:0:0:
340,124,191704,2,0,P|313:201|358:268,1,168,8|2,0:0|0:0,0:0:0:0:
440,320,192190,2,0,L|272:336,1,168
112,304,192677,5,4,0:0:0:0:
24,272,192839,1,0,0:0:0:0:
12,232,192920,1,0,0:0:0:0:
24,192,193001,1,0,0:0:0:0:
120,160,193163,1,0,0:0:0:0:
120,120,193244,1,0,0:0:0:0:
120,80,193325,5,4,0:0:0:0:
216,48,193487,1,0,0:0:0:0:
52,48,193649,2,0,L|40:132,1,84,4|0,0:0|0:0,0:0:0:0:
288,176,193974,6,0,P|334:233|268:265,1,168,4|8,0:0|0:0,0:0:0:0:
108,316,194622,1,2,0:0:0:0:
28,264,194784,1,0,0:0:0:0:
112,212,194946,1,8,0:0:0:0:
272,164,195109,6,0,P|350:137|379:61,1,168,2|0,0:0|0:0,0:0:0:0:
228,16,195595,1,8,0:0:0:0:
224,100,195758,1,0,0:0:0:0:
304,152,195920,2,0,P|350:209|284:241,1,168,2|8,0:0|0:0,0:0:0:0:
204,292,196406,1,8,0:0:0:0:
352,344,196568,6,0,P|398:287|332:255,1,168,2|8,0:0|0:0,0:0:0:0:
176,192,197217,1,2,0:0:0:0:
96,140,197379,1,0,0:0:0:0:
180,88,197541,1,8,0:0:0:0:
420,164,197704,6,0,P|466:107|400:75,1,168,4|4,0:0|0:0,0:0:0:0:
320,20,198190,1,0,0:0:0:0:
240,164,198352,2,0,L|408:148,1,168,4|4,0:0|0:0,0:0:0:0:
248,300,199001,1,0,0:0:0:0:
20,336,199163,6,0,P|22:254|85:203,1,168,4|0,0:0|0:0,0:0:0:0:
168,196,199649,1,8,0:0:0:0:
208,184,199731,1,0,0:0:0:0:
248,172,199812,2,0,P|246:90|183:39,1,168,8|0,0:0|0:0,0:0:0:0:
100,32,200298,1,8,0:0:0:0:
88,72,200379,1,0,0:0:0:0:
100,112,200460,5,0,0:0:0:0:
176,164,200623,1,0,0:0:0:0:
96,208,200785,1,0,0:0:0:0:
172,260,200947,1,8,0:0:0:0:
396,324,201109,2,0,L|399:241,1,84,8|0,0:0|0:0,0:0:0:0:
248,120,201595,1,0,0:0:0:0:
472,56,201758,6,0,L|469:139,1,84,8|0,0:0|0:0,0:0:0:0:
380,268,202082,2,0,L|377:351,1,84,8|0,0:0|0:0,0:0:0:0:
460,300,202406,1,8,0:0:0:0:
372,252,202567,1,0,0:0:0:0:
332,240,202649,1,0,0:0:0:0:
292,228,202731,5,8,0:0:0:0:
384,140,202893,1,8,0:0:0:0:
148,52,203055,2,0,L|64:42,1,84,4|4,0:0|0:0,0:0:0:0:
172,356,204190,6,0,L|340:340,1,168,0|2,0:0|0:0,0:0:0:0:
256,276,204676,2,0,L|253:193,1,84,2|2,0:0|0:0,0:0:0:0:
412,160,205001,1,4,0:0:0:0:
416,120,205082,1,4,0:0:0:0:
420,80,205163,1,4,0:0:0:0:
152,48,205325,1,4,0:0:0:0:
12,336,205649,6,0,L|180:320,1,168,4|8,0:0|0:0,0:0:0:0:
336,268,206136,2,0,L|339:185,1,84,0|2,0:0|0:0,0:0:0:0:
248,124,206460,2,0,L|164:114,1,84,0|8,0:0|0:0,0:0:0:0:
328,36,206785,6,0,P|405:62|435:137,1,168,2|2,0:0|0:0,0:0:0:0:
348,188,207271,2,0,L|345:271,1,84,8|2,0:0|0:0,0:0:0:0:
504,348,207595,2,0,L|507:265,1,84,0|2,0:0|0:0,0:0:0:0:
424,212,207920,1,8,0:0:0:0:
280,328,208244,6,0,P|203:302|173:226,1,168,2|8,0:0|0:0,0:0:0:0:
336,212,208731,1,0,0:0:0:0:
384,168,208893,1,2,0:0:0:0:
396,100,209055,1,0,0:0:0:0:
364,40,209217,1,8,0:0:0:0:
200,24,209379,6,0,P|154:81|220:113,1,168,2|2,0:0|0:0,0:0:0:0:
304,164,209866,1,8,0:0:0:0:
216,208,210028,1,2,0:0:0:0:
40,240,210190,2,0,L|37:323,1,84,0|2,0:0|0:0,0:0:0:0:
120,376,210515,1,8,0:0:0:0:
375,307,210839,6,0,P|422:251|356:218,1,168,4|8,0:0|0:0,0:0:0:0:
192,272,211325,1,0,0:0:0:0:
108,220,211487,1,2,0:0:0:0:
196,176,211649,2,0,L|199:93,1,84,0|8,0:0|0:0,0:0:0:0:
36,60,211974,6,0,P|9:137|54:204,1,168,2|2,0:0|0:0,0:0:0:0:
136,252,212460,1,8,0:0:0:0:
220,302,212622,2,0,L|223:219,1,84,2|0,0:0|0:0,0:0:0:0:
60,172,212947,2,0,L|57:89,1,84,2|8,0:0|0:0,0:0:0:0:
296,40,213271,1,2,0:0:0:0:
152,344,213595,1,0,0:0:0:0:
392,296,213758,5,8,0:0:0:0:
468,244,213920,1,0,0:0:0:0:
388,200,214082,1,2,0:0:0:0:
464,148,214244,2,0,P|510:91|444:59,1,168,0|2,0:0|0:0,0:0:0:0:
188,304,214893,5,4,0:0:0:0:
156,268,214974,1,0,0:0:0:0:
148,224,215055,1,0,0:0:0:0:
168,180,215136,1,0,0:0:0:0:
204,152,215217,1,0,0:0:0:0:
376,136,215379,1,4,0:0:0:0:
372,96,215460,1,0,0:0:0:0:
368,56,215541,1,0,0:0:0:0:
140,40,215703,1,4,0:0:0:0:
24,56,216028,6,0,P|26:138|89:189,1,168,4|8,0:0|0:0,0:0:0:0:
248,136,216514,1,0,0:0:0:0:
324,188,216676,1,2,0:0:0:0:
244,232,216838,1,0,0:0:0:0:
320,284,217001,1,8,0:0:0:0:
480,336,217163,6,0,L|488:168,1,168,2|2,0:0|0:0,0:0:0:0:
400,120,217649,1,8,0:0:0:0:
312,240,217812,2,0,L|304:72,1,168,2|2,0:0|0:0,0:0:0:0:
52,356,218460,2,0,P|6:299|72:267,1,168,2|2,0:0|0:0,0:0:0:0:
228,216,218947,6,0,L|312:206,1,84,8|0,0:0|0:0,0:0:0:0:
216,140,219271,1,2,0:0:0:0:
132,88,219433,1,0,0:0:0:0:
220,44,219595,1,8,0:0:0:0:
464,60,219757,6,0,P|447:141|392:204,1,168,4|4,0:0|0:0,0:0:0:0:
312,256,220244,1,0,0:0:0:0:
72,232,220406,2,0,P|89:313|144:376,1,168,4|4,0:0|0:0,0:0:0:0:
288,376,221055,2,0,P|365:350|395:274,1,168,4|2,0:0|0:0,0:0:0:0:
160,288,221541,5,4,0:0:0:0:
112,244,221704,1,0,0:0:0:0:
100,176,221866,1,2,0:0:0:0:
132,116,222028,1,0,0:0:0:0:
292,72,222352,2,0,L|124:56,1,168,2|0,0:0|0:0,0:0:0:0:
352,288,222839,5,8,0:0:0:0:
400,244,223002,1,0,0:0:0:0:
412,176,223164,1,2,0:0:0:0:
380,116,223326,1,0,0:0:0:0:
220,72,223650,2,0,L|388:56,1,168,2|0,0:0|0:0,0:0:0:0:
164,324,224135,5,8,0:0:0:0:
80,316,224298,1,0,0:0:0:0:
68,276,224379,1,0,0:0:0:0:
80,236,224460,1,2,0:0:0:0:
240,200,224622,2,0,L|324:190,1,84,8|8,0:0|0:0,0:0:0:0:
96,136,224947,2,0,P|50:79|116:47,1,168,2|2,0:0|0:0,0:0:0:0:
288,16,225758,5,2,0:0:0:0:
368,68,225920,1,2,0:0:0:0:
284,120,226082,1,2,0:0:0:0:
32,172,226244,1,4,0:0:0:0:
256,192,226406,12,0,228839,0:0:0:0:
256,192,229001,12,0,231595,0:0:0:0:
