osu file format v14

[General]
AudioFilename: audio.mp3
AudioLeadIn: 0
PreviewTime: 43460
Countdown: 0
SampleSet: Normal
StackLeniency: 0.7
Mode: 3
LetterboxInBreaks: 0
SpecialStyle: 0
WidescreenStoryboard: 0

[Editor]
DistanceSpacing: 0.8
BeatDivisor: 16
GridSize: 8
TimelineZoom: 1.600006

[Metadata]
Title:Death Should Not Have Taken Thee!
TitleUnicode:しんでしまうとはなさけない!
Artist:Alfakyun. with Cupula
ArtistUnicode:+α/あるふぁきゅん。with クプラ-
Creator:jakads
Version:UHOHO UHOHO UHOHO U-HO
Source:Niconico
Tags:『しんでしまうとはなさけない!』をウザさMAXでコラボってみたったwwwwwww We Sang "Death Should Not Have Taken Thee!" with MAX Annoyance-Causing in Collab LOL Nicovideo Nico Nico Douga 藤 Fuji WONDERFUL★OPPORTUNITY! feat. Kagamine Rin & Len じーざす Jesus-P グライダー Glider 2nd Album αβ kyokan αβ叫喚
BeatmapID:1082424
BeatmapSetID:508960

[Difficulty]
HPDrainRate:8
CircleSize:4
OverallDifficulty:8
ApproachRate:5
SliderMultiplier:1.4
SliderTickRate:1

[Events]
//Background and Video events
//Break Periods
//Storyboard Layer 0 (Background)
//Storyboard Layer 1 (Fail)
//Storyboard Layer 2 (Pass)
//Storyboard Layer 3 (Foreground)
//Storyboard Sound Samples

[TimingPoints]
617,344.827586206897,4,1,0,100,1,0
617,-200,4,1,0,100,0,0
3375,3448275086.72805,4,1,0,100,1,0
3376,999999999,4,1,0,100,1,0
3377,999999999,4,1,0,100,1,0
3378,999999999,4,1,0,100,1,0
3379,999999999,4,1,0,100,1,0
3380,999999999,4,1,0,100,1,0
3382,0.5,4,1,0,100,1,0
3383,25.6184384585232,4,1,0,100,1,0
3384,999999999,4,1,0,100,1,0
3385,999999999,4,1,0,100,1,0
3386,999999999,4,1,0,100,1,0
3387,999999999,4,1,0,100,1,0
3388,999999999,4,1,0,100,1,0
3390,0.5,4,1,0,100,1,0
3391,12.9617099819472,4,1,0,100,1,0
3392,999999999,4,1,0,100,1,0
3393,999999999,4,1,0,100,1,0
3394,999999999,4,1,0,100,1,0
3395,999999999,4,1,0,100,1,0
3396,999999999,4,1,0,100,1,0
3398,0.5,4,1,0,100,1,0
3399,8.74525011899518,4,1,0,100,1,0
3400,999999999,4,1,0,100,1,0
3401,999999999,4,1,0,100,1,0
3402,999999999,4,1,0,100,1,0
3403,999999999,4,1,0,100,1,0
3404,999999999,4,1,0,100,1,0
3406,0.5,4,1,0,100,1,0
3407,6.63892463707296,4,1,0,100,1,0
3408,999999999,4,1,0,100,1,0
3409,999999999,4,1,0,100,1,0
3410,999999999,4,1,0,100,1,0
3411,999999999,4,1,0,100,1,0
3412,999999999,4,1,0,100,1,0
3414,0.5,4,1,0,100,1,0
3415,5.37670933767164,4,1,0,100,1,0
3416,999999999,4,1,0,100,1,0
3417,999999999,4,1,0,100,1,0
3418,999999999,4,1,0,100,1,0
3419,999999999,4,1,0,100,1,0
3420,999999999,4,1,0,100,1,0
3422,0.5,4,1,0,100,1,0
3423,4.53659850476571,4,1,0,100,1,0
3424,999999999,4,1,0,100,1,0
3425,999999999,4,1,0,100,1,0
3426,999999999,4,1,0,100,1,0
3427,999999999,4,1,0,100,1,0
3428,999999999,4,1,0,100,1,0
3430,0.5,4,1,0,100,1,0
3431,3.93773468836478,4,1,0,100,1,0
3432,999999999,4,1,0,100,1,0
3433,999999999,4,1,0,100,1,0
3434,999999999,4,1,0,100,1,0
3435,999999999,4,1,0,100,1,0
3436,999999999,4,1,0,100,1,0
3438,0.5,4,1,0,100,1,0
3439,3.48969115857157,4,1,0,100,1,0
3440,999999999,4,1,0,100,1,0
3441,999999999,4,1,0,100,1,0
3442,999999999,4,1,0,100,1,0
3443,999999999,4,1,0,100,1,0
3444,999999999,4,1,0,100,1,0
3446,0.5,4,1,0,100,1,0
3447,3.14223273184426,4,1,0,100,1,0
3448,999999999,4,1,0,100,1,0
3449,999999999,4,1,0,100,1,0
3450,999999999,4,1,0,100,1,0
3451,999999999,4,1,0,100,1,0
3452,999999999,4,1,0,100,1,0
3454,0.5,4,1,0,100,1,0
3455,2.86522010966185,4,1,0,100,1,0
3456,999999999,4,1,0,100,1,0
3457,999999999,4,1,0,100,1,0
3458,999999999,4,1,0,100,1,0
3459,999999999,4,1,0,100,1,0
3460,999999999,4,1,0,100,1,0
3462,0.5,4,1,0,100,1,0
3463,2.63947549513402,4,1,0,100,1,0
3464,999999999,4,1,0,100,1,0
3465,999999999,4,1,0,100,1,0
3466,999999999,4,1,0,100,1,0
3467,999999999,4,1,0,100,1,0
3468,999999999,4,1,0,100,1,0
3470,0.5,4,1,0,100,1,0
3471,2.45221540946376,4,1,0,100,1,0
3472,999999999,4,1,0,100,1,0
3473,999999999,4,1,0,100,1,0
3474,999999999,4,1,0,100,1,0
3475,999999999,4,1,0,100,1,0
3476,999999999,4,1,0,100,1,0
3478,0.5,4,1,0,100,1,0
3479,2.29459144752725,4,1,0,100,1,0
3480,999999999,4,1,0,100,1,0
3481,999999999,4,1,0,100,1,0
3482,999999999,4,1,0,100,1,0
3483,999999999,4,1,0,100,1,0
3484,999999999,4,1,0,100,1,0
3486,0.5,4,1,0,100,1,0
3487,2.16028500375811,4,1,0,100,1,0
3488,999999999,4,1,0,100,1,0
3489,999999999,4,1,0,100,1,0
3490,999999999,4,1,0,100,1,0
3491,999999999,4,1,0,100,1,0
3492,999999999,4,1,0,100,1,0
3494,0.5,4,1,0,100,1,0
3495,2.04466411630158,4,1,0,100,1,0
3496,999999999,4,1,0,100,1,0
3497,999999999,4,1,0,100,1,0
3498,999999999,4,1,0,100,1,0
3499,999999999,4,1,0,100,1,0
3500,999999999,4,1,0,100,1,0
3502,0.5,4,1,0,100,1,0
3503,1.9442565035041,4,1,0,100,1,0
3504,999999999,4,1,0,100,1,0
3505,999999999,4,1,0,100,1,0
3506,999999999,4,1,0,100,1,0
3507,999999999,4,1,0,100,1,0
3508,999999999,4,1,0,100,1,0
3510,0.5,4,1,0,100,1,0
3511,1.85640859674345,4,1,0,100,1,0
3512,999999999,4,1,0,100,1,0
3513,999999999,4,1,0,100,1,0
3514,999999999,4,1,0,100,1,0
3515,999999999,4,1,0,100,1,0
3516,999999999,4,1,0,100,1,0
3518,0.5,4,1,0,100,1,0
3519,1.77905823858571,4,1,0,100,1,0
3520,999999999,4,1,0,100,1,0
3521,999999999,4,1,0,100,1,0
3522,999999999,4,1,0,100,1,0
3523,999999999,4,1,0,100,1,0
3524,999999999,4,1,0,100,1,0
3526,0.5,4,1,0,100,1,0
3527,1.71057917052015,4,1,0,100,1,0
3528,999999999,4,1,0,100,1,0
3529,999999999,4,1,0,100,1,0
3530,999999999,4,1,0,100,1,0
3531,999999999,4,1,0,100,1,0
3532,999999999,4,1,0,100,1,0
3534,0.5,4,1,0,100,1,0
3535,1.64967218493229,4,1,0,100,1,0
3536,999999999,4,1,0,100,1,0
3537,999999999,4,1,0,100,1,0
3538,999999999,4,1,0,100,1,0
3539,999999999,4,1,0,100,1,0
3540,999999999,4,1,0,100,1,0
3542,0.5,4,1,0,100,1,0
3543,1.59528738765199,4,1,0,100,1,0
3544,999999999,4,1,0,100,1,0
3545,999999999,4,1,0,100,1,0
3546,999999999,4,1,0,100,1,0
3547,999999999,4,1,0,100,1,0
3548,999999999,4,1,0,100,1,0
3550,0.5,4,1,0,100,1,0
3551,1.54656767342026,4,1,0,100,1,0
3552,999999999,4,1,0,100,1,0
3553,999999999,4,1,0,100,1,0
3554,999999999,4,1,0,100,1,0
3555,999999999,4,1,0,100,1,0
3556,999999999,4,1,0,100,1,0
3558,0.5,4,1,0,100,1,0
3559,1.50280695942261,4,1,0,100,1,0
3560,999999999,4,1,0,100,1,0
3561,999999999,4,1,0,100,1,0
3562,999999999,4,1,0,100,1,0
3563,999999999,4,1,0,100,1,0
3564,999999999,4,1,0,100,1,0
3566,0.5,4,1,0,100,1,0
3567,1.4634188738093,4,1,0,100,1,0
3568,999999999,4,1,0,100,1,0
3569,999999999,4,1,0,100,1,0
3570,999999999,4,1,0,100,1,0
3571,999999999,4,1,0,100,1,0
3572,999999999,4,1,0,100,1,0
3574,0.5,4,1,0,100,1,0
3575,1.42791297327912,4,1,0,100,1,0
3576,999999999,4,1,0,100,1,0
3577,999999999,4,1,0,100,1,0
3578,999999999,4,1,0,100,1,0
3579,999999999,4,1,0,100,1,0
3580,999999999,4,1,0,100,1,0
3582,0.5,4,1,0,100,1,0
3583,1.39587646427621,4,1,0,100,1,0
3584,999999999,4,1,0,100,1,0
3585,999999999,4,1,0,100,1,0
3586,999999999,4,1,0,100,1,0
3587,999999999,4,1,0,100,1,0
3588,999999999,4,1,0,100,1,0
3590,0.5,4,1,0,100,1,0
3591,1.3669600026925,4,1,0,100,1,0
3592,999999999,4,1,0,100,1,0
3593,999999999,4,1,0,100,1,0
3594,999999999,4,1,0,100,1,0
3595,999999999,4,1,0,100,1,0
3596,999999999,4,1,0,100,1,0
3598,0.5,4,1,0,100,1,0
3599,1.34086655437539,4,1,0,100,1,0
3600,999999999,4,1,0,100,1,0
3601,999999999,4,1,0,100,1,0
3602,999999999,4,1,0,100,1,0
3603,999999999,4,1,0,100,1,0
3604,999999999,4,1,0,100,1,0
3606,0.5,4,1,0,100,1,0
3607,1.31734257974621,4,1,0,100,1,0
3608,999999999,4,1,0,100,1,0
3609,999999999,4,1,0,100,1,0
3610,999999999,4,1,0,100,1,0
3611,999999999,4,1,0,100,1,0
3612,999999999,4,1,0,100,1,0
3614,0.5,4,1,0,100,1,0
3615,1.29617100257967,4,1,0,100,1,0
3616,999999999,4,1,0,100,1,0
3617,999999999,4,1,0,100,1,0
3618,999999999,4,1,0,100,1,0
3619,999999999,4,1,0,100,1,0
3620,999999999,4,1,0,100,1,0
3622,0.5,4,1,0,100,1,0
3623,1.27716556266619,4,1,0,100,1,0
3624,999999999,4,1,0,100,1,0
3625,999999999,4,1,0,100,1,0
3626,999999999,4,1,0,100,1,0
3627,999999999,4,1,0,100,1,0
3628,999999999,4,1,0,100,1,0
3630,0.5,4,1,0,100,1,0
3631,1.26016625252118,4,1,0,100,1,0
3632,999999999,4,1,0,100,1,0
3633,999999999,4,1,0,100,1,0
3634,999999999,4,1,0,100,1,0
3635,999999999,4,1,0,100,1,0
3636,999999999,4,1,0,100,1,0
3638,0.5,4,1,0,100,1,0
3639,1.24503561141575,4,1,0,100,1,0
3640,999999999,4,1,0,100,1,0
3641,999999999,4,1,0,100,1,0
3642,999999999,4,1,0,100,1,0
3643,999999999,4,1,0,100,1,0
3644,999999999,4,1,0,100,1,0
3646,0.5,4,1,0,100,1,0
3647,1.23165570383178,4,1,0,100,1,0
3648,999999999,4,1,0,100,1,0
3649,999999999,4,1,0,100,1,0
3650,999999999,4,1,0,100,1,0
3651,999999999,4,1,0,100,1,0
3652,999999999,4,1,0,100,1,0
3654,0.5,4,1,0,100,1,0
3655,1.21992564951373,4,1,0,100,1,0
3656,999999999,4,1,0,100,1,0
3657,999999999,4,1,0,100,1,0
3658,999999999,4,1,0,100,1,0
3659,999999999,4,1,0,100,1,0
3660,999999999,4,1,0,100,1,0
3662,0.5,4,1,0,100,1,0
3663,1.20975960243801,4,1,0,100,1,0
3664,999999999,4,1,0,100,1,0
3665,999999999,4,1,0,100,1,0
3666,999999999,4,1,0,100,1,0
3667,999999999,4,1,0,100,1,0
3668,999999999,4,1,0,100,1,0
3670,0.5,4,1,0,100,1,0
3671,1.20108509894865,4,1,0,100,1,0
3672,999999999,4,1,0,100,1,0
3673,999999999,4,1,0,100,1,0
3674,999999999,4,1,0,100,1,0
3675,999999999,4,1,0,100,1,0
3676,999999999,4,1,0,100,1,0
3678,0.5,4,1,0,100,1,0
3679,1.19384171293776,4,1,0,100,1,0
3680,999999999,4,1,0,100,1,0
3681,999999999,4,1,0,100,1,0
3682,999999999,4,1,0,100,1,0
3683,999999999,4,1,0,100,1,0
3684,999999999,4,1,0,100,1,0
3686,0.5,4,1,0,100,1,0
3687,1.1879799696684,4,1,0,100,1,0
3688,999999999,4,1,0,100,1,0
3689,999999999,4,1,0,100,1,0
3690,999999999,4,1,0,100,1,0
3691,999999999,4,1,0,100,1,0
3692,999999999,4,1,0,100,1,0
3694,0.5,4,1,0,100,1,0
3695,1.18346048065491,4,1,0,100,1,0
3696,999999999,4,1,0,100,1,0
3697,999999999,4,1,0,100,1,0
3698,999999999,4,1,0,100,1,0
3699,999999999,4,1,0,100,1,0
3700,999999999,4,1,0,100,1,0
3702,0.5,4,1,0,100,1,0
3703,1.18025327068133,4,1,0,100,1,0
3704,999999999,4,1,0,100,1,0
3705,999999999,4,1,0,100,1,0
3706,999999999,4,1,0,100,1,0
3707,999999999,4,1,0,100,1,0
3708,999999999,4,1,0,100,1,0
3710,0.5,4,1,0,100,1,0
3711,1.1783372751127,4,1,0,100,1,0
3712,999999999,4,1,0,100,1,0
3713,999999999,4,1,0,100,1,0
3714,999999999,4,1,0,100,1,0
3715,999999999,4,1,0,100,1,0
3716,999999999,4,1,0,100,1,0
3717,0.5,4,1,0,100,1,0
3718,1.1777,4,1,0,100,1,0
3719,344.827586206897,4,1,0,100,1,0
3719,-1000000000,4,1,0,100,0,0
3722.44,-399840.079961618,4,1,0,100,0,0
3725.88,-99990.0049991003,4,1,0,100,0,0
3729.32,-44442.4710012099,4,1,0,100,0,0
3732.76,-24999.3760155746,4,1,0,100,0,0
3736.2,-15999.7446440755,4,1,0,100,0,0
3739.64,-11110.9881001273,4,1,0,100,0,0
3743.08,-8163.19899429127,4,1,0,100,0,0
3746.52,-6249.96118774102,4,1,0,100,0,0
3749.96,-4938.24741606118,4,1,0,100,0,0
3753.4,-3999.98416006273,4,1,0,100,0,0
3756.84,-3305.77432801832,4,1,0,100,0,0
3760.28,-2777.77017286033,4,1,0,100,0,0
3763.72,-2366.85839796807,4,1,0,100,0,0
3767.16,-2040.81224324016,4,1,0,100,0,0
3770.6,-1777.77468840043,4,1,0,100,0,0
3774.04,-1562.49762109737,4,1,0,100,0,0
3777.48,-1384.08118466265,4,1,0,100,0,0
3780.92,-1234.56642646114,4,1,0,100,0,0
3784.36,-1108.03205758216,4,1,0,100,0,0
3787.8,-999.999040000921,4,1,0,100,0,0
3791.24,-907.028692037436,4,1,0,100,0,0
3794.68,-826.445631036643,4,1,0,100,0,0
3798.12,-756.143125789675,4,1,0,100,0,0
3801.56,-694.443989969433,4,1,0,100,0,0
3805,-639.99961600023,4,1,0,100,0,0
3808.44,-591.715649872383,4,1,0,100,0,0
3811.88,-548.696565872929,4,1,0,100,0,0
3815.32,-510.203841732724,4,1,0,100,0,0
3818.76,-475.624049643726,4,1,0,100,0,0
3822.2,-444.444264691431,4,1,0,100,0,0
3825.64,-416.232933930094,4,1,0,100,0,0
3829.08,-390.624863037157,4,1,0,100,0,0
3832.52,-367.309337994729,4,1,0,100,0,0
3835.96,-346.02065535617,4,1,0,100,0,0
3839.4,-326.530518683909,4,1,0,100,0,0
3842.84,-308.641892394474,4,1,0,100,0,0
3846.28,-292.184002283707,4,1,0,100,0,0
3849.72,-277.008244596052,4,1,0,100,0,0
3853.16,-262.984819727856,4,1,0,100,0,0
3856.6,-249.999947500011,4,1,0,100,0,0
3860.04,-237.953551944424,4,1,0,100,0,0
3863.48,-226.757327265911,4,1,0,100,0,0
3866.92,-216.333114909006,4,1,0,100,0,0
3870.36,-206.611535824061,4,1,0,100,0,0
3873.8,-197.530833080328,4,1,0,100,0,0
3877.24,-189.03588865106,4,1,0,100,0,0
3880.68,-181.0773850471,4,1,0,100,0,0
3884.12,-173.611087914741,4,1,0,100,0,0
3887.56,-166.597230054605,4,1,0,100,0,0
3891,-159.999980800002,4,1,0,100,0,0
3894.44,-153.786987499117,4,1,0,100,0,0
3897.88,-147.928978117014,4,1,0,100,0,0
3901.32,-142.399415820659,4,1,0,100,0,0
3904.76,-137.174197918491,4,1,0,100,0,0
3908.2,-132.231392762791,4,1,0,100,0,0
3911.64,-127.551009240942,4,1,0,100,0,0
3915.08,-123.114794322586,4,1,0,100,0,0
3918.52,-118.906054826866,4,1,0,100,0,0
3921.96,-114.909500154036,4,1,0,100,0,0
3925.4,-111.111103209877,4,1,0,100,0,0
3928.84,-107.497977156895,4,1,0,100,0,0
3932.28,-104.058265966882,4,1,0,100,0,0
3935.72,-100.781047036427,4,1,0,100,0,0
3939.16,-97.6562443695071,4,1,0,100,0,0
3942.6,-94.6745510367287,4,1,0,100,0,0
3946.04,-91.8273597954672,4,1,0,100,0,0
3949.48,-89.1067009038358,4,1,0,100,0,0
3952.92,-86.5051862884785,4,1,0,100,0,0
3956.36,-84.0159593349329,4,1,0,100,0,0
3959.8,-81.6326496626407,4,1,0,100,0,0
3963.24,-79.3493323269721,4,1,0,100,0,0
3966.68,-77.1604909598385,4,1,0,100,0,0
3970.12,-75.0609844202675,4,1,0,100,0,0
3973.56,-73.0460165780849,4,1,0,100,0,0
3977,-71.1111088987655,4,1,0,100,0,0
3980.44,-69.2520755365598,4,1,0,100,0,0
3983.88,-67.4650006770112,4,1,0,100,0,0
3987.32,-65.7462178996569,4,1,0,100,0,0
3990.76,-64.0922913576483,4,1,0,100,0,0
3994.2,-62.49999859375,4,1,0,100,0,0
3997.64,-60.96631483211,4,1,0,100,0,0
4001.08,-59.4883986027127,4,1,0,100,0,0
4004.52,-58.0635785708475,4,1,0,100,0,0
4007.96,-56.6893414575203,4,1,0,100,0,0
4011.4,-55.3633209487434,4,1,0,100,0,0
4014.84,-54.0832875022559,4,1,0,100,0,0
4018.28,-52.8471389696319,4,1,0,100,0,0
4021.72,-51.6528919600779,4,1,0,100,0,0
4025.16,-50.4986738796276,4,1,0,100,0,0
4028.6,-49.3827155860387,4,1,0,100,0,0
4032.04,-48.3033446055624,4,1,0,100,0,0
4035.48,-47.2589788629972,4,1,0,100,0,0
4038.92,-46.2481208811136,4,1,0,100,0,0
4042.36,-45.269352409717,4,1,0,100,0,0
4045.8,-44.3213294483621,4,1,0,100,0,0
4049.24,-43.4027776300878,4,1,0,100,0,0
4052.68,-42.5124879365506,4,1,0,100,0,0
4056.12,-41.6493127176463,4,1,0,100,0,0
4059.56,-40.8121619911372,4,1,0,100,0,0
4063,-40,4,1,0,100,0,0
4065,3448275086.72805,4,1,0,100,1,0
4066,999999999,4,1,0,100,1,0
4067,999999999,4,1,0,100,1,0
4068,999999999,4,1,0,100,1,0
4069,999999999,4,1,0,100,1,0
4070,999999999,4,1,0,100,1,0
4072,0.5,4,1,0,100,1,0
4073,25.6184384585232,4,1,0,100,1,0
4074,999999999,4,1,0,100,1,0
4075,999999999,4,1,0,100,1,0
4076,999999999,4,1,0,100,1,0
4077,999999999,4,1,0,100,1,0
4078,999999999,4,1,0,100,1,0
4080,0.5,4,1,0,100,1,0
4081,12.9617099819472,4,1,0,100,1,0
4082,999999999,4,1,0,100,1,0
4083,999999999,4,1,0,100,1,0
4084,999999999,4,1,0,100,1,0
4085,999999999,4,1,0,100,1,0
4086,999999999,4,1,0,100,1,0
4088,0.5,4,1,0,100,1,0
4089,8.74525011899518,4,1,0,100,1,0
4090,999999999,4,1,0,100,1,0
4091,999999999,4,1,0,100,1,0
4092,999999999,4,1,0,100,1,0
4093,999999999,4,1,0,100,1,0
4094,999999999,4,1,0,100,1,0
4096,0.5,4,1,0,100,1,0
4097,6.63892463707296,4,1,0,100,1,0
4098,999999999,4,1,0,100,1,0
4099,999999999,4,1,0,100,1,0
4100,999999999,4,1,0,100,1,0
4101,999999999,4,1,0,100,1,0
4102,999999999,4,1,0,100,1,0
4104,0.5,4,1,0,100,1,0
4105,5.37670933767164,4,1,0,100,1,0
4106,999999999,4,1,0,100,1,0
4107,999999999,4,1,0,100,1,0
4108,999999999,4,1,0,100,1,0
4109,999999999,4,1,0,100,1,0
4110,999999999,4,1,0,100,1,0
4112,0.5,4,1,0,100,1,0
4113,4.53659850476571,4,1,0,100,1,0
4114,999999999,4,1,0,100,1,0
4115,999999999,4,1,0,100,1,0
4116,999999999,4,1,0,100,1,0
4117,999999999,4,1,0,100,1,0
4118,999999999,4,1,0,100,1,0
4120,0.5,4,1,0,100,1,0
4121,3.93773468836478,4,1,0,100,1,0
4122,999999999,4,1,0,100,1,0
4123,999999999,4,1,0,100,1,0
4124,999999999,4,1,0,100,1,0
4125,999999999,4,1,0,100,1,0
4126,999999999,4,1,0,100,1,0
4128,0.5,4,1,0,100,1,0
4129,3.48969115857157,4,1,0,100,1,0
4130,999999999,4,1,0,100,1,0
4131,999999999,4,1,0,100,1,0
4132,999999999,4,1,0,100,1,0
4133,999999999,4,1,0,100,1,0
4134,999999999,4,1,0,100,1,0
4136,0.5,4,1,0,100,1,0
4137,3.14223273184426,4,1,0,100,1,0
4138,999999999,4,1,0,100,1,0
4139,999999999,4,1,0,100,1,0
4140,999999999,4,1,0,100,1,0
4141,999999999,4,1,0,100,1,0
4142,999999999,4,1,0,100,1,0
4144,0.5,4,1,0,100,1,0
4145,2.86522010966185,4,1,0,100,1,0
4146,999999999,4,1,0,100,1,0
4147,999999999,4,1,0,100,1,0
4148,999999999,4,1,0,100,1,0
4149,999999999,4,1,0,100,1,0
4150,999999999,4,1,0,100,1,0
4152,0.5,4,1,0,100,1,0
4153,2.63947549513402,4,1,0,100,1,0
4154,999999999,4,1,0,100,1,0
4155,999999999,4,1,0,100,1,0
4156,999999999,4,1,0,100,1,0
4157,999999999,4,1,0,100,1,0
4158,999999999,4,1,0,100,1,0
4160,0.5,4,1,0,100,1,0
4161,2.45221540946376,4,1,0,100,1,0
4162,999999999,4,1,0,100,1,0
4163,999999999,4,1,0,100,1,0
4164,999999999,4,1,0,100,1,0
4165,999999999,4,1,0,100,1,0
4166,999999999,4,1,0,100,1,0
4168,0.5,4,1,0,100,1,0
4169,2.29459144752725,4,1,0,100,1,0
4170,999999999,4,1,0,100,1,0
4171,999999999,4,1,0,100,1,0
4172,999999999,4,1,0,100,1,0
4173,999999999,4,1,0,100,1,0
4174,999999999,4,1,0,100,1,0
4176,0.5,4,1,0,100,1,0
4177,2.16028500375811,4,1,0,100,1,0
4178,999999999,4,1,0,100,1,0
4179,999999999,4,1,0,100,1,0
4180,999999999,4,1,0,100,1,0
4181,999999999,4,1,0,100,1,0
4182,999999999,4,1,0,100,1,0
4184,0.5,4,1,0,100,1,0
4185,2.04466411630158,4,1,0,100,1,0
4186,999999999,4,1,0,100,1,0
4187,999999999,4,1,0,100,1,0
4188,999999999,4,1,0,100,1,0
4189,999999999,4,1,0,100,1,0
4190,999999999,4,1,0,100,1,0
4192,0.5,4,1,0,100,1,0
4193,1.9442565035041,4,1,0,100,1,0
4194,999999999,4,1,0,100,1,0
4195,999999999,4,1,0,100,1,0
4196,999999999,4,1,0,100,1,0
4197,999999999,4,1,0,100,1,0
4198,999999999,4,1,0,100,1,0
4200,0.5,4,1,0,100,1,0
4201,1.85640859674345,4,1,0,100,1,0
4202,999999999,4,1,0,100,1,0
4203,999999999,4,1,0,100,1,0
4204,999999999,4,1,0,100,1,0
4205,999999999,4,1,0,100,1,0
4206,999999999,4,1,0,100,1,0
4208,0.5,4,1,0,100,1,0
4209,1.77905823858571,4,1,0,100,1,0
4210,999999999,4,1,0,100,1,0
4211,999999999,4,1,0,100,1,0
4212,999999999,4,1,0,100,1,0
4213,999999999,4,1,0,100,1,0
4214,999999999,4,1,0,100,1,0
4216,0.5,4,1,0,100,1,0
4217,1.71057917052015,4,1,0,100,1,0
4218,999999999,4,1,0,100,1,0
4219,999999999,4,1,0,100,1,0
4220,999999999,4,1,0,100,1,0
4221,999999999,4,1,0,100,1,0
4222,999999999,4,1,0,100,1,0
4224,0.5,4,1,0,100,1,0
4225,1.64967218493229,4,1,0,100,1,0
4226,999999999,4,1,0,100,1,0
4227,999999999,4,1,0,100,1,0
4228,999999999,4,1,0,100,1,0
4229,999999999,4,1,0,100,1,0
4230,999999999,4,1,0,100,1,0
4232,0.5,4,1,0,100,1,0
4233,1.59528738765199,4,1,0,100,1,0
4234,999999999,4,1,0,100,1,0
4235,999999999,4,1,0,100,1,0
4236,999999999,4,1,0,100,1,0
4237,999999999,4,1,0,100,1,0
4238,999999999,4,1,0,100,1,0
4240,0.5,4,1,0,100,1,0
4241,1.54656767342026,4,1,0,100,1,0
4242,999999999,4,1,0,100,1,0
4243,999999999,4,1,0,100,1,0
4244,999999999,4,1,0,100,1,0
4245,999999999,4,1,0,100,1,0
4246,999999999,4,1,0,100,1,0
4248,0.5,4,1,0,100,1,0
4249,1.50280695942261,4,1,0,100,1,0
4250,999999999,4,1,0,100,1,0
4251,999999999,4,1,0,100,1,0
4252,999999999,4,1,0,100,1,0
4253,999999999,4,1,0,100,1,0
4254,999999999,4,1,0,100,1,0
4256,0.5,4,1,0,100,1,0
4257,1.4634188738093,4,1,0,100,1,0
4258,999999999,4,1,0,100,1,0
4259,999999999,4,1,0,100,1,0
4260,999999999,4,1,0,100,1,0
4261,999999999,4,1,0,100,1,0
4262,999999999,4,1,0,100,1,0
4264,0.5,4,1,0,100,1,0
4265,1.42791297327912,4,1,0,100,1,0
4266,999999999,4,1,0,100,1,0
4267,999999999,4,1,0,100,1,0
4268,999999999,4,1,0,100,1,0
4269,999999999,4,1,0,100,1,0
4270,999999999,4,1,0,100,1,0
4272,0.5,4,1,0,100,1,0
4273,1.39587646427621,4,1,0,100,1,0
4274,999999999,4,1,0,100,1,0
4275,999999999,4,1,0,100,1,0
4276,999999999,4,1,0,100,1,0
4277,999999999,4,1,0,100,1,0
4278,999999999,4,1,0,100,1,0
4280,0.5,4,1,0,100,1,0
4281,1.3669600026925,4,1,0,100,1,0
4282,999999999,4,1,0,100,1,0
4283,999999999,4,1,0,100,1,0
4284,999999999,4,1,0,100,1,0
4285,999999999,4,1,0,100,1,0
4286,999999999,4,1,0,100,1,0
4288,0.5,4,1,0,100,1,0
4289,1.34086655437539,4,1,0,100,1,0
4290,999999999,4,1,0,100,1,0
4291,999999999,4,1,0,100,1,0
4292,999999999,4,1,0,100,1,0
4293,999999999,4,1,0,100,1,0
4294,999999999,4,1,0,100,1,0
4296,0.5,4,1,0,100,1,0
4297,1.31734257974621,4,1,0,100,1,0
4298,999999999,4,1,0,100,1,0
4299,999999999,4,1,0,100,1,0
4300,999999999,4,1,0,100,1,0
4301,999999999,4,1,0,100,1,0
4302,999999999,4,1,0,100,1,0
4304,0.5,4,1,0,100,1,0
4305,1.29617100257967,4,1,0,100,1,0
4306,999999999,4,1,0,100,1,0
4307,999999999,4,1,0,100,1,0
4308,999999999,4,1,0,100,1,0
4309,999999999,4,1,0,100,1,0
4310,999999999,4,1,0,100,1,0
4312,0.5,4,1,0,100,1,0
4313,1.27716556266619,4,1,0,100,1,0
4314,999999999,4,1,0,100,1,0
4315,999999999,4,1,0,100,1,0
4316,999999999,4,1,0,100,1,0
4317,999999999,4,1,0,100,1,0
4318,999999999,4,1,0,100,1,0
4320,0.5,4,1,0,100,1,0
4321,1.26016625252118,4,1,0,100,1,0
4322,999999999,4,1,0,100,1,0
4323,999999999,4,1,0,100,1,0
4324,999999999,4,1,0,100,1,0
4325,999999999,4,1,0,100,1,0
4326,999999999,4,1,0,100,1,0
4328,0.5,4,1,0,100,1,0
4329,1.24503561141575,4,1,0,100,1,0
4330,999999999,4,1,0,100,1,0
4331,999999999,4,1,0,100,1,0
4332,999999999,4,1,0,100,1,0
4333,999999999,4,1,0,100,1,0
4334,999999999,4,1,0,100,1,0
4336,0.5,4,1,0,100,1,0
4337,1.23165570383178,4,1,0,100,1,0
4338,999999999,4,1,0,100,1,0
4339,999999999,4,1,0,100,1,0
4340,999999999,4,1,0,100,1,0
4341,999999999,4,1,0,100,1,0
4342,999999999,4,1,0,100,1,0
4344,0.5,4,1,0,100,1,0
4345,1.21992564951373,4,1,0,100,1,0
4346,999999999,4,1,0,100,1,0
4347,999999999,4,1,0,100,1,0
4348,999999999,4,1,0,100,1,0
4349,999999999,4,1,0,100,1,0
4350,999999999,4,1,0,100,1,0
4352,0.5,4,1,0,100,1,0
4353,1.20975960243801,4,1,0,100,1,0
4354,999999999,4,1,0,100,1,0
4355,999999999,4,1,0,100,1,0
4356,999999999,4,1,0,100,1,0
4357,999999999,4,1,0,100,1,0
4358,999999999,4,1,0,100,1,0
4360,0.5,4,1,0,100,1,0
4361,1.20108509894865,4,1,0,100,1,0
4362,999999999,4,1,0,100,1,0
4363,999999999,4,1,0,100,1,0
4364,999999999,4,1,0,100,1,0
4365,999999999,4,1,0,100,1,0
4366,999999999,4,1,0,100,1,0
4368,0.5,4,1,0,100,1,0
4369,1.19384171293776,4,1,0,100,1,0
4370,999999999,4,1,0,100,1,0
4371,999999999,4,1,0,100,1,0
4372,999999999,4,1,0,100,1,0
4373,999999999,4,1,0,100,1,0
4374,999999999,4,1,0,100,1,0
4376,0.5,4,1,0,100,1,0
4377,1.1879799696684,4,1,0,100,1,0
4378,999999999,4,1,0,100,1,0
4379,999999999,4,1,0,100,1,0
4380,999999999,4,1,0,100,1,0
4381,999999999,4,1,0,100,1,0
4382,999999999,4,1,0,100,1,0
4384,0.5,4,1,0,100,1,0
4385,1.18346048065491,4,1,0,100,1,0
4386,999999999,4,1,0,100,1,0
4387,999999999,4,1,0,100,1,0
4388,999999999,4,1,0,100,1,0
4389,999999999,4,1,0,100,1,0
4390,999999999,4,1,0,100,1,0
4392,0.5,4,1,0,100,1,0
4393,1.18025327068133,4,1,0,100,1,0
4394,999999999,4,1,0,100,1,0
4395,999999999,4,1,0,100,1,0
4396,999999999,4,1,0,100,1,0
4397,999999999,4,1,0,100,1,0
4398,999999999,4,1,0,100,1,0
4400,0.5,4,1,0,100,1,0
4401,1.1783372751127,4,1,0,100,1,0
4402,999999999,4,1,0,100,1,0
4403,999999999,4,1,0,100,1,0
4404,999999999,4,1,0,100,1,0
4405,999999999,4,1,0,100,1,0
4406,999999999,4,1,0,100,1,0
4407,0.5,4,1,0,100,1,0
4408,1.1777,4,1,0,100,1,0
4409,344.827586206897,4,1,0,100,1,0
4409,-1000000000,4,1,0,100,0,0
4412.44,-399840.079961618,4,1,0,100,0,0
4415.88,-99990.0049991003,4,1,0,100,0,0
4419.32,-44442.4710012099,4,1,0,100,0,0
4422.76,-24999.3760155746,4,1,0,100,0,0
4426.2,-15999.7446440755,4,1,0,100,0,0
4429.64,-11110.9881001273,4,1,0,100,0,0
4433.08,-8163.19899429127,4,1,0,100,0,0
4436.52,-6249.96118774102,4,1,0,100,0,0
4439.96,-4938.24741606118,4,1,0,100,0,0
4443.4,-3999.98416006273,4,1,0,100,0,0
4446.84,-3305.77432801832,4,1,0,100,0,0
4450.28,-2777.77017286033,4,1,0,100,0,0
4453.72,-2366.85839796807,4,1,0,100,0,0
4457.16,-2040.81224324016,4,1,0,100,0,0
4460.6,-1777.77468840043,4,1,0,100,0,0
4464.04,-1562.49762109737,4,1,0,100,0,0
4467.48,-1384.08118466265,4,1,0,100,0,0
4470.92,-1234.56642646114,4,1,0,100,0,0
4474.36,-1108.03205758216,4,1,0,100,0,0
4477.8,-999.999040000921,4,1,0,100,0,0
4481.24,-907.028692037436,4,1,0,100,0,0
4484.68,-826.445631036643,4,1,0,100,0,0
4488.12,-756.143125789675,4,1,0,100,0,0
4491.56,-694.443989969433,4,1,0,100,0,0
4495,-639.99961600023,4,1,0,100,0,0
4498.44,-591.715649872383,4,1,0,100,0,0
4501.88,-548.696565872929,4,1,0,100,0,0
4505.32,-510.203841732724,4,1,0,100,0,0
4508.76,-475.624049643726,4,1,0,100,0,0
4512.2,-444.444264691431,4,1,0,100,0,0
4515.64,-416.232933930094,4,1,0,100,0,0
4519.08,-390.624863037157,4,1,0,100,0,0
4522.52,-367.309337994729,4,1,0,100,0,0
4525.96,-346.02065535617,4,1,0,100,0,0
4529.4,-326.530518683909,4,1,0,100,0,0
4532.84,-308.641892394474,4,1,0,100,0,0
4536.28,-292.184002283707,4,1,0,100,0,0
4539.72,-277.008244596052,4,1,0,100,0,0
4543.16,-262.984819727856,4,1,0,100,0,0
4546.6,-249.999947500011,4,1,0,100,0,0
4550.04,-237.953551944424,4,1,0,100,0,0
4553.48,-226.757327265911,4,1,0,100,0,0
4556.92,-216.333114909006,4,1,0,100,0,0
4560.36,-206.611535824061,4,1,0,100,0,0
4563.8,-197.530833080328,4,1,0,100,0,0
4567.24,-189.03588865106,4,1,0,100,0,0
4570.68,-181.0773850471,4,1,0,100,0,0
4574.12,-173.611087914741,4,1,0,100,0,0
4577.56,-166.597230054605,4,1,0,100,0,0
4581,-159.999980800002,4,1,0,100,0,0
4584.44,-153.786987499117,4,1,0,100,0,0
4587.88,-147.928978117014,4,1,0,100,0,0
4591.32,-142.399415820659,4,1,0,100,0,0
4594.76,-137.174197918491,4,1,0,100,0,0
4598.2,-132.231392762791,4,1,0,100,0,0
4601.64,-127.551009240942,4,1,0,100,0,0
4605.08,-123.114794322586,4,1,0,100,0,0
4608.52,-118.906054826866,4,1,0,100,0,0
4611.96,-114.909500154036,4,1,0,100,0,0
4615.4,-111.111103209877,4,1,0,100,0,0
4618.84,-107.497977156895,4,1,0,100,0,0
4622.28,-104.058265966882,4,1,0,100,0,0
4625.72,-100.781047036427,4,1,0,100,0,0
4629.16,-97.6562443695071,4,1,0,100,0,0
4632.6,-94.6745510367287,4,1,0,100,0,0
4636.04,-91.8273597954672,4,1,0,100,0,0
4639.48,-89.1067009038358,4,1,0,100,0,0
4642.92,-86.5051862884785,4,1,0,100,0,0
4646.36,-84.0159593349329,4,1,0,100,0,0
4649.8,-81.6326496626407,4,1,0,100,0,0
4653.24,-79.3493323269721,4,1,0,100,0,0
4656.68,-77.1604909598385,4,1,0,100,0,0
4660.12,-75.0609844202675,4,1,0,100,0,0
4663.56,-73.0460165780849,4,1,0,100,0,0
4667,-71.1111088987655,4,1,0,100,0,0
4670.44,-69.2520755365598,4,1,0,100,0,0
4673.88,-67.4650006770112,4,1,0,100,0,0
4677.32,-65.7462178996569,4,1,0,100,0,0
4680.76,-64.0922913576483,4,1,0,100,0,0
4684.2,-62.49999859375,4,1,0,100,0,0
4687.64,-60.96631483211,4,1,0,100,0,0
4691.08,-59.4883986027127,4,1,0,100,0,0
4694.52,-58.0635785708475,4,1,0,100,0,0
4697.96,-56.6893414575203,4,1,0,100,0,0
4701.4,-55.3633209487434,4,1,0,100,0,0
4704.84,-54.0832875022559,4,1,0,100,0,0
4708.28,-52.8471389696319,4,1,0,100,0,0
4711.72,-51.6528919600779,4,1,0,100,0,0
4715.16,-50.4986738796276,4,1,0,100,0,0
4718.6,-49.3827155860387,4,1,0,100,0,0
4722.04,-48.3033446055624,4,1,0,100,0,0
4725.48,-47.2589788629972,4,1,0,100,0,0
4728.92,-46.2481208811136,4,1,0,100,0,0
4732.36,-45.269352409717,4,1,0,100,0,0
4735.8,-44.3213294483621,4,1,0,100,0,0
4739.24,-43.4027776300878,4,1,0,100,0,0
4742.68,-42.5124879365506,4,1,0,100,0,0
4746.12,-41.6493127176463,4,1,0,100,0,0
4749.56,-40.8121619911372,4,1,0,100,0,0
4753,-40,4,1,0,100,0,0
4754,3448275086.72805,4,1,0,100,1,0
4755,999999999,4,1,0,100,1,0
4756,999999999,4,1,0,100,1,0
4757,999999999,4,1,0,100,1,0
4758,999999999,4,1,0,100,1,0
4759,999999999,4,1,0,100,1,0
4761,0.5,4,1,0,100,1,0
4762,25.6184384585232,4,1,0,100,1,0
4763,999999999,4,1,0,100,1,0
4764,999999999,4,1,0,100,1,0
4765,999999999,4,1,0,100,1,0
4766,999999999,4,1,0,100,1,0
4767,999999999,4,1,0,100,1,0
4769,0.5,4,1,0,100,1,0
4770,12.9617099819472,4,1,0,100,1,0
4771,999999999,4,1,0,100,1,0
4772,999999999,4,1,0,100,1,0
4773,999999999,4,1,0,100,1,0
4774,999999999,4,1,0,100,1,0
4775,999999999,4,1,0,100,1,0
4777,0.5,4,1,0,100,1,0
4778,8.74525011899518,4,1,0,100,1,0
4779,999999999,4,1,0,100,1,0
4780,999999999,4,1,0,100,1,0
4781,999999999,4,1,0,100,1,0
4782,999999999,4,1,0,100,1,0
4783,999999999,4,1,0,100,1,0
4785,0.5,4,1,0,100,1,0
4786,6.63892463707296,4,1,0,100,1,0
4787,999999999,4,1,0,100,1,0
4788,999999999,4,1,0,100,1,0
4789,999999999,4,1,0,100,1,0
4790,999999999,4,1,0,100,1,0
4791,999999999,4,1,0,100,1,0
4793,0.5,4,1,0,100,1,0
4794,5.37670933767164,4,1,0,100,1,0
4795,999999999,4,1,0,100,1,0
4796,999999999,4,1,0,100,1,0
4797,999999999,4,1,0,100,1,0
4798,999999999,4,1,0,100,1,0
4799,999999999,4,1,0,100,1,0
4801,0.5,4,1,0,100,1,0
4802,4.53659850476571,4,1,0,100,1,0
4803,999999999,4,1,0,100,1,0
4804,999999999,4,1,0,100,1,0
4805,999999999,4,1,0,100,1,0
4806,999999999,4,1,0,100,1,0
4807,999999999,4,1,0,100,1,0
4809,0.5,4,1,0,100,1,0
4810,3.93773468836478,4,1,0,100,1,0
4811,999999999,4,1,0,100,1,0
4812,999999999,4,1,0,100,1,0
4813,999999999,4,1,0,100,1,0
4814,999999999,4,1,0,100,1,0
4815,999999999,4,1,0,100,1,0
4817,0.5,4,1,0,100,1,0
4818,3.48969115857157,4,1,0,100,1,0
4819,999999999,4,1,0,100,1,0
4820,999999999,4,1,0,100,1,0
4821,999999999,4,1,0,100,1,0
4822,999999999,4,1,0,100,1,0
4823,999999999,4,1,0,100,1,0
4825,0.5,4,1,0,100,1,0
4826,3.14223273184426,4,1,0,100,1,0
4827,999999999,4,1,0,100,1,0
4828,999999999,4,1,0,100,1,0
4829,999999999,4,1,0,100,1,0
4830,999999999,4,1,0,100,1,0
4831,999999999,4,1,0,100,1,0
4833,0.5,4,1,0,100,1,0
4834,2.86522010966185,4,1,0,100,1,0
4835,999999999,4,1,0,100,1,0
4836,999999999,4,1,0,100,1,0
4837,999999999,4,1,0,100,1,0
4838,999999999,4,1,0,100,1,0
4839,999999999,4,1,0,100,1,0
4841,0.5,4,1,0,100,1,0
4842,2.63947549513402,4,1,0,100,1,0
4843,999999999,4,1,0,100,1,0
4844,999999999,4,1,0,100,1,0
4845,999999999,4,1,0,100,1,0
4846,999999999,4,1,0,100,1,0
4847,999999999,4,1,0,100,1,0
4849,0.5,4,1,0,100,1,0
4850,2.45221540946376,4,1,0,100,1,0
4851,999999999,4,1,0,100,1,0
4852,999999999,4,1,0,100,1,0
4853,999999999,4,1,0,100,1,0
4854,999999999,4,1,0,100,1,0
4855,999999999,4,1,0,100,1,0
4857,0.5,4,1,0,100,1,0
4858,2.29459144752725,4,1,0,100,1,0
4859,999999999,4,1,0,100,1,0
4860,999999999,4,1,0,100,1,0
4861,999999999,4,1,0,100,1,0
4862,999999999,4,1,0,100,1,0
4863,999999999,4,1,0,100,1,0
4865,0.5,4,1,0,100,1,0
4866,2.16028500375811,4,1,0,100,1,0
4867,999999999,4,1,0,100,1,0
4868,999999999,4,1,0,100,1,0
4869,999999999,4,1,0,100,1,0
4870,999999999,4,1,0,100,1,0
4871,999999999,4,1,0,100,1,0
4873,0.5,4,1,0,100,1,0
4874,2.04466411630158,4,1,0,100,1,0
4875,999999999,4,1,0,100,1,0
4876,999999999,4,1,0,100,1,0
4877,999999999,4,1,0,100,1,0
4878,999999999,4,1,0,100,1,0
4879,999999999,4,1,0,100,1,0
4881,0.5,4,1,0,100,1,0
4882,1.9442565035041,4,1,0,100,1,0
4883,999999999,4,1,0,100,1,0
4884,999999999,4,1,0,100,1,0
4885,999999999,4,1,0,100,1,0
4886,999999999,4,1,0,100,1,0
4887,999999999,4,1,0,100,1,0
4889,0.5,4,1,0,100,1,0
4890,1.85640859674345,4,1,0,100,1,0
4891,999999999,4,1,0,100,1,0
4892,999999999,4,1,0,100,1,0
4893,999999999,4,1,0,100,1,0
4894,999999999,4,1,0,100,1,0
4895,999999999,4,1,0,100,1,0
4897,0.5,4,1,0,100,1,0
4898,1.77905823858571,4,1,0,100,1,0
4899,999999999,4,1,0,100,1,0
4900,999999999,4,1,0,100,1,0
4901,999999999,4,1,0,100,1,0
4902,999999999,4,1,0,100,1,0
4903,999999999,4,1,0,100,1,0
4905,0.5,4,1,0,100,1,0
4906,1.71057917052015,4,1,0,100,1,0
4907,999999999,4,1,0,100,1,0
4908,999999999,4,1,0,100,1,0
4909,999999999,4,1,0,100,1,0
4910,999999999,4,1,0,100,1,0
4911,999999999,4,1,0,100,1,0
4913,0.5,4,1,0,100,1,0
4914,1.64967218493229,4,1,0,100,1,0
4915,999999999,4,1,0,100,1,0
4916,999999999,4,1,0,100,1,0
4917,999999999,4,1,0,100,1,0
4918,999999999,4,1,0,100,1,0
4919,999999999,4,1,0,100,1,0
4921,0.5,4,1,0,100,1,0
4922,1.59528738765199,4,1,0,100,1,0
4923,999999999,4,1,0,100,1,0
4924,999999999,4,1,0,100,1,0
4925,999999999,4,1,0,100,1,0
4926,999999999,4,1,0,100,1,0
4927,999999999,4,1,0,100,1,0
4929,0.5,4,1,0,100,1,0
4930,1.54656767342026,4,1,0,100,1,0
4931,999999999,4,1,0,100,1,0
4932,999999999,4,1,0,100,1,0
4933,999999999,4,1,0,100,1,0
4934,999999999,4,1,0,100,1,0
4935,999999999,4,1,0,100,1,0
4937,0.5,4,1,0,100,1,0
4938,1.50280695942261,4,1,0,100,1,0
4939,999999999,4,1,0,100,1,0
4940,999999999,4,1,0,100,1,0
4941,999999999,4,1,0,100,1,0
4942,999999999,4,1,0,100,1,0
4943,999999999,4,1,0,100,1,0
4945,0.5,4,1,0,100,1,0
4946,1.4634188738093,4,1,0,100,1,0
4947,999999999,4,1,0,100,1,0
4948,999999999,4,1,0,100,1,0
4949,999999999,4,1,0,100,1,0
4950,999999999,4,1,0,100,1,0
4951,999999999,4,1,0,100,1,0
4953,0.5,4,1,0,100,1,0
4954,1.42791297327912,4,1,0,100,1,0
4955,999999999,4,1,0,100,1,0
4956,999999999,4,1,0,100,1,0
4957,999999999,4,1,0,100,1,0
4958,999999999,4,1,0,100,1,0
4959,999999999,4,1,0,100,1,0
4961,0.5,4,1,0,100,1,0
4962,1.39587646427621,4,1,0,100,1,0
4963,999999999,4,1,0,100,1,0
4964,999999999,4,1,0,100,1,0
4965,999999999,4,1,0,100,1,0
4966,999999999,4,1,0,100,1,0
4967,999999999,4,1,0,100,1,0
4969,0.5,4,1,0,100,1,0
4970,1.3669600026925,4,1,0,100,1,0
4971,999999999,4,1,0,100,1,0
4972,999999999,4,1,0,100,1,0
4973,999999999,4,1,0,100,1,0
4974,999999999,4,1,0,100,1,0
4975,999999999,4,1,0,100,1,0
4977,0.5,4,1,0,100,1,0
4978,1.34086655437539,4,1,0,100,1,0
4979,999999999,4,1,0,100,1,0
4980,999999999,4,1,0,100,1,0
4981,999999999,4,1,0,100,1,0
4982,999999999,4,1,0,100,1,0
4983,999999999,4,1,0,100,1,0
4985,0.5,4,1,0,100,1,0
4986,1.31734257974621,4,1,0,100,1,0
4987,999999999,4,1,0,100,1,0
4988,999999999,4,1,0,100,1,0
4989,999999999,4,1,0,100,1,0
4990,999999999,4,1,0,100,1,0
4991,999999999,4,1,0,100,1,0
4993,0.5,4,1,0,100,1,0
4994,1.29617100257967,4,1,0,100,1,0
4995,999999999,4,1,0,100,1,0
4996,999999999,4,1,0,100,1,0
4997,999999999,4,1,0,100,1,0
4998,999999999,4,1,0,100,1,0
4999,999999999,4,1,0,100,1,0
5001,0.5,4,1,0,100,1,0
5002,1.27716556266619,4,1,0,100,1,0
5003,999999999,4,1,0,100,1,0
5004,999999999,4,1,0,100,1,0
5005,999999999,4,1,0,100,1,0
5006,999999999,4,1,0,100,1,0
5007,999999999,4,1,0,100,1,0
5009,0.5,4,1,0,100,1,0
5010,1.26016625252118,4,1,0,100,1,0
5011,999999999,4,1,0,100,1,0
5012,999999999,4,1,0,100,1,0
5013,999999999,4,1,0,100,1,0
5014,999999999,4,1,0,100,1,0
5015,999999999,4,1,0,100,1,0
5017,0.5,4,1,0,100,1,0
5018,1.24503561141575,4,1,0,100,1,0
5019,999999999,4,1,0,100,1,0
5020,999999999,4,1,0,100,1,0
5021,999999999,4,1,0,100,1,0
5022,999999999,4,1,0,100,1,0
5023,999999999,4,1,0,100,1,0
5025,0.5,4,1,0,100,1,0
5026,1.23165570383178,4,1,0,100,1,0
5027,999999999,4,1,0,100,1,0
5028,999999999,4,1,0,100,1,0
5029,999999999,4,1,0,100,1,0
5030,999999999,4,1,0,100,1,0
5031,999999999,4,1,0,100,1,0
5033,0.5,4,1,0,100,1,0
5034,1.21992564951373,4,1,0,100,1,0
5035,999999999,4,1,0,100,1,0
5036,999999999,4,1,0,100,1,0
5037,999999999,4,1,0,100,1,0
5038,999999999,4,1,0,100,1,0
5039,999999999,4,1,0,100,1,0
5041,0.5,4,1,0,100,1,0
5042,1.20975960243801,4,1,0,100,1,0
5043,999999999,4,1,0,100,1,0
5044,999999999,4,1,0,100,1,0
5045,999999999,4,1,0,100,1,0
5046,999999999,4,1,0,100,1,0
5047,999999999,4,1,0,100,1,0
5049,0.5,4,1,0,100,1,0
5050,1.20108509894865,4,1,0,100,1,0
5051,999999999,4,1,0,100,1,0
5052,999999999,4,1,0,100,1,0
5053,999999999,4,1,0,100,1,0
5054,999999999,4,1,0,100,1,0
5055,999999999,4,1,0,100,1,0
5057,0.5,4,1,0,100,1,0
5058,1.19384171293776,4,1,0,100,1,0
5059,999999999,4,1,0,100,1,0
5060,999999999,4,1,0,100,1,0
5061,999999999,4,1,0,100,1,0
5062,999999999,4,1,0,100,1,0
5063,999999999,4,1,0,100,1,0
5065,0.5,4,1,0,100,1,0
5066,1.1879799696684,4,1,0,100,1,0
5067,999999999,4,1,0,100,1,0
5068,999999999,4,1,0,100,1,0
5069,999999999,4,1,0,100,1,0
5070,999999999,4,1,0,100,1,0
5071,999999999,4,1,0,100,1,0
5073,0.5,4,1,0,100,1,0
5074,1.18346048065491,4,1,0,100,1,0
5075,999999999,4,1,0,100,1,0
5076,999999999,4,1,0,100,1,0
5077,999999999,4,1,0,100,1,0
5078,999999999,4,1,0,100,1,0
5079,999999999,4,1,0,100,1,0
5081,0.5,4,1,0,100,1,0
5082,1.18025327068133,4,1,0,100,1,0
5083,999999999,4,1,0,100,1,0
5084,999999999,4,1,0,100,1,0
5085,999999999,4,1,0,100,1,0
5086,999999999,4,1,0,100,1,0
5087,999999999,4,1,0,100,1,0
5089,0.5,4,1,0,100,1,0
5090,1.1783372751127,4,1,0,100,1,0
5091,999999999,4,1,0,100,1,0
5092,999999999,4,1,0,100,1,0
5093,999999999,4,1,0,100,1,0
5094,999999999,4,1,0,100,1,0
5095,999999999,4,1,0,100,1,0
5096,0.5,4,1,0,100,1,0
5097,1.1777,4,1,0,100,1,0
5098,344.827586206897,4,1,0,100,1,0
5098,-1000000000,4,1,0,100,0,0
5101.44,-399840.079961618,4,1,0,100,0,0
5104.88,-99990.0049991003,4,1,0,100,0,0
5108.32,-44442.4710012099,4,1,0,100,0,0
5111.76,-24999.3760155746,4,1,0,100,0,0
5115.2,-15999.7446440755,4,1,0,100,0,0
5118.64,-11110.9881001273,4,1,0,100,0,0
5122.08,-8163.19899429127,4,1,0,100,0,0
5125.52,-6249.96118774102,4,1,0,100,0,0
5128.96,-4938.24741606118,4,1,0,100,0,0
5132.4,-3999.98416006273,4,1,0,100,0,0
5135.84,-3305.77432801832,4,1,0,100,0,0
5139.28,-2777.77017286033,4,1,0,100,0,0
5142.72,-2366.85839796807,4,1,0,100,0,0
5146.16,-2040.81224324016,4,1,0,100,0,0
5149.6,-1777.77468840043,4,1,0,100,0,0
5153.04,-1562.49762109737,4,1,0,100,0,0
5156.48,-1384.08118466265,4,1,0,100,0,0
5159.92,-1234.56642646114,4,1,0,100,0,0
5163.36,-1108.03205758216,4,1,0,100,0,0
5166.8,-999.999040000921,4,1,0,100,0,0
5170.24,-907.028692037436,4,1,0,100,0,0
5173.68,-826.445631036643,4,1,0,100,0,0
5177.12,-756.143125789675,4,1,0,100,0,0
5180.56,-694.443989969433,4,1,0,100,0,0
5184,-639.99961600023,4,1,0,100,0,0
5187.44,-591.715649872383,4,1,0,100,0,0
5190.88,-548.696565872929,4,1,0,100,0,0
5194.32,-510.203841732724,4,1,0,100,0,0
5197.76,-475.624049643726,4,1,0,100,0,0
5201.2,-444.444264691431,4,1,0,100,0,0
5204.64,-416.232933930094,4,1,0,100,0,0
5208.08,-390.624863037157,4,1,0,100,0,0
5211.52,-367.309337994729,4,1,0,100,0,0
5214.96,-346.02065535617,4,1,0,100,0,0
5218.4,-326.530518683909,4,1,0,100,0,0
5221.84,-308.641892394474,4,1,0,100,0,0
5225.28,-292.184002283707,4,1,0,100,0,0
5228.72,-277.008244596052,4,1,0,100,0,0
5232.16,-262.984819727856,4,1,0,100,0,0
5235.6,-249.999947500011,4,1,0,100,0,0
5239.04,-237.953551944424,4,1,0,100,0,0
5242.48,-226.757327265911,4,1,0,100,0,0
5245.92,-216.333114909006,4,1,0,100,0,0
5249.36,-206.611535824061,4,1,0,100,0,0
5252.8,-197.530833080328,4,1,0,100,0,0
5256.24,-189.03588865106,4,1,0,100,0,0
5259.68,-181.0773850471,4,1,0,100,0,0
5263.12,-173.611087914741,4,1,0,100,0,0
5266.56,-166.597230054605,4,1,0,100,0,0
5270,-159.999980800002,4,1,0,100,0,0
5273.44,-153.786987499117,4,1,0,100,0,0
5276.88,-147.928978117014,4,1,0,100,0,0
5280.32,-142.399415820659,4,1,0,100,0,0
5283.76,-137.174197918491,4,1,0,100,0,0
5287.2,-132.231392762791,4,1,0,100,0,0
5290.64,-127.551009240942,4,1,0,100,0,0
5294.08,-123.114794322586,4,1,0,100,0,0
5297.52,-118.906054826866,4,1,0,100,0,0
5300.96,-114.909500154036,4,1,0,100,0,0
5304.4,-111.111103209877,4,1,0,100,0,0
5307.84,-107.497977156895,4,1,0,100,0,0
5311.28,-104.058265966882,4,1,0,100,0,0
5314.72,-100.781047036427,4,1,0,100,0,0
5318.16,-97.6562443695071,4,1,0,100,0,0
5321.6,-94.6745510367287,4,1,0,100,0,0
5325.04,-91.8273597954672,4,1,0,100,0,0
5328.48,-89.1067009038358,4,1,0,100,0,0
5331.92,-86.5051862884785,4,1,0,100,0,0
5335.36,-84.0159593349329,4,1,0,100,0,0
5338.8,-81.6326496626407,4,1,0,100,0,0
5342.24,-79.3493323269721,4,1,0,100,0,0
5345.68,-77.1604909598385,4,1,0,100,0,0
5349.12,-75.0609844202675,4,1,0,100,0,0
5352.56,-73.0460165780849,4,1,0,100,0,0
5356,-71.1111088987655,4,1,0,100,0,0
5359.44,-69.2520755365598,4,1,0,100,0,0
5362.88,-67.4650006770112,4,1,0,100,0,0
5366.32,-65.7462178996569,4,1,0,100,0,0
5369.76,-64.0922913576483,4,1,0,100,0,0
5373.2,-62.49999859375,4,1,0,100,0,0
5376.64,-60.96631483211,4,1,0,100,0,0
5380.08,-59.4883986027127,4,1,0,100,0,0
5383.52,-58.0635785708475,4,1,0,100,0,0
5386.96,-56.6893414575203,4,1,0,100,0,0
5390.4,-55.3633209487434,4,1,0,100,0,0
5393.84,-54.0832875022559,4,1,0,100,0,0
5397.28,-52.8471389696319,4,1,0,100,0,0
5400.72,-51.6528919600779,4,1,0,100,0,0
5404.16,-50.4986738796276,4,1,0,100,0,0
5407.6,-49.3827155860387,4,1,0,100,0,0
5411.04,-48.3033446055624,4,1,0,100,0,0
5414.48,-47.2589788629972,4,1,0,100,0,0
5417.92,-46.2481208811136,4,1,0,100,0,0
5421.36,-45.269352409717,4,1,0,100,0,0
5424.8,-44.3213294483621,4,1,0,100,0,0
5428.24,-43.4027776300878,4,1,0,100,0,0
5431.68,-42.5124879365506,4,1,0,100,0,0
5435.12,-41.6493127176463,4,1,0,100,0,0
5438.56,-40.8121619911372,4,1,0,100,0,0
5442,-40,4,1,0,100,0,0
5444,344.827586206897,4,1,0,100,1,0
5445,999999999,4,1,0,100,1,0
5446,999999999,4,1,0,100,1,0
5447,999999999,4,1,0,100,1,0
5448,999999999,4,1,0,100,1,0
5449,999999999,4,1,0,100,1,0
5451,0.5,4,1,0,100,1,0
5452,25.6184384585232,4,1,0,100,1,0
5453,999999999,4,1,0,100,1,0
5454,999999999,4,1,0,100,1,0
5455,999999999,4,1,0,100,1,0
5456,999999999,4,1,0,100,1,0
5457,999999999,4,1,0,100,1,0
5459,0.5,4,1,0,100,1,0
5460,12.9617099819472,4,1,0,100,1,0
5461,999999999,4,1,0,100,1,0
5462,999999999,4,1,0,100,1,0
5463,999999999,4,1,0,100,1,0
5464,999999999,4,1,0,100,1,0
5465,999999999,4,1,0,100,1,0
5467,0.5,4,1,0,100,1,0
5468,8.74525011899518,4,1,0,100,1,0
5469,999999999,4,1,0,100,1,0
5470,999999999,4,1,0,100,1,0
5471,999999999,4,1,0,100,1,0
5472,999999999,4,1,0,100,1,0
5473,999999999,4,1,0,100,1,0
5475,0.5,4,1,0,100,1,0
5476,6.63892463707296,4,1,0,100,1,0
5477,999999999,4,1,0,100,1,0
5478,999999999,4,1,0,100,1,0
5479,999999999,4,1,0,100,1,0
5480,999999999,4,1,0,100,1,0
5481,999999999,4,1,0,100,1,0
5483,0.5,4,1,0,100,1,0
5484,5.37670933767164,4,1,0,100,1,0
5485,999999999,4,1,0,100,1,0
5486,999999999,4,1,0,100,1,0
5487,999999999,4,1,0,100,1,0
5488,999999999,4,1,0,100,1,0
5489,999999999,4,1,0,100,1,0
5491,0.5,4,1,0,100,1,0
5492,4.53659850476571,4,1,0,100,1,0
5493,999999999,4,1,0,100,1,0
5494,999999999,4,1,0,100,1,0
5495,999999999,4,1,0,100,1,0
5496,999999999,4,1,0,100,1,0
5497,999999999,4,1,0,100,1,0
5499,0.5,4,1,0,100,1,0
5500,3.93773468836478,4,1,0,100,1,0
5501,999999999,4,1,0,100,1,0
5502,999999999,4,1,0,100,1,0
5503,999999999,4,1,0,100,1,0
5504,999999999,4,1,0,100,1,0
5505,999999999,4,1,0,100,1,0
5507,0.5,4,1,0,100,1,0
5508,3.48969115857157,4,1,0,100,1,0
5509,999999999,4,1,0,100,1,0
5510,999999999,4,1,0,100,1,0
5511,999999999,4,1,0,100,1,0
5512,999999999,4,1,0,100,1,0
5513,999999999,4,1,0,100,1,0
5515,0.5,4,1,0,100,1,0
5516,3.14223273184426,4,1,0,100,1,0
5517,999999999,4,1,0,100,1,0
5518,999999999,4,1,0,100,1,0
5519,999999999,4,1,0,100,1,0
5520,999999999,4,1,0,100,1,0
5521,999999999,4,1,0,100,1,0
5523,0.5,4,1,0,100,1,0
5524,2.86522010966185,4,1,0,100,1,0
5525,999999999,4,1,0,100,1,0
5526,999999999,4,1,0,100,1,0
5527,999999999,4,1,0,100,1,0
5528,999999999,4,1,0,100,1,0
5529,999999999,4,1,0,100,1,0
5531,0.5,4,1,0,100,1,0
5532,2.63947549513402,4,1,0,100,1,0
5533,999999999,4,1,0,100,1,0
5534,999999999,4,1,0,100,1,0
5535,999999999,4,1,0,100,1,0
5536,999999999,4,1,0,100,1,0
5537,999999999,4,1,0,100,1,0
5539,0.5,4,1,0,100,1,0
5540,2.45221540946376,4,1,0,100,1,0
5541,999999999,4,1,0,100,1,0
5542,999999999,4,1,0,100,1,0
5543,999999999,4,1,0,100,1,0
5544,999999999,4,1,0,100,1,0
5545,999999999,4,1,0,100,1,0
5547,0.5,4,1,0,100,1,0
5548,2.29459144752725,4,1,0,100,1,0
5549,999999999,4,1,0,100,1,0
5550,999999999,4,1,0,100,1,0
5551,999999999,4,1,0,100,1,0
5552,999999999,4,1,0,100,1,0
5553,999999999,4,1,0,100,1,0
5555,0.5,4,1,0,100,1,0
5556,2.16028500375811,4,1,0,100,1,0
5557,999999999,4,1,0,100,1,0
5558,999999999,4,1,0,100,1,0
5559,999999999,4,1,0,100,1,0
5560,999999999,4,1,0,100,1,0
5561,999999999,4,1,0,100,1,0
5563,0.5,4,1,0,100,1,0
5564,2.04466411630158,4,1,0,100,1,0
5565,999999999,4,1,0,100,1,0
5566,999999999,4,1,0,100,1,0
5567,999999999,4,1,0,100,1,0
5568,999999999,4,1,0,100,1,0
5569,999999999,4,1,0,100,1,0
5571,0.5,4,1,0,100,1,0
5572,1.9442565035041,4,1,0,100,1,0
5573,999999999,4,1,0,100,1,0
5574,999999999,4,1,0,100,1,0
5575,999999999,4,1,0,100,1,0
5576,999999999,4,1,0,100,1,0
5577,999999999,4,1,0,100,1,0
5579,0.5,4,1,0,100,1,0
5580,1.85640859674345,4,1,0,100,1,0
5581,999999999,4,1,0,100,1,0
5582,999999999,4,1,0,100,1,0
5583,999999999,4,1,0,100,1,0
5584,999999999,4,1,0,100,1,0
5585,999999999,4,1,0,100,1,0
5587,0.5,4,1,0,100,1,0
5588,1.77905823858571,4,1,0,100,1,0
5589,999999999,4,1,0,100,1,0
5590,999999999,4,1,0,100,1,0
5591,999999999,4,1,0,100,1,0
5592,999999999,4,1,0,100,1,0
5593,999999999,4,1,0,100,1,0
5595,0.5,4,1,0,100,1,0
5596,1.71057917052015,4,1,0,100,1,0
5597,999999999,4,1,0,100,1,0
5598,999999999,4,1,0,100,1,0
5599,999999999,4,1,0,100,1,0
5600,999999999,4,1,0,100,1,0
5601,999999999,4,1,0,100,1,0
5603,0.5,4,1,0,100,1,0
5604,1.64967218493229,4,1,0,100,1,0
5605,999999999,4,1,0,100,1,0
5606,999999999,4,1,0,100,1,0
5607,999999999,4,1,0,100,1,0
5608,999999999,4,1,0,100,1,0
5609,999999999,4,1,0,100,1,0
5611,0.5,4,1,0,100,1,0
5612,1.59528738765199,4,1,0,100,1,0
5613,999999999,4,1,0,100,1,0
5614,999999999,4,1,0,100,1,0
5615,999999999,4,1,0,100,1,0
5616,999999999,4,1,0,100,1,0
5617,999999999,4,1,0,100,1,0
5619,0.5,4,1,0,100,1,0
5620,1.54656767342026,4,1,0,100,1,0
5621,999999999,4,1,0,100,1,0
5622,999999999,4,1,0,100,1,0
5623,999999999,4,1,0,100,1,0
5624,999999999,4,1,0,100,1,0
5625,999999999,4,1,0,100,1,0
5627,0.5,4,1,0,100,1,0
5628,1.50280695942261,4,1,0,100,1,0
5629,999999999,4,1,0,100,1,0
5630,999999999,4,1,0,100,1,0
5631,999999999,4,1,0,100,1,0
5632,999999999,4,1,0,100,1,0
5633,999999999,4,1,0,100,1,0
5635,0.5,4,1,0,100,1,0
5636,1.4634188738093,4,1,0,100,1,0
5637,999999999,4,1,0,100,1,0
5638,999999999,4,1,0,100,1,0
5639,999999999,4,1,0,100,1,0
5640,999999999,4,1,0,100,1,0
5641,999999999,4,1,0,100,1,0
5643,0.5,4,1,0,100,1,0
5644,1.42791297327912,4,1,0,100,1,0
5645,999999999,4,1,0,100,1,0
5646,999999999,4,1,0,100,1,0
5647,999999999,4,1,0,100,1,0
5648,999999999,4,1,0,100,1,0
5649,999999999,4,1,0,100,1,0
5651,0.5,4,1,0,100,1,0
5652,1.39587646427621,4,1,0,100,1,0
5653,999999999,4,1,0,100,1,0
5654,999999999,4,1,0,100,1,0
5655,999999999,4,1,0,100,1,0
5656,999999999,4,1,0,100,1,0
5657,999999999,4,1,0,100,1,0
5659,0.5,4,1,0,100,1,0
5660,1.3669600026925,4,1,0,100,1,0
5661,999999999,4,1,0,100,1,0
5662,999999999,4,1,0,100,1,0
5663,999999999,4,1,0,100,1,0
5664,999999999,4,1,0,100,1,0
5665,999999999,4,1,0,100,1,0
5667,0.5,4,1,0,100,1,0
5668,1.34086655437539,4,1,0,100,1,0
5669,999999999,4,1,0,100,1,0
5670,999999999,4,1,0,100,1,0
5671,999999999,4,1,0,100,1,0
5672,999999999,4,1,0,100,1,0
5673,999999999,4,1,0,100,1,0
5675,0.5,4,1,0,100,1,0
5676,1.31734257974621,4,1,0,100,1,0
5677,999999999,4,1,0,100,1,0
5678,999999999,4,1,0,100,1,0
5679,999999999,4,1,0,100,1,0
5680,999999999,4,1,0,100,1,0
5681,999999999,4,1,0,100,1,0
5683,0.5,4,1,0,100,1,0
5684,1.29617100257967,4,1,0,100,1,0
5685,999999999,4,1,0,100,1,0
5686,999999999,4,1,0,100,1,0
5687,999999999,4,1,0,100,1,0
5688,999999999,4,1,0,100,1,0
5689,999999999,4,1,0,100,1,0
5691,0.5,4,1,0,100,1,0
5692,1.27716556266619,4,1,0,100,1,0
5693,999999999,4,1,0,100,1,0
5694,999999999,4,1,0,100,1,0
5695,999999999,4,1,0,100,1,0
5696,999999999,4,1,0,100,1,0
5697,999999999,4,1,0,100,1,0
5699,0.5,4,1,0,100,1,0
5700,1.26016625252118,4,1,0,100,1,0
5701,999999999,4,1,0,100,1,0
5702,999999999,4,1,0,100,1,0
5703,999999999,4,1,0,100,1,0
5704,999999999,4,1,0,100,1,0
5705,999999999,4,1,0,100,1,0
5707,0.5,4,1,0,100,1,0
5708,1.24503561141575,4,1,0,100,1,0
5709,999999999,4,1,0,100,1,0
5710,999999999,4,1,0,100,1,0
5711,999999999,4,1,0,100,1,0
5712,999999999,4,1,0,100,1,0
5713,999999999,4,1,0,100,1,0
5715,0.5,4,1,0,100,1,0
5716,1.23165570383178,4,1,0,100,1,0
5717,999999999,4,1,0,100,1,0
5718,999999999,4,1,0,100,1,0
5719,999999999,4,1,0,100,1,0
5720,999999999,4,1,0,100,1,0
5721,999999999,4,1,0,100,1,0
5723,0.5,4,1,0,100,1,0
5724,1.21992564951373,4,1,0,100,1,0
5725,999999999,4,1,0,100,1,0
5726,999999999,4,1,0,100,1,0
5727,999999999,4,1,0,100,1,0
5728,999999999,4,1,0,100,1,0
5729,999999999,4,1,0,100,1,0
5731,0.5,4,1,0,100,1,0
5732,1.20975960243801,4,1,0,100,1,0
5733,999999999,4,1,0,100,1,0
5734,999999999,4,1,0,100,1,0
5735,999999999,4,1,0,100,1,0
5736,999999999,4,1,0,100,1,0
5737,999999999,4,1,0,100,1,0
5739,0.5,4,1,0,100,1,0
5740,1.20108509894865,4,1,0,100,1,0
5741,999999999,4,1,0,100,1,0
5742,999999999,4,1,0,100,1,0
5743,999999999,4,1,0,100,1,0
5744,999999999,4,1,0,100,1,0
5745,999999999,4,1,0,100,1,0
5747,0.5,4,1,0,100,1,0
5748,1.19384171293776,4,1,0,100,1,0
5749,999999999,4,1,0,100,1,0
5750,999999999,4,1,0,100,1,0
5751,999999999,4,1,0,100,1,0
5752,999999999,4,1,0,100,1,0
5753,999999999,4,1,0,100,1,0
5755,0.5,4,1,0,100,1,0
5756,1.1879799696684,4,1,0,100,1,0
5757,999999999,4,1,0,100,1,0
5758,999999999,4,1,0,100,1,0
5759,999999999,4,1,0,100,1,0
5760,999999999,4,1,0,100,1,0
5761,999999999,4,1,0,100,1,0
5763,0.5,4,1,0,100,1,0
5764,1.18346048065491,4,1,0,100,1,0
5765,999999999,4,1,0,100,1,0
5766,999999999,4,1,0,100,1,0
5767,999999999,4,1,0,100,1,0
5768,999999999,4,1,0,100,1,0
5769,999999999,4,1,0,100,1,0
5771,0.5,4,1,0,100,1,0
5772,1.18025327068133,4,1,0,100,1,0
5773,999999999,4,1,0,100,1,0
5774,999999999,4,1,0,100,1,0
5775,999999999,4,1,0,100,1,0
5776,999999999,4,1,0,100,1,0
5777,999999999,4,1,0,100,1,0
5779,0.5,4,1,0,100,1,0
5780,1.1783372751127,4,1,0,100,1,0
5781,999999999,4,1,0,100,1,0
5782,999999999,4,1,0,100,1,0
5783,999999999,4,1,0,100,1,0
5784,999999999,4,1,0,100,1,0
5785,999999999,4,1,0,100,1,0
5786,0.5,4,1,0,100,1,0
5787,1.1777,4,1,0,100,1,0
5788,344.827586206897,4,1,0,100,1,0
5788,-1000000000,4,1,0,100,0,0
5791.44,-399840.079961618,4,1,0,100,0,0
5794.88,-99990.0049991003,4,1,0,100,0,0
5798.32,-44442.4710012099,4,1,0,100,0,0
5801.76,-24999.3760155746,4,1,0,100,0,0
5805.2,-15999.7446440755,4,1,0,100,0,0
5808.64,-11110.9881001273,4,1,0,100,0,0
5812.08,-8163.19899429127,4,1,0,100,0,0
5815.52,-6249.96118774102,4,1,0,100,0,0
5818.96,-4938.24741606118,4,1,0,100,0,0
5822.4,-3999.98416006273,4,1,0,100,0,0
5825.84,-3305.77432801832,4,1,0,100,0,0
5829.28,-2777.77017286033,4,1,0,100,0,0
5832.72,-2366.85839796807,4,1,0,100,0,0
5836.16,-2040.81224324016,4,1,0,100,0,0
5839.6,-1777.77468840043,4,1,0,100,0,0
5843.04,-1562.49762109737,4,1,0,100,0,0
5846.48,-1384.08118466265,4,1,0,100,0,0
5849.92,-1234.56642646114,4,1,0,100,0,0
5853.36,-1108.03205758216,4,1,0,100,0,0
5856.8,-999.999040000921,4,1,0,100,0,0
5860.24,-907.028692037436,4,1,0,100,0,0
5863.68,-826.445631036643,4,1,0,100,0,0
5867.12,-756.143125789675,4,1,0,100,0,0
5870.56,-694.443989969433,4,1,0,100,0,0
5874,-639.99961600023,4,1,0,100,0,0
5877.44,-591.715649872383,4,1,0,100,0,0
5880.88,-548.696565872929,4,1,0,100,0,0
5884.32,-510.203841732724,4,1,0,100,0,0
5887.76,-475.624049643726,4,1,0,100,0,0
5891.2,-444.444264691431,4,1,0,100,0,0
5894.64,-416.232933930094,4,1,0,100,0,0
5898.08,-390.624863037157,4,1,0,100,0,0
5901.52,-367.309337994729,4,1,0,100,0,0
5904.96,-346.02065535617,4,1,0,100,0,0
5908.4,-326.530518683909,4,1,0,100,0,0
5911.84,-308.641892394474,4,1,0,100,0,0
5915.28,-292.184002283707,4,1,0,100,0,0
5918.72,-277.008244596052,4,1,0,100,0,0
5922.16,-262.984819727856,4,1,0,100,0,0
5925.6,-249.999947500011,4,1,0,100,0,0
5929.04,-237.953551944424,4,1,0,100,0,0
5932.48,-226.757327265911,4,1,0,100,0,0
5935.92,-216.333114909006,4,1,0,100,0,0
5939.36,-206.611535824061,4,1,0,100,0,0
5942.8,-197.530833080328,4,1,0,100,0,0
5946.24,-189.03588865106,4,1,0,100,0,0
5949.68,-181.0773850471,4,1,0,100,0,0
5953.12,-173.611087914741,4,1,0,100,0,0
5956.56,-166.597230054605,4,1,0,100,0,0
5960,-159.999980800002,4,1,0,100,0,0
5963.44,-153.786987499117,4,1,0,100,0,0
5966.88,-147.928978117014,4,1,0,100,0,0
5970.32,-142.399415820659,4,1,0,100,0,0
5973.76,-137.174197918491,4,1,0,100,0,0
5977.2,-132.231392762791,4,1,0,100,0,0
5980.64,-127.551009240942,4,1,0,100,0,0
5984.08,-123.114794322586,4,1,0,100,0,0
5987.52,-118.906054826866,4,1,0,100,0,0
5990.96,-114.909500154036,4,1,0,100,0,0
5994.4,-111.111103209877,4,1,0,100,0,0
5997.84,-107.497977156895,4,1,0,100,0,0
6001.28,-104.058265966882,4,1,0,100,0,0
6004.72,-100.781047036427,4,1,0,100,0,0
6008.16,-97.6562443695071,4,1,0,100,0,0
6011.6,-94.6745510367287,4,1,0,100,0,0
6015.04,-91.8273597954672,4,1,0,100,0,0
6018.48,-89.1067009038358,4,1,0,100,0,0
6021.92,-86.5051862884785,4,1,0,100,0,0
6025.36,-84.0159593349329,4,1,0,100,0,0
6028.8,-81.6326496626407,4,1,0,100,0,0
6032.24,-79.3493323269721,4,1,0,100,0,0
6035.68,-77.1604909598385,4,1,0,100,0,0
6039.12,-75.0609844202675,4,1,0,100,0,0
6042.56,-73.0460165780849,4,1,0,100,0,0
6046,-71.1111088987655,4,1,0,100,0,0
6049.44,-69.2520755365598,4,1,0,100,0,0
6052.88,-67.4650006770112,4,1,0,100,0,0
6056.32,-65.7462178996569,4,1,0,100,0,0
6059.76,-64.0922913576483,4,1,0,100,0,0
6063.2,-62.49999859375,4,1,0,100,0,0
6066.64,-60.96631483211,4,1,0,100,0,0
6070.08,-59.4883986027127,4,1,0,100,0,0
6073.52,-58.0635785708475,4,1,0,100,0,0
6076.96,-56.6893414575203,4,1,0,100,0,0
6080.4,-55.3633209487434,4,1,0,100,0,0
6083.84,-54.0832875022559,4,1,0,100,0,0
6087.28,-52.8471389696319,4,1,0,100,0,0
6090.72,-51.6528919600779,4,1,0,100,0,0
6094.16,-50.4986738796276,4,1,0,100,0,0
6097.6,-49.3827155860387,4,1,0,100,0,0
6101.04,-48.3033446055624,4,1,0,100,0,0
6104.48,-47.2589788629972,4,1,0,100,0,0
6107.92,-46.2481208811136,4,1,0,100,0,0
6111.36,-45.269352409717,4,1,0,100,0,0
6114.8,-44.3213294483621,4,1,0,100,0,0
6118.24,-43.4027776300878,4,1,0,100,0,0
6121.68,-42.5124879365506,4,1,0,100,0,0
6125.12,-41.6493127176463,4,1,0,100,0,0
6128.56,-40.8121619911372,4,1,0,100,0,0
6132,-40,4,1,0,100,0,0
6134,4.86026731470231,4,1,0,100,1,0
6136,999999999,4,1,0,100,1,0
6306,4.86026731470231,4,1,0,100,1,0
6308,999999999,4,1,0,100,1,0
6478,4.86026731470231,4,1,0,100,1,0
6480,999999999,4,1,0,100,1,0
6651,4.86026731470231,4,1,0,100,1,0
6653,999999999,4,1,0,100,1,0
6823,4.86026731470231,4,1,0,100,1,0
6825,999999999,4,1,0,100,1,0
6996,4.86026731470231,4,1,0,100,1,0
6998,999999999,4,1,0,100,1,0
7168,4.86026731470231,4,1,0,100,1,0
7170,999999999,4,1,0,100,1,0
7340,4.86026731470231,4,1,0,100,1,0
7342,999999999,4,1,0,100,1,0
7513,4.86026731470231,4,1,0,100,1,0
7515,999999999,4,1,0,100,1,0
7685,4.86026731470231,4,1,0,100,1,0
7687,999999999,4,1,0,100,1,0
7858,4.86026731470231,4,1,0,100,1,0
7860,999999999,4,1,0,100,1,0
8030,4.86026731470231,4,1,0,100,1,0
8032,999999999,4,1,0,100,1,0
8202,4.86026731470231,4,1,0,100,1,0
8204,999999999,4,1,0,100,1,0
8375,4.86026731470231,4,1,0,100,1,0
8377,999999999,4,1,0,100,1,0
8547,4.86026731470231,4,1,0,100,1,0
8549,999999999,4,1,0,100,1,0
8720,4.86026731470231,4,1,0,100,1,0
8722,999999999,4,1,0,100,1,0
8892,344.827586206897,4,1,0,100,1,0
10271,0.5,4,1,0,100,1,0
10272,999999999,4,1,0,100,1,0
10614,3,4,1,0,100,1,0
10615,0.5,4,1,0,100,1,0
10616,999999999,4,1,0,100,1,0
10959,2,4,1,0,100,1,0
10960,0.5,4,1,0,100,1,0
10961,999999999,4,1,0,100,1,0
11304,1.5,4,1,0,100,1,0
11305,0.5,4,1,0,100,1,0
11306,344.827586206897,4,1,0,100,1,0
11306,-1000000,4,1,0,100,0,0
11309.45,-241458.875207292,4,1,0,100,0,0
11312.9,-73713.8698838151,4,1,0,100,0,0
11316.35,-34160.67294886,4,1,0,100,0,0
11319.8,-19506.9151233836,4,1,0,100,0,0
11323.25,-12572.7174545779,4,1,0,100,0,0
11326.7,-8764.72491314859,4,1,0,100,0,0
11330.15,-6454.39837171536,4,1,0,100,0,0
11333.6,-4949.13555626858,4,1,0,100,0,0
11337.05,-3914.49410808354,4,1,0,100,0,0
11340.5,-3173.1002331594,4,1,0,100,0,0
11343.95,-2623.84184539289,4,1,0,100,0,0
11347.4,-2205.68036451815,4,1,0,100,0,0
11350.85,-1880.00970415889,4,1,0,100,0,0
11354.3,-1621.44869981477,4,1,0,100,0,0
11357.75,-1412.75722600598,4,1,0,100,0,0
11361.2,-1241.89361394857,4,1,0,100,0,0
11364.65,-1100.24171562328,4,1,0,100,0,0
11368.1,-981.505098966101,4,1,0,100,0,0
11371.55,-880.996249447435,4,1,0,100,0,0
11375,-795.167417728798,4,1,0,100,0,0
11378.45,-721.293611355629,4,1,0,100,0,0
11381.9,-657.253858981905,4,1,0,100,0,0
11385.35,-601.377418413128,4,1,0,100,0,0
11388.8,-552.333794984229,4,1,0,100,0,0
11392.25,-509.052868958338,4,1,0,100,0,0
11395.7,-470.666068622043,4,1,0,100,0,0
11399.15,-436.462482958562,4,1,0,100,0,0
11402.6,-405.85573063876,4,1,0,100,0,0
11406.05,-378.358675012922,4,1,0,100,0,0
11409.5,-353.563931500807,4,1,0,100,0,0
11412.95,-331.12869920476,4,1,0,100,0,0
11416.4,-310.762854290289,4,1,0,100,0,0
11419.85,-292.219527554266,4,1,0,100,0,0
11423.3,-275.28759107444,4,1,0,100,0,0
11426.75,-259.785624383188,4,1,0,100,0,0
11430.2,-245.557036353977,4,1,0,100,0,0
11433.65,-232.466096584231,4,1,0,100,0,0
11437.1,-220.394687531694,4,1,0,100,0,0
11440.55,-209.239631606913,4,1,0,100,0,0
11444,-198.910479781625,4,1,0,100,0,0
11447.45,-189.327672843853,4,1,0,100,0,0
11450.9,-180.421005227726,4,1,0,100,0,0
11454.35,-172.12833582744,4,1,0,100,0,0
11457.8,-164.394501435824,4,1,0,100,0,0
11461.25,-157.170397213444,4,1,0,100,0,0
11464.7,-150.412195476642,4,1,0,100,0,0
11468.15,-144.080679527962,4,1,0,100,0,0
11471.6,-138.140673567912,4,1,0,100,0,0
11475.05,-132.56055317154,4,1,0,100,0,0
11478.5,-127.311823576367,4,1,0,100,0,0
11481.95,-122.368755255227,4,1,0,100,0,0
11485.4,-117.708068050737,4,1,0,100,0,0
11488.85,-113.30865661453,4,1,0,100,0,0
11492.3,-109.151351091927,4,1,0,100,0,0
11495.75,-105.218707974662,4,1,0,100,0,0
11499.2,-101.494826852521,4,1,0,100,0,0
11502.65,-97.9651894625976,4,1,0,100,0,0
11506.1,-94.6165179885159,4,1,0,100,0,0
11509.55,-91.4366500227544,4,1,0,100,0,0
11513,-88.4144279897728,4,1,0,100,0,0
11516.45,-85.5396011497731,4,1,0,100,0,0
11519.9,-82.8027385735258,4,1,0,100,0,0
11523.35,-80.1951517067034,4,1,0,100,0,0
11526.8,-77.7088253348456,4,1,0,100,0,0
11530.25,-75.336355923359,4,1,0,100,0,0
11533.7,-73.0708964456945,4,1,0,100,0,0
11537.15,-70.9061069310374,4,1,0,100,0,0
11540.6,-68.8361100637988,4,1,0,100,0,0
11544.05,-66.8554512536203,4,1,0,100,0,0
11547.5,-64.959062668788,4,1,0,100,0,0
11550.95,-63.1422307897519,4,1,0,100,0,0
11554.4,-61.4005670944588,4,1,0,100,0,0
11557.85,-59.7299815347366,4,1,0,100,0,0
11561.3,-58.1266585041152,4,1,0,100,0,0
11564.75,-56.5870350331749,4,1,0,100,0,0
11568.2,-55.1077809795506,4,1,0,100,0,0
11571.65,-53.6857810067526,4,1,0,100,0,0
11575.1,-52.3181181695573,4,1,0,100,0,0
11578.55,-51.0020589443472,4,1,0,100,0,0
11582,-49.735039560842,4,1,0,100,0,0
11585.45,-48.5146535075111,4,1,0,100,0,0
11588.9,-47.3386400968872,4,1,0,100,0,0
11592.35,-46.2048739892572,4,1,0,100,0,0
11595.8,-45.1113555840228,4,1,0,100,0,0
11599.25,-44.0562021975612,4,1,0,100,0,0
11602.7,-43.0376399548674,4,1,0,100,0,0
11606.15,-42.0539963297294,4,1,0,100,0,0
11609.6,-41.1036932748284,4,1,0,100,0,0
11613.05,-40.1852408890433,4,1,0,100,0,0
11616.5,-39.297231574483,4,1,0,100,0,0
11619.95,-38.4383346404368,4,1,0,100,0,0
11623.4,-37.6072913156001,4,1,0,100,0,0
11626.85,-36.8029101336484,4,1,0,100,0,0
11630.3,-36.0240626605612,4,1,0,100,0,0
11633.75,-35.2696795350714,4,1,0,100,0,0
11637.2,-34.5387467962881,4,1,0,100,0,0
11640.65,-33.8303024749333,4,1,0,100,0,0
11644.1,-33.1434334267869,4,1,0,100,0,0
11647.55,-32.4772723888684,4,1,0,100,0,0
11650,-31.8309952406296,4,1,0,100,0,0
11651,344.827586206897,4,1,0,100,1,1
22685,344.827586206897,4,1,0,100,1,0
22685,-10,4,1,0,100,0,0
22695,-500,4,1,0,100,0,0
22857,-10,4,1,0,100,0,0
22862,-500,4,1,0,100,0,0
22943,-10,4,1,0,100,0,0
22948,-500,4,1,0,100,0,0
23029,-10,4,1,0,100,0,0
23039,-500,4,1,0,100,0,0
23202,999999999,4,1,0,100,1,0
23373,3,4,1,0,100,1,0
23374,999999999,4,1,0,100,1,0
23545,3,4,1,0,100,1,0
23546,999999999,4,1,0,100,1,0
23717,3,4,1,0,100,1,0
23718,999999999,4,1,0,100,1,0
23889,3,4,1,0,100,1,0
23890,999999999,4,1,0,100,1,0
24063,3,4,1,0,100,1,0
24064,344.827586206897,4,1,0,100,1,0
24064,-10,4,1,0,100,0,0
24074,-500,4,1,0,100,0,0
24236,-10,4,1,0,100,0,0
24241,-500,4,1,0,100,0,0
24322,-10,4,1,0,100,0,0
24327,-500,4,1,0,100,0,0
24408,-10,4,1,0,100,0,0
24418,-500,4,1,0,100,0,0
24581,999999999,4,1,0,100,1,0
24752,3,4,1,0,100,1,0
24753,999999999,4,1,0,100,1,0
24924,3,4,1,0,100,1,0
24925,999999999,4,1,0,100,1,0
25096,3,4,1,0,100,1,0
25097,999999999,4,1,0,100,1,0
25268,3,4,1,0,100,1,0
25269,999999999,4,1,0,100,1,0
25443,3,4,1,0,100,1,0
25444,344.827586206897,4,1,0,100,1,0
25444,-10,4,1,0,100,0,0
25454,-500,4,1,0,100,0,0
25616,-10,4,1,0,100,0,0
25621,-500,4,1,0,100,0,0
25702,-10,4,1,0,100,0,0
25707,-500,4,1,0,100,0,0
25788,-10,4,1,0,100,0,0
25798,-500,4,1,0,100,0,0
25961,999999999,4,1,0,100,1,0
26132,3,4,1,0,100,1,0
26133,999999999,4,1,0,100,1,0
26304,3,4,1,0,100,1,0
26305,999999999,4,1,0,100,1,0
26476,3,4,1,0,100,1,0
26477,999999999,4,1,0,100,1,0
26648,3,4,1,0,100,1,0
26649,999999999,4,1,0,100,1,0
26822,3,4,1,0,100,1,0
26823,344.827586206897,4,1,0,100,1,0
26823,-66.6666666666667,4,1,0,100,0,0
26909,-200,4,1,0,100,0,0
26995,-66.6666666666667,4,1,0,100,0,0
27081,-200,4,1,0,100,0,0
27167,-66.6666666666667,4,1,0,100,0,0
27254,-200,4,1,0,100,0,0
27340,-66.6666666666667,4,1,0,100,0,0
27426,-200,4,1,0,100,0,0
27512,-66.6666666666667,4,1,0,100,0,0
27598,-200,4,1,0,100,0,0
27685,-66.6666666666667,4,1,0,100,0,0
27771,-200,4,1,0,100,0,0
27857,-66.6666666666667,4,1,0,100,0,0
27943,-200,4,1,0,100,0,0
28029,-66.6666666666667,4,1,0,100,0,0
28116,-200,4,1,0,100,0,0
28202,-10,4,1,0,100,0,0
28212,-500,4,1,0,100,0,0
28374,-10,4,1,0,100,0,0
28379,-500,4,1,0,100,0,0
28460,-10,4,1,0,100,0,0
28465,-500,4,1,0,100,0,0
28546,-10,4,1,0,100,0,0
28556,-500,4,1,0,100,0,0
28719,999999999,4,1,0,100,1,0
28890,3,4,1,0,100,1,0
28891,999999999,4,1,0,100,1,0
29062,3,4,1,0,100,1,0
29063,999999999,4,1,0,100,1,0
29234,3,4,1,0,100,1,0
29235,999999999,4,1,0,100,1,0
29406,3,4,1,0,100,1,0
29407,999999999,4,1,0,100,1,0
29580,3,4,1,0,100,1,0
29581,344.827586206897,4,1,0,100,1,0
29581,-10,4,1,0,100,0,0
29591,-500,4,1,0,100,0,0
29753,-10,4,1,0,100,0,0
29758,-500,4,1,0,100,0,0
29839,-10,4,1,0,100,0,0
29844,-500,4,1,0,100,0,0
29925,-10,4,1,0,100,0,0
29935,-500,4,1,0,100,0,0
30098,999999999,4,1,0,100,1,0
30269,3,4,1,0,100,1,0
30270,999999999,4,1,0,100,1,0
30355,6,4,1,0,100,1,0
30356,999999999,4,1,0,100,1,0
30441,6,4,1,0,100,1,0
30442,999999999,4,1,0,100,1,0
30527,6,4,1,0,100,1,0
30528,999999999,4,1,0,100,1,0
30613,6,4,1,0,100,1,0
30614,999999999,4,1,0,100,1,0
30699,6,4,1,0,100,1,0
30700,999999999,4,1,0,100,1,0
30785,6,4,1,0,100,1,0
30786,999999999,4,1,0,100,1,0
30871,6,4,1,0,100,1,0
30872,999999999,4,1,0,100,1,0
30960,6,4,1,0,100,1,0
30961,344.827586206897,4,1,0,100,1,0
30961,-10,4,1,0,100,0,0
30971,-500,4,1,0,100,0,0
31133,-10,4,1,0,100,0,0
31138,-500,4,1,0,100,0,0
31219,-10,4,1,0,100,0,0
31224,-500,4,1,0,100,0,0
31305,-10,4,1,0,100,0,0
31315,-500,4,1,0,100,0,0
31478,999999999,4,1,0,100,1,0
31649,3,4,1,0,100,1,0
31650,999999999,4,1,0,100,1,0
31821,3,4,1,0,100,1,0
31822,999999999,4,1,0,100,1,0
31907,6,4,1,0,100,1,0
31908,999999999,4,1,0,100,1,0
31993,6,4,1,0,100,1,0
31994,999999999,4,1,0,100,1,0
32165,3,4,1,0,100,1,0
32166,999999999,4,1,0,100,1,0
32339,3,4,1,0,100,1,0
32340,344.827586206897,4,1,0,100,1,0
32340,-66.6666666666667,4,1,0,100,0,0
32426,-200,4,1,0,100,0,0
32512,-66.6666666666667,4,1,0,100,0,0
32598,-200,4,1,0,100,0,0
32684,-66.6666666666667,4,1,0,100,0,0
32771,-200,4,1,0,100,0,0
32857,-66.6666666666667,4,1,0,100,0,0
32943,-200,4,1,0,100,0,0
33029,-66.6666666666667,4,1,0,100,0,0
33115,-200,4,1,0,100,0,0
33202,-66.6666666666667,4,1,0,100,0,0
33288,-200,4,1,0,100,0,0
33374,-66.6666666666667,4,1,0,100,0,0
33460,-200,4,1,0,100,0,0
33546,-66.6666666666667,4,1,0,100,0,0
33590,-200,4,1,0,100,0,0
33633,-66.6666666666667,4,1,0,100,0,0
33676,-200,4,1,0,100,0,0
33719,-100,4,1,0,100,0,0
43374,999999999,4,1,0,100,1,0
43632,344.827586206897,4,1,0,100,1,0
43632,-1000000,4,1,0,100,0,0
43636.35,-7936.66541002798,4,1,0,100,0,0
43640.7,-1996.04782530589,4,1,0,100,0,0
43645.05,-888.117213709865,4,1,0,100,0,0
43649.4,-499.76011514473,4,1,0,100,0,0
43653.75,-319.904028791363,4,1,0,100,0,0
43658.1,-222.177293036297,4,1,0,100,0,0
43662.45,-163.24191921892,4,1,0,100,0,0
43666.8,-124.98687637798,4,1,0,100,0,0
43671.15,-98.7576534095216,4,1,0,100,0,0
43675.5,-79.9952002879827,4,1,0,100,0,0
43679.85,-66.1126536478731,4,1,0,100,0,0
43684.2,-55.5535803171443,4,1,0,100,0,0
43688.55,-47.3359840695479,4,1,0,100,0,0
43692.9,-40.8154769023175,4,1,0,100,0,0
43697.25,-35.5550024777392,4,1,0,100,0,0
43701.6,-31.249648441455,4,1,0,100,0,0
43705.95,-27.6814482601552,4,1,0,100,0,0
43710.3,-24.6912421892342,4,1,0,100,0,0
43714.65,-22.1606169382792,4,1,0,100,0,0
43719,999999999,4,1,0,100,1,0
43719,-20,4,1,0,100,0,0
43977,344.827586206897,4,1,0,100,1,0
43977,-1000000,4,1,0,100,0,0
43981.35,-7936.66541002798,4,1,0,100,0,0
43985.7,-1996.04782530589,4,1,0,100,0,0
43990.05,-888.117213709865,4,1,0,100,0,0
43994.4,-499.76011514473,4,1,0,100,0,0
43998.75,-319.904028791363,4,1,0,100,0,0
44003.1,-222.177293036297,4,1,0,100,0,0
44007.45,-163.24191921892,4,1,0,100,0,0
44011.8,-124.98687637798,4,1,0,100,0,0
44016.15,-98.7576534095216,4,1,0,100,0,0
44020.5,-79.9952002879827,4,1,0,100,0,0
44024.85,-66.1126536478731,4,1,0,100,0,0
44029.2,-55.5535803171443,4,1,0,100,0,0
44033.55,-47.3359840695479,4,1,0,100,0,0
44037.9,-40.8154769023175,4,1,0,100,0,0
44042.25,-35.5550024777392,4,1,0,100,0,0
44046.6,-31.249648441455,4,1,0,100,0,0
44050.95,-27.6814482601552,4,1,0,100,0,0
44055.3,-24.6912421892342,4,1,0,100,0,0
44059.65,-22.1606169382792,4,1,0,100,0,0
44064,999999999,4,1,0,100,1,0
44064,-20,4,1,0,100,0,0
44322,344.827586206897,4,1,0,100,1,0
44322,-1000000,4,1,0,100,0,0
44326.3,-7936.66541002798,4,1,0,100,0,0
44330.6,-1996.04782530589,4,1,0,100,0,0
44334.9,-888.117213709865,4,1,0,100,0,0
44339.2,-499.76011514473,4,1,0,100,0,0
44343.5,-319.904028791363,4,1,0,100,0,0
44347.8,-222.177293036297,4,1,0,100,0,0
44352.1,-163.24191921892,4,1,0,100,0,0
44356.4,-124.98687637798,4,1,0,100,0,0
44360.7,-98.7576534095216,4,1,0,100,0,0
44365,-79.9952002879827,4,1,0,100,0,0
44369.3,-66.1126536478731,4,1,0,100,0,0
44373.6,-55.5535803171443,4,1,0,100,0,0
44377.9,-47.3359840695479,4,1,0,100,0,0
44382.2,-40.8154769023175,4,1,0,100,0,0
44386.5,-35.5550024777392,4,1,0,100,0,0
44390.8,-31.249648441455,4,1,0,100,0,0
44395.1,-27.6814482601552,4,1,0,100,0,0
44399.4,-24.6912421892342,4,1,0,100,0,0
44403.7,-22.1606169382792,4,1,0,100,0,0
44407,-20,4,1,0,100,0,0
44408,999999999,4,1,0,100,1,0
44666,344.827586206897,4,1,0,100,1,0
44666,-1000000,4,1,0,100,0,0
44670.35,-5681.89889060924,4,1,0,100,0,0
44674.7,-1426.55387380704,4,1,0,100,0,0
44679.05,-634.526825414703,4,1,0,100,0,0
44683.4,-357.020450131383,4,1,0,100,0,0
44687.75,-228.52245947297,4,1,0,100,0,0
44692.1,-158.707234351863,4,1,0,100,0,0
44696.45,-116.606143219746,4,1,0,100,0,0
44700.8,-89.2790183593373,4,1,0,100,0,0
44705.15,-70.5427684050933,4,1,0,100,0,0
44709.5,-57.1404082682171,4,1,0,100,0,0
44713.85,-47.2239462242035,4,1,0,100,0,0
44718.2,-39.6815318976026,4,1,0,100,0,0
44722.55,-33.8116812765533,4,1,0,100,0,0
44726.9,-29.1540854640354,4,1,0,100,0,0
44731.25,-25.3965432130119,4,1,0,100,0,0
44735.6,-22.3212492042475,4,1,0,100,0,0
44739.95,-19.772506438546,4,1,0,100,0,0
44744.3,-17.6366252035487,4,1,0,100,0,0
44748.65,-15.8290218705242,4,1,0,100,0,0
44753,-14.2857142857143,4,1,0,100,0,0
44754,999999999,4,1,0,100,1,1
44926,344.827586206897,4,1,0,100,1,1
45012,999999999,4,1,0,100,1,1
45185,344.827586206897,4,1,0,100,1,1
45271,999999999,4,1,0,100,1,1
45357,344.827586206897,4,1,0,100,1,1
45443,999999999,4,1,0,100,1,1
45616,344.827586206897,4,1,0,100,1,1
45702,999999999,4,1,0,100,1,1
45874,344.827586206897,4,1,0,100,1,1
45960,999999999,4,1,0,100,1,1
46047,344.827586206897,4,1,0,100,1,1
46133,999999999,4,1,0,100,1,1
46305,344.827586206897,4,1,0,100,1,1
46391,999999999,4,1,0,100,1,1
46564,344.827586206897,4,1,0,100,1,1
46650,999999999,4,1,0,100,1,1
46736,344.827586206897,4,1,0,100,1,1
46822,999999999,4,1,0,100,1,1
46995,689.655172413793,4,1,0,100,1,1
47167,999999999,4,1,0,100,1,1
47512,689.655172413793,4,1,0,100,1,1
47685,999999999,4,1,0,100,1,1
47943,344.827586206897,4,1,0,100,1,1
48029,999999999,4,1,0,100,1,1
48116,344.827586206897,4,1,0,100,1,1
48202,999999999,4,1,0,100,1,1
48374,344.827586206897,4,1,0,100,1,1
48460,999999999,4,1,0,100,1,1
48633,344.827586206897,4,1,0,100,1,1
48719,999999999,4,1,0,100,1,1
48805,344.827586206897,4,1,0,100,1,1
48891,999999999,4,1,0,100,1,1
49064,344.827586206897,4,1,0,100,1,1
49150,999999999,4,1,0,100,1,1
49322,344.827586206897,4,1,0,100,1,1
49409,999999999,4,1,0,100,1,1
49495,344.827586206897,4,1,0,100,1,1
49581,999999999,4,1,0,100,1,1
49754,689.655172413793,4,1,0,100,1,1
49926,999999999,4,1,0,100,1,1
50271,689.655172413793,4,1,0,100,1,1
50443,999999999,4,1,0,100,1,1
50616,344.827586206897,4,1,0,100,1,1
51650,344.827586206897,4,1,0,100,1,1
55615,-100,4,1,0,100,0,0
55787,999999999,4,1,0,100,1,1
55787,-100,4,1,0,100,0,1
55959,344.827586206897,4,1,0,100,1,1
56045,999999999,4,1,0,100,1,1
56218,344.827586206897,4,1,0,100,1,1
56304,999999999,4,1,0,100,1,1
56390,344.827586206897,4,1,0,100,1,1
56476,999999999,4,1,0,100,1,1
56649,344.827586206897,4,1,0,100,1,1
56735,999999999,4,1,0,100,1,1
56907,344.827586206897,4,1,0,100,1,1
56993,999999999,4,1,0,100,1,1
57080,344.827586206897,4,1,0,100,1,1
57166,999999999,4,1,0,100,1,1
57338,344.827586206897,4,1,0,100,1,1
57424,999999999,4,1,0,100,1,1
57597,344.827586206897,4,1,0,100,1,1
57683,999999999,4,1,0,100,1,1
57769,344.827586206897,4,1,0,100,1,1
57855,999999999,4,1,0,100,1,1
58028,689.655172413793,4,1,0,100,1,1
58200,999999999,4,1,0,100,1,1
58545,689.655172413793,4,1,0,100,1,1
58718,999999999,4,1,0,100,1,1
58976,344.827586206897,4,1,0,100,1,1
59062,999999999,4,1,0,100,1,1
59149,344.827586206897,4,1,0,100,1,1
59235,999999999,4,1,0,100,1,1
59407,344.827586206897,4,1,0,100,1,1
59493,999999999,4,1,0,100,1,1
59666,344.827586206897,4,1,0,100,1,1
59752,999999999,4,1,0,100,1,1
59838,344.827586206897,4,1,0,100,1,1
59924,999999999,4,1,0,100,1,1
60097,344.827586206897,4,1,0,100,1,1
60183,999999999,4,1,0,100,1,1
60355,344.827586206897,4,1,0,100,1,1
60442,999999999,4,1,0,100,1,1
60528,344.827586206897,4,1,0,100,1,1
60614,999999999,4,1,0,100,1,1
60787,689.655172413793,4,1,0,100,1,1
60959,999999999,4,1,0,100,1,1
61304,689.655172413793,4,1,0,100,1,1
61476,999999999,4,1,0,100,1,1
61649,344.827586206897,4,1,0,100,1,1
62683,344.827586206897,4,1,0,100,1,1
66820,-50,4,1,0,100,0,0
66830,-200,4,1,0,100,0,0
66993,-50,4,1,0,100,0,0
67003,-200,4,1,0,100,0,0
67165,-50,4,1,0,100,0,0
67175,-200,4,1,0,100,0,0
67338,-50,4,1,0,100,0,0
67348,-200,4,1,0,100,0,0
67510,-50,4,1,0,100,0,0
67520,-200,4,1,0,100,0,0
67683,-50,4,1,0,100,0,0
67693,-200,4,1,0,100,0,0
67855,-50,4,1,0,100,0,0
67865,-200,4,1,0,100,0,0
68027,-50,4,1,0,100,0,0
68037,-200,4,1,0,100,0,0
68200,-50,4,1,0,100,0,0
68210,-200,4,1,0,100,0,0
68372,-50,4,1,0,100,0,0
68382,-200,4,1,0,100,0,0
68545,-50,4,1,0,100,0,0
68555,-200,4,1,0,100,0,0
68717,-50,4,1,0,100,0,0
68727,-200,4,1,0,100,0,0
68889,-50,4,1,0,100,0,0
68899,-200,4,1,0,100,0,0
69062,-50,4,1,0,100,0,0
69072,-200,4,1,0,100,0,0
69234,-50,4,1,0,100,0,0
69244,-200,4,1,0,100,0,0
69407,-50,4,1,0,100,0,0
69417,-200,4,1,0,100,0,0
69579,-50,4,1,0,100,0,0
69589,-200,4,1,0,100,0,0
69751,-50,4,1,0,100,0,0
69761,-200,4,1,0,100,0,0
69924,-50,4,1,0,100,0,0
69934,-200,4,1,0,100,0,0
70096,-50,4,1,0,100,0,0
70106,-200,4,1,0,100,0,0
70269,-50,4,1,0,100,0,0
70279,-200,4,1,0,100,0,0
70441,-50,4,1,0,100,0,0
70451,-200,4,1,0,100,0,0
70614,-50,4,1,0,100,0,0
70624,-200,4,1,0,100,0,0
70786,-50,4,1,0,100,0,0
70796,-200,4,1,0,100,0,0
70958,-50,4,1,0,100,0,0
70968,-200,4,1,0,100,0,0
71131,-50,4,1,0,100,0,0
71141,-200,4,1,0,100,0,0
71303,-50,4,1,0,100,0,0
71313,-200,4,1,0,100,0,0
71476,-50,4,1,0,100,0,0
71486,-200,4,1,0,100,0,0
71648,-50,4,1,0,100,0,0
71658,-200,4,1,0,100,0,0
71820,-25,4,1,0,100,0,0
71825,-10000,4,1,0,100,0,0
71907,-25,4,1,0,100,0,0
71912,-10000,4,1,0,100,0,0
72251,-10000,4,1,0,100,0,0
72253.8666666667,-5628.51782363978,4,1,0,100,0,0
72256.7333333333,-2435.06493506494,4,1,0,100,0,0
72259.6,-1251.56445556946,4,1,0,100,0,0
72262.4666666667,-744.786494538232,4,1,0,100,0,0
72265.3333333333,-489.795918367347,4,1,0,100,0,0
72268.2,-345.303867403315,4,1,0,100,0,0
72271.0666666667,-256.0382350431,4,1,0,100,0,0
72273.9333333333,-197.212726794636,4,1,0,100,0,0
72276.8,-156.470035988108,4,1,0,100,0,0
72279.6666666667,-127.118644067797,4,1,0,100,0,0
72282.5333333333,-105.289018355386,4,1,0,100,0,0
72285.4,-88.6210563629918,4,1,0,100,0,0
72288.2666666667,-75.6105552335106,4,1,0,100,0,0
72291.1333333333,-65.2627915071354,4,1,0,100,0,0
72294,-56.8990042674253,4,1,0,100,0,0
72296.8666666667,-50.0433709214653,4,1,0,100,0,0
72299.7333333333,-44.3544213965729,4,1,0,100,0,0
72302.6,-39.5820139328689,4,1,0,100,0,0
72305.4666666667,-35.5395495954415,4,1,0,100,0,0
72308.3333333333,-32.0855614973262,4,1,0,100,0,0
72311.2,-29.1112340252103,4,1,0,100,0,0
72314.0666666667,-26.5317673694637,4,1,0,100,0,0
72316.9333333333,-24.2802916872375,4,1,0,100,0,0
72319.8,-22.3035061111607,4,1,0,100,0,0
72322.6666666667,-20.5585060818914,4,1,0,100,0,0
72325.5333333333,-19.0104430700598,4,1,0,100,0,0
72328.4,-17.6307762830797,4,1,0,100,0,0
72331.2666666667,-16.395951293094,4,1,0,100,0,0
72334.1333333333,-15.2863905265142,4,1,0,100,0,0
72337,-14.2857142857143,4,1,0,100,0,0
72338,-100,4,1,0,100,0,1
83287,-100,4,1,0,100,0,0
83374,-100,4,1,0,100,0,1
86993,-333.333333333333,4,1,0,100,0,1
87079,-58.8235294117647,4,1,0,100,0,1
87165,-333.333333333333,4,1,0,100,0,1
87251,-58.8235294117647,4,1,0,100,0,1
87338,-333.333333333333,4,1,0,100,0,1
87424,-58.8235294117647,4,1,0,100,0,1
87510,-200,4,1,0,100,0,1
87769,-66.6666666666667,4,1,0,100,0,1
87855,-200,4,1,0,100,0,1
88114,-66.6666666666667,4,1,0,100,0,1
88200,-200,4,1,0,100,0,1
88458,-66.6666666666667,4,1,0,100,0,1
88545,-100,4,1,0,100,0,1
93027,-200,4,1,0,100,0,1
93200,-100,4,1,0,100,0,1
93286,-200,4,1,0,100,0,1
93458,-100,4,1,0,100,0,1
93545,-200,4,1,0,100,0,1
93717,-100,4,1,0,100,0,1
93803,-200,4,1,0,100,0,1
93976,-100,4,1,0,100,0,1
94407,6,4,1,0,100,1,0
94408,999999999,4,1,0,100,1,0
94579,6,4,1,0,100,1,0
94580,999999999,4,1,0,100,1,0
94665,6,4,1,0,100,1,0
94666,999999999,4,1,0,100,1,0
94838,6,4,1,0,100,1,0
94839,999999999,4,1,0,100,1,0
94924,6,4,1,0,100,1,0
94925,999999999,4,1,0,100,1,0
95096,6,4,1,0,100,1,0
95097,999999999,4,1,0,100,1,0
95183,6,4,1,0,100,1,0
95184,999999999,4,1,0,100,1,0
95355,6,4,1,0,100,1,0
95356,999999999,4,1,0,100,1,0
95441,6,4,1,0,100,1,0
95442,999999999,4,1,0,100,1,0
95614,6,4,1,0,100,1,0
95615,999999999,4,1,0,100,1,0
95786,6,4,1,0,100,1,0
95787,999999999,4,1,0,100,1,0
95872,6,4,1,0,100,1,0
95873,999999999,4,1,0,100,1,0
95958,6,4,1,0,100,1,0
95959,999999999,4,1,0,100,1,0
96045,6,4,1,0,100,1,0
96046,999999999,4,1,0,100,1,0
96217,6,4,1,0,100,1,0
96218,999999999,4,1,0,100,1,0
96303,6,4,1,0,100,1,0
96304,999999999,4,1,0,100,1,0
96476,6,4,1,0,100,1,0
96477,999999999,4,1,0,100,1,0
96562,6,4,1,0,100,1,0
96563,999999999,4,1,0,100,1,0
96734,6,4,1,0,100,1,0
96735,999999999,4,1,0,100,1,0
96820,6,4,1,0,100,1,0
96821,999999999,4,1,0,100,1,0
96992,6,4,1,0,100,1,0
96993,999999999,4,1,0,100,1,0
97165,6,4,1,0,100,1,0
97166,689.655172413793,4,1,0,100,1,0
99579,-333.333333333333,4,1,0,100,0,0
99637,-58.8235294117647,4,1,0,100,0,0
99694,-100,4,1,0,100,0,0
100039,-76.9230769230769,4,1,0,100,0,0
100097,-142.857142857143,4,1,0,100,0,0
100154,-76.9230769230769,4,1,0,100,0,0
100211,-142.857142857143,4,1,0,100,0,0
100269,-100,4,1,0,100,0,0
100614,-250,4,1,0,100,0,0
100657,-62.5,4,1,0,100,0,0
100700,-100,4,1,0,100,0,0
101303,-111.111111111111,4,1,0,100,0,0
101347,-166.666666666667,4,1,0,100,0,0
101390,-333.333333333333,4,1,0,100,0,0
101433,-50,4,1,0,100,0,0
101476,-333.333333333333,4,1,0,100,0,0
101519,-166.666666666667,4,1,0,100,0,0
101562,-111.111111111111,4,1,0,100,0,0
101605,-100,4,1,0,100,0,0
101907,-1000,4,1,0,100,0,0
101950,-52.6315789473684,4,1,0,100,0,0
101993,-100,4,1,0,100,0,0
103085,-500,4,1,0,100,0,0
103143,-55.5555555555556,4,1,0,100,0,0
103200,-500,4,1,0,100,0,0
103257,-55.5555555555556,4,1,0,100,0,0
103315,-500,4,1,0,100,0,0
103372,-55.5555555555556,4,1,0,100,0,0
103430,-100,4,1,0,100,0,0
103487,-66.6666666666667,4,1,0,100,0,0
103545,-10000,4,1,0,100,0,0
103602,-40,4,1,0,100,0,0
103660,-10000,4,1,0,100,0,0
103717,-100,4,1,0,100,0,0
104278,-80,4,1,0,100,0,0
104321,-66.6666666666667,4,1,0,100,0,0
104364,-400,4,1,0,100,0,0
104407,-100,4,1,0,100,0,0
105097,-10000,4,1,0,100,0,0
105140,-100,4,1,0,100,0,0
105269,-90.9090909090909,4,1,0,100,0,0
105312,-71.4285714285714,4,1,0,100,0,0
105355,-62.5,4,1,0,100,0,0
105398,-10000,4,1,0,100,0,0
105441,-100,4,1,0,100,0,0
105872,-57.1428571428571,4,1,0,100,0,0
105916,-200,4,1,0,100,0,0
106016,-57.1428571428571,4,1,0,100,0,0
106074,-200,4,1,0,100,0,0
106174,-57.1428571428571,4,1,0,100,0,0
106217,-200,4,1,0,100,0,0
106347,-57.1428571428571,4,1,0,100,0,0
106390,-200,4,1,0,100,0,0
106605,-57.1428571428571,4,1,0,100,0,0
106691,-200,4,1,0,100,0,0
106734,-57.1428571428571,4,1,0,100,0,0
106821,-200,4,1,0,100,0,0
106950,-57.1428571428571,4,1,0,100,0,0
107036,-200,4,1,0,100,0,0
107079,-57.1428571428571,4,1,0,100,0,0
107122,-200,4,1,0,100,0,0
107252,-57.1428571428571,4,1,0,100,0,0
107381,-200,4,1,0,100,0,0
107553,-57.1428571428571,4,1,0,100,0,0
107683,-100,4,1,0,100,0,0
107726,-200,4,1,0,100,0,0
107812,-57.1428571428571,4,1,0,100,0,0
107855,-200,4,1,0,100,0,0
107941,-57.1428571428571,4,1,0,100,0,0
107984,-200,4,1,0,100,0,0
108028,-57.1428571428571,4,1,0,100,0,0
108157,-200,4,1,0,100,0,0
108243,-57.1428571428571,4,1,0,100,0,0
108329,-200,4,1,0,100,0,0
108416,-57.1428571428571,4,1,0,100,0,0
108502,-100,4,1,0,100,0,0
109062,-57.1428571428571,4,1,0,100,0,0
109105,-200,4,1,0,100,0,0
109191,-57.1428571428571,4,1,0,100,0,0
109234,-200,4,1,0,100,0,0
109321,-57.1428571428571,4,1,0,100,0,0
109349,-200,4,1,0,100,0,0
109407,-57.1428571428571,4,1,0,100,0,0
109450,-200,4,1,0,100,0,0
109838,-57.1428571428571,4,1,0,100,0,0
109881,-200,4,1,0,100,0,0
110010,-57.1428571428571,4,1,0,100,0,0
110140,-200,4,1,0,100,0,0
110183,-57.1428571428571,4,1,0,100,0,0
110269,-200,4,1,0,100,0,0
110398,-57.1428571428571,4,1,0,100,0,0
110484,-200,4,1,0,100,0,0
110614,-57.1428571428571,4,1,0,100,0,0
110657,-200,4,1,0,100,0,0
110700,-57.1428571428571,4,1,0,100,0,0
110743,-200,4,1,0,100,0,0
110829,-57.1428571428571,4,1,0,100,0,0
110872,-200,4,1,0,100,0,0
110959,-57.1428571428571,4,1,0,100,0,0
111002,-200,4,1,0,100,0,0
111088,-57.1428571428571,4,1,0,100,0,0
111131,-200,4,1,0,100,0,0
111347,-57.1428571428571,4,1,0,100,0,0
111390,-200,4,1,0,100,0,0
111433,-57.1428571428571,4,1,0,100,0,0
111476,-200,4,1,0,100,0,0
111648,-57.1428571428571,4,1,0,100,0,0
111691,-200,4,1,0,100,0,0
112209,-57.1428571428571,4,1,0,100,0,0
112338,-200,4,1,0,100,0,0
112381,-57.1428571428571,4,1,0,100,0,0
112424,-200,4,1,0,100,0,0
112553,-57.1428571428571,4,1,0,100,0,0
112597,-200,4,1,0,100,0,0
112640,-57.1428571428571,4,1,0,100,0,0
112683,-200,4,1,0,100,0,0
112726,-57.1428571428571,4,1,0,100,0,0
112769,-200,4,1,0,100,0,0
112855,-57.1428571428571,4,1,0,100,0,0
112898,-200,4,1,0,100,0,0
113028,-57.1428571428571,4,1,0,100,0,0
113114,-50,4,1,0,100,0,0
113286,-200,4,1,0,100,0,0
113502,-50,4,1,0,100,0,0
113631,-200,4,1,0,100,0,0
114019,-50,4,1,0,100,0,0
114062,-200,4,1,0,100,0,0
114148,-50,4,1,0,100,0,0
114321,-66.6666666666667,4,1,0,100,0,0
114364,-200,4,1,0,100,0,0
114407,-50,4,1,0,100,0,0
114450,-1000,4,1,0,100,0,0
114493,-200,4,1,0,100,0,0
114536,-83.3333333333333,4,1,0,100,0,0
114579,-50,4,1,0,100,0,0
114622,-200,4,1,0,100,0,0
114666,-50,4,1,0,100,0,0
114709,-200,4,1,0,100,0,0
114752,-66.6666666666667,4,1,0,100,0,0
114838,-50,4,1,0,100,0,0
114924,-200,4,1,0,100,0,0
114967,-50,4,1,0,100,0,0
115010,-200,4,1,0,100,0,0
115053,-50,4,1,0,100,0,0
115140,-200,4,1,0,100,0,0
115700,-50,4,1,0,100,0,0
115743,-200,4,1,0,100,0,0
115786,-66.6666666666667,4,1,0,100,0,0
117166,-33.3333333333333,4,1,0,100,0,0
118933,-66.6666666666667,4,1,0,100,0,0
119236,344.827586206897,4,1,0,100,1,1
130270,-100,4,1,0,100,0,0
130313,379.312306787794,4,1,0,100,1,0
130335,316.092256793349,4,1,0,100,1,0
130356,421.457822608402,4,1,0,100,1,0
130378,291.777704293023,4,1,0,100,1,0
130399,474.139634122249,4,1,0,100,1,0
130421,270.936627922729,4,1,0,100,1,0
130442,541.873255845458,4,1,0,100,1,0
130464,252.874338312148,4,1,0,100,1,0
130486,632.184513586699,4,1,0,100,1,0
130508,237.069817061124,4,1,0,100,1,0
130529,758.629409533443,4,1,0,100,1,0
130551,223.123807682153,4,1,0,100,1,0
130572,948.286761916804,4,1,0,100,1,0
130594,210.728171195566,4,1,0,100,1,0
130615,1264.3823492224,4,1,0,100,1,0
130637,199.637325525296,4,1,0,100,1,0
130658,1896.57352383361,4,1,0,100,1,0
130680,189.65555390485,4,1,0,100,1,0
130701,3793.14704766721,4,1,0,100,1,0
130723,180.624418615153,4,1,0,100,1,0
130744,999999999,4,1,0,100,1,0
130766,172.413793103448,4,1,0,100,1,0
130787,999999999,4,1,0,100,1,0
130958,3,4,1,0,100,1,0
130959,999999999,4,1,0,100,1,0
131130,3,4,1,0,100,1,0
131131,999999999,4,1,0,100,1,0
131302,3,4,1,0,100,1,0
131303,999999999,4,1,0,100,1,0
131474,3,4,1,0,100,1,0
131475,999999999,4,1,0,100,1,0
131648,3,4,1,0,100,1,0
131649,344.827586206897,4,1,0,100,1,0
131649,-10,4,1,0,100,0,0
131659,-500,4,1,0,100,0,0
131821,-10,4,1,0,100,0,0
131826,-500,4,1,0,100,0,0
131907,-10,4,1,0,100,0,0
131912,-500,4,1,0,100,0,0
131993,-10,4,1,0,100,0,0
132003,-500,4,1,0,100,0,0
132166,-100,4,1,0,100,0,0
132424,-100,4,1,0,100,0,0
132511,-90.9090909090909,4,1,0,100,0,0
132597,-83.3333333333333,4,1,0,100,0,0
133028,999999999,4,1,0,100,1,0
133199,3,4,1,0,100,1,0
133200,999999999,4,1,0,100,1,0
133285,12,4,1,0,100,1,0
133286,999999999,4,1,0,100,1,0
133372,4,4,1,0,100,1,0
133373,999999999,4,1,0,100,1,0
133458,12,4,1,0,100,1,0
133459,999999999,4,1,0,100,1,0
133544,4,4,1,0,100,1,0
133545,999999999,4,1,0,100,1,0
133630,12,4,1,0,100,1,0
133631,999999999,4,1,0,100,1,0
133716,4,4,1,0,100,1,0
133717,999999999,4,1,0,100,1,0
133803,12,4,1,0,100,1,0
133804,999999999,4,1,0,100,1,0
133889,4,4,1,0,100,1,0
133890,999999999,4,1,0,100,1,0
133975,12,4,1,0,100,1,0
133976,999999999,4,1,0,100,1,0
134061,4,4,1,0,100,1,0
134062,999999999,4,1,0,100,1,0
134148,12,4,1,0,100,1,0
134149,999999999,4,1,0,100,1,0
134234,4,4,1,0,100,1,0
134235,999999999,4,1,0,100,1,0
134406,3,4,1,0,100,1,0
134407,344.827586206897,4,1,0,100,1,0
134407,-66.6666666666667,4,1,0,100,0,0
134493,-200,4,1,0,100,0,0
134579,-66.6666666666667,4,1,0,100,0,0
134665,-200,4,1,0,100,0,0
134751,-66.6666666666667,4,1,0,100,0,0
134838,-200,4,1,0,100,0,0
134924,-66.6666666666667,4,1,0,100,0,0
135010,-200,4,1,0,100,0,0
135096,-66.6666666666667,4,1,0,100,0,0
135182,-200,4,1,0,100,0,0
135269,-66.6666666666667,4,1,0,100,0,0
135355,-200,4,1,0,100,0,0
135441,-66.6666666666667,4,1,0,100,0,0
135527,-200,4,1,0,100,0,0
135613,-66.6666666666667,4,1,0,100,0,0
135700,-200,4,1,0,100,0,0
135786,-50,4,1,0,100,0,0
135806,-10000,4,1,0,100,0,0
135829,-50,4,1,0,100,0,0
135850,-10000,4,1,0,100,0,0
135872,-50,4,1,0,100,0,0
135894,-10000,4,1,0,100,0,0
135915,-50,4,1,0,100,0,0
135937,-10000,4,1,0,100,0,0
135958,-10,4,1,0,100,0,0
135963,-500,4,1,0,100,0,0
136044,-10,4,1,0,100,0,0
136049,-500,4,1,0,100,0,0
136131,-10,4,1,0,100,0,0
136141,-500,4,1,0,100,0,0
136303,999999999,4,1,0,100,1,0
136474,3,4,1,0,100,1,0
136475,999999999,4,1,0,100,1,0
136647,3,4,1,0,100,1,0
136648,999999999,4,1,0,100,1,0
136733,6,4,1,0,100,1,0
136734,999999999,4,1,0,100,1,0
136819,6,4,1,0,100,1,0
136820,999999999,4,1,0,100,1,0
136992,3,4,1,0,100,1,0
136993,999999999,4,1,0,100,1,0
137164,3,4,1,0,100,1,0
137165,344.827586206897,4,1,0,100,1,0
137165,-10,4,1,0,100,0,0
137175,-500,4,1,0,100,0,0
137337,-10,4,1,0,100,0,0
137342,-500,4,1,0,100,0,0
137423,-10,4,1,0,100,0,0
137428,-500,4,1,0,100,0,0
137509,-10,4,1,0,100,0,0
137519,-500,4,1,0,100,0,0
137682,999999999,4,1,0,100,1,0
138026,2,4,1,0,100,1,0
138027,999999999,4,1,0,100,1,0
138112,6,4,1,0,100,1,0
138113,999999999,4,1,0,100,1,0
138198,6,4,1,0,100,1,0
138199,999999999,4,1,0,100,1,0
138284,6,4,1,0,100,1,0
138285,999999999,4,1,0,100,1,0
138370,6,4,1,0,100,1,0
138371,999999999,4,1,0,100,1,0
138457,6,4,1,0,100,1,0
138458,999999999,4,1,0,100,1,0
138543,6,4,1,0,100,1,0
138544,344.827586206897,4,1,0,100,1,0
138544,-10,4,1,0,100,0,0
138554,-500,4,1,0,100,0,0
138716,-10,4,1,0,100,0,0
138721,-500,4,1,0,100,0,0
138802,-10,4,1,0,100,0,0
138807,-500,4,1,0,100,0,0
138888,-10,4,1,0,100,0,0
138898,-500,4,1,0,100,0,0
139061,999999999,4,1,0,100,1,0
139232,3,4,1,0,100,1,0
139233,999999999,4,1,0,100,1,0
139404,3,4,1,0,100,1,0
139405,999999999,4,1,0,100,1,0
139490,6,4,1,0,100,1,0
139491,999999999,4,1,0,100,1,0
139576,6,4,1,0,100,1,0
139577,999999999,4,1,0,100,1,0
139748,3,4,1,0,100,1,0
139749,999999999,4,1,0,100,1,0
139922,3,4,1,0,100,1,0
139923,344.827586206897,4,1,0,100,1,0
139923,-66.6666666666667,4,1,0,100,0,0
140009,-200,4,1,0,100,0,0
140095,-66.6666666666667,4,1,0,100,0,0
140181,-200,4,1,0,100,0,0
140267,-66.6666666666667,4,1,0,100,0,0
140354,-200,4,1,0,100,0,0
140440,-66.6666666666667,4,1,0,100,0,0
140526,-200,4,1,0,100,0,0
140612,-20,4,1,0,100,0,0
140634,-1000,4,1,0,100,0,0
140785,-20,4,1,0,100,0,0
140807,-1000,4,1,0,100,0,0
140957,-20,4,1,0,100,0,0
140979,-1000,4,1,0,100,0,0
141129,-20,4,1,0,100,0,0
141151,-1000,4,1,0,100,0,0
141280,-20,4,1,0,100,0,0
141302,-100,4,1,0,100,0,0
145606,1000,4,1,0,100,1,0
146473,2.01065647934051,4,1,0,100,1,0
146474,0.0860870426087817,4,1,0,100,1,0
146476,689.655172413794,4,1,0,100,1,0
146819,344.827586206897,4,1,0,100,1,0
150956,-133.333333333333,4,1,0,100,0,0
151387,-66.6666666666667,4,1,0,100,0,0
151474,-133.333333333333,4,1,0,100,0,0
151819,-66.6666666666667,4,1,0,100,0,0
151905,-133.333333333333,4,1,0,100,0,0
152250,-66.6666666666667,4,1,0,100,0,0
152336,0.0860870426087817,4,1,0,100,1,0
152337,999999999,4,1,0,100,1,0
152593,6,4,1,0,100,1,0
152594,0.0860870426087817,4,1,0,100,1,0
152595,999999999,4,1,0,100,1,0
152852,3,4,1,0,100,1,0
152853,0.0860870426087817,4,1,0,100,1,0
152854,999999999,4,1,0,100,1,0
153111,2,4,1,0,100,1,0
153112,0.0860870426087817,4,1,0,100,1,0
153113,999999999,4,1,0,100,1,0
153369,1.5,4,1,0,100,1,0
153370,0.0860870426087817,4,1,0,100,1,0
153371,344.827586206897,4,1,0,100,1,0
153371,-1000000000,4,1,0,100,0,0
153374.44,-399840.079961618,4,1,0,100,0,0
153377.88,-99990.0049991003,4,1,0,100,0,0
153381.32,-44442.4710012099,4,1,0,100,0,0
153384.76,-24999.3760155746,4,1,0,100,0,0
153388.2,-15999.7446440755,4,1,0,100,0,0
153391.64,-11110.9881001273,4,1,0,100,0,0
153395.08,-8163.19899429127,4,1,0,100,0,0
153398.52,-6249.96118774102,4,1,0,100,0,0
153401.96,-4938.24741606118,4,1,0,100,0,0
153405.4,-3999.98416006273,4,1,0,100,0,0
153408.84,-3305.77432801832,4,1,0,100,0,0
153412.28,-2777.77017286033,4,1,0,100,0,0
153415.72,-2366.85839796807,4,1,0,100,0,0
153419.16,-2040.81224324016,4,1,0,100,0,0
153422.6,-1777.77468840043,4,1,0,100,0,0
153426.04,-1562.49762109737,4,1,0,100,0,0
153429.48,-1384.08118466265,4,1,0,100,0,0
153432.92,-1234.56642646114,4,1,0,100,0,0
153436.36,-1108.03205758216,4,1,0,100,0,0
153439.8,-999.999040000921,4,1,0,100,0,0
153443.24,-907.028692037436,4,1,0,100,0,0
153446.68,-826.445631036643,4,1,0,100,0,0
153450.12,-756.143125789675,4,1,0,100,0,0
153453.56,-694.443989969433,4,1,0,100,0,0
153457,-639.99961600023,4,1,0,100,0,0
153460.44,-591.715649872383,4,1,0,100,0,0
153463.88,-548.696565872929,4,1,0,100,0,0
153467.32,-510.203841732724,4,1,0,100,0,0
153470.76,-475.624049643726,4,1,0,100,0,0
153474.2,-444.444264691431,4,1,0,100,0,0
153477.64,-416.232933930094,4,1,0,100,0,0
153481.08,-390.624863037157,4,1,0,100,0,0
153484.52,-367.309337994729,4,1,0,100,0,0
153487.96,-346.02065535617,4,1,0,100,0,0
153491.4,-326.530518683909,4,1,0,100,0,0
153494.84,-308.641892394474,4,1,0,100,0,0
153498.28,-292.184002283707,4,1,0,100,0,0
153501.72,-277.008244596052,4,1,0,100,0,0
153505.16,-262.984819727856,4,1,0,100,0,0
153508.6,-249.999947500011,4,1,0,100,0,0
153512.04,-237.953551944424,4,1,0,100,0,0
153515.48,-226.757327265911,4,1,0,100,0,0
153518.92,-216.333114909006,4,1,0,100,0,0
153522.36,-206.611535824061,4,1,0,100,0,0
153525.8,-197.530833080328,4,1,0,100,0,0
153529.24,-189.03588865106,4,1,0,100,0,0
153532.68,-181.0773850471,4,1,0,100,0,0
153536.12,-173.611087914741,4,1,0,100,0,0
153539.56,-166.597230054605,4,1,0,100,0,0
153543,-159.999980800002,4,1,0,100,0,0
153546.44,-153.786987499117,4,1,0,100,0,0
153549.88,-147.928978117014,4,1,0,100,0,0
153553.32,-142.399415820659,4,1,0,100,0,0
153556.76,-137.174197918491,4,1,0,100,0,0
153560.2,-132.231392762791,4,1,0,100,0,0
153563.64,-127.551009240942,4,1,0,100,0,0
153567.08,-123.114794322586,4,1,0,100,0,0
153570.52,-118.906054826866,4,1,0,100,0,0
153573.96,-114.909500154036,4,1,0,100,0,0
153577.4,-111.111103209877,4,1,0,100,0,0
153580.84,-107.497977156895,4,1,0,100,0,0
153584.28,-104.058265966882,4,1,0,100,0,0
153587.72,-100.781047036427,4,1,0,100,0,0
153591.16,-97.6562443695071,4,1,0,100,0,0
153594.6,-94.6745510367287,4,1,0,100,0,0
153598.04,-91.8273597954672,4,1,0,100,0,0
153601.48,-89.1067009038358,4,1,0,100,0,0
153604.92,-86.5051862884785,4,1,0,100,0,0
153608.36,-84.0159593349329,4,1,0,100,0,0
153611.8,-81.6326496626407,4,1,0,100,0,0
153615.24,-79.3493323269721,4,1,0,100,0,0
153618.68,-77.1604909598385,4,1,0,100,0,0
153622.12,-75.0609844202675,4,1,0,100,0,0
153625.56,-73.0460165780849,4,1,0,100,0,0
153629,-71.1111088987655,4,1,0,100,0,0
153632.44,-69.2520755365598,4,1,0,100,0,0
153635.88,-67.4650006770112,4,1,0,100,0,0
153639.32,-65.7462178996569,4,1,0,100,0,0
153642.76,-64.0922913576483,4,1,0,100,0,0
153646.2,-62.49999859375,4,1,0,100,0,0
153649.64,-60.96631483211,4,1,0,100,0,0
153653.08,-59.4883986027127,4,1,0,100,0,0
153656.52,-58.0635785708475,4,1,0,100,0,0
153659.96,-56.6893414575203,4,1,0,100,0,0
153663.4,-55.3633209487434,4,1,0,100,0,0
153666.84,-54.0832875022559,4,1,0,100,0,0
153670.28,-52.8471389696319,4,1,0,100,0,0
153673.72,-51.6528919600779,4,1,0,100,0,0
153677.16,-50.4986738796276,4,1,0,100,0,0
153680.6,-49.3827155860387,4,1,0,100,0,0
153684.04,-48.3033446055624,4,1,0,100,0,0
153687.48,-47.2589788629972,4,1,0,100,0,0
153690.92,-46.2481208811136,4,1,0,100,0,0
153694.36,-45.269352409717,4,1,0,100,0,0
153697.8,-44.3213294483621,4,1,0,100,0,0
153701.24,-43.4027776300878,4,1,0,100,0,0
153704.68,-42.5124879365506,4,1,0,100,0,0
153708.12,-41.6493127176463,4,1,0,100,0,0
153711.56,-40.8121619911372,4,1,0,100,0,0
153715,0.0860870426087817,4,1,0,100,1,0
153715,-40,4,1,0,100,0,0
153716,999999999,4,1,0,100,1,0
153973,6,4,1,0,100,1,0
153974,0.0860870426087817,4,1,0,100,1,0
153975,999999999,4,1,0,100,1,0
154231,3,4,1,0,100,1,0
154232,0.0860870426087817,4,1,0,100,1,0
154233,999999999,4,1,0,100,1,0
154490,2,4,1,0,100,1,0
154491,0.0860870426087817,4,1,0,100,1,0
154492,999999999,4,1,0,100,1,0
154749,1.5,4,1,0,100,1,0
154750,0.0860870426087817,4,1,0,100,1,0
154751,344.827586206897,4,1,0,100,1,0
154751,-1000000000,4,1,0,100,0,0
154754.44,-399840.079961618,4,1,0,100,0,0
154757.88,-99990.0049991003,4,1,0,100,0,0
154761.32,-44442.4710012099,4,1,0,100,0,0
154764.76,-24999.3760155746,4,1,0,100,0,0
154768.2,-15999.7446440755,4,1,0,100,0,0
154771.64,-11110.9881001273,4,1,0,100,0,0
154775.08,-8163.19899429127,4,1,0,100,0,0
154778.52,-6249.96118774102,4,1,0,100,0,0
154781.96,-4938.24741606118,4,1,0,100,0,0
154785.4,-3999.98416006273,4,1,0,100,0,0
154788.84,-3305.77432801832,4,1,0,100,0,0
154792.28,-2777.77017286033,4,1,0,100,0,0
154795.72,-2366.85839796807,4,1,0,100,0,0
154799.16,-2040.81224324016,4,1,0,100,0,0
154802.6,-1777.77468840043,4,1,0,100,0,0
154806.04,-1562.49762109737,4,1,0,100,0,0
154809.48,-1384.08118466265,4,1,0,100,0,0
154812.92,-1234.56642646114,4,1,0,100,0,0
154816.36,-1108.03205758216,4,1,0,100,0,0
154819.8,-999.999040000921,4,1,0,100,0,0
154823.24,-907.028692037436,4,1,0,100,0,0
154826.68,-826.445631036643,4,1,0,100,0,0
154830.12,-756.143125789675,4,1,0,100,0,0
154833.56,-694.443989969433,4,1,0,100,0,0
154837,-639.99961600023,4,1,0,100,0,0
154840.44,-591.715649872383,4,1,0,100,0,0
154843.88,-548.696565872929,4,1,0,100,0,0
154847.32,-510.203841732724,4,1,0,100,0,0
154850.76,-475.624049643726,4,1,0,100,0,0
154854.2,-444.444264691431,4,1,0,100,0,0
154857.64,-416.232933930094,4,1,0,100,0,0
154861.08,-390.624863037157,4,1,0,100,0,0
154864.52,-367.309337994729,4,1,0,100,0,0
154867.96,-346.02065535617,4,1,0,100,0,0
154871.4,-326.530518683909,4,1,0,100,0,0
154874.84,-308.641892394474,4,1,0,100,0,0
154878.28,-292.184002283707,4,1,0,100,0,0
154881.72,-277.008244596052,4,1,0,100,0,0
154885.16,-262.984819727856,4,1,0,100,0,0
154888.6,-249.999947500011,4,1,0,100,0,0
154892.04,-237.953551944424,4,1,0,100,0,0
154895.48,-226.757327265911,4,1,0,100,0,0
154898.92,-216.333114909006,4,1,0,100,0,0
154902.36,-206.611535824061,4,1,0,100,0,0
154905.8,-197.530833080328,4,1,0,100,0,0
154909.24,-189.03588865106,4,1,0,100,0,0
154912.68,-181.0773850471,4,1,0,100,0,0
154916.12,-173.611087914741,4,1,0,100,0,0
154919.56,-166.597230054605,4,1,0,100,0,0
154923,-159.999980800002,4,1,0,100,0,0
154926.44,-153.786987499117,4,1,0,100,0,0
154929.88,-147.928978117014,4,1,0,100,0,0
154933.32,-142.399415820659,4,1,0,100,0,0
154936.76,-137.174197918491,4,1,0,100,0,0
154940.2,-132.231392762791,4,1,0,100,0,0
154943.64,-127.551009240942,4,1,0,100,0,0
154947.08,-123.114794322586,4,1,0,100,0,0
154950.52,-118.906054826866,4,1,0,100,0,0
154953.96,-114.909500154036,4,1,0,100,0,0
154957.4,-111.111103209877,4,1,0,100,0,0
154960.84,-107.497977156895,4,1,0,100,0,0
154964.28,-104.058265966882,4,1,0,100,0,0
154967.72,-100.781047036427,4,1,0,100,0,0
154971.16,-97.6562443695071,4,1,0,100,0,0
154974.6,-94.6745510367287,4,1,0,100,0,0
154978.04,-91.8273597954672,4,1,0,100,0,0
154981.48,-89.1067009038358,4,1,0,100,0,0
154984.92,-86.5051862884785,4,1,0,100,0,0
154988.36,-84.0159593349329,4,1,0,100,0,0
154991.8,-81.6326496626407,4,1,0,100,0,0
154995.24,-79.3493323269721,4,1,0,100,0,0
154998.68,-77.1604909598385,4,1,0,100,0,0
155002.12,-75.0609844202675,4,1,0,100,0,0
155005.56,-73.0460165780849,4,1,0,100,0,0
155009,-71.1111088987655,4,1,0,100,0,0
155012.44,-69.2520755365598,4,1,0,100,0,0
155015.88,-67.4650006770112,4,1,0,100,0,0
155019.32,-65.7462178996569,4,1,0,100,0,0
155022.76,-64.0922913576483,4,1,0,100,0,0
155026.2,-62.49999859375,4,1,0,100,0,0
155029.64,-60.96631483211,4,1,0,100,0,0
155033.08,-59.4883986027127,4,1,0,100,0,0
155036.52,-58.0635785708475,4,1,0,100,0,0
155039.96,-56.6893414575203,4,1,0,100,0,0
155043.4,-55.3633209487434,4,1,0,100,0,0
155046.84,-54.0832875022559,4,1,0,100,0,0
155050.28,-52.8471389696319,4,1,0,100,0,0
155053.72,-51.6528919600779,4,1,0,100,0,0
155057.16,-50.4986738796276,4,1,0,100,0,0
155060.6,-49.3827155860387,4,1,0,100,0,0
155064.04,-48.3033446055624,4,1,0,100,0,0
155067.48,-47.2589788629972,4,1,0,100,0,0
155070.92,-46.2481208811136,4,1,0,100,0,0
155074.36,-45.269352409717,4,1,0,100,0,0
155077.8,-44.3213294483621,4,1,0,100,0,0
155081.24,-43.4027776300878,4,1,0,100,0,0
155084.68,-42.5124879365506,4,1,0,100,0,0
155088.12,-41.6493127176463,4,1,0,100,0,0
155091.56,-40.8121619911372,4,1,0,100,0,0
155094,0.0860870426087817,4,1,0,100,1,0
155095,999999999,4,1,0,100,1,0
155352,6,4,1,0,100,1,0
155353,0.0860870426087817,4,1,0,100,1,0
155354,999999999,4,1,0,100,1,0
155611,3,4,1,0,100,1,0
155612,0.0860870426087817,4,1,0,100,1,0
155613,999999999,4,1,0,100,1,0
155869,2,4,1,0,100,1,0
155870,0.0860870426087817,4,1,0,100,1,0
155871,999999999,4,1,0,100,1,0
156128,1.5,4,1,0,100,1,0
156129,0.0860870426087817,4,1,0,100,1,0
156130,344.827586206897,4,1,0,100,1,0
156130,-1000000000,4,1,0,100,0,0
156133.44,-399840.079961618,4,1,0,100,0,0
156136.88,-99990.0049991003,4,1,0,100,0,0
156140.32,-44442.4710012099,4,1,0,100,0,0
156143.76,-24999.3760155746,4,1,0,100,0,0
156147.2,-15999.7446440755,4,1,0,100,0,0
156150.64,-11110.9881001273,4,1,0,100,0,0
156154.08,-8163.19899429127,4,1,0,100,0,0
156157.52,-6249.96118774102,4,1,0,100,0,0
156160.96,-4938.24741606118,4,1,0,100,0,0
156164.4,-3999.98416006273,4,1,0,100,0,0
156167.84,-3305.77432801832,4,1,0,100,0,0
156171.28,-2777.77017286033,4,1,0,100,0,0
156174.72,-2366.85839796807,4,1,0,100,0,0
156178.16,-2040.81224324016,4,1,0,100,0,0
156181.6,-1777.77468840043,4,1,0,100,0,0
156185.04,-1562.49762109737,4,1,0,100,0,0
156188.48,-1384.08118466265,4,1,0,100,0,0
156191.92,-1234.56642646114,4,1,0,100,0,0
156195.36,-1108.03205758216,4,1,0,100,0,0
156198.8,-999.999040000921,4,1,0,100,0,0
156202.24,-907.028692037436,4,1,0,100,0,0
156205.68,-826.445631036643,4,1,0,100,0,0
156209.12,-756.143125789675,4,1,0,100,0,0
156212.56,-694.443989969433,4,1,0,100,0,0
156216,-639.99961600023,4,1,0,100,0,0
156219.44,-591.715649872383,4,1,0,100,0,0
156222.88,-548.696565872929,4,1,0,100,0,0
156226.32,-510.203841732724,4,1,0,100,0,0
156229.76,-475.624049643726,4,1,0,100,0,0
156233.2,-444.444264691431,4,1,0,100,0,0
156236.64,-416.232933930094,4,1,0,100,0,0
156240.08,-390.624863037157,4,1,0,100,0,0
156243.52,-367.309337994729,4,1,0,100,0,0
156246.96,-346.02065535617,4,1,0,100,0,0
156250.4,-326.530518683909,4,1,0,100,0,0
156253.84,-308.641892394474,4,1,0,100,0,0
156257.28,-292.184002283707,4,1,0,100,0,0
156260.72,-277.008244596052,4,1,0,100,0,0
156264.16,-262.984819727856,4,1,0,100,0,0
156267.6,-249.999947500011,4,1,0,100,0,0
156271.04,-237.953551944424,4,1,0,100,0,0
156274.48,-226.757327265911,4,1,0,100,0,0
156277.92,-216.333114909006,4,1,0,100,0,0
156281.36,-206.611535824061,4,1,0,100,0,0
156284.8,-197.530833080328,4,1,0,100,0,0
156288.24,-189.03588865106,4,1,0,100,0,0
156291.68,-181.0773850471,4,1,0,100,0,0
156295.12,-173.611087914741,4,1,0,100,0,0
156298.56,-166.597230054605,4,1,0,100,0,0
156302,-159.999980800002,4,1,0,100,0,0
156305.44,-153.786987499117,4,1,0,100,0,0
156308.88,-147.928978117014,4,1,0,100,0,0
156312.32,-142.399415820659,4,1,0,100,0,0
156315.76,-137.174197918491,4,1,0,100,0,0
156319.2,-132.231392762791,4,1,0,100,0,0
156322.64,-127.551009240942,4,1,0,100,0,0
156326.08,-123.114794322586,4,1,0,100,0,0
156329.52,-118.906054826866,4,1,0,100,0,0
156332.96,-114.909500154036,4,1,0,100,0,0
156336.4,-111.111103209877,4,1,0,100,0,0
156339.84,-107.497977156895,4,1,0,100,0,0
156343.28,-104.058265966882,4,1,0,100,0,0
156346.72,-100.781047036427,4,1,0,100,0,0
156350.16,-97.6562443695071,4,1,0,100,0,0
156353.6,-94.6745510367287,4,1,0,100,0,0
156357.04,-91.8273597954672,4,1,0,100,0,0
156360.48,-89.1067009038358,4,1,0,100,0,0
156363.92,-86.5051862884785,4,1,0,100,0,0
156367.36,-84.0159593349329,4,1,0,100,0,0
156370.8,-81.6326496626407,4,1,0,100,0,0
156374.24,-79.3493323269721,4,1,0,100,0,0
156377.68,-77.1604909598385,4,1,0,100,0,0
156381.12,-75.0609844202675,4,1,0,100,0,0
156384.56,-73.0460165780849,4,1,0,100,0,0
156388,-71.1111088987655,4,1,0,100,0,0
156391.44,-69.2520755365598,4,1,0,100,0,0
156394.88,-67.4650006770112,4,1,0,100,0,0
156398.32,-65.7462178996569,4,1,0,100,0,0
156401.76,-64.0922913576483,4,1,0,100,0,0
156405.2,-62.49999859375,4,1,0,100,0,0
156408.64,-60.96631483211,4,1,0,100,0,0
156412.08,-59.4883986027127,4,1,0,100,0,0
156415.52,-58.0635785708475,4,1,0,100,0,0
156418.96,-56.6893414575203,4,1,0,100,0,0
156422.4,-55.3633209487434,4,1,0,100,0,0
156425.84,-54.0832875022559,4,1,0,100,0,0
156429.28,-52.8471389696319,4,1,0,100,0,0
156432.72,-51.6528919600779,4,1,0,100,0,0
156436.16,-50.4986738796276,4,1,0,100,0,0
156439.6,-49.3827155860387,4,1,0,100,0,0
156443.04,-48.3033446055624,4,1,0,100,0,0
156446.48,-47.2589788629972,4,1,0,100,0,0
156449.92,-46.2481208811136,4,1,0,100,0,0
156453.36,-45.269352409717,4,1,0,100,0,0
156456.8,-44.3213294483621,4,1,0,100,0,0
156460.24,-43.4027776300878,4,1,0,100,0,0
156463.68,-42.5124879365506,4,1,0,100,0,0
156467.12,-41.6493127176463,4,1,0,100,0,0
156470.56,-40.8121619911372,4,1,0,100,0,0
156474,0.0860870426087817,4,1,0,100,1,0
156475,344.827586206897,4,1,0,100,1,0
157853,0.0860870426087817,4,1,0,100,1,0
157854,999999999,4,1,0,100,1,0
158111,6,4,1,0,100,1,0
158112,0.0860870426087817,4,1,0,100,1,0
158113,999999999,4,1,0,100,1,0
158369,3,4,1,0,100,1,0
158370,0.0860870426087817,4,1,0,100,1,0
158371,999999999,4,1,0,100,1,0
158628,2,4,1,0,100,1,0
158629,0.0860870426087817,4,1,0,100,1,0
158630,999999999,4,1,0,100,1,0
158886,1.5,4,1,0,100,1,0
158887,0.0860870426087817,4,1,0,100,1,0
158888,344.827586206897,4,1,0,100,1,0
158888,-1000000000,4,1,0,100,0,0
158891.44,-399840.079961618,4,1,0,100,0,0
158894.88,-99990.0049991003,4,1,0,100,0,0
158898.32,-44442.4710012099,4,1,0,100,0,0
158901.76,-24999.3760155746,4,1,0,100,0,0
158905.2,-15999.7446440755,4,1,0,100,0,0
158908.64,-11110.9881001273,4,1,0,100,0,0
158912.08,-8163.19899429127,4,1,0,100,0,0
158915.52,-6249.96118774102,4,1,0,100,0,0
158918.96,-4938.24741606118,4,1,0,100,0,0
158922.4,-3999.98416006273,4,1,0,100,0,0
158925.84,-3305.77432801832,4,1,0,100,0,0
158929.28,-2777.77017286033,4,1,0,100,0,0
158932.72,-2366.85839796807,4,1,0,100,0,0
158936.16,-2040.81224324016,4,1,0,100,0,0
158939.6,-1777.77468840043,4,1,0,100,0,0
158943.04,-1562.49762109737,4,1,0,100,0,0
158946.48,-1384.08118466265,4,1,0,100,0,0
158949.92,-1234.56642646114,4,1,0,100,0,0
158953.36,-1108.03205758216,4,1,0,100,0,0
158956.8,-999.999040000921,4,1,0,100,0,0
158960.24,-907.028692037436,4,1,0,100,0,0
158963.68,-826.445631036643,4,1,0,100,0,0
158967.12,-756.143125789675,4,1,0,100,0,0
158970.56,-694.443989969433,4,1,0,100,0,0
158974,-639.99961600023,4,1,0,100,0,0
158977.44,-591.715649872383,4,1,0,100,0,0
158980.88,-548.696565872929,4,1,0,100,0,0
158984.32,-510.203841732724,4,1,0,100,0,0
158987.76,-475.624049643726,4,1,0,100,0,0
158991.2,-444.444264691431,4,1,0,100,0,0
158994.64,-416.232933930094,4,1,0,100,0,0
158998.08,-390.624863037157,4,1,0,100,0,0
159001.52,-367.309337994729,4,1,0,100,0,0
159004.96,-346.02065535617,4,1,0,100,0,0
159008.4,-326.530518683909,4,1,0,100,0,0
159011.84,-308.641892394474,4,1,0,100,0,0
159015.28,-292.184002283707,4,1,0,100,0,0
159018.72,-277.008244596052,4,1,0,100,0,0
159022.16,-262.984819727856,4,1,0,100,0,0
159025.6,-249.999947500011,4,1,0,100,0,0
159029.04,-237.953551944424,4,1,0,100,0,0
159032.48,-226.757327265911,4,1,0,100,0,0
159035.92,-216.333114909006,4,1,0,100,0,0
159039.36,-206.611535824061,4,1,0,100,0,0
159042.8,-197.530833080328,4,1,0,100,0,0
159046.24,-189.03588865106,4,1,0,100,0,0
159049.68,-181.0773850471,4,1,0,100,0,0
159053.12,-173.611087914741,4,1,0,100,0,0
159056.56,-166.597230054605,4,1,0,100,0,0
159060,-159.999980800002,4,1,0,100,0,0
159063.44,-153.786987499117,4,1,0,100,0,0
159066.88,-147.928978117014,4,1,0,100,0,0
159070.32,-142.399415820659,4,1,0,100,0,0
159073.76,-137.174197918491,4,1,0,100,0,0
159077.2,-132.231392762791,4,1,0,100,0,0
159080.64,-127.551009240942,4,1,0,100,0,0
159084.08,-123.114794322586,4,1,0,100,0,0
159087.52,-118.906054826866,4,1,0,100,0,0
159090.96,-114.909500154036,4,1,0,100,0,0
159094.4,-111.111103209877,4,1,0,100,0,0
159097.84,-107.497977156895,4,1,0,100,0,0
159101.28,-104.058265966882,4,1,0,100,0,0
159104.72,-100.781047036427,4,1,0,100,0,0
159108.16,-97.6562443695071,4,1,0,100,0,0
159111.6,-94.6745510367287,4,1,0,100,0,0
159115.04,-91.8273597954672,4,1,0,100,0,0
159118.48,-89.1067009038358,4,1,0,100,0,0
159121.92,-86.5051862884785,4,1,0,100,0,0
159125.36,-84.0159593349329,4,1,0,100,0,0
159128.8,-81.6326496626407,4,1,0,100,0,0
159132.24,-79.3493323269721,4,1,0,100,0,0
159135.68,-77.1604909598385,4,1,0,100,0,0
159139.12,-75.0609844202675,4,1,0,100,0,0
159142.56,-73.0460165780849,4,1,0,100,0,0
159146,-71.1111088987655,4,1,0,100,0,0
159149.44,-69.2520755365598,4,1,0,100,0,0
159152.88,-67.4650006770112,4,1,0,100,0,0
159156.32,-65.7462178996569,4,1,0,100,0,0
159159.76,-64.0922913576483,4,1,0,100,0,0
159163.2,-62.49999859375,4,1,0,100,0,0
159166.64,-60.96631483211,4,1,0,100,0,0
159170.08,-59.4883986027127,4,1,0,100,0,0
159173.52,-58.0635785708475,4,1,0,100,0,0
159176.96,-56.6893414575203,4,1,0,100,0,0
159180.4,-55.3633209487434,4,1,0,100,0,0
159183.84,-54.0832875022559,4,1,0,100,0,0
159187.28,-52.8471389696319,4,1,0,100,0,0
159190.72,-51.6528919600779,4,1,0,100,0,0
159194.16,-50.4986738796276,4,1,0,100,0,0
159197.6,-49.3827155860387,4,1,0,100,0,0
159201.04,-48.3033446055624,4,1,0,100,0,0
159204.48,-47.2589788629972,4,1,0,100,0,0
159207.92,-46.2481208811136,4,1,0,100,0,0
159211.36,-45.269352409717,4,1,0,100,0,0
159214.8,-44.3213294483621,4,1,0,100,0,0
159218.24,-43.4027776300878,4,1,0,100,0,0
159221.68,-42.5124879365506,4,1,0,100,0,0
159225.12,-41.6493127176463,4,1,0,100,0,0
159228.56,-40.8121619911372,4,1,0,100,0,0
159232,0.0860870426087817,4,1,0,100,1,0
159233,999999999,4,1,0,100,1,0
159490,6,4,1,0,100,1,0
159491,0.0860870426087817,4,1,0,100,1,0
159492,999999999,4,1,0,100,1,0
159749,3,4,1,0,100,1,0
159750,0.0860870426087817,4,1,0,100,1,0
159751,999999999,4,1,0,100,1,0
160007,2,4,1,0,100,1,0
160008,0.0860870426087817,4,1,0,100,1,0
160009,999999999,4,1,0,100,1,0
160266,1.5,4,1,0,100,1,0
160267,0.0860870426087817,4,1,0,100,1,0
160268,344.827586206897,4,1,0,100,1,0
160268,-1000000000,4,1,0,100,0,0
160271.44,-399840.079961618,4,1,0,100,0,0
160274.88,-99990.0049991003,4,1,0,100,0,0
160278.32,-44442.4710012099,4,1,0,100,0,0
160281.76,-24999.3760155746,4,1,0,100,0,0
160285.2,-15999.7446440755,4,1,0,100,0,0
160288.64,-11110.9881001273,4,1,0,100,0,0
160292.08,-8163.19899429127,4,1,0,100,0,0
160295.52,-6249.96118774102,4,1,0,100,0,0
160298.96,-4938.24741606118,4,1,0,100,0,0
160302.4,-3999.98416006273,4,1,0,100,0,0
160305.84,-3305.77432801832,4,1,0,100,0,0
160309.28,-2777.77017286033,4,1,0,100,0,0
160312.72,-2366.85839796807,4,1,0,100,0,0
160316.16,-2040.81224324016,4,1,0,100,0,0
160319.6,-1777.77468840043,4,1,0,100,0,0
160323.04,-1562.49762109737,4,1,0,100,0,0
160326.48,-1384.08118466265,4,1,0,100,0,0
160329.92,-1234.56642646114,4,1,0,100,0,0
160333.36,-1108.03205758216,4,1,0,100,0,0
160336.8,-999.999040000921,4,1,0,100,0,0
160340.24,-907.028692037436,4,1,0,100,0,0
160343.68,-826.445631036643,4,1,0,100,0,0
160347.12,-756.143125789675,4,1,0,100,0,0
160350.56,-694.443989969433,4,1,0,100,0,0
160354,-639.99961600023,4,1,0,100,0,0
160357.44,-591.715649872383,4,1,0,100,0,0
160360.88,-548.696565872929,4,1,0,100,0,0
160364.32,-510.203841732724,4,1,0,100,0,0
160367.76,-475.624049643726,4,1,0,100,0,0
160371.2,-444.444264691431,4,1,0,100,0,0
160374.64,-416.232933930094,4,1,0,100,0,0
160378.08,-390.624863037157,4,1,0,100,0,0
160381.52,-367.309337994729,4,1,0,100,0,0
160384.96,-346.02065535617,4,1,0,100,0,0
160388.4,-326.530518683909,4,1,0,100,0,0
160391.84,-308.641892394474,4,1,0,100,0,0
160395.28,-292.184002283707,4,1,0,100,0,0
160398.72,-277.008244596052,4,1,0,100,0,0
160402.16,-262.984819727856,4,1,0,100,0,0
160405.6,-249.999947500011,4,1,0,100,0,0
160409.04,-237.953551944424,4,1,0,100,0,0
160412.48,-226.757327265911,4,1,0,100,0,0
160415.92,-216.333114909006,4,1,0,100,0,0
160419.36,-206.611535824061,4,1,0,100,0,0
160422.8,-197.530833080328,4,1,0,100,0,0
160426.24,-189.03588865106,4,1,0,100,0,0
160429.68,-181.0773850471,4,1,0,100,0,0
160433.12,-173.611087914741,4,1,0,100,0,0
160436.56,-166.597230054605,4,1,0,100,0,0
160440,-159.999980800002,4,1,0,100,0,0
160443.44,-153.786987499117,4,1,0,100,0,0
160446.88,-147.928978117014,4,1,0,100,0,0
160450.32,-142.399415820659,4,1,0,100,0,0
160453.76,-137.174197918491,4,1,0,100,0,0
160457.2,-132.231392762791,4,1,0,100,0,0
160460.64,-127.551009240942,4,1,0,100,0,0
160464.08,-123.114794322586,4,1,0,100,0,0
160467.52,-118.906054826866,4,1,0,100,0,0
160470.96,-114.909500154036,4,1,0,100,0,0
160474.4,-111.111103209877,4,1,0,100,0,0
160477.84,-107.497977156895,4,1,0,100,0,0
160481.28,-104.058265966882,4,1,0,100,0,0
160484.72,-100.781047036427,4,1,0,100,0,0
160488.16,-97.6562443695071,4,1,0,100,0,0
160491.6,-94.6745510367287,4,1,0,100,0,0
160495.04,-91.8273597954672,4,1,0,100,0,0
160498.48,-89.1067009038358,4,1,0,100,0,0
160501.92,-86.5051862884785,4,1,0,100,0,0
160505.36,-84.0159593349329,4,1,0,100,0,0
160508.8,-81.6326496626407,4,1,0,100,0,0
160512.24,-79.3493323269721,4,1,0,100,0,0
160515.68,-77.1604909598385,4,1,0,100,0,0
160519.12,-75.0609844202675,4,1,0,100,0,0
160522.56,-73.0460165780849,4,1,0,100,0,0
160526,-71.1111088987655,4,1,0,100,0,0
160529.44,-69.2520755365598,4,1,0,100,0,0
160532.88,-67.4650006770112,4,1,0,100,0,0
160536.32,-65.7462178996569,4,1,0,100,0,0
160539.76,-64.0922913576483,4,1,0,100,0,0
160543.2,-62.49999859375,4,1,0,100,0,0
160546.64,-60.96631483211,4,1,0,100,0,0
160550.08,-59.4883986027127,4,1,0,100,0,0
160553.52,-58.0635785708475,4,1,0,100,0,0
160556.96,-56.6893414575203,4,1,0,100,0,0
160560.4,-55.3633209487434,4,1,0,100,0,0
160563.84,-54.0832875022559,4,1,0,100,0,0
160567.28,-52.8471389696319,4,1,0,100,0,0
160570.72,-51.6528919600779,4,1,0,100,0,0
160574.16,-50.4986738796276,4,1,0,100,0,0
160577.6,-49.3827155860387,4,1,0,100,0,0
160581.04,-48.3033446055624,4,1,0,100,0,0
160584.48,-47.2589788629972,4,1,0,100,0,0
160587.92,-46.2481208811136,4,1,0,100,0,0
160591.36,-45.269352409717,4,1,0,100,0,0
160594.8,-44.3213294483621,4,1,0,100,0,0
160598.24,-43.4027776300878,4,1,0,100,0,0
160601.68,-42.5124879365506,4,1,0,100,0,0
160605.12,-41.6493127176463,4,1,0,100,0,0
160608.56,-40.8121619911372,4,1,0,100,0,0
160612,0.0860870426087817,4,1,0,100,1,0
160613,999999999,4,1,0,100,1,0
160869,6,4,1,0,100,1,0
160870,0.0860870426087817,4,1,0,100,1,0
160871,999999999,4,1,0,100,1,0
161128,3,4,1,0,100,1,0
161129,0.0860870426087817,4,1,0,100,1,0
161130,999999999,4,1,0,100,1,0
161386,2,4,1,0,100,1,0
161387,0.0860870426087817,4,1,0,100,1,0
161388,999999999,4,1,0,100,1,0
161645,1.5,4,1,0,100,1,0
161646,0.0860870426087817,4,1,0,100,1,0
161647,344.827586206897,4,1,0,100,1,0
161647,-1000000000,4,1,0,100,0,0
161650.44,-399840.079961618,4,1,0,100,0,0
161653.88,-99990.0049991003,4,1,0,100,0,0
161657.32,-44442.4710012099,4,1,0,100,0,0
161660.76,-24999.3760155746,4,1,0,100,0,0
161664.2,-15999.7446440755,4,1,0,100,0,0
161667.64,-11110.9881001273,4,1,0,100,0,0
161671.08,-8163.19899429127,4,1,0,100,0,0
161674.52,-6249.96118774102,4,1,0,100,0,0
161677.96,-4938.24741606118,4,1,0,100,0,0
161681.4,-3999.98416006273,4,1,0,100,0,0
161684.84,-3305.77432801832,4,1,0,100,0,0
161688.28,-2777.77017286033,4,1,0,100,0,0
161691.72,-2366.85839796807,4,1,0,100,0,0
161695.16,-2040.81224324016,4,1,0,100,0,0
161698.6,-1777.77468840043,4,1,0,100,0,0
161702.04,-1562.49762109737,4,1,0,100,0,0
161705.48,-1384.08118466265,4,1,0,100,0,0
161708.92,-1234.56642646114,4,1,0,100,0,0
161712.36,-1108.03205758216,4,1,0,100,0,0
161715.8,-999.999040000921,4,1,0,100,0,0
161719.24,-907.028692037436,4,1,0,100,0,0
161722.68,-826.445631036643,4,1,0,100,0,0
161726.12,-756.143125789675,4,1,0,100,0,0
161729.56,-694.443989969433,4,1,0,100,0,0
161733,-639.99961600023,4,1,0,100,0,0
161736.44,-591.715649872383,4,1,0,100,0,0
161739.88,-548.696565872929,4,1,0,100,0,0
161743.32,-510.203841732724,4,1,0,100,0,0
161746.76,-475.624049643726,4,1,0,100,0,0
161750.2,-444.444264691431,4,1,0,100,0,0
161753.64,-416.232933930094,4,1,0,100,0,0
161757.08,-390.624863037157,4,1,0,100,0,0
161760.52,-367.309337994729,4,1,0,100,0,0
161763.96,-346.02065535617,4,1,0,100,0,0
161767.4,-326.530518683909,4,1,0,100,0,0
161770.84,-308.641892394474,4,1,0,100,0,0
161774.28,-292.184002283707,4,1,0,100,0,0
161777.72,-277.008244596052,4,1,0,100,0,0
161781.16,-262.984819727856,4,1,0,100,0,0
161784.6,-249.999947500011,4,1,0,100,0,0
161788.04,-237.953551944424,4,1,0,100,0,0
161791.48,-226.757327265911,4,1,0,100,0,0
161794.92,-216.333114909006,4,1,0,100,0,0
161798.36,-206.611535824061,4,1,0,100,0,0
161801.8,-197.530833080328,4,1,0,100,0,0
161805.24,-189.03588865106,4,1,0,100,0,0
161808.68,-181.0773850471,4,1,0,100,0,0
161812.12,-173.611087914741,4,1,0,100,0,0
161815.56,-166.597230054605,4,1,0,100,0,0
161819,-159.999980800002,4,1,0,100,0,0
161822.44,-153.786987499117,4,1,0,100,0,0
161825.88,-147.928978117014,4,1,0,100,0,0
161829.32,-142.399415820659,4,1,0,100,0,0
161832.76,-137.174197918491,4,1,0,100,0,0
161836.2,-132.231392762791,4,1,0,100,0,0
161839.64,-127.551009240942,4,1,0,100,0,0
161843.08,-123.114794322586,4,1,0,100,0,0
161846.52,-118.906054826866,4,1,0,100,0,0
161849.96,-114.909500154036,4,1,0,100,0,0
161853.4,-111.111103209877,4,1,0,100,0,0
161856.84,-107.497977156895,4,1,0,100,0,0
161860.28,-104.058265966882,4,1,0,100,0,0
161863.72,-100.781047036427,4,1,0,100,0,0
161867.16,-97.6562443695071,4,1,0,100,0,0
161870.6,-94.6745510367287,4,1,0,100,0,0
161874.04,-91.8273597954672,4,1,0,100,0,0
161877.48,-89.1067009038358,4,1,0,100,0,0
161880.92,-86.5051862884785,4,1,0,100,0,0
161884.36,-84.0159593349329,4,1,0,100,0,0
161887.8,-81.6326496626407,4,1,0,100,0,0
161891.24,-79.3493323269721,4,1,0,100,0,0
161894.68,-77.1604909598385,4,1,0,100,0,0
161898.12,-75.0609844202675,4,1,0,100,0,0
161901.56,-73.0460165780849,4,1,0,100,0,0
161905,-71.1111088987655,4,1,0,100,0,0
161908.44,-69.2520755365598,4,1,0,100,0,0
161911.88,-67.4650006770112,4,1,0,100,0,0
161915.32,-65.7462178996569,4,1,0,100,0,0
161918.76,-64.0922913576483,4,1,0,100,0,0
161922.2,-62.49999859375,4,1,0,100,0,0
161925.64,-60.96631483211,4,1,0,100,0,0
161929.08,-59.4883986027127,4,1,0,100,0,0
161932.52,-58.0635785708475,4,1,0,100,0,0
161935.96,-56.6893414575203,4,1,0,100,0,0
161939.4,-55.3633209487434,4,1,0,100,0,0
161942.84,-54.0832875022559,4,1,0,100,0,0
161946.28,-52.8471389696319,4,1,0,100,0,0
161949.72,-51.6528919600779,4,1,0,100,0,0
161953.16,-50.4986738796276,4,1,0,100,0,0
161956.6,-49.3827155860387,4,1,0,100,0,0
161960.04,-48.3033446055624,4,1,0,100,0,0
161963.48,-47.2589788629972,4,1,0,100,0,0
161966.92,-46.2481208811136,4,1,0,100,0,0
161970.36,-45.269352409717,4,1,0,100,0,0
161973.8,-44.3213294483621,4,1,0,100,0,0
161977.24,-43.4027776300878,4,1,0,100,0,0
161980.68,-42.5124879365506,4,1,0,100,0,0
161984.12,-41.6493127176463,4,1,0,100,0,0
161987.56,-40.8121619911372,4,1,0,100,0,0
161991,0.0860870426087817,4,1,0,100,1,0
161992,344.827586206897,4,1,0,100,1,0
163370,344.827586206897,4,1,0,100,1,0
174408,-100,4,1,0,100,0,1
185270,-100,4,1,0,100,0,0
185443,-100,4,1,0,100,0,1
196477,-100,4,1,0,100,0,0
201994,-100,4,1,0,100,0,1
202081,-100,4,1,0,100,0,0
202684,-100,4,1,0,100,0,1
202770,-100,4,1,0,100,0,0
203374,-100,4,1,0,100,0,1
203460,-100,4,1,0,100,0,0
204753,-100,4,1,0,100,0,1
212943,-100,4,1,0,100,0,0
213029,-100,4,1,0,100,0,1
223977,-100,4,1,0,100,0,0
224063,-100,4,1,0,100,0,1
235012,-100,4,1,0,100,0,0
235098,-100,4,1,0,100,0,1
246132,-100,4,1,0,100,0,0

[HitObjects]
192,192,617,5,0,0:0:0:0:
192,192,789,1,0,0:0:0:0:
320,192,961,1,0,0:0:0:0:
320,192,1220,1,0,0:0:0:0:
192,192,1306,1,0,0:0:0:0:
320,192,1392,1,0,0:0:0:0:
192,192,1479,1,0,0:0:0:0:
320,192,1651,1,0,0:0:0:0:
320,192,1910,1,0,0:0:0:0:
64,192,1996,1,0,0:0:0:0:
64,192,2168,1,0,0:0:0:0:
448,192,2341,1,0,0:0:0:0:
448,192,2599,1,0,0:0:0:0:
64,192,2685,1,0,0:0:0:0:
448,192,2772,1,0,0:0:0:0:
64,192,2858,1,0,0:0:0:0:
448,192,3030,1,0,0:0:0:0:
448,192,3289,1,0,0:0:0:0:
320,192,3375,5,0,0:0:0:0:
192,192,3375,1,0,0:0:0:0:
448,192,4063,5,0,0:0:0:0:
64,192,4063,1,0,0:0:0:0:
320,192,4753,5,0,0:0:0:0:
64,192,4753,1,0,0:0:0:0:
448,192,5442,5,0,0:0:0:0:
192,192,5442,1,0,0:0:0:0:
64,192,6134,1,0,0:0:0:0:
192,192,6134,1,0,0:0:0:0:
64,192,6478,1,0,0:0:0:0:
448,192,6478,1,0,0:0:0:0:
64,192,6651,1,0,0:0:0:0:
448,192,6651,1,0,0:0:0:0:
192,192,6823,1,0,0:0:0:0:
320,192,6823,1,0,0:0:0:0:
192,192,7168,1,0,0:0:0:0:
64,192,7168,1,0,0:0:0:0:
192,192,7340,1,0,0:0:0:0:
64,192,7340,1,0,0:0:0:0:
448,192,7513,1,0,0:0:0:0:
320,192,7513,1,0,0:0:0:0:
320,192,7858,1,0,0:0:0:0:
192,192,7858,1,0,0:0:0:0:
192,192,8030,1,0,0:0:0:0:
320,192,8030,1,0,0:0:0:0:
448,192,8202,1,0,0:0:0:0:
64,192,8202,1,0,0:0:0:0:
320,192,8547,1,0,0:0:0:0:
448,192,8547,1,0,0:0:0:0:
320,192,8720,1,0,0:0:0:0:
448,192,8720,1,0,0:0:0:0:
192,192,8892,1,0,0:0:0:0:
64,192,8892,1,0,0:0:0:0:
320,192,9064,1,0,0:0:0:0:
64,192,9236,1,0,0:0:0:0:
448,192,9236,1,0,0:0:0:0:
320,192,9409,1,0,0:0:0:0:
192,192,9495,1,0,0:0:0:0:
64,192,9581,1,0,0:0:0:0:
448,192,9581,1,0,0:0:0:0:
192,192,9754,1,0,0:0:0:0:
320,192,9926,1,0,0:0:0:0:
448,192,9926,1,0,0:0:0:0:
64,192,10098,1,0,0:0:0:0:
448,192,10271,1,0,0:0:0:0:
320,192,10615,1,0,0:0:0:0:
192,192,10960,1,0,0:0:0:0:
64,192,11305,128,0,11995:0:0:0:0:
320,192,11651,1,0,0:0:0:0:
448,192,11651,1,0,0:0:0:0:
448,192,11823,1,0,0:0:0:0:
192,192,11995,1,0,0:0:0:0:
320,192,11995,128,0,12340:0:0:0:0:
64,192,12168,1,0,0:0:0:0:
448,192,12254,1,0,0:0:0:0:
192,192,12340,128,0,12513:0:0:0:0:
64,192,12340,1,0,0:0:0:0:
448,192,12426,1,0,0:0:0:0:
320,192,12513,128,0,12857:0:0:0:0:
64,192,12513,1,0,0:0:0:0:
192,192,12685,1,0,0:0:0:0:
448,192,12685,1,0,0:0:0:0:
64,192,12857,128,0,13202:0:0:0:0:
448,192,12857,1,0,0:0:0:0:
320,192,12944,1,0,0:0:0:0:
192,192,13030,1,0,0:0:0:0:
448,192,13030,1,0,0:0:0:0:
320,192,13202,128,0,13547:0:0:0:0:
448,192,13202,1,0,0:0:0:0:
64,192,13375,1,0,0:0:0:0:
192,192,13375,1,0,0:0:0:0:
448,192,13547,128,0,13892:0:0:0:0:
192,192,13547,1,0,0:0:0:0:
64,192,13633,1,0,0:0:0:0:
192,192,13719,1,0,0:0:0:0:
320,192,13719,1,0,0:0:0:0:
64,192,13806,1,0,0:0:0:0:
192,192,13892,1,0,0:0:0:0:
320,192,13892,128,0,14064:0:0:0:0:
192,192,14064,128,0,14237:0:0:0:0:
448,192,14064,1,0,0:0:0:0:
64,192,14237,128,0,14409:0:0:0:0:
448,192,14323,1,0,0:0:0:0:
320,192,14409,128,0,14754:0:0:0:0:
192,192,14409,1,0,0:0:0:0:
192,192,14582,1,0,0:0:0:0:
64,192,14582,1,0,0:0:0:0:
448,192,14754,128,0,15099:0:0:0:0:
64,192,14754,1,0,0:0:0:0:
192,192,14926,1,0,0:0:0:0:
320,192,15013,1,0,0:0:0:0:
192,192,15099,128,0,15271:0:0:0:0:
64,192,15099,1,0,0:0:0:0:
320,192,15185,1,0,0:0:0:0:
64,192,15271,1,0,0:0:0:0:
448,192,15271,128,0,15616:0:0:0:0:
320,192,15444,1,0,0:0:0:0:
192,192,15444,1,0,0:0:0:0:
64,192,15616,128,0,15961:0:0:0:0:
192,192,15702,1,0,0:0:0:0:
320,192,15788,1,0,0:0:0:0:
448,192,15788,1,0,0:0:0:0:
192,192,15961,128,0,16306:0:0:0:0:
448,192,15961,1,0,0:0:0:0:
64,192,16133,1,0,0:0:0:0:
320,192,16133,1,0,0:0:0:0:
64,192,16306,128,0,16651:0:0:0:0:
448,192,16306,1,0,0:0:0:0:
192,192,16392,1,0,0:0:0:0:
320,192,16478,1,0,0:0:0:0:
448,192,16478,1,0,0:0:0:0:
192,192,16564,1,0,0:0:0:0:
320,192,16651,1,0,0:0:0:0:
448,192,16651,128,0,16823:0:0:0:0:
320,192,16823,128,0,16995:0:0:0:0:
64,192,16823,1,0,0:0:0:0:
192,192,16995,128,0,17168:0:0:0:0:
448,192,17082,1,0,0:0:0:0:
64,192,17168,128,0,17513:0:0:0:0:
320,192,17168,1,0,0:0:0:0:
320,192,17340,1,0,0:0:0:0:
192,192,17340,1,0,0:0:0:0:
448,192,17513,128,0,17857:0:0:0:0:
192,192,17513,1,0,0:0:0:0:
320,192,17685,1,0,0:0:0:0:
64,192,17771,1,0,0:0:0:0:
320,192,17857,128,0,18030:0:0:0:0:
192,192,17857,1,0,0:0:0:0:
64,192,17944,1,0,0:0:0:0:
448,192,18030,128,0,18375:0:0:0:0:
192,192,18030,1,0,0:0:0:0:
320,192,18202,1,0,0:0:0:0:
64,192,18202,1,0,0:0:0:0:
64,192,18375,128,0,18719:0:0:0:0:
448,192,18461,1,0,0:0:0:0:
192,192,18547,1,0,0:0:0:0:
320,192,18547,1,0,0:0:0:0:
320,192,18719,128,0,18892:0:0:0:0:
448,192,18719,1,0,0:0:0:0:
192,192,18892,128,0,19064:0:0:0:0:
448,192,18892,1,0,0:0:0:0:
320,192,19064,128,0,19409:0:0:0:0:
64,192,19064,1,0,0:0:0:0:
448,192,19151,1,0,0:0:0:0:
192,192,19237,1,0,0:0:0:0:
64,192,19237,1,0,0:0:0:0:
448,192,19323,1,0,0:0:0:0:
64,192,19409,1,0,0:0:0:0:
192,192,19409,128,0,19582:0:0:0:0:
448,192,19582,128,0,19754:0:0:0:0:
320,192,19582,1,0,0:0:0:0:
64,192,19754,128,0,19926:0:0:0:0:
448,192,19840,1,0,0:0:0:0:
320,192,19926,128,0,20271:0:0:0:0:
192,192,19926,1,0,0:0:0:0:
192,192,20099,1,0,0:0:0:0:
448,192,20099,1,0,0:0:0:0:
64,192,20271,128,0,20616:0:0:0:0:
448,192,20271,1,0,0:0:0:0:
192,192,20444,1,0,0:0:0:0:
320,192,20530,1,0,0:0:0:0:
448,192,20616,128,0,20788:0:0:0:0:
192,192,20616,1,0,0:0:0:0:
320,192,20702,1,0,0:0:0:0:
192,192,20788,128,0,21133:0:0:0:0:
64,192,20788,1,0,0:0:0:0:
320,192,20961,1,0,0:0:0:0:
448,192,20961,1,0,0:0:0:0:
320,192,21133,128,0,21478:0:0:0:0:
64,192,21219,1,0,0:0:0:0:
192,192,21306,1,0,0:0:0:0:
448,192,21306,1,0,0:0:0:0:
64,192,21478,128,0,21651:0:0:0:0:
448,192,21564,1,0,0:0:0:0:
192,192,21651,128,0,21823:0:0:0:0:
320,192,21651,1,0,0:0:0:0:
64,192,21737,1,0,0:0:0:0:
448,192,21823,128,0,22168:0:0:0:0:
320,192,21909,1,0,0:0:0:0:
64,192,21995,1,0,0:0:0:0:
192,192,22082,1,0,0:0:0:0:
320,192,22168,128,0,22340:0:0:0:0:
64,192,22168,1,0,0:0:0:0:
192,192,22340,128,0,22513:0:0:0:0:
448,192,22340,1,0,0:0:0:0:
320,192,22426,1,0,0:0:0:0:
64,192,22513,128,0,22685:0:0:0:0:
448,192,22599,1,0,0:0:0:0:
320,192,22685,1,0,0:0:0:0:
192,192,22685,1,0,0:0:0:0:
448,192,22685,1,0,0:0:0:0:
192,192,22857,1,0,0:0:0:0:
64,192,22857,1,0,0:0:0:0:
320,192,22943,1,0,0:0:0:0:
448,192,22943,1,0,0:0:0:0:
192,192,23029,1,0,0:0:0:0:
64,192,23029,1,0,0:0:0:0:
64,192,23202,1,0,0:0:0:0:
320,192,23202,1,0,0:0:0:0:
448,192,23202,1,0,0:0:0:0:
320,192,23546,128,0,23718:0:0:0:0:
192,192,23718,128,0,23890:0:0:0:0:
64,192,24064,1,0,0:0:0:0:
192,192,24064,1,0,0:0:0:0:
448,192,24064,1,0,0:0:0:0:
320,192,24236,1,0,0:0:0:0:
192,192,24236,1,0,0:0:0:0:
64,192,24322,1,0,0:0:0:0:
448,192,24322,1,0,0:0:0:0:
320,192,24408,1,0,0:0:0:0:
192,192,24408,1,0,0:0:0:0:
320,192,24581,1,0,0:0:0:0:
448,192,24581,1,0,0:0:0:0:
64,192,24581,128,0,24925:0:0:0:0:
448,192,24753,128,0,24925:0:0:0:0:
192,192,24925,128,0,25097:0:0:0:0:
320,192,25097,128,0,25269:0:0:0:0:
448,192,25269,128,0,25444:0:0:0:0:
320,192,25444,1,0,0:0:0:0:
192,192,25444,1,0,0:0:0:0:
64,192,25444,1,0,0:0:0:0:
192,192,25616,1,0,0:0:0:0:
64,192,25616,1,0,0:0:0:0:
320,192,25702,1,0,0:0:0:0:
448,192,25702,1,0,0:0:0:0:
192,192,25788,1,0,0:0:0:0:
64,192,25788,1,0,0:0:0:0:
192,192,25961,1,0,0:0:0:0:
320,192,25961,1,0,0:0:0:0:
448,192,25961,128,0,26305:0:0:0:0:
192,192,26305,128,0,26477:0:0:0:0:
320,192,26477,128,0,26649:0:0:0:0:
64,192,26649,128,0,26823:0:0:0:0:
320,192,26823,1,0,0:0:0:0:
192,192,26823,1,0,0:0:0:0:
448,192,26823,1,0,0:0:0:0:
64,192,26995,1,0,0:0:0:0:
192,192,26995,1,0,0:0:0:0:
320,192,27167,1,0,0:0:0:0:
64,192,27167,1,0,0:0:0:0:
448,192,27167,1,0,0:0:0:0:
320,192,27340,1,0,0:0:0:0:
192,192,27340,1,0,0:0:0:0:
64,192,27512,1,0,0:0:0:0:
448,192,27512,1,0,0:0:0:0:
192,192,27512,1,0,0:0:0:0:
448,192,27685,1,0,0:0:0:0:
320,192,27685,1,0,0:0:0:0:
64,192,27857,1,0,0:0:0:0:
192,192,27857,1,0,0:0:0:0:
320,192,27857,1,0,0:0:0:0:
448,192,28029,1,0,0:0:0:0:
192,192,28202,1,0,0:0:0:0:
64,192,28202,1,0,0:0:0:0:
448,192,28202,1,0,0:0:0:0:
320,192,28374,1,0,0:0:0:0:
192,192,28374,1,0,0:0:0:0:
64,192,28460,1,0,0:0:0:0:
448,192,28460,1,0,0:0:0:0:
320,192,28547,1,0,0:0:0:0:
192,192,28547,1,0,0:0:0:0:
64,192,28719,1,0,0:0:0:0:
320,192,28719,1,0,0:0:0:0:
448,192,28719,1,0,0:0:0:0:
192,192,28891,128,0,29063:0:0:0:0:
448,192,29063,128,0,29235:0:0:0:0:
320,192,29235,128,0,29407:0:0:0:0:
64,192,29581,1,0,0:0:0:0:
320,192,29581,1,0,0:0:0:0:
192,192,29581,1,0,0:0:0:0:
448,192,29753,1,0,0:0:0:0:
64,192,29753,1,0,0:0:0:0:
192,192,29839,1,0,0:0:0:0:
320,192,29839,1,0,0:0:0:0:
448,192,29925,1,0,0:0:0:0:
64,192,29925,1,0,0:0:0:0:
192,192,30098,1,0,0:0:0:0:
320,192,30098,1,0,0:0:0:0:
448,192,30098,1,0,0:0:0:0:
64,192,30270,1,0,0:0:0:0:
448,192,30356,1,0,0:0:0:0:
64,192,30442,1,0,0:0:0:0:
448,192,30528,1,0,0:0:0:0:
64,192,30614,1,0,0:0:0:0:
448,192,30700,1,0,0:0:0:0:
64,192,30786,1,0,0:0:0:0:
448,192,30872,1,0,0:0:0:0:
192,192,30961,1,0,0:0:0:0:
64,192,30961,1,0,0:0:0:0:
320,192,30961,1,0,0:0:0:0:
448,192,31133,1,0,0:0:0:0:
320,192,31133,1,0,0:0:0:0:
192,192,31219,1,0,0:0:0:0:
64,192,31219,1,0,0:0:0:0:
320,192,31305,1,0,0:0:0:0:
448,192,31305,1,0,0:0:0:0:
192,192,31478,1,0,0:0:0:0:
64,192,31478,1,0,0:0:0:0:
448,192,31478,1,0,0:0:0:0:
192,192,31908,1,0,0:0:0:0:
320,192,31994,1,0,0:0:0:0:
448,192,32166,1,0,0:0:0:0:
320,192,32340,1,0,0:0:0:0:
192,192,32340,1,0,0:0:0:0:
64,192,32340,1,0,0:0:0:0:
320,192,32512,1,0,0:0:0:0:
448,192,32512,1,0,0:0:0:0:
192,192,32684,1,0,0:0:0:0:
64,192,32684,1,0,0:0:0:0:
448,192,32684,1,0,0:0:0:0:
320,192,32857,1,0,0:0:0:0:
192,192,32857,1,0,0:0:0:0:
64,192,33029,1,0,0:0:0:0:
320,192,33029,1,0,0:0:0:0:
448,192,33029,1,0,0:0:0:0:
192,192,33202,1,0,0:0:0:0:
64,192,33202,1,0,0:0:0:0:
192,192,33374,1,0,0:0:0:0:
320,192,33374,1,0,0:0:0:0:
448,192,33374,1,0,0:0:0:0:
448,192,33546,1,0,0:0:0:0:
320,192,33633,1,0,0:0:0:0:
192,192,33719,1,0,0:0:0:0:
64,192,33719,1,0,0:0:0:0:
448,192,33719,1,0,0:0:0:0:
320,192,33891,1,0,0:0:0:0:
64,192,34064,1,0,0:0:0:0:
448,192,34064,1,0,0:0:0:0:
192,192,34150,1,0,0:0:0:0:
64,192,34236,1,0,0:0:0:0:
320,192,34236,1,0,0:0:0:0:
448,192,34408,1,0,0:0:0:0:
192,192,34581,1,0,0:0:0:0:
64,192,34581,1,0,0:0:0:0:
320,192,34667,1,0,0:0:0:0:
192,192,34753,1,0,0:0:0:0:
448,192,34753,1,0,0:0:0:0:
64,192,34840,1,0,0:0:0:0:
320,192,34926,1,0,0:0:0:0:
192,192,35012,1,0,0:0:0:0:
448,192,35098,1,0,0:0:0:0:
64,192,35098,1,0,0:0:0:0:
320,192,35184,1,0,0:0:0:0:
192,192,35271,1,0,0:0:0:0:
320,192,35357,1,0,0:0:0:0:
448,192,35357,1,0,0:0:0:0:
192,192,35443,1,0,0:0:0:0:
64,192,35443,1,0,0:0:0:0:
448,192,35615,1,0,0:0:0:0:
64,192,35615,1,0,0:0:0:0:
320,192,35702,1,0,0:0:0:0:
192,192,35788,1,0,0:0:0:0:
448,192,35874,1,0,0:0:0:0:
64,192,35960,1,0,0:0:0:0:
192,192,35960,1,0,0:0:0:0:
320,192,36046,1,0,0:0:0:0:
64,192,36133,1,0,0:0:0:0:
448,192,36133,1,0,0:0:0:0:
192,192,36219,1,0,0:0:0:0:
320,192,36305,1,0,0:0:0:0:
64,192,36477,1,0,0:0:0:0:
448,192,36477,1,0,0:0:0:0:
192,192,36564,1,0,0:0:0:0:
64,192,36650,1,0,0:0:0:0:
320,192,36736,1,0,0:0:0:0:
192,192,36822,1,0,0:0:0:0:
448,192,36822,1,0,0:0:0:0:
320,192,36908,1,0,0:0:0:0:
64,192,36995,1,0,0:0:0:0:
192,192,36995,1,0,0:0:0:0:
448,192,37081,1,0,0:0:0:0:
320,192,37167,1,0,0:0:0:0:
64,192,37253,1,0,0:0:0:0:
320,192,37340,1,0,0:0:0:0:
448,192,37340,1,0,0:0:0:0:
64,192,37426,1,0,0:0:0:0:
192,192,37512,1,0,0:0:0:0:
448,192,37512,1,0,0:0:0:0:
320,192,37598,1,0,0:0:0:0:
64,192,37684,1,0,0:0:0:0:
192,192,37771,1,0,0:0:0:0:
320,192,37857,1,0,0:0:0:0:
448,192,37857,1,0,0:0:0:0:
64,192,38029,128,0,38805:0:0:0:0:
192,192,38029,128,0,38115:0:0:0:0:
320,192,38115,128,0,38202:0:0:0:0:
192,192,38202,128,0,38460:0:0:0:0:
448,192,38202,128,0,38288:0:0:0:0:
320,192,38374,128,0,38460:0:0:0:0:
448,192,38374,128,0,38633:0:0:0:0:
192,192,38546,128,0,38633:0:0:0:0:
320,192,38719,128,0,38805:0:0:0:0:
448,192,38719,128,0,38891:0:0:0:0:
192,192,38805,128,0,38891:0:0:0:0:
64,192,38891,128,0,39150:0:0:0:0:
320,192,38891,128,0,39150:0:0:0:0:
192,192,39064,128,0,39236:0:0:0:0:
448,192,39064,128,0,39236:0:0:0:0:
64,192,39236,1,0,0:0:0:0:
320,192,39236,1,0,0:0:0:0:
448,192,39408,1,0,0:0:0:0:
320,192,39495,1,0,0:0:0:0:
192,192,39581,1,0,0:0:0:0:
64,192,39581,1,0,0:0:0:0:
320,192,39667,1,0,0:0:0:0:
64,192,39753,1,0,0:0:0:0:
448,192,39753,1,0,0:0:0:0:
192,192,39840,1,0,0:0:0:0:
320,192,39926,1,0,0:0:0:0:
192,192,40098,1,0,0:0:0:0:
448,192,40098,1,0,0:0:0:0:
64,192,40184,1,0,0:0:0:0:
320,192,40271,1,0,0:0:0:0:
448,192,40271,1,0,0:0:0:0:
192,192,40357,1,0,0:0:0:0:
320,192,40443,1,0,0:0:0:0:
192,192,40529,1,0,0:0:0:0:
64,192,40615,1,0,0:0:0:0:
320,192,40615,1,0,0:0:0:0:
448,192,40702,1,0,0:0:0:0:
64,192,40788,1,0,0:0:0:0:
448,192,40874,1,0,0:0:0:0:
320,192,40874,1,0,0:0:0:0:
192,192,40960,1,0,0:0:0:0:
64,192,40960,1,0,0:0:0:0:
320,192,41133,1,0,0:0:0:0:
192,192,41133,1,0,0:0:0:0:
448,192,41305,128,0,41650:0:0:0:0:
320,192,41477,1,0,0:0:0:0:
192,192,41477,1,0,0:0:0:0:
64,192,41650,128,0,41995:0:0:0:0:
320,192,41650,1,0,0:0:0:0:
192,192,41822,1,0,0:0:0:0:
448,192,41822,1,0,0:0:0:0:
320,192,41995,1,0,0:0:0:0:
448,192,41995,1,0,0:0:0:0:
192,192,42081,1,0,0:0:0:0:
448,192,42167,1,0,0:0:0:0:
64,192,42253,1,0,0:0:0:0:
192,192,42340,1,0,0:0:0:0:
320,192,42340,1,0,0:0:0:0:
64,192,42512,1,0,0:0:0:0:
192,192,42512,1,0,0:0:0:0:
320,192,42598,1,0,0:0:0:0:
448,192,42684,1,0,0:0:0:0:
320,192,42771,1,0,0:0:0:0:
448,192,42857,1,0,0:0:0:0:
192,192,42857,1,0,0:0:0:0:
64,192,42943,1,0,0:0:0:0:
192,192,43029,1,0,0:0:0:0:
320,192,43029,1,0,0:0:0:0:
64,192,43115,1,0,0:0:0:0:
448,192,43202,1,0,0:0:0:0:
320,192,43288,1,0,0:0:0:0:
64,192,43374,1,0,0:0:0:0:
320,192,43719,1,0,0:0:0:0:
448,192,43719,128,0,44064:0:0:0:0:
320,192,44064,128,0,44408:0:0:0:0:
192,192,44064,1,0,0:0:0:0:
192,192,44408,128,0,44752:0:0:0:0:
64,192,44408,1,0,0:0:0:0:
64,192,44752,1,0,0:0:0:0:
320,192,44752,128,0,44926:0:0:0:0:
448,192,44752,128,0,44926:0:0:0:0:
192,192,45012,128,0,45185:0:0:0:0:
448,192,45012,128,0,45185:0:0:0:0:
64,192,45271,128,0,45357:0:0:0:0:
320,192,45271,128,0,45357:0:0:0:0:
192,192,45443,128,0,45616:0:0:0:0:
448,192,45443,128,0,45616:0:0:0:0:
192,192,45702,128,0,45874:0:0:0:0:
320,192,45702,128,0,45874:0:0:0:0:
64,192,45960,128,0,46047:0:0:0:0:
192,192,45960,128,0,46047:0:0:0:0:
320,192,46133,128,0,46305:0:0:0:0:
448,192,46133,128,0,46305:0:0:0:0:
64,192,46391,128,0,46564:0:0:0:0:
448,192,46391,128,0,46564:0:0:0:0:
192,192,46650,128,0,46736:0:0:0:0:
448,192,46650,128,0,46736:0:0:0:0:
64,192,46822,128,0,46995:0:0:0:0:
320,192,46822,128,0,46995:0:0:0:0:
448,192,47167,128,0,47512:0:0:0:0:
192,192,47167,128,0,47512:0:0:0:0:
320,192,47685,128,0,47943:0:0:0:0:
448,192,47685,128,0,47943:0:0:0:0:
192,192,48029,128,0,48116:0:0:0:0:
64,192,48029,128,0,48116:0:0:0:0:
320,192,48202,128,0,48374:0:0:0:0:
448,192,48202,128,0,48374:0:0:0:0:
192,192,48460,128,0,48633:0:0:0:0:
448,192,48460,128,0,48633:0:0:0:0:
64,192,48719,128,0,48805:0:0:0:0:
448,192,48719,128,0,48805:0:0:0:0:
192,192,48891,128,0,49064:0:0:0:0:
320,192,48891,128,0,49064:0:0:0:0:
192,192,49150,128,0,49322:0:0:0:0:
64,192,49150,128,0,49322:0:0:0:0:
448,192,49409,128,0,49495:0:0:0:0:
192,192,49409,128,0,49495:0:0:0:0:
64,192,49581,128,0,49754:0:0:0:0:
320,192,49581,128,0,49754:0:0:0:0:
448,192,49926,128,0,50271:0:0:0:0:
320,192,49926,128,0,50271:0:0:0:0:
192,192,50443,128,0,50616:0:0:0:0:
64,192,50443,128,0,50616:0:0:0:0:
320,192,50788,1,0,0:0:0:0:
448,192,50788,1,0,0:0:0:0:
64,192,50960,1,0,0:0:0:0:
448,192,50960,1,0,0:0:0:0:
192,192,50960,1,0,0:0:0:0:
192,192,51133,1,0,0:0:0:0:
320,192,51133,1,0,0:0:0:0:
64,192,51305,1,0,0:0:0:0:
320,192,51305,1,0,0:0:0:0:
448,192,51305,1,0,0:0:0:0:
192,192,51478,1,0,0:0:0:0:
64,192,51478,1,0,0:0:0:0:
192,192,51650,1,0,0:0:0:0:
320,192,51650,1,0,0:0:0:0:
448,192,51650,1,0,0:0:0:0:
64,192,51822,1,0,0:0:0:0:
64,192,51994,1,0,0:0:0:0:
320,192,51994,1,0,0:0:0:0:
448,192,51994,1,0,0:0:0:0:
448,192,52167,1,0,0:0:0:0:
192,192,52167,1,0,0:0:0:0:
320,192,52339,1,0,0:0:0:0:
192,192,52339,1,0,0:0:0:0:
64,192,52339,1,0,0:0:0:0:
64,192,52512,1,0,0:0:0:0:
320,192,52512,1,0,0:0:0:0:
192,192,52684,1,0,0:0:0:0:
320,192,52684,1,0,0:0:0:0:
448,192,52684,1,0,0:0:0:0:
64,192,52856,1,0,0:0:0:0:
192,192,53029,1,0,0:0:0:0:
64,192,53029,1,0,0:0:0:0:
448,192,53029,1,0,0:0:0:0:
320,192,53201,1,0,0:0:0:0:
448,192,53201,1,0,0:0:0:0:
192,192,53374,1,0,0:0:0:0:
320,192,53374,1,0,0:0:0:0:
448,192,53374,1,0,0:0:0:0:
320,192,53546,1,0,0:0:0:0:
64,192,53546,1,0,0:0:0:0:
192,192,53718,1,0,0:0:0:0:
64,192,53718,1,0,0:0:0:0:
448,192,53718,1,0,0:0:0:0:
320,192,53891,1,0,0:0:0:0:
448,192,53891,1,0,0:0:0:0:
320,192,54063,1,0,0:0:0:0:
64,192,54063,1,0,0:0:0:0:
448,192,54063,1,0,0:0:0:0:
192,192,54236,1,0,0:0:0:0:
64,192,54236,1,0,0:0:0:0:
192,192,54408,1,0,0:0:0:0:
64,192,54408,1,0,0:0:0:0:
448,192,54408,1,0,0:0:0:0:
192,192,54581,1,0,0:0:0:0:
320,192,54581,1,0,0:0:0:0:
64,192,54753,1,0,0:0:0:0:
320,192,54753,1,0,0:0:0:0:
448,192,54753,1,0,0:0:0:0:
320,192,54925,1,0,0:0:0:0:
192,192,54925,1,0,0:0:0:0:
192,192,55098,1,0,0:0:0:0:
64,192,55098,1,0,0:0:0:0:
448,192,55098,1,0,0:0:0:0:
448,192,55270,1,0,0:0:0:0:
320,192,55270,1,0,0:0:0:0:
64,192,55270,1,0,0:0:0:0:
192,192,55270,1,0,0:0:0:0:
320,192,55443,1,0,0:0:0:0:
64,192,55443,1,0,0:0:0:0:
448,192,55443,1,0,0:0:0:0:
448,192,55615,1,0,0:0:0:0:
320,192,55615,1,0,0:0:0:0:
64,192,55615,1,0,0:0:0:0:
192,192,55615,1,0,0:0:0:0:
448,192,55787,1,0,0:0:0:0:
320,192,55787,128,0,55959:0:0:0:0:
64,192,55787,128,0,55959:0:0:0:0:
192,192,55787,1,0,0:0:0:0:
192,192,56045,128,0,56218:0:0:0:0:
64,192,56045,128,0,56218:0:0:0:0:
448,192,56304,128,0,56390:0:0:0:0:
320,192,56304,128,0,56390:0:0:0:0:
192,192,56476,128,0,56649:0:0:0:0:
64,192,56476,128,0,56649:0:0:0:0:
192,192,56735,128,0,56907:0:0:0:0:
320,192,56735,128,0,56907:0:0:0:0:
448,192,56993,128,0,57080:0:0:0:0:
192,192,56993,128,0,57080:0:0:0:0:
320,192,57166,128,0,57338:0:0:0:0:
64,192,57166,128,0,57338:0:0:0:0:
448,192,57424,128,0,57597:0:0:0:0:
64,192,57424,128,0,57597:0:0:0:0:
192,192,57683,128,0,57769:0:0:0:0:
64,192,57683,128,0,57769:0:0:0:0:
448,192,57855,128,0,58028:0:0:0:0:
320,192,57855,128,0,58028:0:0:0:0:
64,192,58200,128,0,58545:0:0:0:0:
192,192,58200,128,0,58545:0:0:0:0:
320,192,58718,128,0,58976:0:0:0:0:
64,192,58718,128,0,58976:0:0:0:0:
192,192,59062,128,0,59149:0:0:0:0:
448,192,59062,128,0,59149:0:0:0:0:
320,192,59235,128,0,59407:0:0:0:0:
64,192,59235,128,0,59407:0:0:0:0:
192,192,59493,128,0,59666:0:0:0:0:
64,192,59493,128,0,59666:0:0:0:0:
448,192,59752,128,0,59838:0:0:0:0:
64,192,59752,128,0,59838:0:0:0:0:
192,192,59924,128,0,60097:0:0:0:0:
320,192,59924,128,0,60097:0:0:0:0:
192,192,60183,128,0,60355:0:0:0:0:
448,192,60183,128,0,60355:0:0:0:0:
64,192,60442,128,0,60528:0:0:0:0:
192,192,60442,128,0,60528:0:0:0:0:
448,192,60614,128,0,60787:0:0:0:0:
320,192,60614,128,0,60787:0:0:0:0:
64,192,60959,128,0,61304:0:0:0:0:
320,192,60959,128,0,61304:0:0:0:0:
192,192,61476,128,0,61649:0:0:0:0:
448,192,61476,128,0,61649:0:0:0:0:
320,192,61821,1,0,0:0:0:0:
64,192,61821,1,0,0:0:0:0:
448,192,61993,1,0,0:0:0:0:
64,192,61993,1,0,0:0:0:0:
192,192,61993,1,0,0:0:0:0:
192,192,62166,1,0,0:0:0:0:
320,192,62166,1,0,0:0:0:0:
448,192,62338,1,0,0:0:0:0:
320,192,62338,1,0,0:0:0:0:
64,192,62338,1,0,0:0:0:0:
192,192,62511,1,0,0:0:0:0:
448,192,62511,1,0,0:0:0:0:
192,192,62683,1,0,0:0:0:0:
320,192,62683,1,0,0:0:0:0:
64,192,62683,1,0,0:0:0:0:
448,192,62855,1,0,0:0:0:0:
192,192,62855,1,0,0:0:0:0:
448,192,63027,1,0,0:0:0:0:
320,192,63027,1,0,0:0:0:0:
64,192,63027,1,0,0:0:0:0:
64,192,63200,1,0,0:0:0:0:
192,192,63200,1,0,0:0:0:0:
320,192,63372,1,0,0:0:0:0:
192,192,63372,1,0,0:0:0:0:
448,192,63372,1,0,0:0:0:0:
448,192,63545,1,0,0:0:0:0:
192,192,63717,1,0,0:0:0:0:
320,192,63717,1,0,0:0:0:0:
64,192,63717,1,0,0:0:0:0:
448,192,63889,1,0,0:0:0:0:
192,192,64062,1,0,0:0:0:0:
448,192,64062,1,0,0:0:0:0:
64,192,64062,1,0,0:0:0:0:
320,192,64234,1,0,0:0:0:0:
64,192,64234,1,0,0:0:0:0:
448,192,64320,1,0,0:0:0:0:
192,192,64407,1,0,0:0:0:0:
320,192,64407,1,0,0:0:0:0:
64,192,64407,1,0,0:0:0:0:
320,192,64579,1,0,0:0:0:0:
448,192,64579,1,0,0:0:0:0:
192,192,64751,1,0,0:0:0:0:
448,192,64751,1,0,0:0:0:0:
64,192,64751,1,0,0:0:0:0:
320,192,64924,1,0,0:0:0:0:
64,192,64924,1,0,0:0:0:0:
320,192,65096,1,0,0:0:0:0:
448,192,65096,1,0,0:0:0:0:
64,192,65096,1,0,0:0:0:0:
192,192,65269,1,0,0:0:0:0:
448,192,65269,1,0,0:0:0:0:
192,192,65441,1,0,0:0:0:0:
448,192,65441,1,0,0:0:0:0:
64,192,65441,1,0,0:0:0:0:
192,192,65614,1,0,0:0:0:0:
320,192,65614,1,0,0:0:0:0:
448,192,65786,1,0,0:0:0:0:
320,192,65786,1,0,0:0:0:0:
64,192,65786,1,0,0:0:0:0:
320,192,65958,1,0,0:0:0:0:
192,192,65958,1,0,0:0:0:0:
192,192,66131,1,0,0:0:0:0:
448,192,66131,1,0,0:0:0:0:
64,192,66131,1,0,0:0:0:0:
64,192,66303,1,0,0:0:0:0:
320,192,66303,1,0,0:0:0:0:
448,192,66303,1,0,0:0:0:0:
192,192,66303,1,0,0:0:0:0:
192,192,66476,1,0,0:0:0:0:
320,192,66476,1,0,0:0:0:0:
448,192,66476,1,0,0:0:0:0:
64,192,66476,1,0,0:0:0:0:
64,192,66648,1,0,0:0:0:0:
320,192,66648,1,0,0:0:0:0:
448,192,66648,1,0,0:0:0:0:
448,192,66820,1,0,0:0:0:0:
320,192,66820,1,0,0:0:0:0:
192,192,66907,1,0,0:0:0:0:
320,192,66993,1,0,0:0:0:0:
64,192,66993,1,0,0:0:0:0:
192,192,67079,1,0,0:0:0:0:
448,192,67165,1,0,0:0:0:0:
64,192,67165,1,0,0:0:0:0:
320,192,67338,1,0,0:0:0:0:
448,192,67338,1,0,0:0:0:0:
192,192,67424,1,0,0:0:0:0:
64,192,67510,1,0,0:0:0:0:
320,192,67510,1,0,0:0:0:0:
192,192,67596,1,0,0:0:0:0:
64,192,67683,1,0,0:0:0:0:
448,192,67683,1,0,0:0:0:0:
448,192,67855,1,0,0:0:0:0:
320,192,67855,1,0,0:0:0:0:
192,192,68027,1,0,0:0:0:0:
64,192,68027,1,0,0:0:0:0:
64,192,68200,1,0,0:0:0:0:
192,192,68200,1,0,0:0:0:0:
320,192,68286,1,0,0:0:0:0:
192,192,68372,1,0,0:0:0:0:
448,192,68372,1,0,0:0:0:0:
320,192,68458,1,0,0:0:0:0:
64,192,68545,1,0,0:0:0:0:
448,192,68545,1,0,0:0:0:0:
192,192,68717,1,0,0:0:0:0:
64,192,68717,1,0,0:0:0:0:
320,192,68803,1,0,0:0:0:0:
448,192,68889,1,0,0:0:0:0:
192,192,68889,1,0,0:0:0:0:
320,192,68976,1,0,0:0:0:0:
448,192,69062,1,0,0:0:0:0:
64,192,69062,1,0,0:0:0:0:
64,192,69234,1,0,0:0:0:0:
192,192,69234,1,0,0:0:0:0:
320,192,69407,1,0,0:0:0:0:
448,192,69407,1,0,0:0:0:0:
64,192,69579,1,0,0:0:0:0:
448,192,69579,1,0,0:0:0:0:
192,192,69665,1,0,0:0:0:0:
64,192,69751,1,0,0:0:0:0:
320,192,69751,1,0,0:0:0:0:
448,192,69838,1,0,0:0:0:0:
192,192,69924,1,0,0:0:0:0:
64,192,69924,1,0,0:0:0:0:
64,192,70096,1,0,0:0:0:0:
448,192,70096,1,0,0:0:0:0:
192,192,70183,1,0,0:0:0:0:
320,192,70269,1,0,0:0:0:0:
64,192,70269,1,0,0:0:0:0:
448,192,70355,1,0,0:0:0:0:
64,192,70441,1,0,0:0:0:0:
192,192,70441,1,0,0:0:0:0:
448,192,70614,1,0,0:0:0:0:
320,192,70614,1,0,0:0:0:0:
192,192,70786,1,0,0:0:0:0:
64,192,70786,1,0,0:0:0:0:
64,192,70958,1,0,0:0:0:0:
448,192,70958,1,0,0:0:0:0:
320,192,71045,1,0,0:0:0:0:
448,192,71131,1,0,0:0:0:0:
192,192,71131,1,0,0:0:0:0:
64,192,71217,1,0,0:0:0:0:
320,192,71303,1,0,0:0:0:0:
448,192,71303,1,0,0:0:0:0:
448,192,71476,1,0,0:0:0:0:
64,192,71476,1,0,0:0:0:0:
320,192,71562,1,0,0:0:0:0:
192,192,71648,1,0,0:0:0:0:
448,192,71648,1,0,0:0:0:0:
64,192,71734,1,0,0:0:0:0:
448,192,71820,1,0,0:0:0:0:
448,192,71907,1,0,0:0:0:0:
64,192,71993,128,0,72338:0:0:0:0:
320,192,72338,1,0,0:0:0:0:
448,192,72338,1,0,0:0:0:0:
192,192,72338,1,0,0:0:0:0:
448,192,72510,1,0,0:0:0:0:
320,192,72510,1,0,0:0:0:0:
192,192,72683,1,0,0:0:0:0:
64,192,72683,1,0,0:0:0:0:
448,192,72683,1,0,0:0:0:0:
320,192,72855,1,0,0:0:0:0:
64,192,72941,1,0,0:0:0:0:
192,192,72941,1,0,0:0:0:0:
320,192,73027,1,0,0:0:0:0:
448,192,73027,1,0,0:0:0:0:
192,192,73114,1,0,0:0:0:0:
64,192,73114,1,0,0:0:0:0:
320,192,73200,1,0,0:0:0:0:
448,192,73200,1,0,0:0:0:0:
192,192,73372,1,0,0:0:0:0:
64,192,73372,1,0,0:0:0:0:
448,192,73372,1,0,0:0:0:0:
320,192,73545,1,0,0:0:0:0:
192,192,73631,1,0,0:0:0:0:
448,192,73631,1,0,0:0:0:0:
320,192,73717,1,0,0:0:0:0:
64,192,73717,1,0,0:0:0:0:
64,192,73889,1,0,0:0:0:0:
320,192,73889,1,0,0:0:0:0:
192,192,74062,1,0,0:0:0:0:
64,192,74062,1,0,0:0:0:0:
448,192,74062,1,0,0:0:0:0:
192,192,74234,1,0,0:0:0:0:
64,192,74320,1,0,0:0:0:0:
448,192,74320,1,0,0:0:0:0:
320,192,74407,1,0,0:0:0:0:
192,192,74407,1,0,0:0:0:0:
64,192,74493,1,0,0:0:0:0:
448,192,74493,1,0,0:0:0:0:
320,192,74579,1,0,0:0:0:0:
192,192,74579,1,0,0:0:0:0:
320,192,74751,1,0,0:0:0:0:
448,192,74751,1,0,0:0:0:0:
64,192,74751,1,0,0:0:0:0:
320,192,75010,1,0,0:0:0:0:
448,192,75010,1,0,0:0:0:0:
64,192,75096,1,0,0:0:0:0:
192,192,75096,1,0,0:0:0:0:
192,192,75269,1,0,0:0:0:0:
64,192,75269,1,0,0:0:0:0:
320,192,75355,1,0,0:0:0:0:
64,192,75441,1,0,0:0:0:0:
448,192,75441,1,0,0:0:0:0:
192,192,75441,1,0,0:0:0:0:
64,192,75614,1,0,0:0:0:0:
448,192,75700,1,0,0:0:0:0:
192,192,75700,1,0,0:0:0:0:
64,192,75786,1,0,0:0:0:0:
320,192,75786,1,0,0:0:0:0:
192,192,75872,1,0,0:0:0:0:
448,192,75872,1,0,0:0:0:0:
64,192,75958,1,0,0:0:0:0:
320,192,75958,1,0,0:0:0:0:
320,192,76131,1,0,0:0:0:0:
448,192,76131,1,0,0:0:0:0:
192,192,76131,1,0,0:0:0:0:
320,192,76303,1,0,0:0:0:0:
64,192,76389,1,0,0:0:0:0:
448,192,76389,1,0,0:0:0:0:
320,192,76476,1,0,0:0:0:0:
192,192,76476,1,0,0:0:0:0:
320,192,76648,1,0,0:0:0:0:
192,192,76648,1,0,0:0:0:0:
64,192,76820,1,0,0:0:0:0:
320,192,76820,1,0,0:0:0:0:
448,192,76820,1,0,0:0:0:0:
192,192,76993,1,0,0:0:0:0:
320,192,77079,1,0,0:0:0:0:
448,192,77079,1,0,0:0:0:0:
192,192,77165,1,0,0:0:0:0:
64,192,77165,1,0,0:0:0:0:
320,192,77251,1,0,0:0:0:0:
448,192,77251,1,0,0:0:0:0:
64,192,77338,1,0,0:0:0:0:
192,192,77338,1,0,0:0:0:0:
64,192,77510,1,0,0:0:0:0:
320,192,77510,1,0,0:0:0:0:
448,192,77510,1,0,0:0:0:0:
192,192,77683,1,0,0:0:0:0:
448,192,77769,1,0,0:0:0:0:
320,192,77769,1,0,0:0:0:0:
192,192,77855,1,0,0:0:0:0:
448,192,77855,1,0,0:0:0:0:
64,192,77855,1,0,0:0:0:0:
192,192,78027,1,0,0:0:0:0:
448,192,78027,1,0,0:0:0:0:
64,192,78200,1,0,0:0:0:0:
320,192,78200,1,0,0:0:0:0:
192,192,78200,1,0,0:0:0:0:
192,192,78458,1,0,0:0:0:0:
320,192,78458,1,0,0:0:0:0:
64,192,78545,1,0,0:0:0:0:
448,192,78545,1,0,0:0:0:0:
320,192,78631,1,0,0:0:0:0:
192,192,78631,1,0,0:0:0:0:
64,192,78717,1,0,0:0:0:0:
448,192,78717,1,0,0:0:0:0:
448,192,78889,1,0,0:0:0:0:
320,192,78889,1,0,0:0:0:0:
192,192,78889,1,0,0:0:0:0:
64,192,79062,1,0,0:0:0:0:
448,192,79148,1,0,0:0:0:0:
192,192,79148,1,0,0:0:0:0:
64,192,79234,1,0,0:0:0:0:
320,192,79234,1,0,0:0:0:0:
64,192,79407,1,0,0:0:0:0:
320,192,79407,1,0,0:0:0:0:
192,192,79579,1,0,0:0:0:0:
64,192,79579,1,0,0:0:0:0:
448,192,79579,1,0,0:0:0:0:
320,192,79751,1,0,0:0:0:0:
192,192,79838,1,0,0:0:0:0:
448,192,79838,1,0,0:0:0:0:
320,192,79924,1,0,0:0:0:0:
64,192,79924,1,0,0:0:0:0:
192,192,80010,1,0,0:0:0:0:
448,192,80010,1,0,0:0:0:0:
320,192,80096,1,0,0:0:0:0:
64,192,80096,1,0,0:0:0:0:
64,192,80269,1,0,0:0:0:0:
448,192,80269,1,0,0:0:0:0:
192,192,80269,1,0,0:0:0:0:
192,192,80527,1,0,0:0:0:0:
64,192,80527,1,0,0:0:0:0:
320,192,80614,1,0,0:0:0:0:
448,192,80614,1,0,0:0:0:0:
320,192,80786,1,0,0:0:0:0:
448,192,80786,1,0,0:0:0:0:
192,192,80872,1,0,0:0:0:0:
448,192,80958,1,0,0:0:0:0:
320,192,80958,1,0,0:0:0:0:
64,192,80958,1,0,0:0:0:0:
192,192,81131,1,0,0:0:0:0:
64,192,81217,1,0,0:0:0:0:
448,192,81217,1,0,0:0:0:0:
320,192,81303,1,0,0:0:0:0:
192,192,81303,1,0,0:0:0:0:
64,192,81389,1,0,0:0:0:0:
448,192,81389,1,0,0:0:0:0:
320,192,81476,1,0,0:0:0:0:
192,192,81476,1,0,0:0:0:0:
448,192,81648,1,0,0:0:0:0:
320,192,81648,1,0,0:0:0:0:
64,192,81648,1,0,0:0:0:0:
192,192,81820,1,0,0:0:0:0:
448,192,81907,1,0,0:0:0:0:
320,192,81907,1,0,0:0:0:0:
192,192,81993,1,0,0:0:0:0:
64,192,81993,1,0,0:0:0:0:
448,192,82079,1,0,0:0:0:0:
320,192,82079,1,0,0:0:0:0:
64,192,82165,1,0,0:0:0:0:
192,192,82251,1,0,0:0:0:0:
320,192,82251,1,0,0:0:0:0:
64,192,82338,1,0,0:0:0:0:
448,192,82338,1,0,0:0:0:0:
192,192,82424,1,0,0:0:0:0:
320,192,82424,1,0,0:0:0:0:
448,192,82510,1,0,0:0:0:0:
192,192,82596,1,0,0:0:0:0:
64,192,82596,1,0,0:0:0:0:
320,192,82683,1,0,0:0:0:0:
448,192,82683,1,0,0:0:0:0:
192,192,82769,1,0,0:0:0:0:
64,192,82769,1,0,0:0:0:0:
320,192,82855,1,0,0:0:0:0:
448,192,82855,1,0,0:0:0:0:
192,192,82941,1,0,0:0:0:0:
448,192,83027,1,0,0:0:0:0:
320,192,83027,1,0,0:0:0:0:
320,192,83114,1,0,0:0:0:0:
448,192,83114,1,0,0:0:0:0:
192,192,83200,1,0,0:0:0:0:
64,192,83200,1,0,0:0:0:0:
64,192,83286,1,0,0:0:0:0:
192,192,83286,1,0,0:0:0:0:
320,192,83372,1,0,0:0:0:0:
448,192,83372,1,0,0:0:0:0:
320,192,83545,1,0,0:0:0:0:
448,192,83545,1,0,0:0:0:0:
192,192,83717,1,0,0:0:0:0:
64,192,83717,1,0,0:0:0:0:
448,192,83717,1,0,0:0:0:0:
320,192,83889,1,0,0:0:0:0:
64,192,83976,1,0,0:0:0:0:
192,192,83976,1,0,0:0:0:0:
320,192,84062,1,0,0:0:0:0:
448,192,84062,1,0,0:0:0:0:
192,192,84148,1,0,0:0:0:0:
64,192,84148,1,0,0:0:0:0:
320,192,84234,1,0,0:0:0:0:
448,192,84234,1,0,0:0:0:0:
192,192,84407,1,0,0:0:0:0:
64,192,84407,1,0,0:0:0:0:
448,192,84407,1,0,0:0:0:0:
320,192,84579,1,0,0:0:0:0:
192,192,84665,1,0,0:0:0:0:
448,192,84665,1,0,0:0:0:0:
64,192,84751,1,0,0:0:0:0:
320,192,84751,1,0,0:0:0:0:
320,192,84924,1,0,0:0:0:0:
64,192,84924,1,0,0:0:0:0:
192,192,85096,1,0,0:0:0:0:
448,192,85096,1,0,0:0:0:0:
320,192,85096,1,0,0:0:0:0:
64,192,85269,1,0,0:0:0:0:
448,192,85355,1,0,0:0:0:0:
192,192,85355,1,0,0:0:0:0:
64,192,85441,1,0,0:0:0:0:
320,192,85441,1,0,0:0:0:0:
192,192,85527,1,0,0:0:0:0:
448,192,85527,1,0,0:0:0:0:
320,192,85614,1,0,0:0:0:0:
64,192,85614,1,0,0:0:0:0:
192,192,85786,1,0,0:0:0:0:
64,192,85786,1,0,0:0:0:0:
448,192,85786,1,0,0:0:0:0:
320,192,85958,1,0,0:0:0:0:
64,192,86045,1,0,0:0:0:0:
448,192,86045,1,0,0:0:0:0:
320,192,86131,1,0,0:0:0:0:
192,192,86131,1,0,0:0:0:0:
448,192,86303,1,0,0:0:0:0:
320,192,86303,1,0,0:0:0:0:
320,192,86389,1,0,0:0:0:0:
192,192,86389,1,0,0:0:0:0:
192,192,86476,1,0,0:0:0:0:
64,192,86476,1,0,0:0:0:0:
320,192,86648,1,0,0:0:0:0:
448,192,86648,1,0,0:0:0:0:
64,192,86993,128,0,87251:0:0:0:0:
192,192,86993,128,0,87251:0:0:0:0:
320,192,87165,128,0,87424:0:0:0:0:
448,192,87165,128,0,87424:0:0:0:0:
192,192,87338,128,0,87424:0:0:0:0:
64,192,87338,128,0,87424:0:0:0:0:
192,192,87510,128,0,87769:0:0:0:0:
64,192,87510,128,0,88114:0:0:0:0:
448,192,87510,128,0,88114:0:0:0:0:
320,192,87510,128,0,87769:0:0:0:0:
320,192,87855,128,0,88458:0:0:0:0:
192,192,87855,128,0,88458:0:0:0:0:
64,192,88200,128,0,88458:0:0:0:0:
448,192,88200,128,0,88458:0:0:0:0:
192,192,88545,1,0,0:0:0:0:
64,192,88545,1,0,0:0:0:0:
320,192,88545,1,0,0:0:0:0:
448,192,88545,1,0,0:0:0:0:
320,192,88803,1,0,0:0:0:0:
192,192,88803,1,0,0:0:0:0:
448,192,88889,1,0,0:0:0:0:
64,192,88889,1,0,0:0:0:0:
64,192,89062,1,0,0:0:0:0:
448,192,89062,1,0,0:0:0:0:
64,192,89234,1,0,0:0:0:0:
320,192,89234,1,0,0:0:0:0:
192,192,89234,1,0,0:0:0:0:
448,192,89407,1,0,0:0:0:0:
64,192,89493,1,0,0:0:0:0:
192,192,89493,1,0,0:0:0:0:
320,192,89579,1,0,0:0:0:0:
448,192,89579,1,0,0:0:0:0:
192,192,89665,1,0,0:0:0:0:
64,192,89665,1,0,0:0:0:0:
320,192,89751,1,0,0:0:0:0:
448,192,89751,1,0,0:0:0:0:
64,192,89924,1,0,0:0:0:0:
320,192,89924,1,0,0:0:0:0:
448,192,89924,1,0,0:0:0:0:
192,192,90096,1,0,0:0:0:0:
64,192,90183,1,0,0:0:0:0:
448,192,90183,1,0,0:0:0:0:
320,192,90269,1,0,0:0:0:0:
192,192,90269,1,0,0:0:0:0:
192,192,90441,1,0,0:0:0:0:
320,192,90441,1,0,0:0:0:0:
64,192,90614,1,0,0:0:0:0:
192,192,90614,1,0,0:0:0:0:
448,192,90614,1,0,0:0:0:0:
448,192,90786,1,0,0:0:0:0:
64,192,90872,1,0,0:0:0:0:
320,192,90872,1,0,0:0:0:0:
448,192,90958,1,0,0:0:0:0:
192,192,90958,1,0,0:0:0:0:
64,192,91045,1,0,0:0:0:0:
320,192,91045,1,0,0:0:0:0:
192,192,91131,1,0,0:0:0:0:
448,192,91131,1,0,0:0:0:0:
448,192,91303,1,0,0:0:0:0:
320,192,91303,1,0,0:0:0:0:
64,192,91303,1,0,0:0:0:0:
192,192,91476,1,0,0:0:0:0:
320,192,91562,1,0,0:0:0:0:
448,192,91562,1,0,0:0:0:0:
192,192,91648,1,0,0:0:0:0:
64,192,91648,1,0,0:0:0:0:
448,192,91648,1,0,0:0:0:0:
192,192,91820,1,0,0:0:0:0:
64,192,91820,1,0,0:0:0:0:
64,192,91993,1,0,0:0:0:0:
448,192,91993,1,0,0:0:0:0:
320,192,92079,1,0,0:0:0:0:
192,192,92079,1,0,0:0:0:0:
64,192,92165,1,0,0:0:0:0:
448,192,92165,1,0,0:0:0:0:
320,192,92251,1,0,0:0:0:0:
192,192,92251,1,0,0:0:0:0:
64,192,92338,1,0,0:0:0:0:
448,192,92338,1,0,0:0:0:0:
320,192,92510,1,0,0:0:0:0:
448,192,92510,128,0,92683:0:0:0:0:
192,192,92683,1,0,0:0:0:0:
64,192,92683,128,0,92855:0:0:0:0:
320,192,92683,1,0,0:0:0:0:
192,192,92855,1,0,0:0:0:0:
448,192,92855,128,0,93027:0:0:0:0:
64,192,93027,1,0,0:0:0:0:
320,192,93027,1,0,0:0:0:0:
192,192,93114,1,0,0:0:0:0:
64,192,93200,1,0,0:0:0:0:
192,192,93286,1,0,0:0:0:0:
448,192,93286,1,0,0:0:0:0:
320,192,93372,1,0,0:0:0:0:
448,192,93458,1,0,0:0:0:0:
320,192,93545,1,0,0:0:0:0:
192,192,93545,1,0,0:0:0:0:
64,192,93631,1,0,0:0:0:0:
192,192,93717,1,0,0:0:0:0:
64,192,93803,1,0,0:0:0:0:
448,192,93803,1,0,0:0:0:0:
320,192,93889,1,0,0:0:0:0:
448,192,93976,1,0,0:0:0:0:
192,192,94407,1,0,0:0:0:0:
64,192,94407,1,0,0:0:0:0:
320,192,94579,1,0,0:0:0:0:
448,192,94579,1,0,0:0:0:0:
192,192,94665,1,0,0:0:0:0:
64,192,94665,1,0,0:0:0:0:
320,192,94838,1,0,0:0:0:0:
448,192,94838,1,0,0:0:0:0:
192,192,94924,1,0,0:0:0:0:
64,192,94924,1,0,0:0:0:0:
320,192,95096,1,0,0:0:0:0:
448,192,95096,1,0,0:0:0:0:
192,192,95183,1,0,0:0:0:0:
64,192,95183,1,0,0:0:0:0:
320,192,95355,1,0,0:0:0:0:
448,192,95355,1,0,0:0:0:0:
192,192,95441,1,0,0:0:0:0:
64,192,95441,1,0,0:0:0:0:
320,192,95614,1,0,0:0:0:0:
448,192,95614,1,0,0:0:0:0:
192,192,95786,1,0,0:0:0:0:
64,192,95786,1,0,0:0:0:0:
320,192,95872,1,0,0:0:0:0:
448,192,95872,1,0,0:0:0:0:
192,192,95958,1,0,0:0:0:0:
64,192,95958,1,0,0:0:0:0:
320,192,96045,1,0,0:0:0:0:
448,192,96045,1,0,0:0:0:0:
64,192,96217,1,0,0:0:0:0:
192,192,96217,1,0,0:0:0:0:
320,192,96303,1,0,0:0:0:0:
448,192,96303,1,0,0:0:0:0:
192,192,96476,1,0,0:0:0:0:
64,192,96476,1,0,0:0:0:0:
320,192,96562,1,0,0:0:0:0:
448,192,96562,1,0,0:0:0:0:
192,192,96734,1,0,0:0:0:0:
64,192,96734,1,0,0:0:0:0:
320,192,96820,1,0,0:0:0:0:
448,192,96820,1,0,0:0:0:0:
64,192,96992,1,0,0:0:0:0:
192,192,96992,1,0,0:0:0:0:
448,192,97166,128,0,97683:0:0:0:0:
64,192,97166,1,0,0:0:0:0:
192,192,97510,1,0,0:0:0:0:
448,192,97855,128,0,98545:0:0:0:0:
320,192,97855,1,0,0:0:0:0:
192,192,98200,1,0,0:0:0:0:
320,192,98545,128,0,99234:0:0:0:0:
64,192,98545,1,0,0:0:0:0:
448,192,98890,1,0,0:0:0:0:
192,192,99234,128,0,99924:0:0:0:0:
64,192,99234,1,0,0:0:0:0:
320,192,99579,1,0,0:0:0:0:
320,192,99924,128,0,100269:0:0:0:0:
64,192,99924,1,0,0:0:0:0:
448,192,100269,1,0,0:0:0:0:
192,192,100614,128,0,100959:0:0:0:0:
64,192,100614,1,0,0:0:0:0:
320,192,100959,1,0,0:0:0:0:
64,192,101303,128,0,101993:0:0:0:0:
448,192,101303,1,0,0:0:0:0:
320,192,101648,1,0,0:0:0:0:
192,192,101993,1,0,0:0:0:0:
64,192,102338,1,0,0:0:0:0:
192,192,102683,128,0,103717:0:0:0:0:
448,192,102683,1,0,0:0:0:0:
64,192,103028,1,0,0:0:0:0:
320,192,103372,1,0,0:0:0:0:
320,192,103717,128,0,104062:0:0:0:0:
448,192,103717,1,0,0:0:0:0:
448,192,104062,128,0,104752:0:0:0:0:
64,192,104062,1,0,0:0:0:0:
192,192,104407,1,0,0:0:0:0:
192,192,104752,128,0,105441:0:0:0:0:
320,192,104752,1,0,0:0:0:0:
64,192,105097,1,0,0:0:0:0:
64,192,105441,128,0,106131:0:0:0:0:
448,192,105441,1,0,0:0:0:0:
320,192,105786,1,0,0:0:0:0:
192,192,106131,128,0,106821:0:0:0:0:
448,192,106131,1,0,0:0:0:0:
64,192,106476,1,0,0:0:0:0:
320,192,106821,128,0,108028:0:0:0:0:
448,192,106821,1,0,0:0:0:0:
192,192,107166,1,0,0:0:0:0:
64,192,107510,1,0,0:0:0:0:
192,192,107855,1,0,0:0:0:0:
448,192,108200,128,0,108717:0:0:0:0:
320,192,108200,1,0,0:0:0:0:
64,192,108545,1,0,0:0:0:0:
448,192,108890,128,0,109579:0:0:0:0:
192,192,108890,1,0,0:0:0:0:
64,192,109234,1,0,0:0:0:0:
320,192,109579,128,0,110269:0:0:0:0:
192,192,109579,1,0,0:0:0:0:
448,192,109924,1,0,0:0:0:0:
192,192,110269,128,0,110959:0:0:0:0:
64,192,110269,1,0,0:0:0:0:
448,192,110614,1,0,0:0:0:0:
320,192,110959,128,0,111648:0:0:0:0:
64,192,110959,1,0,0:0:0:0:
192,192,111303,1,0,0:0:0:0:
192,192,111648,128,0,112338:0:0:0:0:
448,192,111648,1,0,0:0:0:0:
320,192,111993,1,0,0:0:0:0:
64,192,112338,128,0,113717:0:0:0:0:
448,192,112338,1,0,0:0:0:0:
192,192,112683,1,0,0:0:0:0:
320,192,113028,1,0,0:0:0:0:
448,192,113372,1,0,0:0:0:0:
192,192,113717,128,0,115097:0:0:0:0:
320,192,113717,1,0,0:0:0:0:
64,192,114062,1,0,0:0:0:0:
448,192,114407,1,0,0:0:0:0:
64,192,114752,1,0,0:0:0:0:
448,192,115097,128,0,116476:0:0:0:0:
320,192,115097,1,0,0:0:0:0:
192,192,115441,1,0,0:0:0:0:
64,192,115786,1,0,0:0:0:0:
192,192,116131,1,0,0:0:0:0:
320,192,116476,128,0,116821:0:0:0:0:
64,192,116476,1,0,0:0:0:0:
448,192,116821,1,0,0:0:0:0:
320,192,117252,1,0,0:0:0:0:
448,192,117252,1,0,0:0:0:0:
192,192,117252,1,0,0:0:0:0:
64,192,117252,1,0,0:0:0:0:
192,192,117381,1,0,0:0:0:0:
64,192,117381,1,0,0:0:0:0:
320,192,117381,1,0,0:0:0:0:
448,192,117381,1,0,0:0:0:0:
320,192,117597,1,0,0:0:0:0:
448,192,117597,1,0,0:0:0:0:
192,192,117597,1,0,0:0:0:0:
64,192,117597,1,0,0:0:0:0:
192,192,117726,1,0,0:0:0:0:
64,192,117726,1,0,0:0:0:0:
320,192,117726,1,0,0:0:0:0:
448,192,117726,1,0,0:0:0:0:
320,192,117898,1,0,0:0:0:0:
448,192,117898,1,0,0:0:0:0:
192,192,117898,1,0,0:0:0:0:
64,192,117898,1,0,0:0:0:0:
192,192,118028,1,0,0:0:0:0:
64,192,118028,1,0,0:0:0:0:
320,192,118028,1,0,0:0:0:0:
448,192,118028,1,0,0:0:0:0:
320,192,118200,1,0,0:0:0:0:
448,192,118200,1,0,0:0:0:0:
192,192,118200,1,0,0:0:0:0:
64,192,118200,1,0,0:0:0:0:
192,192,118329,1,0,0:0:0:0:
64,192,118329,1,0,0:0:0:0:
320,192,118329,1,0,0:0:0:0:
448,192,118329,1,0,0:0:0:0:
320,192,118502,1,0,0:0:0:0:
448,192,118502,1,0,0:0:0:0:
192,192,118502,1,0,0:0:0:0:
64,192,118502,1,0,0:0:0:0:
192,192,118631,1,0,0:0:0:0:
64,192,118631,1,0,0:0:0:0:
320,192,118631,1,0,0:0:0:0:
448,192,118631,1,0,0:0:0:0:
320,192,118803,1,0,0:0:0:0:
448,192,118803,1,0,0:0:0:0:
192,192,118803,1,0,0:0:0:0:
64,192,118803,1,0,0:0:0:0:
192,192,118933,1,0,0:0:0:0:
64,192,118933,1,0,0:0:0:0:
320,192,118933,1,0,0:0:0:0:
448,192,118933,1,0,0:0:0:0:
448,192,119234,128,0,119580:0:0:0:0:
192,192,119236,1,0,0:0:0:0:
64,192,119236,1,0,0:0:0:0:
64,192,119408,1,0,0:0:0:0:
320,192,119580,1,0,0:0:0:0:
192,192,119580,128,0,119925:0:0:0:0:
448,192,119753,1,0,0:0:0:0:
64,192,119839,1,0,0:0:0:0:
320,192,119925,128,0,120098:0:0:0:0:
448,192,119925,1,0,0:0:0:0:
64,192,120011,1,0,0:0:0:0:
192,192,120098,128,0,120442:0:0:0:0:
448,192,120098,1,0,0:0:0:0:
320,192,120270,1,0,0:0:0:0:
64,192,120270,1,0,0:0:0:0:
448,192,120442,128,0,120787:0:0:0:0:
64,192,120442,1,0,0:0:0:0:
192,192,120529,1,0,0:0:0:0:
320,192,120615,1,0,0:0:0:0:
64,192,120615,1,0,0:0:0:0:
192,192,120787,128,0,121132:0:0:0:0:
64,192,120787,1,0,0:0:0:0:
448,192,120960,1,0,0:0:0:0:
320,192,120960,1,0,0:0:0:0:
64,192,121132,128,0,121477:0:0:0:0:
320,192,121132,1,0,0:0:0:0:
448,192,121218,1,0,0:0:0:0:
320,192,121304,1,0,0:0:0:0:
192,192,121304,1,0,0:0:0:0:
448,192,121391,1,0,0:0:0:0:
320,192,121477,1,0,0:0:0:0:
192,192,121477,128,0,121649:0:0:0:0:
320,192,121649,128,0,121822:0:0:0:0:
64,192,121649,1,0,0:0:0:0:
448,192,121822,128,0,121994:0:0:0:0:
64,192,121908,1,0,0:0:0:0:
192,192,121994,128,0,122339:0:0:0:0:
320,192,121994,1,0,0:0:0:0:
320,192,122167,1,0,0:0:0:0:
448,192,122167,1,0,0:0:0:0:
64,192,122339,128,0,122684:0:0:0:0:
448,192,122339,1,0,0:0:0:0:
320,192,122511,1,0,0:0:0:0:
192,192,122598,1,0,0:0:0:0:
320,192,122684,128,0,122856:0:0:0:0:
448,192,122684,1,0,0:0:0:0:
192,192,122770,1,0,0:0:0:0:
448,192,122856,1,0,0:0:0:0:
64,192,122856,128,0,123201:0:0:0:0:
192,192,123029,1,0,0:0:0:0:
320,192,123029,1,0,0:0:0:0:
448,192,123201,128,0,123546:0:0:0:0:
320,192,123287,1,0,0:0:0:0:
192,192,123373,1,0,0:0:0:0:
64,192,123373,1,0,0:0:0:0:
320,192,123546,128,0,123891:0:0:0:0:
64,192,123546,1,0,0:0:0:0:
448,192,123718,1,0,0:0:0:0:
192,192,123718,1,0,0:0:0:0:
448,192,123891,128,0,124236:0:0:0:0:
64,192,123891,1,0,0:0:0:0:
320,192,123977,1,0,0:0:0:0:
192,192,124063,1,0,0:0:0:0:
64,192,124063,1,0,0:0:0:0:
320,192,124149,1,0,0:0:0:0:
192,192,124236,1,0,0:0:0:0:
64,192,124236,128,0,124408:0:0:0:0:
192,192,124408,128,0,124580:0:0:0:0:
448,192,124408,1,0,0:0:0:0:
320,192,124580,128,0,124753:0:0:0:0:
64,192,124667,1,0,0:0:0:0:
448,192,124753,128,0,125098:0:0:0:0:
192,192,124753,1,0,0:0:0:0:
192,192,124925,1,0,0:0:0:0:
320,192,124925,1,0,0:0:0:0:
64,192,125098,128,0,125442:0:0:0:0:
320,192,125098,1,0,0:0:0:0:
192,192,125270,1,0,0:0:0:0:
448,192,125356,1,0,0:0:0:0:
192,192,125442,128,0,125615:0:0:0:0:
320,192,125442,1,0,0:0:0:0:
448,192,125529,1,0,0:0:0:0:
64,192,125615,128,0,125960:0:0:0:0:
320,192,125615,1,0,0:0:0:0:
192,192,125787,1,0,0:0:0:0:
448,192,125787,1,0,0:0:0:0:
448,192,125960,128,0,126304:0:0:0:0:
64,192,126046,1,0,0:0:0:0:
320,192,126132,1,0,0:0:0:0:
192,192,126132,1,0,0:0:0:0:
192,192,126304,128,0,126477:0:0:0:0:
64,192,126304,1,0,0:0:0:0:
320,192,126477,128,0,126649:0:0:0:0:
64,192,126477,1,0,0:0:0:0:
192,192,126649,128,0,126994:0:0:0:0:
448,192,126649,1,0,0:0:0:0:
64,192,126736,1,0,0:0:0:0:
320,192,126822,1,0,0:0:0:0:
448,192,126822,1,0,0:0:0:0:
64,192,126908,1,0,0:0:0:0:
448,192,126994,1,0,0:0:0:0:
320,192,126994,128,0,127167:0:0:0:0:
64,192,127167,128,0,127339:0:0:0:0:
192,192,127167,1,0,0:0:0:0:
448,192,127339,128,0,127511:0:0:0:0:
64,192,127425,1,0,0:0:0:0:
192,192,127511,128,0,127856:0:0:0:0:
320,192,127511,1,0,0:0:0:0:
320,192,127684,1,0,0:0:0:0:
64,192,127684,1,0,0:0:0:0:
448,192,127856,128,0,128201:0:0:0:0:
64,192,127856,1,0,0:0:0:0:
320,192,128029,1,0,0:0:0:0:
192,192,128115,1,0,0:0:0:0:
64,192,128201,128,0,128373:0:0:0:0:
320,192,128201,1,0,0:0:0:0:
192,192,128287,1,0,0:0:0:0:
320,192,128373,128,0,128718:0:0:0:0:
448,192,128373,1,0,0:0:0:0:
192,192,128546,1,0,0:0:0:0:
64,192,128546,1,0,0:0:0:0:
192,192,128718,128,0,129063:0:0:0:0:
448,192,128804,1,0,0:0:0:0:
320,192,128891,1,0,0:0:0:0:
64,192,128891,1,0,0:0:0:0:
448,192,129063,128,0,129236:0:0:0:0:
64,192,129149,1,0,0:0:0:0:
320,192,129236,128,0,129408:0:0:0:0:
192,192,129236,1,0,0:0:0:0:
448,192,129322,1,0,0:0:0:0:
64,192,129408,128,0,129753:0:0:0:0:
192,192,129494,1,0,0:0:0:0:
448,192,129580,1,0,0:0:0:0:
320,192,129667,1,0,0:0:0:0:
192,192,129753,128,0,129925:0:0:0:0:
448,192,129753,1,0,0:0:0:0:
320,192,129925,128,0,130098:0:0:0:0:
64,192,129925,1,0,0:0:0:0:
192,192,130011,1,0,0:0:0:0:
448,192,130098,128,0,130270:0:0:0:0:
64,192,130184,1,0,0:0:0:0:
192,192,130270,1,0,0:0:0:0:
320,192,130270,1,0,0:0:0:0:
64,192,130270,128,0,130787:0:0:0:0:
448,192,130442,1,0,0:0:0:0:
320,192,130442,1,0,0:0:0:0:
192,192,130529,1,0,0:0:0:0:
320,192,130615,1,0,0:0:0:0:
448,192,130615,1,0,0:0:0:0:
192,192,130787,1,0,0:0:0:0:
320,192,130787,1,0,0:0:0:0:
448,192,130787,128,0,130959:0:0:0:0:
320,192,130959,128,0,131131:0:0:0:0:
64,192,131131,128,0,131303:0:0:0:0:
192,192,131303,128,0,131475:0:0:0:0:
448,192,131475,128,0,131649:0:0:0:0:
320,192,131649,1,0,0:0:0:0:
192,192,131649,1,0,0:0:0:0:
64,192,131649,1,0,0:0:0:0:
64,192,131821,1,0,0:0:0:0:
448,192,131821,1,0,0:0:0:0:
320,192,131907,1,0,0:0:0:0:
192,192,131907,1,0,0:0:0:0:
64,192,131993,1,0,0:0:0:0:
448,192,131993,1,0,0:0:0:0:
192,192,132166,1,0,0:0:0:0:
320,192,132166,1,0,0:0:0:0:
448,192,132166,128,0,132338:0:0:0:0:
64,192,132424,128,0,132942:0:0:0:0:
192,192,132511,128,0,132942:0:0:0:0:
320,192,132597,128,0,133028:0:0:0:0:
192,192,133028,1,0,0:0:0:0:
64,192,133028,1,0,0:0:0:0:
448,192,133028,1,0,0:0:0:0:
448,192,133200,1,0,0:0:0:0:
320,192,133200,1,0,0:0:0:0:
320,192,133286,1,0,0:0:0:0:
448,192,133286,1,0,0:0:0:0:
192,192,133373,1,0,0:0:0:0:
64,192,133373,1,0,0:0:0:0:
64,192,133459,1,0,0:0:0:0:
192,192,133459,1,0,0:0:0:0:
320,192,133545,1,0,0:0:0:0:
448,192,133545,1,0,0:0:0:0:
448,192,133631,1,0,0:0:0:0:
320,192,133631,1,0,0:0:0:0:
192,192,133717,1,0,0:0:0:0:
64,192,133717,1,0,0:0:0:0:
64,192,133804,1,0,0:0:0:0:
192,192,133804,1,0,0:0:0:0:
320,192,133890,1,0,0:0:0:0:
448,192,133890,1,0,0:0:0:0:
448,192,133976,1,0,0:0:0:0:
320,192,133976,1,0,0:0:0:0:
192,192,134062,1,0,0:0:0:0:
64,192,134062,1,0,0:0:0:0:
64,192,134149,1,0,0:0:0:0:
192,192,134149,1,0,0:0:0:0:
320,192,134235,1,0,0:0:0:0:
448,192,134235,128,0,134407:0:0:0:0:
192,192,134407,1,0,0:0:0:0:
64,192,134407,1,0,0:0:0:0:
320,192,134407,1,0,0:0:0:0:
320,192,134579,1,0,0:0:0:0:
448,192,134579,1,0,0:0:0:0:
192,192,134751,1,0,0:0:0:0:
64,192,134751,1,0,0:0:0:0:
448,192,134751,1,0,0:0:0:0:
320,192,134924,1,0,0:0:0:0:
192,192,134924,1,0,0:0:0:0:
64,192,135096,1,0,0:0:0:0:
448,192,135096,1,0,0:0:0:0:
320,192,135096,1,0,0:0:0:0:
192,192,135269,1,0,0:0:0:0:
64,192,135269,1,0,0:0:0:0:
192,192,135441,1,0,0:0:0:0:
320,192,135441,1,0,0:0:0:0:
448,192,135441,1,0,0:0:0:0:
448,192,135613,1,0,0:0:0:0:
64,192,135786,128,0,135901:0:0:0:0:
192,192,135815,128,0,135901:0:0:0:0:
320,192,135843,128,0,135901:0:0:0:0:
448,192,135872,128,0,135901:0:0:0:0:
192,192,135958,1,0,0:0:0:0:
64,192,135958,1,0,0:0:0:0:
320,192,136044,1,0,0:0:0:0:
448,192,136044,1,0,0:0:0:0:
192,192,136131,1,0,0:0:0:0:
64,192,136131,1,0,0:0:0:0:
64,192,136303,1,0,0:0:0:0:
320,192,136303,1,0,0:0:0:0:
448,192,136303,1,0,0:0:0:0:
192,192,136475,128,0,136820:0:0:0:0:
320,192,136648,128,0,136820:0:0:0:0:
448,192,136734,128,0,136820:0:0:0:0:
64,192,136820,128,0,136993:0:0:0:0:
192,192,136993,128,0,137165:0:0:0:0:
64,192,137165,1,0,0:0:0:0:
320,192,137165,1,0,0:0:0:0:
448,192,137165,1,0,0:0:0:0:
192,192,137337,1,0,0:0:0:0:
64,192,137337,1,0,0:0:0:0:
448,192,137423,1,0,0:0:0:0:
320,192,137423,1,0,0:0:0:0:
192,192,137509,1,0,0:0:0:0:
64,192,137509,1,0,0:0:0:0:
192,192,137682,1,0,0:0:0:0:
320,192,137682,1,0,0:0:0:0:
448,192,137682,1,0,0:0:0:0:
64,192,138027,128,0,138199:0:0:0:0:
192,192,138113,128,0,138285:0:0:0:0:
448,192,138199,128,0,138371:0:0:0:0:
320,192,138285,128,0,138458:0:0:0:0:
64,192,138371,128,0,138458:0:0:0:0:
192,192,138458,128,0,138544:0:0:0:0:
64,192,138544,1,0,0:0:0:0:
320,192,138544,1,0,0:0:0:0:
448,192,138544,1,0,0:0:0:0:
192,192,138716,1,0,0:0:0:0:
320,192,138716,1,0,0:0:0:0:
64,192,138802,1,0,0:0:0:0:
448,192,138802,1,0,0:0:0:0:
320,192,138888,1,0,0:0:0:0:
192,192,138888,1,0,0:0:0:0:
64,192,139061,1,0,0:0:0:0:
192,192,139061,1,0,0:0:0:0:
448,192,139061,1,0,0:0:0:0:
320,192,139491,1,0,0:0:0:0:
192,192,139577,1,0,0:0:0:0:
64,192,139749,1,0,0:0:0:0:
320,192,139923,1,0,0:0:0:0:
192,192,139923,1,0,0:0:0:0:
448,192,139923,1,0,0:0:0:0:
192,192,140095,1,0,0:0:0:0:
64,192,140095,1,0,0:0:0:0:
64,192,140267,1,0,0:0:0:0:
320,192,140267,1,0,0:0:0:0:
448,192,140267,1,0,0:0:0:0:
320,192,140440,1,0,0:0:0:0:
192,192,140440,1,0,0:0:0:0:
192,192,140612,1,0,0:0:0:0:
64,192,140612,1,0,0:0:0:0:
448,192,140612,128,0,141302:0:0:0:0:
192,192,140785,1,0,0:0:0:0:
64,192,140785,1,0,0:0:0:0:
192,192,140957,1,0,0:0:0:0:
64,192,140957,1,0,0:0:0:0:
320,192,141302,1,0,0:0:0:0:
192,192,141302,1,0,0:0:0:0:
64,192,141302,1,0,0:0:0:0:
448,192,141474,1,0,0:0:0:0:
320,192,141560,1,0,0:0:0:0:
192,192,141647,1,0,0:0:0:0:
64,192,141647,1,0,0:0:0:0:
320,192,141733,1,0,0:0:0:0:
448,192,141819,1,0,0:0:0:0:
192,192,141819,1,0,0:0:0:0:
64,192,141905,1,0,0:0:0:0:
320,192,141991,1,0,0:0:0:0:
192,192,142164,1,0,0:0:0:0:
448,192,142164,1,0,0:0:0:0:
320,192,142250,1,0,0:0:0:0:
64,192,142336,1,0,0:0:0:0:
448,192,142336,1,0,0:0:0:0:
192,192,142423,1,0,0:0:0:0:
320,192,142509,1,0,0:0:0:0:
192,192,142595,1,0,0:0:0:0:
64,192,142681,1,0,0:0:0:0:
320,192,142681,1,0,0:0:0:0:
448,192,142854,1,0,0:0:0:0:
192,192,143026,1,0,0:0:0:0:
64,192,143026,1,0,0:0:0:0:
448,192,143069,1,0,0:0:0:0:
320,192,143112,1,0,0:0:0:0:
192,192,143198,1,0,0:0:0:0:
448,192,143198,1,0,0:0:0:0:
64,192,143285,1,0,0:0:0:0:
320,192,143371,1,0,0:0:0:0:
192,192,143543,1,0,0:0:0:0:
448,192,143543,1,0,0:0:0:0:
64,192,143716,1,0,0:0:0:0:
320,192,143716,1,0,0:0:0:0:
192,192,143888,1,0,0:0:0:0:
64,192,144060,128,0,144147:0:0:0:0:
192,192,144060,128,0,144233:0:0:0:0:
320,192,144060,128,0,144319:0:0:0:0:
448,192,144060,128,0,144664:0:0:0:0:
64,192,144233,128,0,144664:0:0:0:0:
192,192,144319,128,0,144491:0:0:0:0:
320,192,144405,128,0,144578:0:0:0:0:
192,192,144578,128,0,144836:0:0:0:0:
320,192,144664,128,0,144836:0:0:0:0:
448,192,144750,128,0,145181:0:0:0:0:
64,192,144750,128,0,145009:0:0:0:0:
320,192,144923,128,0,145009:0:0:0:0:
192,192,144923,128,0,145181:0:0:0:0:
320,192,145095,128,0,145354:0:0:0:0:
64,192,145095,128,0,145354:0:0:0:0:
192,192,145267,128,0,145354:0:0:0:0:
448,192,145267,128,0,145354:0:0:0:0:
192,192,145606,128,0,146440:0:0:0:0:
320,192,145606,128,0,146440:0:0:0:0:
448,192,146819,1,0,0:0:0:0:
192,192,146819,1,0,0:0:0:0:
320,192,146991,1,0,0:0:0:0:
192,192,147077,1,0,0:0:0:0:
64,192,147163,1,0,0:0:0:0:
448,192,147163,1,0,0:0:0:0:
320,192,147250,1,0,0:0:0:0:
192,192,147336,1,0,0:0:0:0:
448,192,147336,1,0,0:0:0:0:
320,192,147422,1,0,0:0:0:0:
192,192,147594,1,0,0:0:0:0:
64,192,147681,1,0,0:0:0:0:
320,192,147681,1,0,0:0:0:0:
192,192,147767,1,0,0:0:0:0:
320,192,147853,1,0,0:0:0:0:
448,192,147853,1,0,0:0:0:0:
64,192,147939,1,0,0:0:0:0:
192,192,148025,1,0,0:0:0:0:
64,192,148198,1,0,0:0:0:0:
448,192,148198,1,0,0:0:0:0:
320,192,148255,1,0,0:0:0:0:
192,192,148313,1,0,0:0:0:0:
448,192,148370,1,0,0:0:0:0:
64,192,148456,1,0,0:0:0:0:
320,192,148456,1,0,0:0:0:0:
192,192,148543,1,0,0:0:0:0:
448,192,148543,1,0,0:0:0:0:
64,192,148629,1,0,0:0:0:0:
192,192,148672,1,0,0:0:0:0:
320,192,148715,1,0,0:0:0:0:
448,192,148715,1,0,0:0:0:0:
192,192,148844,1,0,0:0:0:0:
64,192,148931,1,0,0:0:0:0:
320,192,149060,1,0,0:0:0:0:
448,192,149060,1,0,0:0:0:0:
64,192,149103,1,0,0:0:0:0:
192,192,149189,1,0,0:0:0:0:
448,192,149232,1,0,0:0:0:0:
64,192,149232,1,0,0:0:0:0:
320,192,149319,1,0,0:0:0:0:
192,192,149405,1,0,0:0:0:0:
448,192,149405,1,0,0:0:0:0:
64,192,149577,1,0,0:0:0:0:
320,192,149577,1,0,0:0:0:0:
192,192,149750,1,0,0:0:0:0:
448,192,149836,1,0,0:0:0:0:
64,192,149836,1,0,0:0:0:0:
320,192,149922,1,0,0:0:0:0:
192,192,149922,1,0,0:0:0:0:
448,192,150008,1,0,0:0:0:0:
192,192,150094,1,0,0:0:0:0:
64,192,150094,1,0,0:0:0:0:
320,192,150181,1,0,0:0:0:0:
448,192,150267,1,0,0:0:0:0:
192,192,150353,1,0,0:0:0:0:
64,192,150439,1,0,0:0:0:0:
320,192,150439,1,0,0:0:0:0:
192,192,150525,1,0,0:0:0:0:
320,192,150612,1,0,0:0:0:0:
448,192,150612,1,0,0:0:0:0:
64,192,150698,1,0,0:0:0:0:
192,192,150784,1,0,0:0:0:0:
448,192,150784,1,0,0:0:0:0:
192,192,150956,128,0,151043:0:0:0:0:
320,192,150956,128,0,151043:0:0:0:0:
448,192,151043,128,0,151215:0:0:0:0:
64,192,151043,128,0,151301:0:0:0:0:
320,192,151129,128,0,151215:0:0:0:0:
192,192,151301,128,0,151387:0:0:0:0:
320,192,151301,128,0,151387:0:0:0:0:
448,192,151301,128,0,151387:0:0:0:0:
192,192,151474,128,0,151560:0:0:0:0:
320,192,151474,128,0,151560:0:0:0:0:
64,192,151560,128,0,151732:0:0:0:0:
448,192,151560,128,0,151732:0:0:0:0:
192,192,151732,128,0,151819:0:0:0:0:
320,192,151732,128,0,151819:0:0:0:0:
64,192,151905,128,0,152250:0:0:0:0:
192,192,151905,128,0,151991:0:0:0:0:
320,192,151905,128,0,151991:0:0:0:0:
448,192,151991,128,0,152163:0:0:0:0:
320,192,152163,128,0,152250:0:0:0:0:
192,192,152163,128,0,152250:0:0:0:0:
320,192,152336,1,0,0:0:0:0:
64,192,152336,1,0,0:0:0:0:
192,192,152336,1,0,0:0:0:0:
64,192,152594,1,0,0:0:0:0:
192,192,152594,1,0,0:0:0:0:
320,192,152594,1,0,0:0:0:0:
320,192,152853,1,0,0:0:0:0:
192,192,152853,1,0,0:0:0:0:
64,192,152853,1,0,0:0:0:0:
64,192,153112,1,0,0:0:0:0:
192,192,153112,1,0,0:0:0:0:
320,192,153112,1,0,0:0:0:0:
320,192,153370,128,0,153629:0:0:0:0:
192,192,153370,128,0,153629:0:0:0:0:
64,192,153370,128,0,153629:0:0:0:0:
192,192,153715,1,0,0:0:0:0:
64,192,153715,1,0,0:0:0:0:
448,192,153715,1,0,0:0:0:0:
192,192,153974,1,0,0:0:0:0:
64,192,153974,1,0,0:0:0:0:
448,192,153974,1,0,0:0:0:0:
192,192,154232,1,0,0:0:0:0:
64,192,154232,1,0,0:0:0:0:
448,192,154232,1,0,0:0:0:0:
448,192,154491,1,0,0:0:0:0:
192,192,154491,1,0,0:0:0:0:
64,192,154491,1,0,0:0:0:0:
64,192,154750,128,0,155009:0:0:0:0:
192,192,154750,128,0,155009:0:0:0:0:
448,192,154750,128,0,155009:0:0:0:0:
64,192,155094,1,0,0:0:0:0:
320,192,155094,1,0,0:0:0:0:
448,192,155094,1,0,0:0:0:0:
448,192,155353,1,0,0:0:0:0:
320,192,155353,1,0,0:0:0:0:
64,192,155353,1,0,0:0:0:0:
64,192,155612,1,0,0:0:0:0:
320,192,155612,1,0,0:0:0:0:
448,192,155612,1,0,0:0:0:0:
448,192,155870,1,0,0:0:0:0:
320,192,155870,1,0,0:0:0:0:
64,192,155870,1,0,0:0:0:0:
64,192,156129,128,0,156388:0:0:0:0:
320,192,156129,128,0,156388:0:0:0:0:
448,192,156129,128,0,156388:0:0:0:0:
320,192,156474,1,0,0:0:0:0:
192,192,156474,1,0,0:0:0:0:
448,192,156474,1,0,0:0:0:0:
320,192,156733,1,0,0:0:0:0:
448,192,156733,1,0,0:0:0:0:
64,192,156819,1,0,0:0:0:0:
192,192,156819,1,0,0:0:0:0:
320,192,156992,1,0,0:0:0:0:
448,192,156992,1,0,0:0:0:0:
448,192,157164,1,0,0:0:0:0:
320,192,157164,1,0,0:0:0:0:
192,192,157250,1,0,0:0:0:0:
64,192,157250,1,0,0:0:0:0:
320,192,157423,1,0,0:0:0:0:
448,192,157423,1,0,0:0:0:0:
192,192,157509,1,0,0:0:0:0:
64,192,157509,1,0,0:0:0:0:
192,192,157853,1,0,0:0:0:0:
448,192,157853,1,0,0:0:0:0:
320,192,157853,1,0,0:0:0:0:
448,192,158112,1,0,0:0:0:0:
320,192,158112,1,0,0:0:0:0:
192,192,158112,1,0,0:0:0:0:
192,192,158370,1,0,0:0:0:0:
320,192,158370,1,0,0:0:0:0:
448,192,158370,1,0,0:0:0:0:
448,192,158629,1,0,0:0:0:0:
320,192,158629,1,0,0:0:0:0:
192,192,158629,1,0,0:0:0:0:
192,192,158887,128,0,159146:0:0:0:0:
320,192,158887,128,0,159146:0:0:0:0:
448,192,158887,128,0,159146:0:0:0:0:
320,192,159232,1,0,0:0:0:0:
448,192,159232,1,0,0:0:0:0:
64,192,159232,1,0,0:0:0:0:
320,192,159491,1,0,0:0:0:0:
448,192,159491,1,0,0:0:0:0:
64,192,159491,1,0,0:0:0:0:
320,192,159750,1,0,0:0:0:0:
448,192,159750,1,0,0:0:0:0:
64,192,159750,1,0,0:0:0:0:
64,192,160008,1,0,0:0:0:0:
320,192,160008,1,0,0:0:0:0:
448,192,160008,1,0,0:0:0:0:
448,192,160267,128,0,160526:0:0:0:0:
320,192,160267,128,0,160526:0:0:0:0:
64,192,160267,128,0,160526:0:0:0:0:
448,192,160612,1,0,0:0:0:0:
192,192,160612,1,0,0:0:0:0:
64,192,160612,1,0,0:0:0:0:
64,192,160870,1,0,0:0:0:0:
192,192,160870,1,0,0:0:0:0:
448,192,160870,1,0,0:0:0:0:
448,192,161129,1,0,0:0:0:0:
192,192,161129,1,0,0:0:0:0:
64,192,161129,1,0,0:0:0:0:
64,192,161387,1,0,0:0:0:0:
192,192,161387,1,0,0:0:0:0:
448,192,161387,1,0,0:0:0:0:
448,192,161646,128,0,161905:0:0:0:0:
192,192,161646,128,0,161905:0:0:0:0:
64,192,161646,128,0,161905:0:0:0:0:
192,192,161991,1,0,0:0:0:0:
320,192,161991,1,0,0:0:0:0:
64,192,161991,1,0,0:0:0:0:
320,192,162250,1,0,0:0:0:0:
448,192,162250,1,0,0:0:0:0:
192,192,162336,1,0,0:0:0:0:
64,192,162336,1,0,0:0:0:0:
320,192,162509,1,0,0:0:0:0:
448,192,162509,1,0,0:0:0:0:
64,192,163370,1,0,0:0:0:0:
192,192,163370,1,0,0:0:0:0:
448,192,163370,1,0,0:0:0:0:
320,192,163456,1,0,0:0:0:0:
64,192,163542,1,0,0:0:0:0:
448,192,163542,1,0,0:0:0:0:
192,192,163628,1,0,0:0:0:0:
320,192,163714,1,0,0:0:0:0:
448,192,163714,1,0,0:0:0:0:
192,192,163801,1,0,0:0:0:0:
64,192,163887,1,0,0:0:0:0:
320,192,163887,1,0,0:0:0:0:
448,192,163973,1,0,0:0:0:0:
192,192,164059,1,0,0:0:0:0:
320,192,164059,1,0,0:0:0:0:
64,192,164145,1,0,0:0:0:0:
192,192,164232,1,0,0:0:0:0:
448,192,164232,1,0,0:0:0:0:
320,192,164318,1,0,0:0:0:0:
64,192,164404,1,0,0:0:0:0:
448,192,164404,1,0,0:0:0:0:
192,192,164490,1,0,0:0:0:0:
64,192,164576,1,0,0:0:0:0:
320,192,164576,1,0,0:0:0:0:
448,192,164663,1,0,0:0:0:0:
320,192,164749,1,0,0:0:0:0:
192,192,164749,1,0,0:0:0:0:
64,192,164835,1,0,0:0:0:0:
448,192,164921,1,0,0:0:0:0:
320,192,164921,1,0,0:0:0:0:
64,192,165007,1,0,0:0:0:0:
192,192,165094,1,0,0:0:0:0:
320,192,165094,1,0,0:0:0:0:
448,192,165180,1,0,0:0:0:0:
192,192,165266,1,0,0:0:0:0:
64,192,165266,1,0,0:0:0:0:
448,192,165352,1,0,0:0:0:0:
64,192,165438,128,0,165611:0:0:0:0:
192,192,165438,1,0,0:0:0:0:
320,192,165525,1,0,0:0:0:0:
192,192,165611,128,0,165783:0:0:0:0:
448,192,165611,1,0,0:0:0:0:
64,192,165697,1,0,0:0:0:0:
448,192,165783,128,0,165956:0:0:0:0:
320,192,165783,1,0,0:0:0:0:
192,192,165870,1,0,0:0:0:0:
320,192,165956,128,0,166128:0:0:0:0:
64,192,165956,1,0,0:0:0:0:
448,192,166042,1,0,0:0:0:0:
192,192,166128,1,0,0:0:0:0:
64,192,166128,1,0,0:0:0:0:
320,192,166214,1,0,0:0:0:0:
64,192,166301,1,0,0:0:0:0:
448,192,166301,1,0,0:0:0:0:
192,192,166387,1,0,0:0:0:0:
64,192,166473,1,0,0:0:0:0:
320,192,166473,1,0,0:0:0:0:
448,192,166559,1,0,0:0:0:0:
320,192,166645,1,0,0:0:0:0:
192,192,166645,1,0,0:0:0:0:
64,192,166732,1,0,0:0:0:0:
192,192,166818,1,0,0:0:0:0:
448,192,166818,1,0,0:0:0:0:
320,192,166904,1,0,0:0:0:0:
448,192,166990,1,0,0:0:0:0:
64,192,166990,1,0,0:0:0:0:
192,192,167076,1,0,0:0:0:0:
64,192,167163,1,0,0:0:0:0:
320,192,167163,1,0,0:0:0:0:
192,192,167249,1,0,0:0:0:0:
64,192,167335,1,0,0:0:0:0:
448,192,167335,1,0,0:0:0:0:
320,192,167421,1,0,0:0:0:0:
192,192,167507,1,0,0:0:0:0:
448,192,167507,1,0,0:0:0:0:
64,192,167594,1,0,0:0:0:0:
320,192,167680,1,0,0:0:0:0:
448,192,167680,1,0,0:0:0:0:
192,192,167766,1,0,0:0:0:0:
320,192,167852,1,0,0:0:0:0:
64,192,167852,1,0,0:0:0:0:
448,192,167938,1,0,0:0:0:0:
320,192,168025,1,0,0:0:0:0:
192,192,168025,1,0,0:0:0:0:
64,192,168111,1,0,0:0:0:0:
448,192,168197,1,0,0:0:0:0:
320,192,168197,128,0,168370:0:0:0:0:
192,192,168283,1,0,0:0:0:0:
64,192,168370,1,0,0:0:0:0:
448,192,168370,1,0,0:0:0:0:
320,192,168456,1,0,0:0:0:0:
192,192,168542,128,0,168714:0:0:0:0:
64,192,168542,1,0,0:0:0:0:
320,192,168628,1,0,0:0:0:0:
448,192,168714,1,0,0:0:0:0:
64,192,168714,1,0,0:0:0:0:
192,192,168801,1,0,0:0:0:0:
64,192,168887,1,0,0:0:0:0:
448,192,168887,1,0,0:0:0:0:
320,192,168887,1,0,0:0:0:0:
192,192,168973,1,0,0:0:0:0:
448,192,169059,1,0,0:0:0:0:
64,192,169059,1,0,0:0:0:0:
320,192,169145,1,0,0:0:0:0:
192,192,169232,1,0,0:0:0:0:
448,192,169232,1,0,0:0:0:0:
320,192,169318,1,0,0:0:0:0:
64,192,169404,1,0,0:0:0:0:
192,192,169404,1,0,0:0:0:0:
448,192,169490,1,0,0:0:0:0:
64,192,169576,1,0,0:0:0:0:
320,192,169576,1,0,0:0:0:0:
448,192,169663,1,0,0:0:0:0:
192,192,169749,1,0,0:0:0:0:
320,192,169749,1,0,0:0:0:0:
64,192,169835,1,0,0:0:0:0:
192,192,169921,1,0,0:0:0:0:
448,192,169921,1,0,0:0:0:0:
64,192,170007,1,0,0:0:0:0:
320,192,170094,1,0,0:0:0:0:
448,192,170094,1,0,0:0:0:0:
192,192,170180,1,0,0:0:0:0:
64,192,170266,128,0,170438:0:0:0:0:
448,192,170266,1,0,0:0:0:0:
320,192,170352,1,0,0:0:0:0:
192,192,170438,128,0,170611:0:0:0:0:
448,192,170438,1,0,0:0:0:0:
64,192,170525,1,0,0:0:0:0:
320,192,170611,128,0,170783:0:0:0:0:
448,192,170611,1,0,0:0:0:0:
64,192,170697,1,0,0:0:0:0:
448,192,170783,128,0,170956:0:0:0:0:
192,192,170783,1,0,0:0:0:0:
64,192,170870,1,0,0:0:0:0:
192,192,170956,128,0,171128:0:0:0:0:
320,192,170956,1,0,0:0:0:0:
448,192,171042,1,0,0:0:0:0:
320,192,171128,1,0,0:0:0:0:
64,192,171128,1,0,0:0:0:0:
448,192,171214,1,0,0:0:0:0:
320,192,171301,128,0,171473:0:0:0:0:
64,192,171301,1,0,0:0:0:0:
192,192,171387,1,0,0:0:0:0:
448,192,171473,1,0,0:0:0:0:
64,192,171473,1,0,0:0:0:0:
192,192,171559,1,0,0:0:0:0:
64,192,171645,1,0,0:0:0:0:
320,192,171645,1,0,0:0:0:0:
448,192,171645,1,0,0:0:0:0:
192,192,171732,1,0,0:0:0:0:
448,192,171818,1,0,0:0:0:0:
320,192,171818,1,0,0:0:0:0:
64,192,171904,1,0,0:0:0:0:
192,192,171990,1,0,0:0:0:0:
448,192,171990,1,0,0:0:0:0:
320,192,172076,1,0,0:0:0:0:
448,192,172163,1,0,0:0:0:0:
64,192,172163,1,0,0:0:0:0:
192,192,172249,1,0,0:0:0:0:
64,192,172335,1,0,0:0:0:0:
320,192,172335,1,0,0:0:0:0:
448,192,172421,1,0,0:0:0:0:
320,192,172507,1,0,0:0:0:0:
192,192,172507,1,0,0:0:0:0:
64,192,172594,1,0,0:0:0:0:
192,192,172680,1,0,0:0:0:0:
448,192,172680,1,0,0:0:0:0:
320,192,172766,1,0,0:0:0:0:
64,192,172852,1,0,0:0:0:0:
448,192,172852,1,0,0:0:0:0:
192,192,172938,1,0,0:0:0:0:
64,192,173025,1,0,0:0:0:0:
320,192,173025,1,0,0:0:0:0:
448,192,173111,1,0,0:0:0:0:
64,192,173197,1,0,0:0:0:0:
192,192,173197,1,0,0:0:0:0:
320,192,173283,1,0,0:0:0:0:
192,192,173370,1,0,0:0:0:0:
448,192,173370,1,0,0:0:0:0:
64,192,173456,1,0,0:0:0:0:
320,192,173542,1,0,0:0:0:0:
448,192,173542,1,0,0:0:0:0:
192,192,173628,1,0,0:0:0:0:
64,192,173714,1,0,0:0:0:0:
448,192,174059,1,0,0:0:0:0:
448,192,174404,128,0,174576:0:0:0:0:
64,192,174404,128,0,174576:0:0:0:0:
192,192,174404,128,0,174490:0:0:0:0:
320,192,174404,128,0,174490:0:0:0:0:
64,192,174749,128,0,174835:0:0:0:0:
192,192,174749,128,0,175180:0:0:0:0:
448,192,174749,128,0,174835:0:0:0:0:
320,192,174749,128,0,175180:0:0:0:0:
448,192,175094,128,0,175180:0:0:0:0:
64,192,175094,128,0,175180:0:0:0:0:
448,192,175266,128,0,175697:0:0:0:0:
64,192,175266,128,0,175697:0:0:0:0:
320,192,175352,128,0,175525:0:0:0:0:
192,192,175438,128,0,175611:0:0:0:0:
192,192,175783,128,0,175870:0:0:0:0:
320,192,175783,128,0,175870:0:0:0:0:
64,192,175870,128,0,175956:0:0:0:0:
448,192,175870,128,0,176042:0:0:0:0:
320,192,176042,128,0,176128:0:0:0:0:
192,192,176042,128,0,176128:0:0:0:0:
64,192,176128,128,0,176301:0:0:0:0:
448,192,176214,128,0,176301:0:0:0:0:
192,192,176301,128,0,176387:0:0:0:0:
320,192,176301,128,0,176387:0:0:0:0:
64,192,176473,128,0,176904:0:0:0:0:
192,192,176473,128,0,176559:0:0:0:0:
320,192,176473,128,0,176559:0:0:0:0:
448,192,176473,128,0,176559:0:0:0:0:
320,192,176645,128,0,176732:0:0:0:0:
192,192,176645,128,0,176732:0:0:0:0:
192,192,176818,128,0,176904:0:0:0:0:
320,192,176818,128,0,176904:0:0:0:0:
448,192,176818,128,0,176904:0:0:0:0:
64,192,176990,128,0,177421:0:0:0:0:
448,192,176990,128,0,177076:0:0:0:0:
320,192,177076,128,0,177249:0:0:0:0:
192,192,177163,128,0,177249:0:0:0:0:
448,192,177249,128,0,177335:0:0:0:0:
320,192,177335,128,0,177421:0:0:0:0:
192,192,177335,128,0,177421:0:0:0:0:
192,192,177507,128,0,177938:0:0:0:0:
320,192,177507,128,0,177938:0:0:0:0:
64,192,177852,128,0,177938:0:0:0:0:
448,192,177852,128,0,177938:0:0:0:0:
192,192,178197,128,0,178283:0:0:0:0:
320,192,178197,128,0,178283:0:0:0:0:
64,192,178197,128,0,178628:0:0:0:0:
448,192,178283,128,0,178542:0:0:0:0:
320,192,178542,128,0,178628:0:0:0:0:
192,192,178542,128,0,178628:0:0:0:0:
64,192,178714,128,0,179059:0:0:0:0:
448,192,178714,128,0,179059:0:0:0:0:
320,192,178887,128,0,178973:0:0:0:0:
192,192,178887,128,0,178973:0:0:0:0:
192,192,179059,128,0,179145:0:0:0:0:
320,192,179059,128,0,179145:0:0:0:0:
64,192,179232,128,0,179663:0:0:0:0:
448,192,179232,128,0,179663:0:0:0:0:
320,192,179318,128,0,179490:0:0:0:0:
192,192,179404,128,0,179576:0:0:0:0:
448,192,179749,128,0,179835:0:0:0:0:
64,192,179749,128,0,180180:0:0:0:0:
320,192,179835,128,0,179921:0:0:0:0:
192,192,179921,128,0,180007:0:0:0:0:
320,192,180007,128,0,180094:0:0:0:0:
448,192,180094,128,0,180180:0:0:0:0:
192,192,180438,128,0,180525:0:0:0:0:
320,192,180438,128,0,180525:0:0:0:0:
64,192,180525,128,0,180611:0:0:0:0:
448,192,180525,128,0,180697:0:0:0:0:
320,192,180697,128,0,180783:0:0:0:0:
192,192,180697,128,0,180783:0:0:0:0:
64,192,180783,128,0,180956:0:0:0:0:
448,192,180870,128,0,180956:0:0:0:0:
320,192,180956,128,0,181042:0:0:0:0:
192,192,180956,128,0,181042:0:0:0:0:
192,192,181128,128,0,181301:0:0:0:0:
320,192,181128,128,0,181301:0:0:0:0:
64,192,181214,128,0,181559:0:0:0:0:
448,192,181214,128,0,181559:0:0:0:0:
192,192,181645,128,0,181732:0:0:0:0:
320,192,181645,128,0,181732:0:0:0:0:
448,192,181732,128,0,181904:0:0:0:0:
64,192,181732,128,0,181818:0:0:0:0:
320,192,181904,128,0,181990:0:0:0:0:
192,192,181904,128,0,181990:0:0:0:0:
64,192,181990,128,0,182163:0:0:0:0:
448,192,182076,128,0,182163:0:0:0:0:
192,192,182163,128,0,182249:0:0:0:0:
320,192,182163,128,0,182249:0:0:0:0:
64,192,182507,128,0,182938:0:0:0:0:
448,192,182507,128,0,182938:0:0:0:0:
320,192,182680,128,0,182766:0:0:0:0:
192,192,182680,128,0,182766:0:0:0:0:
448,192,183025,128,0,183111:0:0:0:0:
320,192,183025,128,0,183111:0:0:0:0:
192,192,183025,128,0,183111:0:0:0:0:
64,192,183025,128,0,183456:0:0:0:0:
192,192,183197,128,0,183283:0:0:0:0:
320,192,183197,128,0,183283:0:0:0:0:
192,192,183370,128,0,183456:0:0:0:0:
320,192,183370,128,0,183456:0:0:0:0:
448,192,183370,128,0,183456:0:0:0:0:
64,192,183542,128,0,183973:0:0:0:0:
448,192,183542,128,0,183628:0:0:0:0:
320,192,183628,128,0,183801:0:0:0:0:
192,192,183714,128,0,183801:0:0:0:0:
448,192,183801,128,0,183887:0:0:0:0:
320,192,183887,128,0,183973:0:0:0:0:
192,192,183887,128,0,183973:0:0:0:0:
448,192,184059,128,0,184145:0:0:0:0:
320,192,184059,128,0,184145:0:0:0:0:
192,192,184059,128,0,184145:0:0:0:0:
64,192,184059,128,0,184490:0:0:0:0:
192,192,184232,128,0,184318:0:0:0:0:
320,192,184232,128,0,184318:0:0:0:0:
448,192,184404,128,0,184490:0:0:0:0:
320,192,184404,128,0,184490:0:0:0:0:
192,192,184404,128,0,184490:0:0:0:0:
64,192,184663,128,0,184835:0:0:0:0:
448,192,184663,128,0,184835:0:0:0:0:
320,192,184749,128,0,184835:0:0:0:0:
192,192,184749,128,0,184835:0:0:0:0:
64,192,184921,1,0,0:0:0:0:
192,192,184921,1,0,0:0:0:0:
320,192,184921,1,0,0:0:0:0:
448,192,184921,1,0,0:0:0:0:
320,192,185094,1,0,0:0:0:0:
192,192,185094,1,0,0:0:0:0:
64,192,185266,1,0,0:0:0:0:
192,192,185266,1,0,0:0:0:0:
448,192,185266,1,0,0:0:0:0:
320,192,185266,1,0,0:0:0:0:
64,192,185438,1,0,0:0:0:0:
192,192,185438,1,0,0:0:0:0:
320,192,185438,1,0,0:0:0:0:
448,192,185438,1,0,0:0:0:0:
