osu file format v14

[General]
AudioFilename: calling alfakyun.mp3
AudioLeadIn: 0
PreviewTime: 79813
Countdown: 0
SampleSet: Soft
StackLeniency: 0.7
Mode: 0
LetterboxInBreaks: 0
WidescreenStoryboard: 0

[Editor]
Bookmarks: 102353
DistanceSpacing: 1
BeatDivisor: 4
GridSize: 8
TimelineZoom: 2.699999

[Metadata]
Title:calling
TitleUnicode:calling
Artist:Alfakyun.
ArtistUnicode:あるふぁきゅん。
Creator:chucentry
Version:Answer
Source:アンダンテ
Tags:+α Camellia かめりあ Andante WEB小説 novel OPソング 2nd Album αβ叫喚 歌ってみた utattemita
BeatmapID:1211224
BeatmapSetID:571524

[Difficulty]
HPDrainRate:6
CircleSize:4.2
OverallDifficulty:8.5
ApproachRate:9.5
SliderMultiplier:1.9
SliderTickRate:1

[Events]
//Background and Video events
Video,0,"callingvideo.avi"
0,0,"callingBG.jpg",0,0
//Break Periods
2,158299,165558
//Storyboard Layer 0 (Background)
//Storyboard Layer 1 (Fail)
//Storyboard Layer 2 (Pass)
//Storyboard Layer 3 (Foreground)
//Storyboard Sound Samples

[TimingPoints]
2624,324.324324324324,4,2,1,40,1,0
3921,-125,4,2,1,40,0,0
13488,-100,4,2,1,40,0,0
13813,-83.3333333333333,4,2,1,40,0,0
14137,-125,4,2,1,40,0,0
16245,-83.3333333333333,4,2,1,40,0,0
16894,-100,4,2,1,40,0,0
18029,-83.3333333333333,4,2,1,40,0,0
19002,-200,4,2,1,40,0,0
19488,-125,4,2,1,40,0,0
22732,-83.3333333333333,4,2,1,40,0,0
24678,-100,4,2,1,40,0,0
25651,-76.9230769230769,4,2,1,40,0,0
25975,-100,4,2,1,40,0,0
36353,-76.9230769230769,4,2,1,40,0,0
36678,-100,4,2,1,40,0,0
40083,-76.9230769230769,4,2,1,40,0,0
41380,-66.6666666666667,4,2,1,40,0,0
42029,-100,4,2,1,40,0,0
45272,-76.9230769230769,4,2,1,40,0,0
46732,-125,4,2,1,40,0,0
64894,-111.111111111111,4,2,1,40,0,0
67488,-125,4,2,1,40,0,0
72678,-100,4,2,1,40,0,0
80461,-83.3333333333333,4,2,1,40,0,0
94569,-76.9230769230769,4,2,1,40,0,0
95542,-142.857142857143,4,2,1,40,0,0
96029,-125,4,2,1,40,0,0
98623,-100,4,2,1,40,0,0
99434,-83.3333333333333,4,2,1,40,0,0
101218,-100,4,2,1,40,0,0
102515,-76.9230769230769,4,2,1,40,0,0
102840,-100,4,2,1,40,0,0
112894,-76.9230769230769,4,2,1,40,0,0
113218,-100,4,2,1,40,0,0
116623,-76.9230769230769,4,2,1,40,0,0
117921,-66.6666666666667,4,2,1,40,0,0
118407,-100,4,2,1,40,0,0
121813,-76.9230769230769,4,2,1,40,0,0
125380,-100,4,2,1,40,0,0
127651,-76.9230769230769,4,2,1,40,0,0
131056,-100,4,2,1,40,0,0
144029,-125,4,2,1,40,0,0
149218,-100,4,2,1,40,0,0
155542,-83.3333333333333,4,2,1,40,0,0
157326,-76.9230769230769,4,2,1,40,0,0
166083,-100,4,2,1,40,0,0
169975,-83.3333333333333,4,2,1,40,0,0
171759,-76.9230769230769,4,2,1,40,0,0
173218,-111.111111111111,4,2,1,40,0,0
182137,-83.3333333333333,4,2,1,40,0,0
183596,-166.666666666667,4,2,1,40,0,0
183921,-83.3333333333334,4,2,1,40,0,0
197705,-76.9230769230769,4,2,1,40,0,0
198675,-125,4,2,1,40,0,0
199164,-125,4,2,1,40,0,0
201759,-83.3333333333333,4,2,1,40,0,0
204353,-76.9230769230769,4,2,1,40,0,0
205326,-66.6666666666667,4,2,1,40,0,0
205651,-83.3333333333333,4,2,1,40,0,0
219759,-76.9230769230769,4,2,1,40,0,0
221056,-66.6666666666667,4,2,1,40,0,0
221542,-83.3333333333333,4,2,1,40,0,0
224948,-76.9230769230769,4,2,1,40,0,0
225272,-66.6666666666667,4,2,1,40,0,0
226245,-250,4,2,1,40,0,0

[HitObjects]
121,138,3921,6,0,B|176:117|176:117|268:138,1,152
429,174,4407,2,0,L|435:144,2,19
347,76,4569,2,0,L|349:151,1,76
285,249,4894,1,0,0:0:0:0:
375,311,5056,6,0,B|323:284|323:284|228:307,1,152
123,246,5542,2,0,L|129:291,2,38
125,361,5867,1,0,0:0:0:0:
199,236,6029,1,0,0:0:0:0:
199,236,6110,1,0,0:0:0:0:
199,236,6191,1,0,0:0:0:0:
199,236,6272,1,0,0:0:0:0:
199,236,6353,2,0,L|202:195,1,38
128,154,6515,6,0,P|190:115|261:135,1,152
332,194,7002,2,0,L|330:220,2,19
373,175,7164,2,0,L|362:273,1,76
328,345,7488,1,0,0:0:0:0:
458,220,7651,6,0,P|467:169|460:128,1,76
320,20,7975,2,0,P|320:57|330:94,1,76
381,250,8299,6,0,P|320:240|280:247,1,76
160,170,8623,2,0,P|197:170|234:161,1,76
250,62,8948,1,0,0:0:0:0:
111,107,9110,6,0,P|118:173|103:274,1,152
37,294,9596,2,0,L|31:261,2,19
2,353,9759,2,0,B|41:343|41:343|93:351,1,76
236,357,10083,1,0,0:0:0:0:
166,207,10245,6,0,L|156:292,1,76
316,257,10569,2,0,L|326:342,1,76
152,187,10894,6,0,L|140:289,1,76
332,247,11218,2,0,L|344:349,1,76
215,288,11542,2,0,L|218:261,2,19
236,357,11705,6,0,L|252:188,1,152
258,107,12191,1,0,0:0:0:0:
332,247,12353,2,0,L|327:168,1,76
235,43,12678,2,0,L|230:118,1,76
65,74,13002,5,0,0:0:0:0:
71,67,13083,1,0,0:0:0:0:
79,61,13164,2,0,P|101:51|128:48,1,38
224,189,13326,2,0,P|205:184|188:176,1,38
338,49,13489,6,0,L|344:97,1,47.5
260,344,13651,2,0,L|266:297,1,47.5
224,189,13813,6,0,B|319:159|297:220|392:189,1,170.999994781494
440,122,14137,6,0,P|472:188|428:263,1,152
279,266,14623,2,0,P|241:267|196:298,1,76
145,344,14867,1,0,0:0:0:0:
125,341,14948,2,0,L|120:253,1,76
119,252,15191,1,0,0:0:0:0:
118,239,15272,1,0,0:0:0:0:
251,140,15434,6,0,B|271:85|252:50|252:50|224:78,1,114
173,154,15759,2,0,P|179:181|197:213,1,38
279,266,15921,1,0,0:0:0:0:
322,282,16002,1,0,0:0:0:0:
368,274,16083,1,0,0:0:0:0:
403,242,16164,1,0,0:0:0:0:
417,197,16245,6,0,L|424:108,1,75.9999976806641
245,64,16461,2,0,L|250:139,1,75.9999976806641
320,357,16678,2,0,L|322:278,1,75.9999976806641
327,193,16894,6,0,B|225:151|243:224|143:178,1,190
61,130,17380,1,0,0:0:0:0:
143,310,17542,5,0,0:0:0:0:
245,64,17705,1,0,0:0:0:0:
327,193,17867,5,0,0:0:0:0:
61,130,18029,2,0,B|38:186|38:186|52:249,1,113.999996520996
402,237,18353,2,0,B|413:184|413:184|390:128,1,113.999996520996
223,382,18678,2,0,L|229:267,1,113.999996520996
250,15,19002,6,0,L|256:138,1,118.75
327,193,19488,6,0,B|257:161|257:161|185:198,1,152
84,273,19975,1,0,0:0:0:0:
84,273,20056,1,0,0:0:0:0:
84,273,20137,2,0,L|180:269,1,76
362,281,20461,1,0,0:0:0:0:
362,281,20623,1,0,0:0:0:0:
263,334,20786,6,0,L|259:259,1,76
242,72,21110,1,0,0:0:0:0:
239,171,21272,2,0,P|260:173|272:170,2,19
163,212,21434,2,0,B|151:173|151:173|163:127,1,76
312,39,21759,2,0,B|320:73|320:73|308:112,1,76
232,253,22083,5,0,0:0:0:0:
160,10,22245,1,0,0:0:0:0:
170,311,22407,5,0,0:0:0:0:
242,72,22569,1,0,0:0:0:0:
53,207,22732,6,0,B|108:225|108:225|168:210,1,113.999996520996
312,39,22975,2,0,B|268:77|268:77|251:137,1,113.999996520996
300,289,23218,2,0,P|307:262|303:219,1,56.9999982604981
113,143,23380,5,0,0:0:0:0:
454,82,23542,1,0,0:0:0:0:
454,82,24678,5,0,0:0:0:0:
435,60,24759,1,0,0:0:0:0:
410,46,24840,1,0,0:0:0:0:
383,39,24921,1,0,0:0:0:0:
354,41,25002,1,0,0:0:0:0:
327,50,25083,1,0,0:0:0:0:
304,66,25164,1,0,0:0:0:0:
284,87,25245,1,0,0:0:0:0:
269,111,25326,6,0,L|271:162,1,47.5
426,262,25488,2,0,L|438:216,1,47.5
301,304,25651,6,0,B|213:339|213:273|110:325,1,185.249991519928
37,370,25975,6,0,B|28:323|28:323|44:274,1,95
255,218,26299,1,0,0:0:0:0:
82,98,26461,2,0,B|128:87|128:87|176:97,1,95
301,304,26786,2,0,B|254:314|254:314|206:304,1,95
88,202,27110,5,0,0:0:0:0:
226,42,27272,1,0,0:0:0:0:
255,218,27434,5,0,0:0:0:0:
218,15,27596,1,0,0:0:0:0:
179,137,27759,5,0,0:0:0:0:
358,193,27921,1,0,0:0:0:0:
152,125,28083,5,0,0:0:0:0:
388,82,28245,1,0,0:0:0:0:
255,218,28407,6,0,L|252:169,1,47.5
387,295,28569,6,0,B|329:280|329:280|268:305|268:305|203:293,1,190
249,123,29056,2,0,L|254:217,1,95
329,361,29380,1,0,0:0:0:0:
179,286,29542,1,0,0:0:0:0:
157,105,29705,5,0,0:0:0:0:
296,245,29867,1,0,0:0:0:0:
136,181,30029,5,0,0:0:0:0:
301,51,30191,1,0,0:0:0:0:
304,268,30353,5,0,0:0:0:0:
220,48,30515,1,0,0:0:0:0:
179,286,30678,5,0,0:0:0:0:
342,122,30840,1,0,0:0:0:0:
421,334,31002,5,0,0:0:0:0:
421,334,31083,1,0,0:0:0:0:
421,334,31164,6,0,B|369:304|369:304|242:342,1,190
384,205,31651,1,0,0:0:0:0:
384,205,31813,1,0,0:0:0:0:
215,102,31975,6,0,L|110:80,1,95
297,242,32299,2,0,L|204:261,1,95
342,122,32623,6,0,L|353:27,1,95
134,200,32948,2,0,L|123:105,1,95
297,242,33272,1,0,0:0:0:0:
262,30,33434,1,0,0:0:0:0:
230,176,33596,6,0,P|315:145|384:205,1,190
446,110,34083,1,0,0:0:0:0:
298,336,34245,2,0,L|296:223,1,95
262,30,34569,1,0,0:0:0:0:
384,205,34732,1,0,0:0:0:0:
276,117,34894,1,0,0:0:0:0:
371,22,35056,6,0,L|366:72,1,47.5
298,214,35218,1,0,0:0:0:0:
251,214,35299,1,0,0:0:0:0:
210,193,35380,1,0,0:0:0:0:
183,153,35461,1,0,0:0:0:0:
178,106,35542,2,0,P|184:81|185:53,1,47.5
68,209,35705,2,0,P|70:232|77:255,1,47.5
220,350,35867,5,0,0:0:0:0:
276,117,36029,1,0,0:0:0:0:
418,301,36191,1,0,0:0:0:0:
434,297,36272,1,0,0:0:0:0:
455,295,36353,6,0,B|386:280|386:280|335:303|335:303|273:293,1,185.249991519928
201,276,36678,1,0,0:0:0:0:
361,188,36840,1,0,0:0:0:0:
361,188,37002,1,0,0:0:0:0:
309,320,37164,5,0,0:0:0:0:
276,117,37326,1,0,0:0:0:0:
172,173,37488,5,0,0:0:0:0:
369,92,37651,1,0,0:0:0:0:
130,52,37813,5,0,0:0:0:0:
305,226,37975,1,0,0:0:0:0:
174,269,38137,5,0,0:0:0:0:
234,45,38299,1,0,0:0:0:0:
305,226,38461,5,0,0:0:0:0:
444,134,38623,5,0,0:0:0:0:
354,305,38786,1,0,0:0:0:0:
491,225,38948,6,0,B|390:259|410:194|299:227,1,190
174,269,39434,1,0,0:0:0:0:
174,269,39515,1,0,0:0:0:0:
174,269,39596,1,0,0:0:0:0:
354,305,39759,1,0,0:0:0:0:
161,167,39921,1,0,0:0:0:0:
319,22,40083,6,0,P|303:118|307:208,1,185.249991519928
389,184,40407,2,0,P|344:129|240:152,1,185.249991519928
226,228,40732,2,0,P|176:257|168:163,1,185.249991519928
307,205,41056,2,0,P|355:261|458:236,1,185.249991519928
456,129,41380,6,0,B|414:75|346:102|346:102|271:158|182:97,1,285.000010871888
130,59,41786,1,0,0:0:0:0:
130,59,41867,1,0,0:0:0:0:
162,314,42029,2,0,L|275:307,1,95
371,276,42353,1,0,0:0:0:0:
127,328,42515,1,0,0:0:0:0:
261,209,42678,6,0,B|304:158|296:99|268:66|268:66|248:84|234:118,1,190
238,300,43164,1,0,0:0:0:0:
439,235,43326,2,0,P|404:204|355:199,1,95
92,273,43651,2,0,P|138:267|173:236,1,95
273,30,43975,6,0,L|261:204,1,142.5
261,209,44299,1,0,0:0:0:0:
368,77,44461,1,0,0:0:0:0:
384,72,44542,1,0,0:0:0:0:
401,67,44623,2,0,P|409:93|412:125,1,47.5
340,320,44786,1,0,0:0:0:0:
323,316,44867,1,0,0:0:0:0:
306,312,44948,2,0,P|312:285|325:256,1,47.5
425,195,45110,1,0,0:0:0:0:
437,194,45191,1,0,0:0:0:0:
452,193,45272,6,0,B|383:197|383:197|336:176|336:176|262:198,1,185.249991519928
203,224,45596,6,0,P|116:180|209:152,1,246.999988693238
274,194,46002,1,0,0:0:0:0:
274,194,46083,6,0,P|282:159|280:126,1,61.7499971733095
133,266,46245,2,0,P|125:231|127:198,1,61.7499971733095
212,86,46407,6,0,P|185:110|156:125,1,61.7499971733095
17,107,46570,2,0,P|51:117|78:135,1,61.7499971733095
133,266,46732,6,0,P|178:305|264:278,1,152
357,301,47218,1,0,0:0:0:0:
203,222,47380,2,0,B|197:177|197:177|223:108|223:108|238:148,1,152
319,181,47867,1,0,0:0:0:0:
139,117,48029,6,0,L|59:109,1,76
298,93,48353,2,0,L|378:85,1,76
225,22,48678,1,0,0:0:0:0:
218,105,48840,1,0,0:0:0:0:
211,188,49002,1,0,0:0:0:0:
314,125,49164,1,0,0:0:0:0:
137,133,49326,6,0,B|91:114|29:134|29:134|41:102|41:102|59:125,1,152
83,208,49813,1,0,0:0:0:0:
157,325,49975,2,0,B|179:273|179:273|161:217|161:217|158:233|141:261,1,152
233,327,50461,1,0,0:0:0:0:
241,335,50542,1,0,0:0:0:0:
250,341,50623,6,0,L|330:331,1,76
425,254,50948,2,0,L|345:244,1,76
223,128,51272,5,0,0:0:0:0:
234,227,51434,1,0,0:0:0:0:
313,168,51596,1,0,0:0:0:0:
173,35,51759,5,0,0:0:0:0:
391,124,51921,6,0,P|335:85|256:108,1,152
147,116,52407,1,0,0:0:0:0:
147,116,52569,2,0,L|154:195,1,76
264,30,52894,2,0,L|257:109,1,76
364,315,53218,5,0,0:0:0:0:
370,224,53380,2,0,L|374:135,1,76
452,272,53705,1,0,0:0:0:0:
289,210,53867,5,0,0:0:0:0:
265,198,53948,1,0,0:0:0:0:
240,194,54029,1,0,0:0:0:0:
215,198,54110,1,0,0:0:0:0:
148,266,54191,5,0,0:0:0:0:
127,277,54272,1,0,0:0:0:0:
102,282,54353,1,0,0:0:0:0:
77,279,54434,1,0,0:0:0:0:
10,210,54515,6,0,B|-14:159|-8:117|31:88|31:88|39:127,1,152
148,266,55002,1,0,0:0:0:0:
154,288,55083,1,0,0:0:0:0:
153,313,55164,2,0,B|193:337|229:310|229:310|259:330|298:316,1,152
378,358,55651,1,0,0:0:0:0:
272,245,55813,6,0,B|256:200|256:200|265:163|265:163|296:134|296:134|299:154|304:170,1,152
368,227,56299,2,0,L|367:247,2,19
386,199,56461,2,0,B|395:160|395:160|388:116,1,76
231,15,56786,2,0,B|225:50|225:50|234:89,1,76
402,275,57110,6,0,B|356:280|328:247|328:247|295:255|295:255|266:289,1,152
183,333,57596,2,0,L|181:356,2,19
186,307,57759,2,0,L|192:223,1,76
201,140,58083,1,0,0:0:0:0:
274,144,58245,6,0,B|234:150|234:150|197:138,1,76
152,41,58569,2,0,B|192:35|192:35|225:45,1,76
361,115,58894,2,0,L|392:108,2,19
454,102,59056,2,0,P|433:59|335:54,1,152
284,173,59542,1,0,0:0:0:0:
403,259,59705,6,0,B|377:223|337:226|337:226|316:251|267:247,1,152
166,193,60191,2,0,L|170:167,2,19
160,217,60353,2,0,B|155:254|155:254|165:307,1,76
284,173,60678,2,0,B|291:135|291:135|286:98,1,76
74,186,61002,5,0,0:0:0:0:
74,186,61326,1,0,0:0:0:0:
161,152,61488,1,0,0:0:0:0:
161,152,61569,1,0,0:0:0:0:
161,152,61651,2,0,B|167:192|167:192|156:239,1,76
32,340,61975,2,0,B|63:314|63:314|109:300,1,76
326,323,62299,6,0,B|283:286|283:286|178:313,1,152
190,309,62786,2,0,L|194:242,1,38
268,132,62948,2,0,B|273:169|273:169|267:207,1,76
172,169,63272,1,0,0:0:0:0:
232,56,63434,6,0,B|269:50|269:50|307:56,1,76
461,121,63759,2,0,B|423:115|423:115|385:121,1,76
263,130,64083,2,0,L|235:126,2,19
289,136,64245,2,0,L|282:231,1,76
59,203,64569,6,0,B|87:196|87:196|106:207|106:207|139:200,1,76
302,287,64894,6,0,B|259:288|259:288|210:254,1,85.4999973907472
411,235,65218,2,0,L|403:331,1,85.4999973907472
267,78,65542,6,0,L|275:174,1,85.4999973907472
472,132,65867,2,0,B|433:112|433:112|385:116,1,85.4999973907472
243,293,66191,5,0,0:0:0:0:
175,102,66353,1,0,0:0:0:0:
250,324,66515,5,0,0:0:0:0:
349,122,66678,1,0,0:0:0:0:
255,357,66840,5,0,0:0:0:0:
226,38,67002,1,0,0:0:0:0:
170,260,67164,5,0,0:0:0:0:
307,53,67326,1,0,0:0:0:0:
64,158,67488,6,0,L|230:152,1,152
344,137,67975,2,0,P|295:175|276:272,1,152
390,296,68461,2,0,P|380:259|356:230,1,76
199,321,68786,5,0,0:0:0:0:
199,321,68948,1,0,0:0:0:0:
199,222,69110,2,0,L|199:142,1,76
98,291,69434,5,0,0:0:0:0:
98,291,69596,1,0,0:0:0:0:
98,192,69758,2,0,L|98:112,1,76
242,23,70083,6,0,P|225:72|224:189,1,152
370,122,70569,1,0,0:0:0:0:
301,70,70732,2,0,P|292:110|292:163,1,76
342,238,71056,1,0,0:0:0:0:
220,171,71218,1,0,0:0:0:0:
370,122,71380,6,0,L|453:98,1,76
220,171,71705,2,0,L|137:147,1,76
284,86,72029,6,0,L|292:17,2,50.6666666666667
308,195,72353,2,0,L|313:245,2,50.6666666666667
220,171,72678,6,0,B|158:161|158:161|104:185|104:185|37:179,1,190,4|4,0:0|0:0,0:0:0:0:
284,86,73164,1,0,0:0:0:0:
113,336,73326,5,0,0:0:0:0:
87,82,73488,1,2,0:0:0:0:
341,307,73651,5,0,0:0:0:0:
367,53,73813,1,2,0:0:0:0:
91,114,73975,5,0,0:0:0:0:
385,38,74137,1,0,0:0:0:0:
62,134,74299,5,0,0:0:0:0:
372,211,74461,1,0,0:0:0:0:
56,303,74623,5,0,0:0:0:0:
398,201,74786,1,0,0:0:0:0:
179,46,74948,5,0,0:0:0:0:
181,93,75029,1,0,0:0:0:0:
184,140,75110,1,0,0:0:0:0:
186,188,75191,1,0,0:0:0:0:
189,235,75272,5,0,0:0:0:0:
48,174,75434,1,0,0:0:0:0:
400,74,75596,1,0,0:0:0:0:
400,74,75921,5,0,0:0:0:0:
262,359,76083,1,0,0:0:0:0:
262,359,76407,1,0,0:0:0:0:
238,51,76732,5,0,0:0:0:0:
262,359,76894,1,0,0:0:0:0:
49,138,77218,5,0,0:0:0:0:
396,288,77380,1,0,0:0:0:0:
238,51,77542,5,0,0:0:0:0:
256,94,77623,1,0,0:0:0:0:
256,141,77704,1,0,0:0:0:0:
238,185,77785,1,0,0:0:0:0:
206,219,77866,5,0,0:0:0:0:
364,58,78029,1,0,0:0:0:0:
406,346,78191,1,0,0:0:0:0:
406,346,78515,5,0,0:0:0:0:
85,249,78678,1,0,0:0:0:0:
195,340,79002,6,0,P|233:289|197:170,1,190
34,154,79407,1,0,0:0:0:0:
34,154,79488,2,0,P|58:152|82:149,1,47.5
126,45,79651,2,0,P|146:56|166:69,1,47.5
292,312,79813,5,0,0:0:0:0:
234,316,79894,1,0,0:0:0:0:
188,282,79975,1,0,0:0:0:0:
175,225,80056,1,0,0:0:0:0:
202,174,80137,2,0,L|253:163,1,47.5
438,212,80299,1,0,0:0:0:0:
457,234,80380,1,0,0:0:0:0:
480,251,80461,6,0,B|374:197|355:281|257:238,1,227.999993041992
410,325,80948,5,0,0:0:0:0:
433,102,81110,1,0,0:0:0:0:
409,355,81272,5,0,0:0:0:0:
312,154,81434,1,0,0:0:0:0:
400,231,81596,5,0,0:0:0:0:
184,321,81759,1,0,0:0:0:0:
319,368,81921,5,0,0:0:0:0:
195,208,82083,2,0,B|184:150|184:150|208:96,1,113.999996520996
312,154,82407,5,0,0:0:0:0:
83,79,82569,1,0,0:0:0:0:
312,154,82732,5,0,0:0:0:0:
46,239,82894,1,0,0:0:0:0:
193,30,83056,6,0,B|206:100|206:100|169:182|169:182|177:247,1,227.999993041992
326,208,83542,1,0,0:0:0:0:
57,318,83705,1,0,0:0:0:0:
277,277,83867,1,0,0:0:0:0:
120,133,84029,2,0,B|144:180|144:180|136:255,1,113.999996520996
43,202,84353,5,0,0:0:0:0:
261,98,84515,1,0,0:0:0:0:
174,50,84678,5,0,0:0:0:0:
160,319,84840,1,0,0:0:0:0:
328,241,85002,5,0,0:0:0:0:
98,263,85164,1,0,0:0:0:0:
259,326,85326,5,0,0:0:0:0:
327,91,85488,1,0,0:0:0:0:
202,226,85651,6,0,L|386:211,1,170.999994781494
456,202,85975,1,0,0:0:0:0:
259,326,86137,5,0,0:0:0:0:
327,91,86299,1,0,0:0:0:0:
423,280,86461,5,0,0:0:0:0:
202,226,86623,1,0,0:0:0:0:
372,212,86786,5,0,0:0:0:0:
202,226,86948,6,0,B|149:203|149:203|82:212,1,113.999996520996
309,146,87272,2,0,B|362:123|362:123|429:132,1,113.999996520996
131,286,87596,6,0,B|85:250|85:250|18:241,1,113.999996520996
372,212,87921,2,0,B|417:176|417:176|484:167,1,113.999996520996
249,344,88245,6,0,B|257:255|257:255|238:217|238:217|246:122,1,227.999993041992
344,192,88732,1,0,0:0:0:0:
192,44,88894,2,0,B|245:27|245:27|305:43,1,113.999996520996
500,121,89218,2,0,B|447:104|447:104|387:120,1,113.999996520996
246,325,89542,5,0,0:0:0:0:
311,349,89623,1,0,0:0:0:0:
371,315,89704,1,0,0:0:0:0:
385,247,89785,1,0,0:0:0:0:
344,192,89867,2,0,L|280:179,1,56.9999982604981
135,265,90029,2,0,L|193:258,1,56.9999982604981
178,107,90191,5,0,0:0:0:0:
112,101,90272,1,0,0:0:0:0:
52,128,90353,1,0,0:0:0:0:
12,180,90434,1,0,0:0:0:0:
2,245,90515,1,0,0:0:0:0:
25,307,90596,1,0,0:0:0:0:
74,350,90678,2,0,L|152:344,1,56.9999982604981
287,361,90840,6,0,B|291:299|291:299|273:253|273:253|282:188,1,170.999994781494
282,86,91164,6,0,B|300:142|300:142|277:205,1,113.999996520996
193,141,91488,5,0,0:0:0:0:
369,237,91651,1,0,0:0:0:0:
213,314,91813,5,0,0:0:0:0:
282,86,91975,1,0,0:0:0:0:
281,193,92137,5,0,0:0:0:0:
158,13,92299,1,0,0:0:0:0:
79,146,92461,6,0,L|211:140,1,113.999996520996
424,138,92786,1,0,0:0:0:0:
281,193,92948,1,0,0:0:0:0:
333,38,93110,1,0,0:0:0:0:
333,38,93272,2,0,L|326:111,1,56.9999982604981
309,263,93434,6,0,B|265:275|234:250|234:250|188:263|188:263|201:286|221:292,1,170.999994781494
359,317,93759,2,0,P|381:266|357:208,1,113.999996520996
344,195,94002,1,0,0:0:0:0:
344,195,94083,1,0,0:0:0:0:
191,264,94245,5,0,0:0:0:0:
477,224,94407,1,0,0:0:0:0:
406,76,94569,6,0,B|348:55|348:55|277:73,1,123.499994346619
44,165,94894,2,0,B|102:144|102:144|173:162,1,123.499994346619
477,224,95218,6,0,B|419:203|419:203|348:221,1,123.499994346619
115,313,95543,2,0,B|173:292|173:292|244:310,1,132.999995941162
459,349,96029,6,0,B|412:334|384:348|384:348|351:366|298:346,1,152
115,313,96515,1,0,0:0:0:0:
117,327,96596,1,0,0:0:0:0:
120,341,96678,1,0,0:0:0:0:
98,234,96840,5,0,0:0:0:0:
234,289,97002,1,0,0:0:0:0:
136,164,97164,6,0,P|98:153|52:164,1,76
196,222,97488,2,0,P|234:211|280:222,1,76
353,286,97813,2,0,L|334:287,2,19
416,324,97975,2,0,B|427:286|427:286|416:242,1,76
267,143,98299,2,0,B|258:178|258:178|269:216,1,76
397,96,98623,5,0,0:0:0:0:
353,286,98786,1,0,0:0:0:0:
353,286,98867,1,0,0:0:0:0:
353,286,98948,5,0,0:0:0:0:
117,141,99110,1,0,0:0:0:0:
462,230,99272,5,0,0:0:0:0:
297,69,99434,6,0,L|289:138,1,56.9999982604981
203,333,99596,2,0,L|196:276,1,56.9999982604981
117,141,99759,1,0,0:0:0:0:
462,230,99921,5,0,0:0:0:0:
462,230,100083,1,0,0:0:0:0:
462,230,101218,5,0,0:0:0:0:
428,218,101299,1,0,0:0:0:0:
393,222,101380,1,0,0:0:0:0:
363,241,101461,1,0,0:0:0:0:
343,270,101542,1,0,0:0:0:0:
330,307,101623,1,0,0:0:0:0:
302,335,101704,1,0,0:0:0:0:
265,348,101785,1,0,0:0:0:0:
226,344,101866,5,0,0:0:0:0:
172,324,101948,1,0,0:0:0:0:
142,274,102029,1,0,0:0:0:0:
149,216,102110,1,0,0:0:0:0:
191,176,102191,6,0,L|248:186,1,47.5
357,72,102353,2,0,L|310:80,1,47.5
65,54,102515,6,0,B|55:118|55:118|77:170|77:170|62:244,1,185.249991519928
7,335,102840,6,0,L|124:327,1,95
359,295,103164,1,0,0:0:0:0:
227,260,103326,1,0,0:0:0:0:
389,377,103488,5,0,0:0:0:0:
325,177,103651,1,0,0:0:0:0:
264,333,103813,5,0,0:0:0:0:
172,309,103975,5,0,0:0:0:0:
330,265,104137,1,0,0:0:0:0:
208,114,104299,5,0,0:0:0:0:
264,333,104461,1,0,0:0:0:0:
172,309,104623,5,0,0:0:0:0:
325,177,104786,1,0,0:0:0:0:
127,104,104948,5,0,0:0:0:0:
127,104,105029,1,0,0:0:0:0:
127,104,105110,6,0,P|186:37|271:65,1,190
416,177,105596,2,0,B|371:189|371:189|320:175,1,95
208,114,105921,2,0,B|193:164|193:164|207:222,1,95
362,326,106245,2,0,B|377:276|377:276|366:234,1,95
267,275,106569,1,0,0:0:0:0:
366,96,106732,5,0,0:0:0:0:
162,43,106894,1,0,0:0:0:0:
53,165,107056,5,0,0:0:0:0:
257,112,107218,1,0,0:0:0:0:
366,234,107380,5,0,0:0:0:0:
162,181,107542,1,0,0:0:0:0:
273,348,107705,6,0,B|225:347|204:321|204:321|170:362|112:336|112:336|142:324,1,190
267,269,108191,2,0,B|283:225|283:225|272:178,1,95
160,218,108515,5,0,0:0:0:0:
371,144,108678,1,0,0:0:0:0:
239,30,108840,6,0,L|236:99,1,47.5
298,296,109002,1,0,0:0:0:0:
160,218,109164,6,0,L|58:208,1,95
371,144,109488,2,0,L|465:134,1,95
229,15,109813,2,0,L|233:109,1,95
378,302,110137,6,0,P|309:254|210:286,1,190
288,346,110623,1,0,0:0:0:0:
453,330,110786,2,0,P|456:284|426:240,1,95
239,201,111110,2,0,P|277:226|330:222,1,95
457,80,111434,2,0,P|415:100|392:148,1,95
378,302,111759,5,0,0:0:0:0:
348,352,111840,1,0,0:0:0:0:
294,371,111921,1,0,0:0:0:0:
240,349,112002,1,0,0:0:0:0:
214,297,112083,1,0,0:0:0:0:
178,249,112164,1,0,0:0:0:0:
121,237,112245,1,0,0:0:0:0:
72,265,112326,1,0,0:0:0:0:
52,320,112407,6,0,L|56:372,1,47.5
110,69,112569,1,0,0:0:0:0:
251,274,112732,5,0,0:0:0:0:
272,277,112813,1,0,0:0:0:0:
294,280,112894,6,0,B|232:259|197:284|197:284|159:307|104:275,1,185.249991519928
56,237,113218,1,0,0:0:0:0:
245,351,113380,1,0,0:0:0:0:
245,351,113542,1,0,0:0:0:0:
163,208,113705,5,0,0:0:0:0:
357,159,113867,1,0,0:0:0:0:
328,249,114029,5,0,0:0:0:0:
272,40,114191,1,0,0:0:0:0:
328,249,114353,5,0,0:0:0:0:
156,129,114515,1,0,0:0:0:0:
392,183,114678,5,0,0:0:0:0:
161,257,114840,1,0,0:0:0:0:
290,114,115002,5,0,0:0:0:0:
245,351,115164,1,0,0:0:0:0:
156,129,115326,5,0,0:0:0:0:
374,311,115488,2,0,B|328:295|328:295|267:317,1,95
474,258,115813,1,0,0:0:0:0:
265,105,115975,2,0,P|261:158|239:222,1,95
116,253,116299,1,0,0:0:0:0:
156,129,116461,1,0,0:0:0:0:
311,350,116623,6,0,B|346:293|316:226|316:226|303:252|266:273,1,185.249991519928
389,212,116948,2,0,P|324:155|249:198,1,185.249991519928
204,256,117272,2,0,B|154:288|95:279|69:260|69:260|87:256|111:233,1,185.249991519928
166,191,117596,2,0,P|111:129|53:188,1,185.249991519928
18,106,117921,6,0,P|148:70|230:177,1,285.000010871888
233,258,118326,1,0,0:0:0:0:
233,258,118407,5,0,0:0:0:0:
252,87,118569,1,0,0:0:0:0:
348,195,118732,5,0,0:0:0:0:
137,173,118894,1,0,0:0:0:0:
384,198,119056,1,0,0:0:0:0:
252,87,119218,6,0,B|239:153|239:153|263:205|263:205|254:288,1,190
321,145,119705,1,0,0:0:0:0:
175,233,119867,2,0,L|183:355,1,95
321,145,120191,2,0,L|327:50,1,95
439,264,120515,6,0,B|339:304|357:224|252:271,1,190
93,364,121002,1,0,0:0:0:0:
59,330,121083,1,0,0:0:0:0:
45,286,121164,1,0,0:0:0:0:
53,239,121245,1,0,0:0:0:0:
82,202,121326,1,0,0:0:0:0:
114,168,121407,1,0,0:0:0:0:
127,123,121488,1,0,0:0:0:0:
117,77,121569,1,0,0:0:0:0:
86,41,121651,5,0,0:0:0:0:
152,279,121813,6,0,B|199:287|199:287|227:275|227:275|283:283,1,123.499994346619
485,127,122137,2,0,B|416:138|416:138|375:121|375:121|293:132,1,185.249991519928
220,101,122461,2,0,P|216:134|230:185,1,61.7499971733095
342,232,122623,6,0,P|315:212|264:198,1,61.7499971733095
167,272,122786,2,0,P|197:258|234:221,1,61.7499971733095
25,186,122948,6,0,L|32:247,1,61.7499971733095
125,62,123110,2,0,L|116:132,1,61.7499971733095
128,358,123272,5,0,0:0:0:0:
128,358,123434,1,0,0:0:0:0:
159,96,125542,5,0,0:0:0:0:
155,143,125623,1,0,0:0:0:0:
151,190,125704,1,0,0:0:0:0:
147,238,125785,1,0,0:0:0:0:
143,285,125866,5,0,0:0:0:0:
405,255,126029,1,0,0:0:0:0:
131,268,126191,5,0,0:0:0:0:
418,294,126354,1,0,0:0:0:0:
255,312,127651,6,0,L|251:354,2,30.8749985866547
316,242,127813,6,0,B|259:219|259:219|202:241,1,123.499994346619
19,287,128056,2,0,B|76:310|76:310|133:288,1,123.499994346619
77,156,128299,2,0,L|78:218,1,61.7499971733095
255,312,128461,5,0,0:0:0:0:
242,75,128623,1,0,0:0:0:0:
259,340,128786,1,0,0:0:0:0:
259,340,129272,5,0,0:0:0:0:
259,340,129353,1,0,0:0:0:0:
259,340,129434,1,0,0:0:0:0:
372,196,129596,1,0,0:0:0:0:
433,271,129759,6,0,B|372:291|372:291|306:269,1,123.499994346619
199,274,130002,2,0,B|260:254|260:254|326:276,1,123.499994346619
375,328,130245,1,0,0:0:0:0:
483,187,130407,1,0,0:0:0:0:
494,150,130488,1,0,0:0:0:0:
484,113,130569,1,0,0:0:0:0:
456,87,130650,1,0,0:0:0:0:
418,80,130731,1,0,0:0:0:0:
383,93,130812,1,0,0:0:0:0:
359,123,130893,1,0,0:0:0:0:
355,161,130974,1,0,0:0:0:0:
372,196,131056,6,0,B|319:221|319:221|277:205|277:205|239:225|183:206,1,190
426,154,131542,1,0,0:0:0:0:
426,154,131623,1,0,0:0:0:0:
426,154,131705,2,0,P|394:246|384:343,1,190
279,249,132191,6,0,P|236:277|210:331,1,95
375,220,132515,2,0,P|350:179|310:155,1,95
98,178,132840,2,0,L|67:171,2,23.75
117,190,133002,2,0,L|219:186,1,95
411,82,133326,2,0,L|309:78,1,95
123,71,133651,5,0,0:0:0:0:
179,293,133813,1,0,0:0:0:0:
394,191,133975,2,0,L|274:170,1,95
162,159,134299,5,0,0:0:0:0:
364,69,134461,1,0,0:0:0:0:
333,296,134623,1,0,0:0:0:0:
300,174,134786,1,0,0:0:0:0:
179,293,134948,6,0,B|131:288|131:288|73:285,1,95
268,358,135272,2,0,B|285:312|285:312|303:257,1,95
179,157,135596,5,0,0:0:0:0:
352,135,135759,1,0,0:0:0:0:
233,232,135921,5,0,0:0:0:0:
288,51,136083,1,0,0:0:0:0:
330,230,136245,6,0,B|377:242|377:242|437:228,1,95
213,81,136569,2,0,B|166:69|166:69|106:83,1,95
376,159,136894,2,0,L|371:61,1,95
161,152,137218,2,0,L|156:246,1,95
266,308,137542,5,0,0:0:0:0:
77,196,137705,1,0,0:0:0:0:
269,329,137867,5,0,0:0:0:0:
231,189,138029,1,0,0:0:0:0:
274,353,138191,5,0,0:0:0:0:
304,117,138353,1,0,0:0:0:0:
280,375,138515,5,0,0:0:0:0:
368,218,138678,1,0,0:0:0:0:
93,288,138840,6,0,L|278:277,1,142.5
264,277,139164,1,0,0:0:0:0:
132,202,139326,1,0,0:0:0:0:
305,268,139488,1,0,0:0:0:0:
163,327,139651,1,0,0:0:0:0:
341,261,139813,1,0,0:0:0:0:
191,254,139975,1,0,0:0:0:0:
409,307,140137,6,0,B|421:257|421:257|406:210,1,95
292,90,140461,2,0,B|278:131|278:131|290:181,1,95
337,350,140786,5,0,0:0:0:0:
399,136,140948,1,0,0:0:0:0:
209,257,141110,6,0,B|249:253|249:253|266:260|266:260|302:255,1,95
313,36,141434,5,0,0:0:0:0:
258,175,141596,1,0,0:0:0:0:
399,136,141759,5,0,0:0:0:0:
227,29,141921,1,0,0:0:0:0:
209,257,142083,5,0,0:0:0:0:
317,111,142245,1,0,0:0:0:0:
89,148,142407,6,0,B|135:136|135:136|181:145,1,95
347,246,142732,5,0,0:0:0:0:
137,218,142894,1,0,0:0:0:0:
369,163,143056,5,0,0:0:0:0:
107,295,143218,1,0,0:0:0:0:
438,227,143380,5,0,0:0:0:0:
53,234,143542,1,0,0:0:0:0:
416,305,143705,5,0,0:0:0:0:
73,155,143867,1,0,0:0:0:0:
269,30,144029,6,0,B|275:87|275:87|259:121|259:121|265:191,1,152
309,255,144515,2,0,P|267:219|173:236,1,152
189,351,145002,2,0,P|206:315|236:288,1,76
405,330,145326,5,0,0:0:0:0:
324,201,145488,1,0,0:0:0:0:
324,201,145651,2,0,L|316:292,1,76
352,97,145975,5,0,0:0:0:0:
438,240,146137,1,0,0:0:0:0:
438,240,146299,2,0,L|448:154,1,76
324,201,146623,6,0,P|253:196|166:199,1,152
230,118,147110,1,0,0:0:0:0:
230,118,147272,2,0,P|192:106|129:110,1,76
98,211,147596,2,0,P|135:209|171:197,1,76
248,41,147921,5,0,0:0:0:0:
324,183,148083,1,0,0:0:0:0:
405,100,148245,2,0,L|309:95,1,76
156,104,148569,5,0,0:0:0:0:
83,106,148677,5,0,0:0:0:0:
37,162,148785,5,0,0:0:0:0:
47,233,148893,5,0,0:0:0:0:
103,276,149001,5,0,0:0:0:0:
174,261,149109,5,0,0:0:0:0:
128,186,149218,6,0,B|184:177|184:177|220:193|220:193|262:179|262:179|330:190,1,190
83,106,149705,1,0,0:0:0:0:
154,361,149867,5,0,0:0:0:0:
215,63,150029,1,0,0:0:0:0:
386,296,150191,5,0,0:0:0:0:
330,17,150353,1,0,0:0:0:0:
422,201,150515,5,0,0:0:0:0:
83,106,150678,1,0,0:0:0:0:
422,100,150840,5,0,0:0:0:0:
25,264,151003,1,0,0:0:0:0:
491,269,151164,5,0,0:0:0:0:
32,174,151326,1,0,0:0:0:0:
286,348,151488,5,0,0:0:0:0:
289,300,151569,1,0,0:0:0:0:
292,253,151650,1,0,0:0:0:0:
296,205,151731,1,0,0:0:0:0:
299,158,151812,5,0,0:0:0:0:
194,298,151975,1,0,0:0:0:0:
140,22,152137,1,0,0:0:0:0:
140,22,152461,5,0,0:0:0:0:
65,344,152623,1,0,0:0:0:0:
390,270,152948,1,0,0:0:0:0:
65,344,153272,5,0,0:0:0:0:
390,270,153434,1,0,0:0:0:0:
390,270,153759,5,0,0:0:0:0:
65,196,153921,1,0,0:0:0:0:
237,118,154083,5,0,0:0:0:0:
261,158,154164,1,0,0:0:0:0:
270,204,154245,1,0,0:0:0:0:
261,251,154326,1,0,0:0:0:0:
236,291,154407,5,0,0:0:0:0:
65,196,154569,1,0,0:0:0:0:
435,112,154732,1,0,0:0:0:0:
435,112,155056,5,0,0:0:0:0:
144,341,155218,1,0,0:0:0:0:
345,348,155542,6,0,P|431:315|327:319,1,284.999991302491
269,362,156029,6,0,L|210:352,1,56.9999982604981
120,265,156191,2,0,L|63:274,1,56.9999982604981
239,177,156353,6,0,L|231:233,1,56.9999982604981
95,100,156515,2,0,L|102:156,1,56.9999982604981
239,23,156678,6,0,L|231:79,1,56.9999982604981
120,265,156840,2,0,L|127:321,1,56.9999982604981
409,238,157002,5,0,0:0:0:0:
389,185,157083,1,0,0:0:0:0:
343,152,157164,1,0,0:0:0:0:
287,149,157245,1,0,0:0:0:0:
239,177,157326,6,0,B|236:243,1,61.7499971733095
340,349,157488,2,0,B|337:287,1,61.7499971733095
180,56,157651,5,0,0:0:0:0:
207,371,157813,1,0,0:0:0:0:
210,112,166083,5,0,0:0:0:0:
208,96,166245,1,0,0:0:0:0:
206,80,166407,1,0,0:0:0:0:
204,64,166569,1,0,0:0:0:0:
292,82,166732,5,0,0:0:0:0:
343,99,166813,1,0,0:0:0:0:
372,145,166894,1,0,0:0:0:0:
367,199,166975,1,0,0:0:0:0:
330,239,167056,1,0,0:0:0:0:
276,247,167137,1,0,0:0:0:0:
229,220,167218,1,0,0:0:0:0:
202,48,167380,5,0,0:0:0:0:
161,337,167542,1,0,0:0:0:0:
161,337,167867,6,0,B|209:325|209:325|247:345|247:345|288:371|345:342,1,190
455,261,168353,2,0,B|412:245|412:245|364:252,1,95
289,280,168596,1,0,0:0:0:0:
289,280,168678,5,0,0:0:0:0:
396,119,168840,1,0,0:0:0:0:
437,350,169002,1,0,0:0:0:0:
214,330,169164,6,0,B|194:275|216:238|216:238|203:197|203:197|228:140,1,190
266,116,169569,1,0,0:0:0:0:
274,62,169650,1,0,0:0:0:0:
242,19,169731,1,0,0:0:0:0:
189,9,169812,1,0,0:0:0:0:
144,39,169893,1,0,0:0:0:0:
133,92,169975,6,0,P|136:149|100:212,1,113.999996520996
11,327,170218,6,0,P|58:296|131:296,1,113.999996520996
248,252,170461,6,0,P|220:245|175:243,1,56.9999982604981
8,122,170623,6,0,B|91:119|91:119|134:145|134:145|228:141,1,227.999993041992
397,71,171110,1,0,0:0:0:0:
170,62,171272,5,0,0:0:0:0:
416,194,171434,1,0,0:0:0:0:
289,28,171596,5,0,0:0:0:0:
197,338,171759,6,0,B|184:275|184:275|212:217,1,123.499994346619
289,28,172083,2,0,B|314:81|314:81|301:144,1,123.499994346619
45,108,172407,2,0,B|99:83|99:83|162:96,1,123.499994346619
423,295,172732,6,0,B|332:303|332:303|264:270|264:270|169:280,1,246.999988693238
23,247,173218,5,0,0:0:0:0:
23,247,173380,1,0,0:0:0:0:
232,206,173542,5,0,0:0:0:0:
232,206,173705,1,0,0:0:0:0:
54,88,173867,5,0,0:0:0:0:
54,88,174029,1,0,0:0:0:0:
184,278,174191,5,0,0:0:0:0:
184,278,174353,1,0,0:0:0:0:
139,70,174515,5,0,0:0:0:0:
139,70,174678,1,0,0:0:0:0:
97,295,174840,5,0,0:0:0:0:
97,295,175002,1,0,0:0:0:0:
216,118,175164,5,0,0:0:0:0:
216,118,175326,1,0,0:0:0:0:
6,163,175488,5,0,0:0:0:0:
6,163,175651,1,0,0:0:0:0:
149,191,175813,5,0,0:0:0:0:
197,212,175894,1,0,0:0:0:0:
249,206,175975,1,0,0:0:0:0:
291,173,176056,1,0,0:0:0:0:
311,124,176137,5,0,0:0:0:0:
326,79,176218,1,0,0:0:0:0:
362,49,176299,1,0,0:0:0:0:
409,42,176380,1,0,0:0:0:0:
453,61,176461,1,0,0:0:0:0:
480,100,176542,1,0,0:0:0:0:
482,147,176623,1,0,0:0:0:0:
459,189,176704,1,0,0:0:0:0:
418,212,176786,5,0,0:0:0:0:
365,216,176867,1,0,0:0:0:0:
323,248,176948,1,0,0:0:0:0:
306,298,177029,1,0,0:0:0:0:
319,349,177110,6,0,L|327:390,1,42.7499986953736
151,307,177272,2,0,L|86:318,1,42.7499986953736
260,196,177434,6,0,L|271:143,1,42.7499986953736
177,35,177596,2,0,L|174:82,1,42.7499986953736
151,307,177759,6,0,L|156:361,1,42.7499986953736
361,307,177921,2,0,L|356:361,1,42.7499986953736
256,238,178083,6,0,L|259:195,1,42.7499986953736
270,74,178245,1,0,0:0:0:0:
417,196,178407,5,0,0:0:0:0:
72,210,178569,1,0,0:0:0:0:
444,192,178732,1,0,0:0:0:0:
444,192,179056,5,0,0:0:0:0:
84,72,179218,1,0,0:0:0:0:
259,137,179542,5,0,0:0:0:0:
382,48,179867,5,0,0:0:0:0:
401,321,180029,1,0,0:0:0:0:
159,12,180353,5,0,0:0:0:0:
100,280,180515,1,0,0:0:0:0:
358,158,180678,5,0,0:0:0:0:
311,132,180759,1,0,0:0:0:0:
259,137,180840,1,0,0:0:0:0:
218,170,180921,1,0,0:0:0:0:
202,220,181002,5,0,0:0:0:0:
280,41,181164,1,0,0:0:0:0:
308,349,181326,1,0,0:0:0:0:
49,227,181651,5,0,0:0:0:0:
462,210,181813,1,0,0:0:0:0:
49,227,182137,6,0,B|119:218|119:218|178:246|178:246|266:215|266:215|347:244|347:244|433:220,1,398.999987823487
462,210,182786,1,0,0:0:0:0:
488,160,182867,1,0,0:0:0:0:
483,104,182948,1,0,0:0:0:0:
448,61,183029,1,0,0:0:0:0:
395,44,183110,1,0,0:0:0:0:
341,60,183191,1,0,0:0:0:0:
305,103,183272,6,0,L|296:165,1,56.9999982604981
128,46,183434,2,0,L|137:107,1,56.9999982604981
150,274,183596,6,0,P|190:255|240:255,1,85.4999973907472
318,257,183921,6,0,B|332:132|332:132|283:169,1,170.999994781494
295,159,184245,1,0,0:0:0:0:
461,206,184407,2,0,L|390:211,1,56.9999982604981
194,154,184569,1,0,0:0:0:0:
324,370,184732,2,0,L|317:256,1,113.999996520996
194,154,185056,1,0,0:0:0:0:
411,323,185218,2,0,L|404:209,1,113.999996520996
257,101,185542,6,0,P|270:132|275:182,1,56.9999982604981
185,310,185705,1,0,0:0:0:0:
110,136,185867,1,0,0:0:0:0:
276,272,186029,1,0,0:0:0:0:
328,290,186110,1,0,0:0:0:0:
383,277,186191,2,0,P|397:227|379:163,1,113.999996520996
116,257,186515,2,0,P|101:311|114:366,1,113.999996520996
257,101,186840,5,0,0:0:0:0:
246,349,187002,2,0,L|243:233,1,113.999996520996
410,324,187326,5,0,0:0:0:0:
354,83,187488,1,0,0:0:0:0:
429,301,187651,5,0,0:0:0:0:
208,188,187813,1,0,0:0:0:0:
443,275,187975,5,0,0:0:0:0:
177,343,188137,1,0,0:0:0:0:
448,246,188299,5,0,0:0:0:0:
283,112,188461,1,0,0:0:0:0:
232,86,188542,1,0,0:0:0:0:
176,91,188623,1,0,0:0:0:0:
132,125,188704,1,0,0:0:0:0:
112,178,188786,6,0,L|105:305,1,113.999996520996
67,67,189110,1,0,0:0:0:0:
221,209,189272,5,0,0:0:0:0:
259,9,189434,1,0,0:0:0:0:
112,178,189596,5,0,0:0:0:0:
320,150,189758,1,0,0:0:0:0:
34,124,189921,6,0,B|15:178|15:178|29:248,1,113.999996520996
406,206,190245,2,0,B|417:150|417:150|398:96,1,113.999996520996
158,332,190569,6,0,B|212:349|212:349|274:334,1,113.999996520996
265,46,190894,2,0,B|209:32|209:32|155:49,1,113.999996520996
349,201,191218,1,0,0:0:0:0:
377,203,191299,1,0,0:0:0:0:
406,206,191380,6,0,B|324:200|324:200|263:223|263:223|169:217,1,227.999993041992
68,205,191867,1,0,0:0:0:0:
343,290,192029,5,0,0:0:0:0:
246,126,192191,1,0,0:0:0:0:
360,312,192353,5,0,0:0:0:0:
298,62,192515,1,0,0:0:0:0:
377,334,192678,5,0,0:0:0:0:
324,313,192759,5,0,0:0:0:0:
291,267,192840,5,0,0:0:0:0:
289,211,192921,5,0,0:0:0:0:
317,163,193002,5,0,0:0:0:0:
368,138,193083,5,0,0:0:0:0:
423,144,193164,5,0,0:0:0:0:
467,180,193245,5,0,0:0:0:0:
484,233,193326,6,0,L|481:301,1,56.9999982604981
306,125,193488,2,0,L|317:52,1,56.9999982604981
350,354,193651,6,0,L|294:347,1,56.9999982604981
87,203,193813,2,0,L|143:198,1,56.9999982604981
382,234,193975,6,0,B|334:235|303:199|303:199|278:234|234:233,1,170.999994781494
150,311,194299,6,0,L|143:198,1,113.999996520996
277,344,194623,1,0,0:0:0:0:
70,154,194786,2,0,P|114:117|176:121,1,113.999996520996
333,270,195110,6,0,B|280:249|280:249|201:269,1,113.999996520996
399,140,195434,1,0,0:0:0:0:
171,43,195596,2,0,P|187:106|186:169,1,113.999996520996
367,275,195921,5,0,0:0:0:0:
120,299,196083,1,0,0:0:0:0:
367,275,196245,5,0,0:0:0:0:
120,299,196407,1,0,0:0:0:0:
256,147,196569,6,0,L|242:374,1,227.999993041992
343,240,197056,1,0,0:0:0:0:
343,240,197137,1,0,0:0:0:0:
343,240,197218,6,0,L|348:316,1,56.9999982604981
170,155,197380,2,0,L|184:98,1,56.9999982604981
348,18,197542,6,0,L|353:92,1,56.9999982604981
477,322,197705,6,0,B|433:292|395:296|395:296|349:332|295:300,1,185.249991519928
35,238,198029,6,0,B|79:208|117:212|117:212|163:248|217:216,1,185.249991519928
485,156,198353,6,0,B|441:126|403:130|403:130|357:166|303:134,1,185.249991519928
27,72,198678,6,0,B|71:42|109:46|109:46|155:82|211:50,1,190
258,0,199164,6,0,L|253:165,1,152
253,273,199651,2,0,L|254:304,2,19
293,205,199813,6,0,B|254:196|254:196|206:207,1,76
148,273,200137,1,0,0:0:0:0:
100,99,200299,6,0,B|87:137|87:137|92:172,1,76
255,118,200623,2,0,B|260:83|260:83|247:44,1,76
177,200,200948,6,0,L|180:226,2,19
72,289,201110,6,0,B|107:272|134:276|134:276|169:302|217:282,1,152
313,260,201596,1,0,0:0:0:0:
243,43,201759,6,0,B|205:91|205:91|210:162,1,113.999996520996
334,158,202002,1,0,0:0:0:0:
334,158,202083,2,0,P|316:136|284:124,1,56.9999982604981
78,204,202245,1,0,0:0:0:0:
278,346,202407,5,0,0:0:0:0:
243,43,202569,1,0,0:0:0:0:
243,43,202651,1,0,0:0:0:0:
243,43,202732,2,0,L|237:115,1,56.9999982604981
394,277,202894,2,0,L|389:220,1,56.9999982604981
78,204,203056,5,0,0:0:0:0:
78,204,203218,1,0,0:0:0:0:
131,76,203705,5,0,0:0:0:0:
131,76,204030,1,0,0:0:0:0:
22,121,204353,5,0,0:0:0:0:
53,188,204434,1,0,0:0:0:0:
118,219,204515,1,0,0:0:0:0:
190,205,204596,1,0,0:0:0:0:
235,148,204678,5,0,0:0:0:0:
257,77,204759,1,0,0:0:0:0:
317,36,204840,1,0,0:0:0:0:
390,42,204921,1,0,0:0:0:0:
444,93,205002,6,0,P|442:120|433:157,1,61.7499971733095
246,233,205164,2,0,P|238:203|235:172,1,61.7499971733095
473,315,205326,6,0,B|433:270|367:265|313:305|313:305|358:341,1,213.750008153916
405,365,205651,5,4,0:0:0:0:
314,88,205813,1,0,0:0:0:0:
191,342,205975,1,0,0:0:0:0:
390,230,206137,1,0,0:0:0:0:
174,101,206299,5,0,0:0:0:0:
317,303,206461,1,0,0:0:0:0:
314,88,206623,1,0,0:0:0:0:
191,342,206786,1,0,0:0:0:0:
390,230,206948,2,0,L|263:214,1,113.999996520996
55,179,207272,5,0,0:0:0:0:
489,127,207434,1,0,0:0:0:0:
51,151,207596,5,0,0:0:0:0:
487,234,207759,1,0,0:0:0:0:
54,126,207921,5,0,0:0:0:0:
442,337,208083,1,0,0:0:0:0:
42,281,208245,6,0,B|114:271|114:271|157:295|157:295|264:281,1,227.999993041992
148,73,208732,1,0,0:0:0:0:
429,203,208894,5,0,0:0:0:0:
272,13,209056,2,0,L|263:130,1,113.999996520996
442,337,209380,2,0,L|433:223,1,113.999996520996
278,313,209705,1,0,0:0:0:0:
137,136,209867,5,0,0:0:0:0:
433,224,210029,1,0,0:0:0:0:
73,230,210191,5,0,0:0:0:0:
450,111,210353,1,0,0:0:0:0:
138,321,210515,5,0,0:0:0:0:
366,39,210678,1,0,0:0:0:0:
266,368,210840,6,0,B|279:311|279:311|262:258,1,113.999996520996
137,136,211164,1,0,0:0:0:0:
330,16,211326,2,0,B|313:74|313:74|321:140,1,113.999996520996
473,297,211651,2,0,B|418:278|418:278|360:296,1,113.999996520996
147,363,211975,5,0,0:0:0:0:
319,127,212137,1,0,0:0:0:0:
27,298,212299,5,0,0:0:0:0:
426,218,212461,1,0,0:0:0:0:
33,163,212623,5,0,0:0:0:0:
292,363,212786,1,0,0:0:0:0:
319,127,212948,5,0,0:0:0:0:
147,363,213111,1,0,0:0:0:0:
325,254,213272,5,0,0:0:0:0:
160,13,213434,2,0,B|164:143,1,113.999996520996
221,300,213759,5,0,0:0:0:0:
400,73,213921,2,0,B|384:202,1,113.999996520996
221,300,214245,2,0,B|340:248,1,113.999996520996
508,341,214570,2,0,B|403:263,1,113.999996520996
253,159,214894,5,0,0:0:0:0:
193,131,214975,1,0,0:0:0:0:
128,141,215056,1,0,0:0:0:0:
80,186,215137,1,0,0:0:0:0:
65,250,215218,1,0,0:0:0:0:
88,311,215299,1,0,0:0:0:0:
141,349,215380,6,0,L|219:349,1,56.9999982604981
455,249,215542,2,0,L|389:240,1,56.9999982604981
190,74,215705,6,0,L|193:131,1,56.9999982604981
296,375,215867,1,0,0:0:0:0:
303,348,215948,1,0,0:0:0:0:
298,319,216029,6,0,B|181:276|202:357|68:306,1,227.999993041992
261,87,216515,2,0,B|271:142|271:142|244:200,1,113.999996520996
75,308,216840,2,0,B|117:271|117:271|181:266,1,113.999996520996
360,359,217164,2,0,B|307:340|307:340|270:287,1,113.999996520996
132,121,217488,5,0,0:0:0:0:
438,51,217650,1,0,0:0:0:0:
110,116,217813,5,0,0:0:0:0:
490,152,217975,1,0,0:0:0:0:
91,113,218137,5,0,0:0:0:0:
478,266,218300,1,0,0:0:0:0:
111,299,218461,6,0,B|249:252|204:331|333:292,1,227.999993041992
154,168,218948,1,0,0:0:0:0:
177,369,219110,1,0,0:0:0:0:
177,369,219191,1,0,0:0:0:0:
177,369,219272,1,0,0:0:0:0:
276,213,219434,1,0,0:0:0:0:
362,377,219596,1,0,0:0:0:0:
192,221,219759,6,0,P|230:137|318:136,1,185.249991519928
404,246,220083,6,0,B|344:252|276:214|276:214|293:246|298:284,1,185.249991519928
125,314,220407,6,0,B|94:303|88:272|88:272|147:286|221:266,1,185.249991519928
395,162,220732,6,0,P|333:204|349:312,1,185.249991519928
226,360,221056,6,0,B|236:309|236:309|213:269|213:269|231:198|231:198|212:148|212:148|226:79,1,285.000010871888
307,38,221461,1,0,0:0:0:0:
307,38,221542,6,0,B|322:92|322:92|301:150,1,113.999996520996
148,43,221867,5,0,0:0:0:0:
232,304,222029,1,0,0:0:0:0:
302,146,222191,1,0,0:0:0:0:
20,219,222353,6,0,B|78:236|125:204|125:204|174:239|239:217,1,227.999993041992
160,10,222840,1,0,0:0:0:0:
127,206,223002,1,0,0:0:0:0:
127,206,223083,1,0,0:0:0:0:
127,206,223164,5,0,0:0:0:0:
68,80,223326,1,0,0:0:0:0:
24,338,223488,1,0,0:0:0:0:
289,217,223651,6,0,B|127:206|127:206|177:249,1,227.999993041992
402,176,224137,1,0,0:0:0:0:
444,68,224299,5,0,0:0:0:0:
375,55,224380,1,0,0:0:0:0:
311,85,224461,1,0,0:0:0:0:
278,147,224542,1,0,0:0:0:0:
289,217,224623,5,0,0:0:0:0:
245,270,224704,1,0,0:0:0:0:
175,281,224785,1,0,0:0:0:0:
118,241,224866,1,0,0:0:0:0:
103,173,224948,6,0,L|113:37,1,123.499994346619
402,176,225272,6,0,P|458:217|454:120,1,213.750008153916
366,38,225596,1,0,0:0:0:0:
366,38,225678,1,0,0:0:0:0:
366,38,225759,6,0,L|358:117,1,71.2500027179719
269,284,225921,6,0,L|265:209,1,71.2500027179719
168,72,226083,6,0,L|152:144,1,71.2500027179719
38,302,226245,6,0,P|177:214|8:261,1,494
91,231,228515,5,0,0:0:0:0:
198,242,228678,5,0,0:0:0:0:
232,344,228840,5,0,0:0:0:0:
256,192,228921,12,0,231596,0:0:0:0:
