osu file format v14

[General]
AudioFilename: audio.mp3
AudioLeadIn: 0
PreviewTime:142810
Countdown: 0
SampleSet: Soft
StackLeniency: 0.7
Mode: 0
LetterboxInBreaks: 0
WidescreenStoryboard: 1

[Editor]
DistanceSpacing: 1.2
BeatDivisor: 4
GridSize: 16
TimelineZoom: 2.4

[Metadata]
Title:Teo
TitleUnicode:テオ
Artist:Alfakyun.
ArtistUnicode:+α/あるふぁきゅん。
Creator:netnesanya
Version:Hard
Source:
Tags:-Light- shirasaka koume rollpan wajinshu 歌ってみた utattemita 歌い手 utaite cover japanese rock vocaloid 初音ミク hatsune miku synth first waltz omoi rootage a rootage/α alpha
BeatmapID:1655703
BeatmapSetID:780250

[Difficulty]
HPDrainRate:5
CircleSize:3.8
OverallDifficulty:6
ApproachRate:8
SliderMultiplier:1.5
SliderTickRate:1

[Events]
//Background and Video events
0,0,"Konachan.com - 264137 choker dark dress hatsune_miku long_hair music paper twintails vocaloid yyb.jpg",0,0
//Break Periods
2,143009,147249
//Storyboard Layer 0 (Background)
//Storyboard Layer 1 (Fail)
//Storyboard Layer 2 (Pass)
//Storyboard Layer 3 (Foreground)
//Storyboard Layer 4 (Overlay)
//Storyboard Sound Samples

[TimingPoints]
2702,324.324324324324,4,2,1,60,1,0
12593,-100,4,2,1,60,0,0
23458,-125,4,2,1,65,0,0
28647,-125,4,2,1,65,0,0
33837,-125,4,2,1,65,0,0
38945,-125,4,2,1,65,0,0
41620,-125,4,2,1,60,0,0
42918,-125,4,2,1,60,0,0
44215,-100,4,2,1,60,0,0
49404,-125,4,2,1,65,0,0
54512,-125,4,2,1,65,0,0
59783,-125,4,2,1,65,0,0
64972,-100,4,2,1,65,0,0
67242,-100,4,2,1,40,0,0
68539,-100,4,2,1,60,0,0
69026,-100,4,2,1,60,0,0
69188,-100,4,2,1,60,0,0
69350,-100,4,2,1,60,0,0
70161,-100,4,2,1,60,0,1
78999,-100,4,2,1,50,0,1
79566,-100,4,2,1,55,0,1
79891,-100,4,2,1,55,0,1
80053,-100,4,2,1,60,0,1
87674,-100,4,2,1,80,0,1
89783,-100,4,2,1,55,0,1
90918,-100,4,2,1,80,0,1
100323,-100,4,2,1,60,0,1
101296,-100,4,2,1,80,0,1
110134,-100,4,2,1,60,0,1
111350,-100,4,2,1,55,0,1
111674,-100,4,2,1,80,0,0
111999,-100,4,2,1,40,0,0
116539,-83.3333333333333,4,2,1,65,0,0
116783,-83.3333333333333,4,2,1,5,0,0
116864,-100,4,2,1,65,0,0
125945,-100,4,2,1,55,0,0
126593,-100,4,2,1,60,0,0
127242,-100,4,2,1,65,0,0
132026,-100,4,2,1,50,0,0
132431,-100,4,2,1,65,0,0
137620,-100,4,2,1,45,0,0
141188,-100,4,2,1,65,0,0
142485,-133.333333333333,4,2,1,65,0,0
142891,-133.333333333333,4,2,1,65,0,0
144107,-133.333333333333,4,2,1,65,0,0
144188,-133.333333333333,4,2,1,65,0,0
145404,-133.333333333333,4,2,1,65,0,0
145485,-133.333333333333,4,2,1,65,0,0
146701,-133.333333333333,4,2,1,65,0,0
146783,-133.333333333333,4,2,1,65,0,0
147999,-100,4,2,1,65,0,0
149296,-100,4,2,1,65,0,0
149945,-100,4,2,1,65,0,0
150593,-83.3333333333333,4,2,1,65,0,0
151242,-100,4,2,1,65,0,0
151404,-100,4,2,1,65,0,0
151729,-100,4,2,1,65,0,0
152864,-133.333333333333,4,2,1,65,0,0
153188,-100,4,2,1,60,0,1
153512,-100,4,2,1,65,0,1
170701,-100,4,2,1,80,0,1
182864,-100,4,2,1,55,0,1
183674,-100,4,2,1,60,0,1
184323,-100,4,2,1,65,0,0

[Colours]
Combo1 : 73,168,188
Combo2 : 54,235,221
Combo3 : 95,112,231
Combo4 : 49,52,157

[HitObjects]
415,363,12593,6,0,L|412:320,5,37.5,8|8|8|8|8|8,0:0|0:0|0:0|0:0|0:0|0:0,0:0:0:0:
444,293,13080,6,0,P|434:251|443:208,1,75,6|0,0:0|0:0,0:0:0:0:
488,145,13404,2,0,L|404:136,1,75,10|0,0:0|0:0,0:0:0:0:
342,80,13729,2,0,L|267:87,1,75,4|0,3:0|0:0,0:0:0:0:
185,51,14053,2,0,P|174:96|179:135,1,75,10|0,0:0|0:0,0:0:0:0:
213,206,14377,6,0,P|252:194|295:206,1,75,2|0,0:2|0:0,0:0:0:0:
333,276,14701,2,0,L|324:358,1,75,10|2,0:0|0:0,0:0:0:0:
235,365,15026,2,0,L|199:358,2,37.5,0|0|2,0:3|0:0|0:0,0:0:0:0:
324,350,15350,1,10,0:0:0:0:
324,350,15512,1,2,0:0:0:0:
409,376,15674,6,0,L|493:370,1,75,6|0,0:2|0:0,0:0:0:0:
498,281,15999,2,0,P|483:244|491:192,1,75,10|0,0:0|0:0,0:0:0:0:
506,122,16323,2,0,L|424:112,1,75,2|0,0:2|0:0,0:0:0:0:
349,75,16647,2,0,L|274:84,1,75,10|0,0:0|0:0,0:0:0:0:
198,34,16972,6,0,P|184:71|186:117,1,75,2|0,0:2|0:0,0:0:0:0:
238,177,17296,2,0,P|237:214|223:249,1,75,10|2,0:0|0:0,0:0:0:0:
173,323,17620,2,0,L|179:371,2,37.5,2|0|10,0:0|0:0|0:0,0:0:0:0:
94,277,17945,1,10,0:0:0:0:
94,277,18107,1,0,0:0:0:0:
34,209,18269,6,0,P|71:192|119:192,1,75,4|0,0:2|0:0,0:0:0:0:
181,236,18593,2,0,B|189:204|189:204|189:147,1,75,10|0,0:0|0:0,0:0:0:0:
136,88,18918,2,0,P|183:75|230:90,1,75,2|0,0:2|0:0,0:0:0:0:
276,137,19242,2,0,P|323:150|370:135,1,75,10|0,0:0|0:0,0:0:0:0:
433,116,19566,6,0,L|426:203,1,75,2|0,0:2|0:0,0:0:0:0:
343,225,19891,2,0,L|350:312,1,75,10|2,0:0|0:0,0:0:0:0:
411,364,20215,2,0,L|458:354,2,37.5,2|0|2,0:0|0:0|0:0,0:0:0:0:
349,299,20539,1,10,0:0:0:0:
349,299,20701,1,0,0:0:0:0:
285,362,20864,6,0,P|256:353|210:358,1,75,6|0,0:2|0:0,0:0:0:0:
125,380,21188,2,0,L|123:301,1,75,8|0,0:0|0:0,0:0:0:0:
50,251,21512,2,0,L|52:172,1,75,6|8,3:0|0:0,0:0:0:0:
96,97,21837,1,8,0:0:0:0:
96,97,21999,1,0,0:0:0:0:
165,154,22161,6,0,L|166:192,3,37.5,8|8|8|8,0:0|0:0|0:0|0:0,0:0:0:0:
188,230,22485,2,0,L|187:268,3,37.5,0|8|10|8,0:0|3:0|3:2|3:0,0:0:0:0:
154,300,22810,2,0,B|238:277|214:337|315:315,1,150,10|10,3:0|0:0,0:0:0:0:
377,361,23296,1,2,0:2:0:0:
377,361,23458,6,0,P|387:332|380:239,1,120,6|8,0:2|0:0,0:0:0:0:
409,164,23945,1,2,0:0:0:0:
409,164,24107,2,0,P|378:157|334:171,1,60,6|6,3:0|3:0,0:0:0:0:
283,211,24431,2,0,P|252:218|208:204,1,60,10|0,0:0|0:0,0:0:0:0:
174,144,24756,6,0,L|185:18,1,120,6|8,3:0|0:0,0:0:0:0:
361,42,25404,2,0,L|350:168,1,120,4|8,3:0|0:0,0:0:0:0:
297,321,26053,6,0,P|267:315|227:323,1,60,4|4,3:0|3:0,0:0:0:0:
168,365,26377,1,10,0:0:0:0:
168,365,26539,2,0,P|159:331|160:300,1,60,2|4,0:0|3:0,0:0:0:0:
190,228,26864,1,6,3:0:0:0:
190,228,27026,2,0,P|199:194|198:163,1,60,8|0,0:0|0:0,0:0:0:0:
154,97,27350,6,0,P|202:83|274:126,1,120,6|10,3:0|0:0,0:0:0:0:
354,252,27999,2,0,L|361:126,1,120,4|4,3:0|3:0,0:0:0:0:
497,34,28647,6,0,L|427:26,1,60,6|2,0:2|0:2,0:0:0:0:
355,47,28972,2,0,L|285:39,1,60,10|2,0:0|0:2,0:0:0:0:
214,18,29296,2,0,B|206:94|179:74|182:147,1,120,6|10,3:0|0:0,0:0:0:0:
210,211,29783,1,2,0:2:0:0:
210,211,29945,6,0,B|257:204|257:204|288:214|288:214|351:204,1,120,6|10,3:0|0:0,0:0:0:0:
456,315,30593,2,0,B|409:308|409:308|378:318|378:318|315:308,1,120,6|10,3:0|0:0,0:0:0:0:
178,364,31242,6,0,P|174:334|180:291,1,60,4|0,3:0|0:0,0:0:0:0:
213,229,31566,1,10,0:0:0:0:
213,229,31729,2,0,L|148:222,1,60,2|4,0:2|3:0,0:0:0:0:
77,257,32053,2,0,P|71:216|79:190,1,60,2|8,0:2|0:0,0:0:0:0:
119,127,32377,1,2,0:0:0:0:
119,127,32539,6,0,B|188:111|180:149|259:130,1,120,6|8,3:0|0:0,0:0:0:0:
385,55,33188,2,0,L|374:113,1,60,6|4,3:0|3:0,0:0:0:0:
411,189,33512,2,0,L|400:247,1,60,8|8,0:0|0:0,0:0:0:0:
424,328,33837,6,0,P|394:336|355:320,1,60,6|0,0:2|0:0,0:0:0:0:
299,278,34161,1,8,0:0:0:0:
299,278,34323,2,0,P|270:270|241:278,1,60,2|4,0:0|3:0,0:0:0:0:
171,325,34647,2,0,P|142:332|113:324,1,60,6|10,3:0|0:0,0:0:0:0:
58,260,34972,1,2,0:0:0:0:
58,260,35134,6,0,P|84:226|64:149,1,120,6|10,3:0|0:0,0:0:0:0:
187,34,35783,2,0,P|161:68|181:145,1,120,4|8,3:0|0:0,0:0:0:0:
315,231,36431,6,0,L|320:159,1,60,6|4,3:0|3:0,0:0:0:0:
354,94,36756,1,10,0:0:0:0:
354,94,36918,1,2,0:0:0:0:
299,30,37080,2,0,P|274:60|270:91,1,60,4|4,3:0|3:0,0:0:0:0:
240,158,37404,2,0,L|167:146,1,60,10|0,0:0|0:0,0:0:0:0:
113,96,37729,6,0,B|92:133|92:133|97:223,1,120,6|10,3:0|0:0,0:0:0:0:
169,361,38377,2,0,B|190:324|190:324|185:234,1,120,4|4,3:0|3:0,0:0:0:0:
36,323,39026,6,0,L|100:330,1,60,6|2,0:2|0:0,0:0:0:0:
126,253,39350,2,0,L|190:246,1,60,8|0,0:0|0:0,0:0:0:0:
262,279,39674,2,0,P|272:246|272:217,1,60,6|0,3:0|0:0,0:0:0:0:
225,150,39999,1,10,0:0:0:0:
225,150,40161,1,2,0:0:0:0:
294,103,40323,6,0,B|361:85|349:134|431:116,1,120,6|10,3:0|0:0,0:0:0:0:
500,261,40972,2,0,B|433:243|445:292|363:274,1,120,2|10,3:0|0:0,0:0:0:0:
235,354,41620,6,0,P|227:323|232:294,1,60,6|0,3:0|0:0,0:0:0:0:
260,216,41945,2,0,P|268:185|263:156,1,60,10|0,0:0|0:0,0:0:0:0:
208,94,42269,2,0,P|177:86|148:91,1,60,6|0,3:0|0:0,0:0:0:0:
114,166,42593,2,0,P|145:174|174:169,1,60,10|0,0:0|0:0,0:0:0:0:
208,94,42918,6,0,P|258:73|330:103,1,120,6|8,0:2|0:2,0:0:0:0:
360,164,43404,1,8,0:0:0:0:
360,164,43485,1,8,0:0:0:0:
360,164,43566,2,0,L|357:212,3,30,10|8|10|8,0:0|0:0|0:0|0:0,0:0:0:0:
377,231,43891,2,0,L|380:279,3,30,10|8|8|8,0:0|0:0|0:0|0:0,0:0:0:0:
399,301,44215,6,0,L|308:292,1,75,6|0,0:2|0:0,0:0:0:0:
236,311,44539,2,0,L|145:320,1,75,10|0,0:0|0:0,0:0:0:0:
80,358,44864,2,0,P|70:315|82:279,1,75,6|0,3:0|0:0,0:0:0:0:
126,210,45188,2,0,P|136:167|124:131,1,75,10|0,0:0|0:0,0:0:0:0:
70,69,45512,6,0,B|108:54|108:54|162:62,1,75,2|0,0:2|0:0,0:0:0:0:
216,110,45837,2,0,B|254:125|254:125|308:117,1,75,10|2,0:0|0:0,0:0:0:0:
353,58,46161,2,0,L|359:19,2,37.5,6|2|2,3:0|0:0|0:0,0:0:0:0:
415,122,46485,1,10,0:0:0:0:
415,122,46647,1,2,0:0:0:0:
446,206,46810,6,0,P|432:239|428:284,1,75,4|0,0:2|0:0,0:0:0:0:
435,367,47134,2,0,L|358:357,1,75,10|0,0:0|0:0,0:0:0:0:
271,371,47458,2,0,P|274:333|289:299,1,75,6|0,3:0|0:0,0:0:0:0:
331,219,47783,2,0,L|254:209,1,75,10|0,0:2|0:0,0:0:0:0:
173,244,48107,5,10,0:2:0:0:
173,244,48269,1,8,0:0:0:0:
148,157,48431,2,0,L|146:108,3,37.5,8|0|10|8,0:0|0:0|0:0|0:0,0:0:0:0:
189,103,48756,2,0,L|191:54,3,37.5,10|8|0|0,0:0|0:0|0:0|0:0,0:0:0:0:
165,28,49080,2,0,L|258:21,1,75,10|10,0:0|0:0,0:0:0:0:
313,61,49404,6,0,P|307:102|316:134,1,60,6|0,0:2|0:0,0:0:0:0:
349,194,49729,2,0,P|355:235|346:267,1,60,8|2,0:0|0:0,0:0:0:0:
303,321,50053,2,0,L|239:309,1,60,4|2,3:0|0:2,0:0:0:0:
171,267,50377,2,0,L|107:279,1,60,10|2,0:0|0:0,0:0:0:0:
43,327,50701,6,0,P|28:287|46:201,1,120,6|10,3:0|0:0,0:0:0:0:
128,69,51350,2,0,P|143:109|125:195,1,120,4|8,3:0|0:0,0:0:0:0:
131,352,51999,6,0,L|193:342,1,60,6|4,3:0|3:0,0:0:0:0:
252,286,52323,2,0,L|311:295,1,60,10|0,0:0|0:0,0:0:0:0:
378,345,52647,2,0,P|390:311|389:267,1,60,6|4,3:0|3:0,0:0:0:0:
350,213,52972,2,0,P|338:179|339:135,1,60,10|0,0:0|0:0,0:0:0:0:
371,78,53296,6,0,B|324:68|324:68|303:77|303:77|244:64,1,120,6|10,3:0|0:0,0:0:0:0:
133,183,53945,2,0,B|180:173|180:173|201:182|201:182|260:169,1,120,4|4,3:0|3:0,0:0:0:0:
135,47,54593,6,0,P|118:79|118:113,1,60,6|2,0:2|0:2,0:0:0:0:
133,183,54918,2,0,P|150:215|150:249,1,60,10|2,0:2|0:2,0:0:0:0:
143,321,55242,2,0,L|212:309,1,60,6|0,3:0|0:0,0:0:0:0:
275,270,55566,1,10,0:0:0:0:
275,270,55729,1,2,0:0:0:0:
306,347,55891,5,6,3:0:0:0:
306,347,56215,2,0,L|374:336,1,60,10|2,0:0|0:0,0:0:0:0:
419,273,56539,1,6,3:0:0:0:
419,273,56701,1,2,0:0:0:0:
386,195,56864,2,0,P|375:160|416:69,1,120,10|4,0:0|3:0,0:0:0:0:
490,224,57512,5,10,0:0:0:0:
419,273,57674,2,0,L|352:273,1,60,2|4,0:0|3:0,0:0:0:0:
285,231,57999,2,0,L|218:231,1,60,2|8,0:0|0:0,0:0:0:0:
153,186,58323,1,2,0:0:0:0:
153,186,58485,6,0,P|132:217|144:300,1,120,6|8,3:0|0:0,0:0:0:0:
290,372,59134,2,0,P|297:337|293:312,1,60,6|2,3:0|0:0,0:0:0:0:
285,231,59458,2,0,P|278:196|282:171,1,60,10|10,0:0|0:0,0:0:0:0:
326,101,59783,6,0,L|258:88,1,60,6|0,0:2|0:0,0:0:0:0:
194,48,60107,1,8,0:0:0:0:
194,48,60269,1,2,0:0:0:0:
170,128,60431,2,0,P|156:168|162:205,1,60,2|6,3:0|3:0,0:0:0:0:
199,257,60756,2,0,P|197:286|185:314,1,60,10|2,0:0|0:0,0:0:0:0:
114,358,61080,6,0,B|97:332|97:332|104:231,1,120,6|10,3:0|0:0,0:0:0:0:
265,199,61729,2,0,B|282:225|282:225|275:326,1,120,6|8,3:0|0:0,0:0:0:0:
154,197,62377,6,0,P|146:161|154:124,1,60,6|4,3:0|3:0,0:0:0:0:
202,74,62701,2,0,L|272:83,1,60,10|0,0:0|0:0,0:0:0:0:
329,131,63026,2,0,L|399:122,1,60,6|4,3:0|3:0,0:0:0:0:
459,167,63350,2,0,P|455:207|457:237,1,60,10|0,0:0|0:0,0:0:0:0:
428,306,63674,6,0,B|361:293|376:335|294:314,1,120,6|10,3:0|0:0,0:0:0:0:
149,364,64323,1,6,0:0:0:0:
125,283,64485,2,0,L|123:214,1,60,8|8,0:0|0:0,0:0:0:0:
169,152,64810,1,8,0:0:0:0:
169,152,64972,6,0,P|212:136|263:148,1,75,6|0,0:2|0:2,0:0:0:0:
312,191,65296,2,0,P|355:207|406:195,1,75,10|0,0:0|0:0,0:0:0:0:
445,139,65620,2,0,L|452:57,1,75,6|6,3:0|3:0,0:0:0:0:
364,37,65945,2,0,L|357:119,1,75,10|2,0:0|0:2,0:0:0:0:
312,191,66269,6,0,B|231:174|250:217|156:196,1,150,6|10,3:0|0:0,0:0:0:0:
98,135,66756,1,0,0:0:0:0:
98,135,66918,2,0,P|130:117|181:114,1,75,6|0,3:0|0:0,0:0:0:0:
226,180,67242,2,0,L|225:218,3,37.5,8|8|8|8,0:0|0:0|0:0|0:0,0:0:0:0:
200,255,67566,6,0,P|253:235|329:284,1,150,14|10,0:2|0:0,0:0:0:0:
403,329,68053,1,10,0:0:0:0:
403,329,68134,1,8,0:0:0:0:
403,329,68215,2,0,L|405:285,3,37.5,10|8|8|8,0:0|0:0|0:0|0:0,0:0:0:0:
441,266,68539,2,0,L|439:222,3,37.5,10|8|10|8,0:0|0:0|0:0|0:0,0:0:0:0:
462,189,68864,5,14,0:2:0:0:
307,97,69188,1,12,0:2:0:0:
473,28,69512,2,0,L|425:20,3,37.5,12|0|0|0,0:2|0:0|0:0|0:0,0:0:0:0:
425,66,69837,2,0,P|405:105|417:156,1,75
414,226,70161,6,0,L|334:215,1,75,6|0,0:0|0:0,0:0:0:0:
268,161,70485,1,10,0:0:0:0:
268,161,70647,1,2,0:2:0:0:
190,207,70810,1,2,0:2:0:0:
190,207,70972,1,2,0:2:0:0:
110,164,71134,2,0,P|103:129|114:78,1,75,10|2,0:0|0:2,0:0:0:0:
187,46,71458,6,0,P|192:82|185:119,1,75,2|2,0:2|0:2,0:0:0:0:
110,164,71783,1,10,0:0:0:0:
110,164,71945,1,2,0:2:0:0:
68,243,72107,2,0,P|62:279|69:316,1,75,6|0,3:0|0:0,0:0:0:0:
145,364,72431,1,10,0:0:0:0:
222,318,72593,1,2,0:0:0:0:
291,376,72756,5,6,0:0:0:0:
366,278,73080,1,10,0:0:0:0:
366,278,73242,1,2,0:2:0:0:
335,193,73404,1,2,0:2:0:0:
335,193,73566,1,2,0:2:0:0:
396,126,73729,2,0,P|405:91|396:45,1,75,10|2,0:0|0:2,0:0:0:0:
317,15,74053,6,0,B|297:21|297:21|237:17,1,75,2|2,0:2|0:2,0:0:0:0:
153,7,74377,1,10,0:0:0:0:
153,7,74539,1,2,0:2:0:0:
176,93,74701,2,0,P|189:132|184:175,1,75,2|8,0:2|0:0,0:0:0:0:
139,242,75026,1,10,0:0:0:0:
139,242,75188,1,2,0:0:0:0:
64,291,75350,6,0,P|51:252|56:209,1,75,6|0,0:0|0:0,0:0:0:0:
101,142,75674,1,10,0:0:0:0:
101,142,75837,1,2,0:2:0:0:
186,165,75999,1,2,0:2:0:0:
186,165,76161,1,2,0:2:0:0:
268,130,76323,2,0,L|359:124,1,75,10|2,0:0|0:2,0:0:0:0:
431,111,76647,6,0,P|424:155|429:192,1,75,2|2,0:2|0:2,0:0:0:0:
467,265,76972,1,10,0:0:0:0:
467,265,77134,1,2,0:2:0:0:
396,321,77296,2,0,P|368:311|317:315,1,75,2|0,0:2|0:0,0:0:0:0:
245,357,77620,1,10,0:0:0:0:
220,269,77783,1,2,0:0:0:0:
255,186,77945,5,6,0:0:0:0:
122,64,78269,1,10,0:0:0:0:
72,236,78593,2,0,L|76:283,3,37.5,2|0|8|8,0:2|0:0|0:0|0:0,0:0:0:0:
101,310,78918,2,0,L|97:357,3,37.5,10|8|8|8,0:0|3:0|3:0|3:0,0:0:0:0:
136,369,79242,2,0,B|219:340|202:395|294:367,1,150,10|8,0:0|0:0,0:0:0:0:
345,305,79729,2,0,L|338:262,2,37.5,8|8|10,0:0|0:0|0:0,0:0:0:0:
431,330,80053,2,0,L|424:367,2,37.5,0|0|10,0:0|0:0|0:0,0:0:0:0:
490,262,80377,1,0,3:0:0:0:
490,262,80458,1,0,3:0:0:0:
490,262,80539,6,0,L|486:174,1,75,6|0,0:0|0:0,0:0:0:0:
471,97,80864,1,10,0:0:0:0:
471,97,81026,1,2,0:2:0:0:
396,146,81188,1,2,0:2:0:0:
396,146,81350,1,2,0:2:0:0:
339,75,81512,2,0,P|305:65|258:75,1,75,10|2,0:0|0:2,0:0:0:0:
202,135,81837,6,0,L|205:218,1,75,2|2,0:2|0:2,0:0:0:0:
243,291,82161,1,10,0:0:0:0:
243,291,82323,1,2,0:2:0:0:
307,227,82485,2,0,L|304:152,1,75,2|0,0:2|0:0,0:0:0:0:
266,71,82810,1,10,0:0:0:0:
181,39,82972,1,2,0:0:0:0:
104,85,83134,5,6,0:0:0:0:
38,201,83458,1,10,0:0:0:0:
38,201,83620,1,2,0:2:0:0:
96,269,83783,1,2,0:2:0:0:
96,269,83945,1,2,0:2:0:0:
70,355,84107,2,0,L|159:348,1,75,10|2,0:0|0:2,0:0:0:0:
234,359,84431,6,0,P|228:319|239:275,1,75,2|2,0:2|0:2,0:0:0:0:
303,226,84756,1,8,0:0:0:0:
303,226,84918,1,2,0:2:0:0:
389,200,85080,2,0,P|395:236|389:273,1,75,2|8,0:2|0:0,0:0:0:0:
319,330,85404,1,10,0:0:0:0:
319,330,85566,1,2,0:0:0:0:
234,359,85729,6,0,L|142:351,1,75,6|0,0:0|0:0,0:0:0:0:
99,285,86053,1,10,0:0:0:0:
99,285,86215,1,2,0:2:0:0:
66,200,86377,1,2,0:2:0:0:
66,200,86539,1,2,0:2:0:0:
114,123,86701,2,0,B|139:129|139:129|199:124,1,75,10|2,0:0|0:2,0:0:0:0:
274,97,87026,6,0,P|264:142|272:180,1,75,6|0,0:0|0:2,0:0:0:0:
341,223,87350,1,10,0:0:0:0:
341,223,87512,1,2,0:2:0:0:
416,174,87674,2,0,P|385:147|338:137,1,75,2|2,0:2|0:2,0:0:0:0:
274,97,87999,2,0,P|238:108|211:133,1,75,10|0,0:0|0:0,0:0:0:0:
153,203,88323,6,0,B|159:250|159:250|146:285|146:285|152:357,1,150,6|10,0:0|0:0,0:0:0:0:
339,370,88972,2,0,B|333:323|333:323|346:288|346:288|340:216,1,150,2|10,0:2|0:0,0:0:0:0:
290,50,89620,5,6,0:0:0:0:
236,122,89783,1,8,0:0:0:0:
236,122,89864,1,8,0:0:0:0:
236,122,89945,2,0,L|242:174,3,37.5,10|8|8|8,0:0|0:0|0:0|0:0,0:0:0:0:
263,197,90269,2,0,L|258:234,3,37.5,8|8|10|8,0:0|0:0|0:0|0:0,0:0:0:0:
230,269,90593,2,0,P|197:258|146:274,1,75,10|8,0:0|0:0,0:0:0:0:
74,299,90918,6,0,L|79:208,1,75,6|0,0:0|0:0,0:0:0:0:
46,139,91242,1,10,0:0:0:0:
46,139,91404,2,0,P|79:128|130:144,1,75,0|4,0:0|3:0,0:0:0:0:
191,193,91729,2,0,P|224:204|275:188,1,75,2|8,0:0|0:0,0:0:0:0:
322,128,92053,1,2,0:0:0:0:
402,167,92215,5,6,3:0:0:0:
402,167,92539,2,0,P|385:210|392:252,1,75,10|0,0:0|0:0,0:0:0:0:
407,326,92864,2,0,L|332:311,1,75,6|6,3:0|3:0,0:0:0:0:
256,264,93188,2,0,L|182:278,1,75,10|2,0:0|0:0,0:0:0:0:
102,318,93512,6,0,P|94:274|104:236,1,75,6|0,0:0|0:0,0:0:0:0:
154,172,93837,1,10,0:0:0:0:
154,172,93999,1,2,0:0:0:0:
105,96,94161,1,6,3:0:0:0:
164,28,94323,2,0,P|197:20|237:34,1,75,2|8,0:0|0:0,0:0:0:0:
287,105,94647,1,2,0:0:0:0:
287,105,94810,6,0,L|378:96,1,75,6|0,3:0|0:0,0:0:0:0:
449,77,95134,1,10,0:0:0:0:
436,166,95296,2,0,P|416:197|418:244,1,75,2|4,0:0|3:0,0:0:0:0:
452,315,95620,1,6,3:0:0:0:
452,315,95783,1,10,0:0:0:0:
383,372,95945,1,2,0:0:0:0:
330,299,96107,5,6,0:0:0:0:
330,299,96431,1,10,0:0:0:0:
330,299,96593,2,0,P|298:290|254:292,1,75,2|4,0:0|3:0,0:0:0:0:
182,343,96918,2,0,P|150:352|106:350,1,75,6|8,3:0|0:0,0:0:0:0:
42,289,97242,1,2,0:0:0:0:
5,206,97404,6,0,B|36:195|36:195|85:201,1,75,6|4,0:0|3:0,0:0:0:0:
151,252,97729,1,10,0:0:0:0:
151,252,97891,1,2,0:0:0:0:
215,189,98053,2,0,L|292:197,1,75,4|6,3:0|3:0,0:0:0:0:
370,235,98377,2,0,L|444:227,1,75,10|8,0:0|0:0,0:0:0:0:
471,141,98701,5,6,0:0:0:0:
324,35,99026,2,0,L|318:116,2,75,10|0|6,0:0|0:0|3:2,0:0:0:0:
190,155,99674,2,0,L|184:74,2,75,10|0|12,0:0|0:0|0:0,0:0:0:0:
254,218,100161,6,0,L|301:210,2,37.5,0|0|12,0:0|0:0|0:0,0:0:0:0:
203,292,100485,2,0,L|156:284,2,37.5,0|0|10,0:0|0:0|0:2,0:0:0:0:
259,362,100810,1,10,0:0:0:0:
259,362,100891,1,8,0:0:0:0:
259,362,100972,2,0,L|342:350,1,75,10|10,0:0|0:0,0:0:0:0:
421,369,101296,6,0,B|430:329|428:291|428:291|416:254|422:201,1,150,6|8,0:0|0:0,0:0:0:0:
474,147,101783,2,0,P|439:129|385:134,1,75,2|4,0:0|3:0,0:0:0:0:
330,76,102107,2,0,P|312:111|317:164,1,75,2|8,0:0|0:0,0:0:0:0:
325,234,102431,1,2,0:0:0:0:
325,234,102593,6,0,B|281:217|241:220|241:220|212:240|169:234,1,150,6|10,3:0|0:0,0:0:0:0:
101,190,103080,1,2,0:0:0:0:
101,190,103242,2,0,P|92:152|96:111,1,75,6|2,3:0|0:0,0:0:0:0:
57,34,103566,2,0,P|95:25|136:29,1,75,10|2,0:0|0:0,0:0:0:0:
196,89,103891,5,6,3:0:0:0:
196,89,104053,1,2,0:0:0:0:
196,89,104377,2,0,L|197:172,1,75,2|4,0:0|3:0,0:0:0:0:
264,222,104701,2,0,L|263:305,1,75,2|8,0:0|0:0,0:0:0:0:
199,361,105026,1,2,0:0:0:0:
199,361,105188,6,0,B|156:352|156:352|116:358|116:358|51:344,1,150,6|10,3:0|0:0,0:0:0:0:
35,255,105674,1,2,0:0:0:0:
35,255,105837,2,0,P|63:263|116:253,1,75,4|8,3:0|0:0,0:0:0:0:
191,223,106161,2,0,P|219:215|272:225,1,75,0|8,0:0|0:0,0:0:0:0:
337,272,106485,6,0,B|365:193|327:199|351:117,1,150,6|10,0:0|0:0,0:0:0:0:
405,53,106972,1,2,0:0:0:0:
405,53,107134,2,0,P|374:38|316:43,1,75,4|2,3:0|0:0,0:0:0:0:
259,87,107458,2,0,P|221:86|187:71,1,75,8|2,0:0|0:0,0:0:0:0:
112,21,107783,6,0,B|92:54|92:54|102:167,1,150,4|10,3:0|0:0,0:0:0:0:
168,225,108269,1,2,0:0:0:0:
168,225,108431,2,0,P|184:201|190:154,1,75,4|2,3:0|0:0,0:0:0:0:
101,164,108756,2,0,L|21:185,1,75,8|2,0:0|0:0,0:0:0:0:
14,271,109080,5,6,0:2:0:0:
169,361,109404,2,0,L|252:349,2,75,10|0|2,0:0|0:0|0:2,0:0:0:0:
316,257,110053,2,0,L|233:245,2,75,10|4|4,0:0|0:3|3:0,0:0:0:0:
381,317,110539,6,0,L|383:357,2,37.5,4|4|4,3:0|3:0|3:0,0:0:0:0:
448,251,110864,1,4,3:0:0:0:
448,251,110945,1,10,0:0:0:0:
448,251,111026,2,0,L|431:125,1,112.5
431,106,111350,2,0,B|397:87|397:87|314:107,1,112.5
299,115,111674,1,0,0:0:0:0:
256,192,111837,12,0,115566,0:0:0:0:
309,266,116377,6,0,L|310:312,2,37.5,10|0|10,0:0|0:0|0:0,0:0:0:0:
409,131,116864,6,0,L|408:177,2,37.5,4|0|0,0:2|0:0|0:0,0:0:0:0:
341,72,117188,2,0,L|340:34,2,37.5,10|0|0,0:0|0:0|0:0,0:0:0:0:
277,135,117512,2,0,L|276:181,2,37.5,2|0|0,0:2|0:0|0:0,0:0:0:0:
209,76,117836,2,0,L|208:38,2,37.5,10|0|0,0:0|0:0|0:0,0:0:0:0:
145,139,118161,5,6,0:2:0:0:
78,78,118323,2,0,B|57:119|57:119|64:226,1,150,0|2,0:0|0:0,0:0:0:0:
118,294,118810,2,0,B|205:277|185:318|274:307,1,150,6|8,3:0|0:0,0:0:0:0:
349,276,119296,1,0,0:0:0:0:
349,276,119458,6,0,P|319:242|374:161,1,150,6|8,0:2|0:0,0:0:0:0:
447,196,119945,2,0,B|465:157|465:157|453:44,1,150,2|10,0:0|0:0,0:0:0:0:
372,12,120431,1,8,0:0:0:0:
372,12,120593,1,0,0:0:0:0:
315,83,120756,6,0,B|234:63|262:114|161:90,1,150,2|10,0:2|0:0,0:0:0:0:
118,17,121242,2,0,P|85:45|87:151,1,150,0|8,0:0|0:0,0:0:0:0:
149,206,121729,2,0,L|192:198,2,37.5,8|0|0,0:0|0:0|0:0,0:0:0:0:
107,285,122053,6,0,L|214:304,1,100,6|0,0:2|0:0,0:0:0:0:
254,336,122377,2,0,L|352:318,1,100,10|0,0:0|0:0,0:0:0:0:
408,339,122701,2,0,P|388:281|412:215,1,100,6|0,3:0|0:0,0:0:0:0:
430,195,123026,2,0,P|450:137|426:71,1,100,10|0,0:0|0:0,0:0:0:0:
412,48,123350,6,0,L|480:38,2,50,6|0|0,3:0|0:0|0:0,0:0:0:0:
412,48,123674,1,10,0:0:0:0:
281,130,123999,6,0,L|213:120,2,50,2|0|0,0:3|0:0|0:0,0:0:0:0:
281,130,124323,1,10,0:0:0:0:
127,35,124647,6,0,B|107:74|115:109|115:109|134:142|121:194,1,150,6|10,0:2|0:0,0:0:0:0:
95,266,125134,1,0,0:0:0:0:
95,266,125296,2,0,P|133:257|175:272,1,75,6|0,3:0|0:0,0:0:0:0:
237,321,125620,2,0,P|275:330|317:315,1,75,10|0,0:0|0:0,0:0:0:0:
366,250,125945,6,0,L|371:210,3,37.5,2|8|8|8,0:2|0:0|0:0|0:0,0:0:0:0:
343,177,126269,2,0,L|338:137,3,37.5,10|8|10|8,0:0|0:0|0:0|0:0,0:0:0:0:
365,104,126593,2,0,L|282:94,1,75,10|10,0:0|0:0,0:0:0:0:
215,43,126918,1,10,0:0:0:0:
143,97,127080,1,0,0:0:0:0:
143,97,127161,1,0,0:0:0:0:
143,97,127242,6,0,P|154:136|144:171,1,75,4|0,0:2|0:0,0:0:0:0:
66,211,127566,2,0,P|57:174|68:139,1,75,10|0,0:0|0:0,0:0:0:0:
143,97,127891,1,6,3:0:0:0:
143,97,128053,1,0,0:0:0:0:
217,147,128215,2,0,P|257:153|300:148,1,75,10|0,0:0|0:0,0:0:0:0:
376,122,128539,6,0,L|371:205,1,75,2|2,0:2|0:0,0:0:0:0:
401,282,128864,1,10,0:0:0:0:
401,282,129026,2,0,B|321:260|345:313|249:288,1,150,2|0,0:0|0:0,0:0:0:0:
188,228,129512,2,0,P|170:263|166:312,1,75,10|0,0:0|0:0,0:0:0:0:
93,353,129837,6,0,B|76:311|76:311|85:193,1,150,6|10,3:0|0:0,0:0:0:0:
36,130,130323,1,0,0:0:0:0:
36,130,130485,2,0,P|76:117|118:122,1,75,4|0,3:0|0:0,0:0:0:0:
194,145,130810,2,0,P|234:158|276:153,1,75,10|0,0:0|0:0,0:0:0:0:
337,101,131134,6,0,P|326:55|242:83,1,150,8|8,0:0|0:0,0:0:0:0:
266,155,131620,2,0,B|281:243|243:216|259:314,1,150,8|10,0:0|0:0,0:0:0:0:
320,367,132107,2,0,L|361:362,2,37.5,10|8|10,0:0|0:0|0:0,0:0:0:0:
230,375,132431,6,0,L|137:361,1,75,6|0,0:0|0:0,0:0:0:0:
161,273,132756,2,0,L|86:284,1,75,8|0,0:0|0:0,0:0:0:0:
24,219,133080,2,0,P|21:178|26:134,1,75,6|0,3:0|0:0,0:0:0:0:
111,166,133404,2,0,P|114:125|109:81,1,75,8|0,0:0|0:0,0:0:0:0:
41,32,133729,6,0,B|83:7|83:7|197:21,1,150,6|8,3:0|0:0,0:0:0:0:
273,19,134215,1,0,0:0:0:0:
273,19,134377,2,0,L|264:107,1,75,6|0,3:0|0:0,0:0:0:0:
230,176,134701,2,0,L|236:224,3,37.5,4|4|4|4,1:0|3:0|3:0|3:0,0:0:0:0:
230,176,135026,5,12,0:0:0:0:
230,176,135188,1,12,0:0:0:0:
284,314,135512,5,12,0:0:0:0:
284,314,135674,1,12,0:0:0:0:
360,184,135999,5,12,0:0:0:0:
360,184,136161,1,12,0:0:0:0:
434,314,136485,5,12,3:0:0:0:
434,314,136647,1,12,3:0:0:0:
503,175,136972,6,0,L|508:92,1,75,12|4,0:0|3:0,0:0:0:0:
447,33,137296,1,12,0:0:0:0:
447,33,137620,5,8,0:0:0:0:
447,33,137783,1,8,0:0:0:0:
370,80,137945,1,8,0:0:0:0:
370,80,138107,1,8,0:0:0:0:
298,25,138269,2,0,P|266:17|218:24,1,75,8|8,0:0|0:0,0:0:0:0:
180,100,138593,2,0,P|148:108|100:101,1,75,8|8,0:0|0:0,0:0:0:0:
50,32,138918,6,0,B|24:72|24:72|32:181,1,150,8|8,0:0|0:0,0:0:0:0:
67,256,139404,1,8,0:0:0:0:
67,256,139566,2,8,P|99:246|149:256,1,75
221,290,139891,2,8,P|253:300|303:290,1,75
381,314,140215,6,0,B|388:226|358:246|368:158,1,150,0|4,0:0|3:0,0:0:0:0:
431,103,140701,1,4,3:0:0:0:
396,19,140864,2,0,P|362:45|342:89,1,75,4|4,3:0|3:0,0:0:0:0:
287,140,141188,1,4,0:0:0:0:
222,203,141350,1,2,0:0:0:0:
222,203,141431,1,0,0:0:0:0:
222,203,141512,6,0,B|192:179|144:188|166:220|127:234|71:214,1,150,4|0,1:0|0:0,0:0:0:0:
115,29,142323,1,4,3:0:0:0:
115,29,142404,1,4,3:0:0:0:
115,29,142485,6,0,L|108:155,1,112.500004291535,12|4,0:0|0:0,0:0:0:0:
198,371,147999,6,0,B|212:338|206:289|178:308|174:259|187:217,1,150,2|2,0:0|0:0,0:0:0:0:
137,149,148485,1,2,0:0:0:0:
137,149,148647,2,0,P|174:134|219:142,1,75,2|0,0:0|0:0,0:0:0:0:
285,184,148972,2,0,P|322:199|367:191,1,75,2|2,0:0|0:0,0:0:0:0:
432,147,149296,6,0,L|429:64,1,75,6|0,0:0|0:0,0:0:0:0:
354,22,149620,2,0,B|317:9|317:9|256:20,1,75,2|2,0:0|0:0,0:0:0:0:
211,71,149945,2,0,B|174:84|174:84|113:73,1,75,2|0,0:0|0:0,0:0:0:0:
52,53,150269,2,0,L|60:214,1,150,2|6,0:0|0:0,0:0:0:0:
187,228,151242,6,0,L|189:183,8,37.5,4|4|4|8|8|8|8|8|8,3:0|3:0|3:0|0:0|0:0|0:0|3:0|3:0|3:0,0:0:0:0:
246,300,152864,6,0,P|285:286|330:304,1,84.3750032186509
354,331,153188,5,6,0:0:0:0:
460,223,153512,1,10,0:0:0:0:
460,223,153674,1,2,0:2:0:0:
379,181,153837,1,2,0:2:0:0:
379,181,153999,1,2,0:2:0:0:
305,232,154161,2,0,L|225:218,1,75,10|2,0:0|0:2,0:0:0:0:
164,158,154485,6,0,P|142:193|141:229,1,75,2|2,0:2|0:2,0:0:0:0:
174,309,154810,1,10,0:0:0:0:
174,309,154972,1,2,0:2:0:0:
174,309,155134,2,0,L|91:300,1,75,2|0,0:2|0:0,0:0:0:0:
34,238,155458,1,10,0:0:0:0:
65,153,155620,1,2,0:0:0:0:
26,71,155783,5,6,0:0:0:0:
171,18,156107,1,10,0:0:0:0:
171,18,156269,1,2,0:2:0:0:
148,105,156431,1,2,0:2:0:0:
148,105,156593,1,2,0:2:0:0:
176,190,156756,2,0,P|183:232|179:275,1,75,10|2,0:0|0:2,0:0:0:0:
169,353,157080,6,0,L|253:344,1,75,2|2,0:2|0:2,0:0:0:0:
329,370,157404,1,10,0:0:0:0:
329,370,157566,1,2,0:2:0:0:
307,282,157729,2,0,P|299:244|311:194,1,75,2|8,0:2|0:0,0:0:0:0:
359,137,158053,1,10,0:0:0:0:
359,137,158215,1,2,0:0:0:0:
298,70,158377,6,0,P|273:66|215:79,1,75,6|0,0:0|0:0,0:0:0:0:
180,152,158701,1,10,0:0:0:0:
180,152,158864,1,2,0:2:0:0:
105,101,159026,1,2,0:2:0:0:
105,101,159188,1,2,0:2:0:0:
54,175,159350,2,0,P|69:203|64:254,1,75,10|2,0:0|0:2,0:0:0:0:
44,332,159674,6,0,L|127:320,1,75,2|2,0:2|0:2,0:0:0:0:
179,254,159999,1,10,0:0:0:0:
179,254,160161,1,2,0:2:0:0:
258,295,160323,2,0,L|332:305,1,75,2|0,0:2|0:0,0:0:0:0:
402,361,160647,1,10,0:0:0:0:
430,275,160810,1,2,0:0:0:0:
402,189,160972,5,6,0:0:0:0:
317,31,161296,2,0,L|398:44,2,75,10|0|2,0:0|0:0|0:2,0:0:0:0:
180,149,161945,2,0,L|99:136,2,75,6|4|6,3:0|3:0|0:0,0:0:0:0:
266,125,162431,5,8,0:0:0:0:
266,125,162512,1,8,0:0:0:0:
266,125,162593,2,0,L|271:181,3,37.5,8|8|8|8,0:0|0:0|0:0|0:0,0:0:0:0:
304,191,162918,2,0,L|299:247,3,37.5,10|8|0|0,0:0|0:0|0:0|0:0,0:0:0:0:
319,269,163242,2,0,L|311:349,1,75,10|0,0:0|0:0,0:0:0:0:
224,366,163566,6,0,P|194:358|139:366,1,75,6|0,0:0|0:0,0:0:0:0:
60,373,163891,1,10,0:0:0:0:
60,373,164053,2,0,L|58:288,1,75,0|4,0:0|3:0,0:0:0:0:
110,225,164377,2,0,L|111:150,1,75,2|8,0:0|0:0,0:0:0:0:
66,72,164701,1,2,0:0:0:0:
66,72,164864,5,6,3:0:0:0:
66,72,165188,1,10,0:0:0:0:
66,72,165350,1,0,0:0:0:0:
148,35,165512,1,6,3:0:0:0:
148,35,165674,1,6,3:0:0:0:
220,89,165837,2,0,P|250:97|298:88,1,75,10|2,0:0|0:0,0:0:0:0:
375,54,166161,6,0,L|371:140,1,75,6|0,0:0|0:0,0:0:0:0:
407,211,166485,1,10,0:0:0:0:
407,211,166647,1,2,0:0:0:0:
335,266,166810,1,6,3:0:0:0:
335,266,166972,2,0,P|304:257|252:267,1,75,2|8,0:0|0:0,0:0:0:0:
197,325,167296,1,2,0:0:0:0:
197,325,167458,5,6,3:0:0:0:
197,325,167783,1,10,0:0:0:0:
197,325,167945,2,0,L|115:314,1,75,2|4,0:0|3:0,0:0:0:0:
84,233,168269,1,6,3:0:0:0:
84,233,168431,2,0,L|166:222,1,75,10|2,0:0|0:0,0:0:0:0:
223,160,168756,6,0,B|235:66|199:103|208:12,1,150,6|10,0:0|0:0,0:0:0:0:
290,47,169242,2,0,P|305:89|300:127,1,75,2|4,0:0|3:0,0:0:0:0:
223,160,169566,2,0,P|208:202|212:240,1,75,6|8,3:0|0:0,0:0:0:0:
263,304,169891,1,2,0:0:0:0:
263,304,170053,5,6,0:0:0:0:
263,304,170377,1,10,0:0:0:0:
263,304,170539,1,2,0:0:0:0:
341,259,170701,2,0,L|422:271,1,75,4|6,3:0|3:0,0:0:0:0:
417,360,171026,2,0,L|342:349,1,75,10|0,0:0|0:0,0:0:0:0:
263,304,171350,5,6,0:0:0:0:
91,248,171674,2,0,L|98:333,2,75,10|0|6,0:0|0:0|3:2,0:0:0:0:
208,111,172323,2,0,L|214:36,2,75,10|0|12,0:0|0:0|0:0,0:0:0:0:
237,196,172810,1,0,0:0:0:0:
237,196,172891,1,0,0:0:0:0:
237,196,172972,6,0,L|283:188,3,37.5,12|0|0|0,0:0|0:0|0:0|0:0,0:0:0:0:
316,176,173296,2,0,L|352:182,3,37.5,2|0|10|8,0:2|0:0|0:0|0:0,0:0:0:0:
390,157,173620,2,0,L|382:236,1,75,10|10,0:0|0:0,0:0:0:0:
431,307,173945,6,0,P|390:320|351:312,1,75,6|0,0:0|0:0,0:0:0:0:
276,280,174269,1,8,0:0:0:0:
276,280,174431,2,0,P|239:275|204:288,1,75,2|4,0:0|3:0,0:0:0:0:
123,329,174756,2,0,P|102:287|137:184,1,150,2|2,0:0|0:0,0:0:0:0:
205,145,175242,6,0,B|298:129|263:183|364:167,1,150,6|10,3:0|0:0,0:0:0:0:
405,97,175729,1,2,0:0:0:0:
405,97,175891,2,0,P|367:79|331:84,1,75,6|2,3:0|0:0,0:0:0:0:
283,155,176215,2,0,L|288:237,1,75,10|2,0:0|0:0,0:0:0:0:
332,307,176539,5,6,3:0:0:0:
332,307,176701,1,2,0:0:0:0:
332,307,177026,2,0,B|311:318|311:318|254:314,1,75,2|4,0:0|3:0,0:0:0:0:
176,347,177350,2,0,P|170:311|178:267,1,75,2|8,0:0|0:0,0:0:0:0:
203,187,177674,1,2,0:0:0:0:
203,187,177837,6,0,B|121:170|138:221|51:204,1,150,6|10,3:0|0:0,0:0:0:0:
2,133,178323,1,2,0:0:0:0:
2,133,178485,2,0,L|9:47,1,75,4|8,3:0|0:0,0:0:0:0:
97,45,178810,2,0,L|90:119,1,75,4|8,3:0|0:0,0:0:0:0:
57,205,179134,5,6,0:0:0:0:
57,205,179458,1,10,0:0:0:0:
57,205,179620,2,0,P|82:224|97:268,1,75,2|4,0:0|3:0,0:0:0:0:
85,353,179945,2,0,L|166:341,1,75,2|8,0:0|0:0,0:0:0:0:
240,303,180269,1,2,0:0:0:0:
240,303,180431,6,0,L|314:313,1,75,4|0,3:0|0:0,0:0:0:0:
388,365,180756,2,0,P|400:327|395:283,1,75,10|2,0:0|0:0,0:0:0:0:
349,216,181080,2,0,P|337:178|342:134,1,75,4|2,3:0|0:0,0:0:0:0:
375,61,181404,1,8,0:0:0:0:
375,61,181566,1,2,0:0:0:0:
296,15,181729,5,6,0:2:0:0:
140,105,182053,2,0,L|40:89,2,75,8|0|4,0:0|0:0|3:0,0:0:0:0:
274,227,182701,2,0,L|374:211,2,75,8|8|8,0:0|3:0|0:0,0:0:0:0:
192,187,183188,1,8,0:0:0:0:
192,187,183269,1,8,0:0:0:0:
192,187,183350,6,8,P|180:212|177:233,3,37.5,8|8|8|8,3:0|3:0|3:0|3:0,3:0:0:0:
203,258,183674,2,0,B|122:234|141:292|47:263,1,150,8|8,0:0|2:0,0:0:0:0:
6,186,184161,1,8,2:0:0:0:
6,186,184242,1,8,2:0:0:0:
6,186,184323,6,0,P|43:178|83:192,1,75,6|0,0:0|0:0,0:0:0:0:
131,260,184647,2,0,P|167:268|203:258,1,75,8|0,0:0|0:0,0:0:0:0:
275,203,184972,2,0,L|366:213,1,75,6|0,3:0|0:0,0:0:0:0:
385,293,185296,2,0,L|294:283,1,75,10|0,0:0|0:0,0:0:0:0:
275,203,185620,6,0,P|266:165|273:124,1,75,6|0,3:0|0:0,0:0:0:0:
343,75,185945,2,0,P|352:37|345:-4,1,75,10|0,0:0|0:0,0:0:0:0:
262,32,186269,2,0,L|220:24,2,37.5,6|2|2,3:0|0:0|0:0,0:0:0:0:
343,75,186593,1,8,0:0:0:0:
343,75,186756,1,2,0:0:0:0:
270,129,186918,6,0,P|231:121|183:134,1,75,6|0,3:0|0:0,0:0:0:0:
107,119,187242,2,0,B|113:154|113:154|109:207,1,75,10|0,0:0|0:0,0:0:0:0:
49,259,187566,2,0,B|43:294|43:294|47:347,1,75,6|0,3:0|0:0,0:0:0:0:
129,367,187891,2,0,L|209:355,1,75,10|0,0:0|0:0,0:0:0:0:
272,298,188215,6,0,P|263:261|272:223,1,75,6|0,3:0|0:0,0:0:0:0:
318,149,188539,2,0,P|327:112|318:74,1,75,10|0,0:0|0:0,0:0:0:0:
242,27,188864,2,0,L|193:36,2,37.5,6|2|10,3:0|0:0|0:0,0:0:0:0:
319,76,189188,1,10,0:0:0:0:
319,76,189350,1,2,0:0:0:0:
406,56,189512,6,0,P|401:96|406:136,1,75,6|0,3:0|0:0,0:0:0:0:
429,217,189837,2,0,L|352:209,1,75,10|0,0:0|0:0,0:0:0:0:
272,247,190161,2,0,L|197:254,1,75,6|0,3:0|0:0,0:0:0:0:
116,293,190485,2,0,P|104:250|117:205,1,75,10|0,0:0|0:0,0:0:0:0:
152,141,190810,6,0,L|72:132,1,75,6|0,3:0|0:0,0:0:0:0:
9,73,191134,2,0,P|6:33|22:1,1,75,10|0,0:0|0:0,0:0:0:0:
109,16,191458,2,0,L|101:57,2,37.5,6|2|2,3:0|0:0|0:0,0:0:0:0:
199,9,191783,1,10,0:0:0:0:
199,9,191945,1,2,0:0:0:0:
240,91,192107,6,0,P|220:124|219:164,1,75,6|0,3:0|0:0,0:0:0:0:
300,195,192431,2,0,L|377:190,1,75,10|0,0:0|0:0,0:0:0:0:
454,233,192756,2,0,P|473:264|475:301,1,75,6|0,3:0|0:0,0:0:0:0:
394,337,193080,2,0,L|319:332,1,75,10|0,0:0|0:0,0:0:0:0:
235,366,193404,6,0,B|226:335|226:335|234:292,1,75,6|0,3:0|0:0,0:0:0:0:
288,220,193729,2,0,P|253:205|213:211,1,75,10|0,0:0|0:0,0:0:0:0:
157,276,194053,2,0,L|144:322,2,37.5,6|2|2,3:0|0:0|0:0,0:0:0:0:
107,200,194377,1,10,0:0:0:0:
107,200,194539,1,2,0:0:0:0:
27,241,194701,6,0,P|20:200|26:163,1,75,4|0,0:0|0:0,0:0:0:0:
80,95,195026,2,0,L|159:104,1,75,10|0,0:0|0:0,0:0:0:0:
229,152,195350,2,0,L|308:143,1,75,6|0,3:0|0:0,0:0:0:0:
379,95,195674,2,0,P|374:66|386:23,1,75,10|0,0:0|0:0,0:0:0:0:
469,58,195999,6,0,L|462:135,1,75,6|0,3:0|0:0,0:0:0:0:
386,181,196323,2,0,L|393:258,1,75,10|0,0:0|0:0,0:0:0:0:
440,332,196647,2,0,L|482:324,2,37.5,6|2|2,3:0|0:0|0:0,0:0:0:0:
357,369,196972,1,10,0:0:0:0:
357,369,197134,1,2,0:0:0:0:
288,310,197296,6,0,P|259:301|207:313,1,75,6|0,3:0|0:0,0:0:0:0:
144,363,197620,2,0,P|115:372|63:360,1,75,10|0,0:0|0:0,0:0:0:0:
7,300,197945,2,0,L|11:221,1,75,6|0,3:0|0:0,0:0:0:0:
100,228,198269,2,0,L|96:149,1,75,10|0,0:0|0:0,0:0:0:0:
32,89,198593,6,0,P|71:69|108:65,1,75,6|0,3:0|0:0,0:0:0:0:
176,115,198918,2,0,P|212:108|245:90,1,75,10|0,0:0|0:0,0:0:0:0:
322,44,199242,2,0,L|315:4,2,37.5,6|2|10,3:0|0:0|0:0,0:0:0:0:
379,113,199566,1,10,0:0:0:0:
379,113,199729,1,2,0:0:0:0:
320,181,199891,6,0,P|307:215|311:257,1,75,6|0,0:0|0:0,0:0:0:0:
324,341,200215,2,0,L|242:330,1,75,10|0,0:0|0:0,0:0:0:0:
228,243,200539,2,0,L|146:254,1,75,6|0,3:0|0:0,0:0:0:0:
76,300,200864,2,0,P|63:257|74:220,1,75,10|0,0:0|0:0,0:0:0:0:
91,141,201188,6,0,B|126:149|126:149|172:145,1,75,6|0,3:0|0:0,0:0:0:0:
245,104,201512,2,0,B|283:100|283:100|318:108,1,75,10|0,0:0|0:0,0:0:0:0:
375,179,201837,2,0,L|365:228,2,37.5,6|2|2,3:0|0:0|0:0,0:0:0:0:
451,132,202161,1,10,0:0:0:0:
451,132,202323,1,2,0:0:0:0:
390,65,202485,6,0,P|357:51|303:67,1,75,6|0,3:0|0:0,0:0:0:0:
255,121,202810,2,0,P|218:126|184:112,1,75,10|0,0:0|0:0,0:0:0:0:
100,80,203134,2,0,L|103:169,1,75,6|0,3:0|0:0,0:0:0:0:
177,204,203458,2,0,L|174:278,1,75,10|0,0:0|0:0,0:0:0:0:
121,352,203783,5,12,0:0:0:0:
210,364,203945,1,8,0:0:0:0:
210,364,204026,1,8,0:0:0:0:
210,364,204107,2,0,L|254:354,3,37.5,8|8|8|8,0:0|0:0|0:0|0:0,0:0:0:0:
282,329,204431,2,0,L|318:337,3,37.5,8|8|8|8,0:0|0:0|0:0|0:0,0:0:0:0:
353,366,204756,5,4,0:0:0:0:
438,339,204918,1,8,3:0:0:0:
