osu file format v14

[General]
AudioFilename: audio.mp3
AudioLeadIn: 0
PreviewTime: 18094
Countdown: 0
SampleSet: Soft
StackLeniency: 0.8
Mode: 0
LetterboxInBreaks: 0
WidescreenStoryboard: 1

[Editor]
Bookmarks: 142333,181659
DistanceSpacing: 0.8
BeatDivisor: 4
GridSize: 32
TimelineZoom: 1.9

[Metadata]
Title:Shinu Toki Shineba Ii
TitleUnicode:死ぬとき死ねばいい
Artist:Alfakyun.
ArtistUnicode:+α/あるふぁきゅん。
Creator:iljaaz
Version:Sorrow
Source:
Tags:Kowari should rock when i die Japanese jrock j-rock cover vocaloid kagamine len rin Iori kanzaki カンザキイオリ
BeatmapID:2412506
BeatmapSetID:1156021

[Difficulty]
HPDrainRate:6.4
CircleSize:4.2
OverallDifficulty:8.7
ApproachRate:9.6
SliderMultiplier:1.74
SliderTickRate:1

[Events]
//Background and Video events
0,0,"bg.jpg",0,0
//Break Periods
//Storyboard Layer 0 (Background)
//Storyboard Layer 1 (Fail)
//Storyboard Layer 2 (Pass)
//Storyboard Layer 3 (Foreground)
//Storyboard Layer 4 (Overlay)
//Storyboard Sound Samples

[TimingPoints]
6355,260.869565217391,3,2,1,30,1,0
6355,-185.185185185185,3,2,1,30,0,0
18094,-185.185185185185,3,2,1,65,0,0
18876,-80.6451612903226,3,2,1,85,0,0
43920,-227.272727272727,3,2,1,55,0,0
68963,-156.25,3,2,1,60,0,0
77572,-87.719298245614,3,2,1,70,0,0
81485,-74.6268656716418,3,2,1,75,0,0
106528,-69.4444444444444,3,2,1,85,0,0
118268,-74.6268656716418,3,2,1,80,0,0
118789,-87.719298245614,3,2,1,75,0,0
119050,-106.382978723404,3,2,1,70,0,0
144094,-74.6268656716418,3,2,1,70,0,0
144485,-87.7192982456139,3,2,1,70,0,0
145659,-74.6268656716418,3,2,1,70,0,0
146050,-87.7192982456139,3,2,1,70,0,0
147354,-87.7192982456139,3,2,1,75,0,0
147485,-87.7192982456139,3,2,1,70,0,0
147615,-87.7192982456139,3,2,1,75,0,0
147746,-87.7192982456139,3,2,1,70,0,0
148789,-74.6268656716418,3,2,1,70,0,0
149180,-87.7192982456139,3,2,1,70,0,0
151528,-87.7192982456139,3,2,1,75,0,0
151659,-87.7192982456139,3,2,1,70,0,0
151920,-74.6268656716418,3,2,1,70,0,0
152311,-87.7192982456139,3,2,1,70,0,0
153094,-87.7192982456139,3,2,1,75,0,0
153224,-87.7192982456139,3,2,1,70,0,0
153485,-74.6268656716418,3,2,1,70,0,0
154007,-87.7192982456139,3,2,1,70,0,0
154137,-87.7192982456139,3,2,1,75,0,0
154268,-87.7192982456139,3,2,1,70,0,0
155050,-74.6268656716418,3,2,1,70,0,0
155245,-74.6268656716418,3,2,1,75,0,0
155311,-74.6268656716418,3,2,1,70,0,0
156615,-185.185185185185,3,2,1,65,0,0
156810,-185.185185185185,3,2,1,5,0,0
156876,-185.185185185185,3,2,1,65,0,0
157398,-74.6268656716418,3,2,1,75,0,0
181659,-106.382978723404,3,2,2,70,0,0
181832,-106.382978723404,3,2,2,5,0,0
181920,-106.382978723404,3,2,2,70,0,0
182093,-106.382978723404,3,2,2,5,0,0
182181,-106.382978723404,3,2,2,70,0,0
182354,-106.382978723404,3,2,2,5,0,0
182441,-106.382978723404,3,2,2,70,0,0
184180,-106.382978723404,3,2,2,5,0,0
184268,-106.382978723404,3,2,2,70,0,0
184441,-106.382978723404,3,2,2,5,0,0
184528,-106.382978723404,3,2,2,70,0,0
184701,-106.382978723404,3,2,2,5,0,0
184789,-106.382978723404,3,2,2,70,0,0
186527,-106.382978723404,3,2,2,5,0,0
186615,-106.382978723404,3,2,2,70,0,0
186788,-106.382978723404,3,2,2,5,0,0
186876,-106.382978723404,3,2,2,70,0,0
187049,-106.382978723404,3,2,2,5,0,0
187137,-106.382978723404,3,2,2,70,0,0
187310,-106.382978723404,3,2,2,5,0,0
187398,-106.382978723404,3,2,2,70,0,0
187571,-106.382978723404,3,2,2,5,0,0
187659,-106.382978723404,3,2,2,70,0,0
187832,-106.382978723404,3,2,2,5,0,0
187920,-106.382978723404,3,2,2,70,0,0
189658,-106.382978723404,3,2,2,5,0,0
189746,-106.382978723404,3,2,2,70,0,0
189919,-106.382978723404,3,2,2,5,0,0
190007,-106.382978723404,3,2,2,70,0,0
190180,-106.382978723404,3,2,2,5,0,0
190268,-106.382978723404,3,2,2,70,0,0
191223,-106.382978723404,3,2,2,5,0,0
191311,-106.382978723404,3,2,2,70,0,0
191484,-106.382978723404,3,2,2,5,0,0
191572,-106.382978723404,3,2,2,70,0,0
191745,-106.382978723404,3,2,2,5,0,0
191833,-106.382978723404,3,2,2,70,0,0
193571,-106.382978723404,3,2,2,5,0,0
193659,-106.382978723404,3,2,2,70,0,0
193832,-106.382978723404,3,2,2,5,0,0
193920,-106.382978723404,3,2,2,70,0,0
194093,-106.382978723404,3,2,2,5,0,0
194181,-106.382978723404,3,2,2,70,0,0
194354,-106.382978723404,3,2,2,5,0,0
194441,-106.382978723404,3,2,2,70,0,0
194614,-106.382978723404,3,2,2,5,0,0
194702,-106.382978723404,3,2,2,70,0,0
194875,-106.382978723404,3,2,2,5,0,0
194963,-106.382978723404,3,2,2,70,0,0
196701,-106.382978723404,3,2,2,5,0,0
196789,-106.382978723404,3,2,2,70,0,0
196962,-106.382978723404,3,2,2,5,0,0
197050,-106.382978723404,3,2,2,70,0,0
198267,-106.382978723404,3,2,2,5,0,0
198354,-106.382978723404,3,2,2,70,0,0
198527,-106.382978723404,3,2,2,5,0,0
198615,-106.382978723404,3,2,2,70,0,0
198788,-106.382978723404,3,2,2,5,0,0
198876,-106.382978723404,3,2,2,70,0,0
199049,-106.382978723404,3,2,2,5,0,0
199137,-106.382978723404,3,2,2,70,0,0
199310,-106.382978723404,3,2,2,5,0,0
199398,-106.382978723404,3,2,2,70,0,0
199571,-106.382978723404,3,2,2,5,0,0
199659,-106.382978723404,3,2,2,70,0,0
200614,-106.382978723404,3,2,2,5,0,0
200702,-106.382978723404,3,2,2,70,0,0
200875,-106.382978723404,3,2,2,5,0,0
200963,-106.382978723404,3,2,2,70,0,0
201136,-106.382978723404,3,2,2,5,0,0
201224,-106.382978723404,3,2,2,70,0,0
202962,-106.382978723404,3,2,2,5,0,0
203050,-106.382978723404,3,2,2,70,0,0
203223,-106.382978723404,3,2,2,5,0,0
203311,-106.382978723404,3,2,2,70,0,0
203484,-106.382978723404,3,2,2,5,0,0
203572,-106.382978723404,3,2,2,70,0,0
206702,-74.6268656716418,3,2,1,70,0,0
216159,-74.6268656716418,3,2,2,70,0,0
219224,-74.6268656716418,3,2,1,75,0,0
224963,-39.3700787401575,3,2,1,90,0,0
225028,-39.3700787401575,3,2,1,5,0,0
225224,-39.3700787401575,3,2,1,90,0,0
225289,-39.3700787401575,3,2,1,5,0,0
228615,-74.6268656716418,3,2,1,80,0,0
253659,-87.719298245614,3,2,1,75,0,0
266181,-69.4444444444444,3,2,1,90,0,0
291224,-156.25,3,2,1,40,0,0
303746,-227.272727272727,3,2,1,40,0,0
319398,-227.272727272727,3,2,1,30,0,0
322528,-227.272727272727,3,2,1,20,0,0
325659,-227.272727272727,3,2,1,10,0,0
328789,-227.272727272727,3,2,1,5,0,0

[Colours]
Combo1 : 236,118,0
Combo2 : 215,215,0
Combo3 : 255,170,85
Combo4 : 249,234,176

[HitObjects]
126,110,6355,6,0,B|102:130|74:149|74:149|82:182|93:239,2,140.940003440918,2|2|2,2:0|2:0|2:0,2:0:0:0:
183,206,7398,1,2,2:0:0:0:
32,295,7659,1,2,2:0:0:0:
90,223,7920,6,0,B|199:203|152:302|265:284,1,187.920004587891,2|2,2:0|2:0,2:0:0:0:
422,64,8702,2,0,B|396:49|383:17|383:17|298:75|351:176,1,234.900005734863,2|0,2:0|2:0,2:0:0:0:
408,262,9485,6,0,P|364:248|305:235,1,93.9600022939454,2|0,2:0|2:0,2:0:0:0:
214,92,9876,2,0,P|254:63|310:74,1,93.9600022939454,2|0,2:0|2:0,2:0:0:0:
181,216,10268,6,0,P|174:260|163:313,2,93.9600022939454,2|2|2,2:0|2:0|2:0,2:0:0:0:
114,90,11050,2,0,B|49:86|58:140|-22:124,1,140.940003440918,2|0,2:0|2:0,2:0:0:0:
319,354,11833,6,0,B|429:294|429:294|501:322|461:395,1,234.900005734863,2|0,2:0|2:0,2:0:0:0:
346,239,12615,6,0,B|330:158|392:188|368:86,2,140.940003440918,2|2|2,2:0|2:0|2:0,2:0:0:0:
480,128,13659,1,2,2:0:0:0:
369,12,13920,1,2,2:0:0:0:
222,115,14181,6,0,B|312:99|288:192|394:175,1,187.920004587891,2|2,2:0|2:0,2:0:0:0:
156,8,14963,2,0,B|132:33|104:57|104:57|122:114|136:180,1,187.920004587891,2|0,2:0|2:0,2:0:0:0:
7,349,15746,6,0,P|21:318|87:317,1,93.9600022939454,2|0,2:0|2:0,2:0:0:0:
132,360,16137,2,0,P|179:370|235:381,1,93.9600022939454,2|0,2:0|2:0,2:0:0:0:
286,332,16528,6,0,B|299:288|299:288|275:234,2,93.9600022939454,2|2|2,2:0|2:0|2:0,2:0:0:0:
512,56,17311,2,0,B|411:39|438:130|326:100,1,187.920004587891,2|0,2:0|2:0,2:0:0:0:
502,191,18094,5,2,2:0:0:0:
355,12,18354,1,2,2:0:0:0:
168,137,18615,1,2,2:3:0:0:
120,17,18876,6,0,P|163:43|232:61,1,107.879995720093,4|0,3:1|2:0,2:0:0:0:
345,260,19137,1,0,3:2:0:0:
295,167,19268,2,0,P|200:154|117:247,1,215.759991440186,8|0,2:0|3:2,2:0:0:0:
122,381,19659,6,0,P|171:365|233:360,1,107.879995720093,2|0,3:2|2:0,2:0:0:0:
0,197,19920,2,0,P|13:246|22:304,1,107.879995720093,10|0,3:0|2:0,2:0:0:0:
210,131,20181,2,0,P|197:82|188:24,1,107.879995720093,6|0,3:0|2:0,2:0:0:0:
120,233,20441,6,0,B|237:212|201:312|320:295,1,215.759991440186,0|0,3:2|3:2,2:0:0:0:
123,112,20833,1,8,2:0:0:0:
293,54,20963,5,2,3:2:0:0:
208,218,21094,1,0,2:0:0:0:
86,10,21224,6,0,P|138:7|191:58,1,107.879995720093,2|0,3:2|2:0,2:0:0:0:
362,184,21485,2,0,B|276:169|294:236|180:214,1,161.819993580139,0|0,3:2|2:0,2:0:0:0:
192,240,21746,1,8,2:0:0:0:
352,106,21876,1,2,2:3:0:0:
492,299,22007,6,0,P|441:275|386:259,1,107.879995720093,4|0,3:1|2:0,2:0:0:0:
233,107,22268,1,0,3:2:0:0:
295,18,22398,2,0,P|373:74|344:201,1,215.759991440186,8|0,2:0|3:2,2:0:0:0:
39,274,22789,6,0,P|42:221|82:173,1,107.879995720093,2|0,3:2|2:0,2:0:0:0:
258,342,23050,2,0,P|203:356|150:377,1,107.879995720093,10|0,3:0|2:0,2:0:0:0:
273,192,23311,1,6,3:0:0:0:
126,78,23441,1,2,2:0:0:0:
161,152,23572,6,0,P|249:171|322:59,1,215.759991440186,4|0,3:2|3:2,2:0:0:0:
212,262,23963,1,8,2:0:0:0:
357,280,24094,5,0,3:2:0:0:
212,90,24224,1,0,2:0:0:0:
124,225,24354,6,0,P|190:186|289:200,1,161.819993580139,0|0,3:2|2:0,2:0:0:0:
295,211,24615,1,0,3:2:0:0:
455,99,24746,1,2,2:3:0:0:
315,0,24876,2,0,P|329:51|339:119,1,107.879995720093,8|2,2:0|2:3,2:0:0:0:
472,296,25137,6,0,B|362:273|373:371|263:346,1,215.759991440186,4|0,3:1|3:2,2:0:0:0:
174,147,25528,2,0,P|220:171|289:196,1,107.879995720093,10|0,2:0|2:0,2:0:0:0:
84,347,25789,1,0,3:2:0:0:
176,381,25920,6,0,P|162:326|150:257,1,107.879995720093,2|0,3:2|2:3,2:0:0:0:
56,80,26181,2,0,P|-7:130|5:213,1,161.819993580139,8|0,3:0|2:0,2:0:0:0:
0,232,26441,2,0,P|49:212|105:201,1,107.879995720093,4|0,3:0|2:0,2:0:0:0:
315,104,26702,5,4,3:2:0:0:
191,208,26833,1,0,2:0:0:0:
226,70,26963,5,0,3:2:0:0:
376,226,27094,1,8,2:0:0:0:
227,350,27224,6,0,P|174:363|120:387,1,107.879995720093,0|0,3:2|2:0,2:0:0:0:
290,195,27485,2,0,P|390:189|462:278,1,215.759991440186,2|0,3:2|3:2,2:0:0:0:
336,330,27876,1,2,2:3:0:0:
192,113,28007,2,0,P|207:58|219:1,1,107.879995720093,8|2,3:2|2:3,2:0:0:0:
486,166,28268,6,0,P|470:220|459:278,1,107.879995720093,4|0,3:1|2:0,2:0:0:0:
298,82,28528,1,0,3:2:0:0:
364,159,28659,2,0,B|254:145|271:246|146:210,1,215.759991440186,8|0,2:0|3:2,2:0:0:0:
84,357,29050,6,0,P|55:318|65:256,1,107.879995720093,8|0,3:2|2:0,2:0:0:0:
228,49,29311,2,0,P|257:88|247:150,1,107.879995720093,10|0,3:0|2:0,2:0:0:0:
7,38,29572,2,0,P|59:20|116:-4,1,107.879995720093,6|0,3:0|2:0,2:0:0:0:
338,262,29833,6,0,P|280:196|160:217,1,215.759991440186,2|0,3:2|3:2,2:0:0:0:
142,289,30224,1,8,2:0:0:0:
352,117,30354,2,0,P|398:141|455:155,1,107.879995720093,0|0,3:2|2:0,2:0:0:0:
512,245,30615,6,0,L|452:15,2,215.759991440186,2|0|8,3:2|3:2|2:0,2:0:0:0:
352,117,31268,1,2,2:3:0:0:
236,274,31398,6,0,P|221:327|211:393,1,107.879995720093,4|0,3:1|2:0,2:0:0:0:
338,262,31659,1,0,3:2:0:0:
208,115,31789,2,0,B|132:129|154:168|57:185,1,161.819993580139,8|0,2:0|2:0,2:0:0:0:
51,201,32050,1,0,3:2:0:0:
0,38,32181,6,0,P|50:40|109:83,1,107.879995720093,8|0,2:0|2:0,2:0:0:0:
206,199,32441,1,8,3:0:0:0:
95,300,32572,1,0,2:0:0:0:
208,115,32702,1,4,3:0:0:0:
338,262,32833,1,0,2:0:0:0:
206,199,32963,6,0,P|193:72|258:19,1,215.759991440186,2|0,3:2|3:2,2:0:0:0:
424,202,33354,2,0,P|432:256|444:322,1,107.879995720093,8|0,2:0|3:2,2:0:0:0:
305,166,33615,1,0,2:0:0:0:
69,308,33746,6,0,P|119:367|196:362,1,161.819993580139,2|0,3:2|2:0,2:0:0:0:
209,340,34007,1,0,3:2:0:0:
78,192,34137,1,2,2:3:0:0:
47,300,34268,5,8,2:0:0:0:
218,192,34398,1,0,2:0:0:0:
65,22,34528,6,0,P|26:61|38:133,1,107.879995720093,4|0,3:1|2:0,3:2:0:0:
67,177,34789,1,0,3:2:0:0:
309,77,34920,2,0,B|229:65|235:114|150:104,1,161.819993580139,8|0,2:0|2:0,2:0:0:0:
143,87,35181,1,0,3:2:0:0:
329,183,35311,6,0,P|340:235|355:292,1,107.879995720093,8|0,3:2|2:0,2:0:0:0:
166,361,35572,1,8,3:0:0:0:
232,232,35702,1,0,2:0:0:0:
360,384,35833,1,4,3:0:0:0:
246,313,35963,1,0,2:0:0:0:
316,239,36094,6,0,P|383:226|490:330,1,215.759991440186,2|0,3:2|3:2,2:0:0:0:
254,150,36485,1,8,2:0:0:0:
395,43,36615,2,0,P|344:64|285:78,1,107.879995720093,0|0,3:2|2:0,2:0:0:0:
150,268,36876,6,0,P|136:187|115:103,1,161.819993580139,2|0,3:2|2:0,2:0:0:0:
139,95,37137,1,0,3:2:0:0:
33,238,37268,1,2,2:3:0:0:
222,167,37398,5,8,2:0:0:0:
64,41,37528,1,2,2:3:0:0:
0,123,37659,6,0,P|51:138|108:160,1,107.879995720093,4|0,3:1|2:0,2:0:0:0:
251,351,37920,1,0,3:2:0:0:
297,286,38050,2,0,P|223:273|125:367,1,215.759991440186,8|0,2:0|3:2,2:0:0:0:
325,169,38441,6,0,B|405:161|395:202|501:191,1,161.819993580139,8|0,2:0|2:0,2:0:0:0:
496,178,38702,1,8,3:0:0:0:
325,269,38833,1,0,2:0:0:0:
403,134,38963,1,4,3:0:0:0:
502,327,39094,1,0,2:0:0:0:
396,384,39224,6,0,L|417:271,1,107.879995720093,0|0,3:2|2:0,2:0:0:0:
267,98,39485,1,0,3:2:0:0:
330,28,39615,2,0,P|437:20|500:102,1,215.759991440186,8|0,2:0|2:0,2:0:0:0:
236,249,40007,6,0,B|154:240|166:285|76:275,1,161.819993580139,0|0,3:2|2:0,2:0:0:0:
67,293,40268,1,0,3:2:0:0:
194,163,40398,1,2,2:3:0:0:
96,126,40528,1,8,2:0:0:0:
213,328,40659,1,2,2:3:0:0:
324,273,40789,6,0,P|325:215|285:177,1,107.879995720093,4|0,3:1|2:0,2:0:0:0:
127,359,41050,1,0,3:2:0:0:
154,230,41181,5,8,2:0:0:0:
313,358,41311,1,0,2:0:0:0:
159,251,41441,1,0,3:2:0:0:
374,107,41572,6,0,B|343:96|317:83|317:83|307:127|288:196,1,161.819993580139,2|0,3:2|2:0,2:0:0:0:
287,202,41833,1,8,3:0:0:0:
455,100,41963,1,0,2:0:0:0:
299,65,42094,5,4,3:0:0:0:
431,231,42224,1,0,2:0:0:0:
326,384,42354,6,0,P|333:331|348:274,1,107.879995720093,2|0,3:2|2:0,2:0:0:0:
214,48,42615,1,0,3:2:0:0:
359,144,42746,1,8,2:0:0:0:
140,268,42876,2,0,P|90:248|33:232,1,107.879995720093,0|0,3:2|2:0,2:0:0:0:
115,168,43137,5,0,3:2:0:0:
230,337,43268,1,0,2:0:0:0:
47,322,43398,5,0,3:2:0:0:
265,187,43528,1,2,2:3:0:0:
416,384,43659,5,8,2:0:0:0:
220,255,43789,1,2,2:3:0:0:
348,170,43920,5,0,3:0:0:0:
348,170,45485,1,0,3:0:0:0:
348,170,47050,1,0,3:0:0:0:
348,170,48615,1,0,3:0:0:0:
85,305,50181,5,0,3:0:0:0:
150,258,51746,1,0,3:0:0:0:
222,293,53311,1,0,3:0:0:0:
233,367,54876,1,0,3:0:0:0:
469,286,56441,6,0,B|361:274|373:387|250:354,2,229.680007009278,0|0|0,3:0|3:0|3:0,2:0:0:0:
512,346,58789,1,0,3:0:0:0:
231,19,59572,6,0,B|188:39|147:55|147:55|170:115|189:188,2,229.680007009278,0|0|0,3:0|3:0|3:0,2:0:0:0:
291,67,61920,1,0,3:0:0:0:
63,227,62702,6,0,B|100:243|143:250|143:250|211:313|133:375,2,229.680007009278,0|0|0,3:0|3:0|3:0,2:0:0:0:
15,283,65050,1,0,3:0:0:0:
382,145,65833,6,0,B|314:155|295:213|295:213|314:155|266:100,2,229.680007009278,0|0|0,3:0|3:0|3:0,2:0:0:0:
342,80,68181,1,0,3:0:0:0:
287,357,68963,5,0,3:0:0:0:
397,283,69224,1,0,3:0:0:0:
270,326,69485,1,4,2:3:0:0:
449,384,69746,6,0,P|439:331|427:192,1,167.04,8|0,2:0|2:0,2:0:0:0:
483,166,70268,1,8,3:0:0:0:
456,235,70398,1,4,3:0:0:0:
280,113,70528,5,0,3:0:0:0:
306,2,70789,1,0,3:0:0:0:
397,75,71050,1,4,2:3:0:0:
255,209,71311,6,0,B|222:177|177:204|177:204|152:242|103:233,1,167.04,8|0,2:0|2:0,2:0:0:0:
61,141,71833,2,0,P|86:152|120:162,1,55.68,8|4,2:3|2:3,2:0:0:0:
260,308,72094,5,0,3:0:0:0:
151,344,72354,1,0,3:0:0:0:
106,233,72615,1,4,3:0:0:0:
317,111,72876,6,0,B|345:134|367:149|367:149|352:196|339:258,1,167.04,8|0,2:0|2:0,2:0:0:0:
373,318,73398,1,8,2:3:0:0:
317,368,73528,1,4,2:3:0:0:
401,140,73659,5,0,3:0:0:0:
242,193,73920,1,0,3:0:0:0:
340,249,74181,1,4,2:3:0:0:
246,51,74441,6,0,B|178:65|178:65|154:90|154:90|84:105,1,167.04,8|0,2:0|2:0,2:0:0:0:
41,50,74963,1,8,3:0:0:0:
107,13,75094,1,4,3:0:0:0:
166,158,75224,5,0,3:0:0:0:
31,247,75485,1,0,3:0:0:0:
178,351,75746,1,4,2:3:0:0:
129,282,76007,6,0,P|76:276|-1:356,1,167.04,8|0,2:0|2:0,2:0:0:0:
66,384,76528,2,0,P|72:360|76:327,1,55.68,8|4,2:3|2:3,2:0:0:0:
222,180,76789,5,0,3:0:0:0:
359,113,77050,1,4,2:3:0:0:
460,226,77311,1,8,2:3:0:0:
363,384,77572,6,0,B|296:329|351:241|358:251|430:210|428:151|391:100|319:83|247:124|236:197|281:264|358:251|351:241|411:254|417:322,1,545.489993341187,4|0,3:1|2:0,2:0:0:0:
413,326,78354,6,0,P|365:303|298:296,1,99.1799987893067,0|0,3:0|2:0,2:0:0:0:
168,105,78615,2,0,P|219:89|274:67,1,99.1799987893067,4|0,2:3|2:0,2:0:0:0:
123,377,78876,2,0,P|109:325|88:276,1,99.1799987893067,8|0,2:3|2:0,2:0:0:0:
33,210,79137,6,0,P|97:253|177:236,1,148.76999818396,4|0,2:0|2:0,2:0:0:0:
185,229,79398,1,0,3:0:0:0:
12,291,79528,1,0,2:0:0:0:
222,325,79659,5,4,2:3:0:0:
110,163,79789,1,2,2:3:0:0:
91,283,79920,6,0,B|154:302|184:254|176:254|210:204|273:225,1,198.359997578613,8|0,2:3|3:0,2:0:0:0:
398,86,80311,1,0,2:0:0:0:
456,233,80441,5,2,3:2:0:0:
303,120,80572,1,2,2:0:0:0:
484,51,80702,5,4,2:3:0:0:
379,178,80833,1,0,2:0:0:0:
260,24,80963,5,4,2:3:0:0:
351,263,81094,1,2,2:3:0:0:
317,103,81224,5,8,2:3:0:0:
222,325,81354,1,2,2:3:0:0:
408,379,81485,6,0,P|409:325|370:274,1,116.579994485504,4|0,3:1|2:0,2:0:0:0:
163,129,81746,1,0,3:2:0:0:
260,24,81876,2,0,L|299:222,1,174.869991728257,8|0,2:0|2:0,2:0:0:0:
286,215,82137,1,0,3:2:0:0:
51,50,82268,6,0,B|95:13|95:13|160:30,1,116.579994485504,2|0,3:2|2:0,2:0:0:0:
32,256,82528,2,0,P|16:196|-2:140,1,116.579994485504,8|0,3:0|2:0,2:0:0:0:
222,325,82789,2,0,B|313:308|293:381|395:369,1,174.869991728257,4|0,3:0|2:0,2:0:0:0:
417,292,83050,6,0,P|358:289|318:342,1,116.579994485504,4|0,3:1|2:0,2:0:0:0:
163,129,83311,1,2,2:0:0:0:
117,189,83441,2,0,P|213:204|290:106,1,233.159988971009,8|0,2:0|3:2,2:0:0:0:
323,0,83833,6,0,P|273:21|213:33,1,116.579994485504,4|0,3:2|2:0,2:0:0:0:
414,205,84094,1,10,2:3:0:0:
271,113,84224,1,8,2:0:0:0:
419,0,84354,2,0,P|457:48|445:115,1,116.579994485504,4|2,2:3|3:0,2:0:0:0:
342,384,84615,6,0,B|305:360|267:340|267:340|289:268|311:182,1,233.159988971009,4|0,3:1|3:2,2:0:0:0:
405,301,85007,2,0,B|297:271|300:391|171:348,1,233.159988971009,8|0,2:0|3:2,2:0:0:0:
40,261,85398,6,0,P|34:202|80:146,1,116.579994485504,8|0,3:2|2:0,2:0:0:0:
285,279,85659,2,0,P|291:338|245:394,1,116.579994485504,10|0,3:0|2:0,2:0:0:0:
184,180,85920,2,0,L|224:-14,1,174.869991728257,6|0,3:0|2:0,2:0:0:0:
231,7,86181,6,0,B|356:-21|325:98|456:62,1,233.159988971009,4|0,3:1|3:2,2:0:0:0:
281,179,86572,1,8,2:0:0:0:
452,286,86702,2,0,P|437:228|425:162,1,116.579994485504,2|0,2:0|3:2,2:0:0:0:
188,352,86963,6,0,P|233:312|356:333,1,174.869991728257,4|0,3:2|2:0,2:0:0:0:
345,340,87224,1,0,3:2:0:0:
190,237,87354,1,2,3:2:0:0:
356,210,87485,5,2,3:2:0:0:
193,374,87615,1,2,2:3:0:0:
10,158,87746,6,0,P|86:139|190:237,1,233.159988971009,4|0,3:1|3:2,2:0:0:0:
60,296,88137,1,8,2:0:0:0:
162,134,88268,2,0,P|219:113|287:82,1,116.579994485504,2|0,2:0|3:2,2:0:0:0:
429,311,88528,6,0,B|389:296|348:289|348:289|307:238|372:198,1,174.869991728257,2|0,3:2|2:0,2:0:0:0:
370,210,88789,1,8,3:0:0:0:
512,58,88920,1,2,2:0:0:0:
442,27,89050,1,6,3:0:0:0:
384,81,89181,1,2,2:3:0:0:
189,236,89311,6,0,P|102:252|31:136,1,233.159988971009,4|0,3:1|3:2,2:0:0:0:
251,301,89702,1,8,2:0:0:0:
132,346,89833,5,2,2:0:0:0:
275,222,89963,1,0,3:2:0:0:
109,266,90094,6,0,B|220:254|188:365|315:347,1,233.159988971009,4|8,3:2|2:0,2:0:0:0:
131,160,90485,1,0,3:2:0:0:
314,62,90615,2,0,B|256:43|256:43|203:73,1,116.579994485504,2|2,3:2|2:3,2:0:0:0:
394,201,90876,5,4,3:1:0:0:
214,296,91007,1,2,2:0:0:0:
412,381,91137,5,0,3:2:0:0:
275,222,91268,1,8,2:0:0:0:
465,120,91398,2,0,L|496:243,1,116.579994485504,2|0,3:2|2:0,2:0:0:0:
312,39,91659,6,0,B|223:33|235:110|120:72,1,174.869991728257,2|0,3:2|2:0,2:0:0:0:
87,130,91920,2,0,B|64:76|64:76|94:18,1,116.579994485504,10|0,3:0|2:0,2:0:0:0:
267,195,92181,1,6,3:0:0:0:
89,299,92311,1,0,2:0:0:0:
140,218,92441,6,0,P|242:214|331:311,1,233.159988971009,4|0,3:1|3:2,2:0:0:0:
168,361,92833,1,8,2:0:0:0:
210,247,92963,5,2,2:0:0:0:
323,383,93094,1,0,3:2:0:0:
236,326,93224,6,0,B|146:307|151:392|28:358,1,174.869991728257,8|0,2:0|2:0,2:0:0:0:
50,355,93485,2,0,B|32:300|32:300|72:243,1,116.579994485504,8|0,3:0|2:0,2:0:0:0:
282,91,93746,2,0,B|300:146|300:146|260:203,1,116.579994485504,8|2,3:0|2:3,2:0:0:0:
26,68,94007,6,0,B|113:49|103:131|195:115,1,174.869991728257,4|0,3:1|2:0,2:0:0:0:
204,131,94268,1,0,3:2:0:0:
366,277,94398,1,8,2:0:0:0:
397,206,94528,1,0,2:0:0:0:
341,153,94659,1,0,3:2:0:0:
175,307,94789,6,0,P|229:326|293:356,1,116.579994485504,8|0,2:0|2:0,2:0:0:0:
390,48,95050,2,0,P|338:70|275:92,1,116.579994485504,8|0,3:0|2:0,2:0:0:0:
510,272,95311,2,0,P|534:212|467:129,1,174.869991728257,6|0,3:0|2:0,2:0:0:0:
458,110,95572,6,0,P|418:156|439:204,1,116.579994485504,4|0,3:1|2:0,2:0:0:0:
282,350,95833,1,0,3:2:0:0:
354,384,95963,2,0,P|373:296|259:193,1,233.159988971009,8|0,2:0|3:2,2:0:0:0:
129,98,96354,5,2,3:2:0:0:
9,230,96485,1,0,2:0:0:0:
150,333,96615,2,0,P|205:348|270:373,1,116.579994485504,8|2,3:0|2:0,2:0:0:0:
156,233,96876,1,8,2:0:0:0:
17,370,97007,1,2,3:0:0:0:
78,298,97137,6,0,B|184:272|152:380|276:355,1,174.869991728257,4|0,3:1|0:0,2:0:0:0:
260,368,97398,1,0,3:2:0:0:
408,79,97528,2,0,B|378:102|348:121|348:121|363:167|378:225,1,174.869991728257,10|0,2:0|2:0,2:0:0:0:
371,230,97789,1,0,3:2:0:0:
500,381,97920,6,0,P|456:346|388:348,1,116.579994485504,2|0,3:2|2:0,2:0:0:0:
223,145,98181,2,0,P|280:143|325:108,1,116.579994485504,10|0,3:0|2:0,2:0:0:0:
150,333,98441,1,8,2:0:0:0:
150,333,98702,6,0,B|174:336|199:353|199:353|262:254|146:194,1,233.159988971009,4|0,3:1|3:2,2:0:0:0:
15,377,99094,1,8,2:0:0:0:
136,317,99224,5,0,3:2:0:0:
11,171,99354,1,0,3:2:0:0:
157,40,99485,6,0,P|237:30|311:89,1,174.869991728257,8|0,2:0|2:0,2:0:0:0:
314,98,99746,1,8,3:0:0:0:
160,202,99876,1,0,2:0:0:0:
300,345,100007,2,0,P|356:363|415:387,1,116.579994485504,8|6,3:2|2:3,2:0:0:0:
246,240,100268,6,0,P|170:231|100:297,1,174.869991728257,4|0,3:1|2:0,2:0:0:0:
101,293,100528,2,0,P|149:292|196:247,1,116.579994485504,0|8,3:2|2:0,0:0:0:0:
130,50,100789,1,2,2:0:0:0:
65,156,100920,1,0,3:2:0:0:
292,62,101050,6,0,B|367:47|367:47|430:86|430:86|518:69,2,233.159988971009,6|8|8,3:2|3:0|3:2,2:0:0:0:
464,187,101702,1,2,2:3:0:0:
299,384,101833,6,0,B|282:335|324:306|329:313|371:275|335:216,1,174.869991728257,4|0,3:1|2:0,2:0:0:0:
340,226,102094,2,0,P|336:291|367:352,1,116.579994485504,0|8,3:2|2:0,0:0:0:0:
250,170,102354,1,0,3:2:0:0:
399,91,102485,1,0,3:2:0:0:
132,161,102615,6,0,P|190:136|329:233,1,233.159988971009,8|8,2:0|3:0,2:0:0:0:
154,349,103007,1,0,2:0:0:0:
244,384,103137,2,0,P|230:327|221:253,1,116.579994485504,8|6,2:0|2:3,2:0:0:0:
41,40,103398,6,0,B|84:57|125:77|125:77|179:58|157:-11,1,174.869991728257,4|0,3:1|2:0,2:0:0:0:
154,0,103659,1,0,3:2:0:0:
7,157,103789,1,8,2:0:0:0:
147,182,103920,5,0,2:0:0:0:
41,61,104050,1,0,3:2:0:0:
82,233,104181,6,0,B|145:258|192:191|180:197|226:138|294:173,1,233.159988971009,4|0,3:2|3:2,2:0:0:0:
344,223,104572,1,0,2:0:0:0:
453,371,104702,5,8,2:0:0:0:
291,284,104833,1,2,2:3:0:0:
462,70,104963,6,0,B|496:118|496:118|475:190,1,116.579994485504,4|0,2:1|3:2,2:0:0:0:
226,384,105224,2,0,B|192:336|192:336|213:264,1,116.579994485504,8|0,2:0|3:2,2:0:0:0:
131,22,105485,2,0,P|179:43|245:69,1,116.579994485504,8|0,2:0|3:2,2:0:0:0:
344,223,105746,5,4,3:2:0:0:
164,342,105876,1,0,2:0:0:0:
311,362,106007,5,8,3:2:0:0:
175,200,106137,1,0,3:2:0:0:
319,139,106268,5,8,3:2:0:0:
208,280,106398,1,2,3:0:0:0:
9,103,106528,6,0,L|134:140,1,125.280003058594,4|0,3:1|2:0,2:0:0:0:
175,200,106789,1,0,3:2:0:0:
400,287,106920,2,0,B|276:255|302:405|170:359,1,250.560006117188,8|0,2:0|3:2,2:0:0:0:
459,80,107311,6,0,P|485:139|516:200,1,125.280003058594,2|0,3:2|2:0,2:0:0:0:
235,46,107572,2,0,P|294:24|358:-3,1,125.280003058594,10|0,3:0|2:0,2:0:0:0:
489,271,107833,1,6,3:0:0:0:
319,139,107963,1,0,2:0:0:0:
179,361,108094,6,0,P|67:363|34:241,1,250.560006117188,0|0,3:2|3:2,2:0:0:0:
225,137,108485,1,8,2:0:0:0:
76,13,108615,2,0,P|88:69|101:149,1,125.280003058594,2|0,3:2|2:0,2:0:0:0:
387,346,108876,6,0,B|354:318|318:293|318:293|340:212|360:127,1,250.560006117188,2|0,3:2|3:2,2:0:0:0:
475,225,109268,1,2,3:0:0:0:
282,301,109398,2,0,L|156:326,1,125.280003058594,8|2,2:0|2:3,2:0:0:0:
320,64,109659,6,0,B|382:55|382:55|429:95,1,125.280003058594,4|0,3:1|2:0,2:0:0:0:
254,220,109920,1,0,3:2:0:0:
444,336,110050,2,0,B|356:321|359:408|249:381,1,187.920004587891,8|0,2:0|2:0,2:0:0:0:
258,380,110311,1,0,3:2:0:0:
119,161,110441,6,0,P|109:217|92:286,1,125.280003058594,2|0,3:2|2:0,2:0:0:0:
453,169,110702,2,0,P|462:112|480:44,1,125.280003058594,10|0,3:0|2:0,2:0:0:0:
246,123,110963,1,6,3:0:0:0:
369,311,111094,1,2,2:0:0:0:
90,384,111224,6,0,B|110:302|110:302|81:244|81:244|109:141,1,250.560006117188,4|0,3:2|3:2,2:0:0:0:
210,321,111615,1,8,2:0:0:0:
408,204,111746,2,0,B|348:192|348:192|290:228,1,125.280003058594,0|0,3:2|2:0,2:0:0:0:
54,40,112007,6,0,B|147:23|135:107|229:96,1,187.920004587891,0|0,3:2|2:0,2:0:0:0:
242,106,112268,1,0,3:2:0:0:
54,249,112398,1,2,2:3:0:0:
107,146,112528,5,8,2:0:0:0:
213,241,112659,1,2,2:3:0:0:
8,384,112789,6,0,P|22:324|34:254,1,125.280003058594,4|0,3:1|2:0,2:0:0:0:
188,165,113050,1,0,3:2:0:0:
345,324,113181,2,0,B|277:314|277:314|233:342|233:342|163:329,1,187.920004587891,10|0,2:0|2:0,2:0:0:0:
154,316,113441,1,0,3:2:0:0:
369,111,113572,6,0,P|410:158|394:233,1,125.280003058594,2|0,3:2|2:3,2:0:0:0:
136,96,113833,2,0,P|156:36|229:13,1,125.280003058594,8|0,3:0|2:0,2:0:0:0:
142,283,114094,2,0,P|80:295|23:243,1,125.280003058594,4|0,3:0|2:0,2:0:0:0:
240,188,114354,6,4,B|358:162|343:294|502:238,1,250.560006117188,4|0,3:2|3:2,2:0:0:0:
271,80,114746,1,8,2:0:0:0:
115,214,114876,2,0,P|104:274|90:336,1,125.280003058594,0|0,3:2|2:0,2:0:0:0:
417,384,115137,6,0,P|447:302|336:183,1,250.560006117188,2|0,3:2|3:2,2:0:0:0:
279,216,115528,1,2,2:3:0:0:
193,384,115659,2,0,B|244:369|244:369|259:355|259:355|322:338,1,125.280003058594,8|2,3:2|2:3,2:0:0:0:
61,88,115920,6,0,B|151:117|151:117|182:172|182:172|277:198,1,250.560006117188,4|0,3:1|3:2,2:0:0:0:
474,15,116311,2,0,P|412:13|366:77,1,125.280003058594,8|0,2:0|2:0,2:0:0:0:
491,316,116572,1,0,3:2:0:0:
379,383,116702,6,0,P|390:322|409:245,1,125.280003058594,8|0,3:2|2:0,2:0:0:0:
277,98,116963,2,0,P|214:73|144:41,1,125.280003058594,10|0,3:0|2:0,2:0:0:0:
0,223,117224,2,0,P|51:295|147:268,1,187.920004587891,6|0,3:0|2:0,2:0:0:0:
157,284,117485,5,2,3:2:0:0:
64,132,117615,1,0,2:0:0:0:
27,312,117746,5,0,3:2:0:0:
183,155,117876,1,8,2:0:0:0:
332,282,118007,2,0,P|391:302|457:332,1,125.280003058594,0|0,3:2|2:0,2:0:0:0:
348,62,118268,6,0,P|298:94|299:171,1,116.579994485504,2|0,3:2|2:0,2:0:0:0:
479,259,118528,1,0,3:2:0:0:
310,360,118659,1,2,2:3:0:0:
434,144,118789,2,0,P|446:190|457:253,1,99.1799987893067,8|2,2:0|2:3,2:0:0:0:
288,147,119050,6,0,B|202:139|217:206|110:190,1,163.559997504273,0|0,3:0|3:0,2:0:0:0:
13,87,119441,1,2,2:3:0:0:
62,30,119572,2,0,P|105:32|149:72,1,81.7799987521363,4|0,2:3|2:0,2:0:0:0:
260,270,119833,6,0,P|329:274|389:197,1,163.559997504273,8|0,2:0|3:0,2:0:0:0:
486,132,120224,1,2,2:3:0:0:
388,111,120354,5,8,3:0:0:0:
509,223,120485,1,6,2:3:0:0:
418,309,120615,6,0,P|345:288|244:267,1,163.559997504273,0|0,3:0|2:0,2:0:0:0:
162,159,121007,1,0,3:0:0:0:
291,161,121137,5,4,2:3:0:0:
170,247,121268,1,8,2:3:0:0:
289,367,121398,6,0,P|335:324|309:218,1,163.559997504273,8|0,2:0|3:0,2:0:0:0:
138,110,121789,2,0,P|127:148|113:201,1,81.7799987521363,0|0,2:0|3:0,2:0:0:0:
293,32,122050,1,2,2:3:0:0:
365,71,122181,6,0,P|372:107|386:162,1,81.7799987521363,4|0,2:3|2:0,2:0:0:0:
259,269,122441,1,0,3:0:0:0:
346,344,122572,1,4,2:3:0:0:
292,181,122702,5,8,2:3:0:0:
166,305,122833,1,2,2:3:0:0:
259,269,122963,6,0,B|346:250|333:325|444:311,1,163.559997504273,8|0,2:0|3:0,2:0:0:0:
500,221,123354,2,0,B|510:183|510:183|486:128,1,81.7799987521363,8|4,2:3|2:3,2:0:0:0:
293,32,123615,1,2,2:3:0:0:
361,0,123746,6,0,P|397:19|447:42,1,81.7799987521363,0|0,3:0|2:0,2:0:0:0:
292,181,124007,2,0,P|331:169|376:158,1,81.7799987521363,0|0,3:0|2:0,2:0:0:0:
427,109,124268,1,4,2:3:0:0:
293,32,124398,1,8,2:3:0:0:
178,148,124528,6,0,B|92:141|107:197|20:182,1,163.559997504273,8|0,2:0|3:0,2:0:0:0:
184,28,124920,1,0,2:0:0:0:
110,1,125050,2,0,P|106:43|133:92,1,81.7799987521363,8|2,2:3|2:3,2:0:0:0:
124,244,125311,6,0,P|178:186|278:215,1,163.559997504273,0|0,3:0|3:0,2:0:0:0:
370,354,125702,1,8,2:3:0:0:
293,372,125833,2,0,P|301:328|314:286,1,81.7799987521363,4|2,2:3|2:3,2:0:0:0:
503,153,126094,6,0,P|494:230|474:319,2,163.559997504273,8|0|0,2:0|3:0|3:0,2:0:0:0:
392,266,126746,1,4,2:3:0:0:
268,56,126876,6,0,P|269:96|283:143,1,81.7799987521363,0|0,3:0|2:0,2:0:0:0:
426,35,127137,1,0,3:0:0:0:
341,1,127268,1,2,2:3:0:0:
361,175,127398,1,8,2:3:0:0:
432,127,127528,1,4,2:3:0:0:
348,78,127659,6,0,P|268:71|184:131,1,163.559997504273,8|0,2:0|3:0,2:0:0:0:
52,228,128050,1,2,2:3:0:0:
187,327,128181,2,0,P|147:311|107:303,1,81.7799987521363,4|2,2:3|2:3,2:0:0:0:
6,147,128441,6,0,P|85:138|142:197,1,163.559997504273,0|0,3:0|3:0,2:0:0:0:
31,347,128833,1,0,2:3:0:0:
157,289,128963,5,4,2:3:0:0:
39,219,129094,1,8,2:3:0:0:
131,367,129224,6,0,P|209:371|255:301,1,163.559997504273,8|0,2:0|3:0,2:0:0:0:
356,138,129615,1,0,2:0:0:0:
280,120,129746,2,0,P|286:159|300:220,1,81.7799987521363,4|2,2:3|2:3,2:0:0:0:
512,292,130007,6,0,B|428:294|438:346|350:335,1,163.559997504273,0|0,3:0|3:0,2:0:0:0:
494,219,130398,1,8,2:3:0:0:
386,242,130528,5,4,2:3:0:0:
498,369,130659,1,0,3:0:0:0:
345,319,130789,6,0,P|363:238|383:128,1,163.559997504273,8|0,2:0|3:0,2:0:0:0:
487,20,131181,1,2,2:3:0:0:
507,91,131311,1,4,2:3:0:0:
456,146,131441,1,2,2:3:0:0:
298,34,131572,6,0,P|337:22|387:3,1,81.7799987521363,0|0,3:0|2:0,2:0:0:0:
232,186,131833,2,0,P|287:200|392:245,1,163.559997504273,0|8,3:0|2:3,2:0:0:0:
307,112,132224,1,4,2:3:0:0:
94,230,132354,6,0,P|70:297|139:374,1,163.559997504273,8|0,2:0|3:0,2:0:0:0:
284,239,132746,1,0,2:0:0:0:
232,186,132876,2,0,P|191:175|147:156,1,81.7799987521363,8|2,2:3|3:0,2:0:0:0:
0,55,133137,6,0,P|77:60|148:-8,1,163.559997504273,0|0,3:0|3:0,2:0:0:0:
312,131,133528,1,2,2:3:0:0:
278,16,133659,1,4,2:3:0:0:
160,138,133789,1,8,2:3:0:0:
246,99,133920,6,0,P|313:90|392:171,1,163.559997504273,8|0,2:0|3:0,2:0:0:0:
504,264,134311,1,2,3:0:0:0:
445,317,134441,2,0,P|407:323|362:335,1,81.7799987521363,4|8,2:3|2:3,2:0:0:0:
251,233,134702,6,0,B|336:249|311:288|409:309,1,163.559997504273,0|0,3:0|3:0,2:0:0:0:
236,369,135094,1,2,2:3:0:0:
347,237,135224,1,8,2:3:0:0:
492,384,135354,1,4,2:3:0:0:
395,305,135485,6,0,B|329:317|329:317|300:345|300:345|240:357,1,163.559997504273,8|0,2:0|3:0,2:0:0:0:
113,221,135876,1,2,2:3:0:0:
50,269,136007,1,4,2:3:0:0:
77,340,136137,1,0,2:0:0:0:
219,253,136268,5,0,3:0:0:0:
97,143,136398,1,0,2:3:0:0:
218,56,136528,2,0,B|238:93|238:93|227:145,1,81.7799987521363,2|8,2:3|2:3,2:0:0:0:
50,269,136789,2,0,B|30:232|30:232|41:180,1,81.7799987521363,4|0,2:3|3:0,2:0:0:0:
166,191,137050,6,0,B|253:202|216:257|315:274,1,163.559997504273,8|0,2:0|3:0,2:0:0:0:
420,179,137441,1,2,2:3:0:0:
345,154,137572,1,4,2:3:0:0:
427,269,137702,1,2,2:3:0:0:
260,364,137833,6,0,P|268:289|288:195,1,163.559997504273,0|0,3:0|3:0,2:0:0:0:
442,73,138224,1,2,2:3:0:0:
353,2,138354,2,0,P|360:41|374:91,1,81.7799987521363,4|8,2:3|2:3,2:0:0:0:
505,225,138615,6,0,P|469:207|419:190,1,81.7799987521363,8|0,2:0|2:0,2:0:0:0:
279,48,138876,2,0,P|243:66|193:83,1,81.7799987521363,0|0,3:0|2:0,2:0:0:0:
41,264,139137,1,8,2:3:0:0:
139,162,139268,1,6,2:3:0:0:
41,179,139398,6,0,P|118:182|196:250,1,163.559997504273,0|0,3:0|3:0,2:0:0:0:
281,354,139789,1,0,3:0:0:0:
401,244,139920,1,4,2:3:0:0:
258,159,140050,1,8,2:3:0:0:
314,266,140181,6,0,B|397:255|381:307|475:292,1,163.559997504273,8|0,2:0|3:0,2:0:0:0:
373,87,140572,2,0,P|364:128|348:170,2,81.7799987521363,8|4|0,2:3|2:3|3:0,2:0:0:0:
427,32,140963,5,0,3:0:0:0:
482,145,141094,1,2,2:3:0:0:
338,123,141224,5,0,3:0:0:0:
450,51,141354,1,0,2:0:0:0:
512,192,141485,2,0,P|472:178|421:164,1,81.7799987521363,4|0,2:3|2:0,2:0:0:0:
248,0,141746,5,8,2:0:0:0:
103,88,141876,1,2,2:3:0:0:
252,124,142007,5,0,3:0:0:0:
130,5,142137,1,2,2:3:0:0:
187,67,142268,2,0,P|176:106|164:162,1,81.7799987521363,8|0,2:3|2:0,2:0:0:0:
0,358,142528,6,0,P|74:368|132:297,1,163.559997504273,4|0,3:2|3:0,2:0:0:0:
310,180,142920,1,0,2:0:0:0:
376,205,143050,2,0,P|385:244|396:283,1,81.7799987521363,0|0,3:0|2:0,2:0:0:0:
187,67,143311,6,0,P|179:105|161:167,1,81.7799987521363,12|0,2:0|2:0,2:0:0:0:
354,24,143572,2,0,P|309:15|260:1,1,81.7799987521363,8|0,2:3|2:0,2:0:0:0:
376,205,143833,2,0,P|332:218|281:237,1,81.7799987521363,4|0,2:3|2:0,2:0:0:0:
318,111,144094,6,0,P|415:111|490:225,1,233.159988971009,6|2,3:1|3:2,2:0:0:0:
301,331,144485,1,2,2:0:0:0:
395,233,144615,1,2,3:2:0:0:
499,375,144746,1,6,3:0:0:0:
379,308,144876,6,0,P|279:300|200:359,1,198.359997578613,8|0,3:2|3:0,2:0:0:0:
13,251,145268,1,0,2:0:0:0:
77,208,145398,2,0,P|110:245|109:300,1,99.1799987893067,2|2,3:2|2:0,2:0:0:0:
28,76,145659,6,0,B|150:80|121:172|230:176,1,233.159988971009,4|0,3:2|3:2,2:0:0:0:
328,46,146050,1,0,3:0:0:0:
472,144,146181,1,4,3:0:0:0:
328,245,146311,1,10,2:3:0:0:
415,79,146441,6,0,P|435:171|457:287,1,198.359997578613,10|0,3:2|3:2,2:0:0:0:
244,358,146833,1,2,2:3:0:0:
187,301,146963,2,0,P|195:252|209:203,1,99.1799987893067,0|2,3:2|2:3,2:0:0:0:
447,295,147224,5,6,3:1:0:0:
331,154,147354,1,2,2:0:0:0:
472,144,147485,5,2,3:2:0:0:
328,245,147615,1,2,2:0:0:0:
190,43,147746,5,2,3:2:0:0:
278,80,147876,1,0,2:3:0:0:
82,262,148007,6,0,P|62:215|61:162,1,99.1799987893067,8|0,3:2|2:0,2:0:0:0:
0,70,148268,2,0,P|49:130|163:126,1,198.359997578613,2|0,3:2|3:0,2:0:0:0:
22,364,148659,1,6,2:3:0:0:
252,290,148789,6,0,B|140:266|158:382|34:352,1,233.159988971009,4|8,3:2|2:0,2:0:0:0:
237,182,149181,1,8,3:0:0:0:
436,370,149311,5,4,3:0:0:0:
307,233,149441,1,2,3:0:0:0:
469,69,149572,6,0,P|448:163|430:271,1,198.359997578613,2|0,3:2|3:2,2:0:0:0:
200,51,149963,1,0,2:0:0:0:
143,103,150094,2,0,P|151:149|161:211,1,99.1799987893067,4|2,3:0|2:3,2:0:0:0:
442,92,150354,6,0,P|430:140|410:250,1,148.76999818396,4|0,3:1|2:0,2:0:0:0:
431,263,150615,1,0,3:2:0:0:
284,364,150746,1,0,2:0:0:0:
231,310,150876,2,0,B|217:263|217:263|243:214,1,99.1799987893067,2|2,3:2|2:0,2:0:0:0:
337,303,151137,6,0,B|238:286|267:394|142:362,1,198.359997578613,10|0,3:2|3:2,2:0:0:0:
327,213,151528,1,0,2:0:0:0:
389,168,151659,2,0,P|374:122|362:60,1,99.1799987893067,8|6,3:0|2:3,2:0:0:0:
259,0,151920,6,0,P|150:15|145:124,1,233.159988971009,4|0,3:2|3:2,2:0:0:0:
239,254,152311,1,2,2:0:0:0:
363,72,152441,2,0,P|316:92|256:113,1,99.1799987893067,2|2,3:2|2:0,2:0:0:0:
137,302,152702,6,0,P|222:287|317:365,1,198.359997578613,12|0,3:2|3:0,2:0:0:0:
131,212,153094,1,0,2:0:0:0:
337,259,153224,5,4,3:0:0:0:
182,383,153354,1,10,3:0:0:0:
239,254,153485,6,0,P|329:230|469:184,1,233.159988971009,6|2,3:1|2:0,2:0:0:0:
512,277,153876,1,8,2:0:0:0:
325,81,154007,2,0,P|287:117|300:176,1,99.1799987893067,2|0,3:2|2:0,2:0:0:0:
443,346,154268,6,0,P|463:284|385:187,1,198.359997578613,4|8,3:2|2:0,2:0:0:0:
175,74,154659,1,0,3:2:0:0:
100,100,154789,2,0,P|107:51|121:-4,1,99.1799987893067,2|2,3:2|2:0,2:0:0:0:
203,280,155050,6,0,B|113:269|137:355|11:337,1,174.869991728257,2|0,3:2|2:0,2:0:0:0:
30,325,155311,1,0,3:2:0:0:
213,176,155441,5,2,2:0:0:0:
298,242,155572,2,0,P|300:302|262:359,1,116.579994485504,0|0,3:2|2:0,2:0:0:0:
126,178,155833,5,6,3:2:0:0:
266,98,155963,1,0,3:0:0:0:
456,270,156094,5,4,2:3:0:0:
315,163,156224,1,0,3:0:0:0:
442,140,156354,5,8,2:3:0:0:
227,280,156485,1,4,2:3:0:0:
298,242,156615,6,0,L|337:323,1,70.470001720459,0|0,3:0|2:0,2:0:0:0:
338,326,156876,1,0,3:0:0:0:
145,187,157007,1,8,2:0:0:0:
128,174,157268,5,0,3:0:0:0:
291,18,157398,2,0,P|347:43|377:97,1,116.579994485504,4|0,3:1|2:0,2:0:0:0:
36,198,157659,2,0,P|37:139|92:93,1,116.579994485504,8|0,3:0|2:0,2:0:0:0:
338,326,157920,2,0,P|296:366|214:358,1,116.579994485504,4|0,3:0|2:0,2:0:0:0:
218,181,158181,6,0,B|328:147|319:263|439:236,1,233.159988971009,4|2,3:1|2:0,2:0:0:0:
508,97,158572,2,0,B|465:88|428:61|428:61|424:106|398:151,1,174.869991728257,8|0,2:0|2:0,2:0:0:0:
395,152,158833,1,0,3:2:0:0:
187,287,158963,6,0,P|126:279|102:231,1,116.579994485504,4|0,3:2|2:0,2:0:0:0:
30,75,159224,1,10,2:3:0:0:
228,158,159354,1,8,2:0:0:0:
79,348,159485,2,0,P|93:292|103:216,1,116.579994485504,4|2,2:3|3:0,2:0:0:0:
318,41,159746,6,0,B|245:80|245:80|285:244,1,233.159988971009,4|0,3:1|3:2,2:0:0:0:
461,323,160137,2,0,B|373:313|390:384|282:365,1,174.869991728257,8|0,2:0|2:0,2:0:0:0:
280,348,160398,1,0,3:2:0:0:
467,96,160528,6,0,B|495:148|495:148|472:216,1,116.579994485504,8|0,3:2|2:0,2:0:0:0:
132,123,160789,2,0,B|104:71|104:71|127:3,1,116.579994485504,10|0,3:0|2:0,2:0:0:0:
280,348,161050,2,0,P|223:364|159:389,1,116.579994485504,6|2,3:0|2:3,2:0:0:0:
12,153,161311,6,0,P|116:135|198:241,1,233.159988971009,4|0,3:1|3:2,2:0:0:0:
317,32,161702,1,8,2:0:0:0:
132,123,161833,1,2,2:0:0:0:
325,243,161963,1,0,3:2:0:0:
260,157,162094,6,0,B|177:184|177:184|141:241|141:241|54:270,1,233.159988971009,4|0,3:2|3:2,2:0:0:0:
216,32,162485,1,2,3:0:0:0:
426,212,162615,2,0,P|425:273|386:331,1,116.579994485504,2|2,3:2|2:3,2:0:0:0:
100,98,162876,6,0,B|161:92|209:55|209:55|225:111|267:167,1,233.159988971009,4|0,3:1|3:2,2:0:0:0:
438,37,163268,1,8,2:0:0:0:
477,106,163398,2,0,B|429:118|429:118|414:133|414:133|355:147,1,116.579994485504,2|0,2:0|3:2,2:0:0:0:
228,359,163659,6,0,P|157:376|68:249,1,233.159988971009,2|8,3:2|3:0,2:0:0:0:
259,156,164050,1,2,2:0:0:0:
320,208,164181,1,6,3:0:0:0:
282,275,164311,1,2,2:3:0:0:
106,126,164441,6,0,P|118:70|131:-3,1,116.579994485504,4|0,3:1|2:0,2:0:0:0:
419,259,164702,2,0,P|406:203|394:130,1,116.579994485504,0|8,3:2|2:0,2:0:0:0:
212,227,164963,1,2,2:0:0:0:
355,326,165094,1,0,3:2:0:0:
293,201,165224,6,0,P|222:189|115:300,1,233.159988971009,4|8,3:2|2:0,2:0:0:0:
384,157,165615,1,2,3:0:0:0:
512,294,165746,2,0,P|457:301|418:232,1,116.579994485504,2|2,3:2|2:3,2:0:0:0:
308,27,166007,5,4,3:1:0:0:
211,95,166137,2,0,P|295:75|420:55,1,174.869991728257,2|0,2:0|2:0,2:0:0:0:
399,75,166398,1,8,2:0:0:0:
222,9,166528,1,2,3:2:0:0:
212,227,166659,5,0,2:0:0:0:
308,111,166789,1,2,3:2:0:0:
212,227,166920,2,0,P|232:280|236:344,1,116.579994485504,0|10,0:0|3:0,0:0:0:0:
131,191,167181,1,0,2:0:0:0:
328,172,167311,2,0,P|351:99|272:87,1,174.869991728257,6|0,3:0|0:0,2:0:0:0:
272,94,167572,6,0,P|386:129|516:163,1,233.159988971009,4|0,3:1|3:2,2:0:0:0:
313,288,167963,1,8,2:0:0:0:
403,151,168094,5,2,2:0:0:0:
512,300,168224,1,0,3:2:0:0:
381,234,168354,6,0,B|296:234|303:313|189:286,1,174.869991728257,8|0,2:0|2:0,2:0:0:0:
220,291,168615,2,0,B|201:238|201:238|231:183,1,116.579994485504,8|0,3:0|2:0,2:0:0:0:
490,51,168876,2,0,B|509:104|509:104|479:159,1,116.579994485504,8|2,3:0|2:3,2:0:0:0:
210,60,169137,6,0,B|268:48|268:48|297:13|297:13|366:-1,1,174.869991728257,4|0,3:1|2:0,2:0:0:0:
376,11,169398,1,0,3:2:0:0:
511,256,169528,2,0,P|459:231|390:205,1,116.579994485504,8|0,2:0|2:0,2:0:0:0:
512,67,169789,1,0,3:2:0:0:
307,177,169920,6,0,P|387:189|444:104,1,174.869991728257,8|0,2:0|2:0,2:0:0:0:
434,108,170181,1,8,3:0:0:0:
275,255,170311,1,0,2:0:0:0:
464,384,170441,2,0,P|450:325|439:261,1,116.579994485504,6|2,3:0|2:3,2:0:0:0:
205,14,170702,6,0,P|116:71|135:192,1,233.159988971009,4|0,3:1|3:2,2:0:0:0:
34,372,171094,2,0,B|112:361|94:291|193:272,1,174.869991728257,8|0,2:0|2:0,2:0:0:0:
187,286,171354,1,0,3:2:0:0:
386,114,171485,6,0,P|328:99|266:70,1,116.579994485504,2|0,3:2|2:0,2:0:0:0:
424,333,171746,2,0,P|366:348|304:377,1,116.579994485504,8|2,3:0|2:0,2:0:0:0:
512,189,172007,2,0,B|422:169|435:238|321:218,1,174.869991728257,8|0,2:0|2:0,2:0:0:0:
335,219,172268,6,0,P|409:200|485:269,1,174.869991728257,4|0,3:1|2:0,2:0:0:0:
477,270,172528,1,0,3:2:0:0:
288,142,172659,2,0,P|303:82|315:10,1,116.579994485504,10|0,2:0|2:0,2:0:0:0:
419,175,172920,1,0,3:2:0:0:
269,281,173050,6,0,B|157:252|159:372|29:336,1,233.159988971009,2|10,3:2|3:0,2:0:0:0:
208,186,173441,1,0,2:0:0:0:
50,67,173572,2,0,B|27:122|27:122|53:181,1,116.579994485504,8|6,2:0|2:3,2:0:0:0:
294,384,173833,6,0,P|307:271|326:148,1,233.159988971009,4|0,3:1|3:2,2:0:0:0:
162,284,174224,1,8,2:0:0:0:
348,229,174354,5,0,3:2:0:0:
191,88,174485,1,0,3:2:0:0:
233,183,174615,6,0,B|285:188|313:151|305:148|329:101|401:121,1,174.869991728257,8|0,2:0|2:0,2:0:0:0:
461,90,174876,6,0,P|498:123|496:194,1,116.579994485504,8|0,3:0|2:0,2:0:0:0:
270,82,175137,2,0,P|280:33|342:0,1,116.579994485504,8|6,3:2|2:3,2:0:0:0:
384,298,175398,6,0,P|334:269|260:238,1,116.579994485504,4|0,3:1|2:0,2:0:0:0:
391,148,175659,1,0,3:2:0:0:
230,52,175789,2,0,P|283:28|333:0,1,116.579994485504,8|2,2:0|2:0,2:0:0:0:
158,214,176050,1,0,3:2:0:0:
111,149,176181,6,0,P|182:141|268:277,2,233.159988971009,6|8|8,3:2|3:0|3:2,2:0:0:0:
302,58,176833,1,2,2:3:0:0:
111,325,176963,6,0,B|130:296|130:296|188:288|188:288|236:359|306:343,1,233.159988971009,4|0,3:1|3:2,2:0:0:0:
158,214,177354,1,8,2:0:0:0:
299,145,177485,2,0,P|282:202|269:265,1,116.579994485504,0|0,3:2|3:2,2:0:0:0:
70,33,177746,6,0,B|109:26|147:14|147:14|197:44|177:100,1,174.869991728257,8|0,2:0|2:0,2:0:0:0:
165,111,178007,1,8,3:0:0:0:
37,216,178137,1,0,2:0:0:0:
69,121,178268,5,8,2:0:0:0:
183,233,178398,1,6,2:3:0:0:
92,376,178528,6,0,B|69:321|69:321|100:262,1,116.579994485504,4|0,3:1|2:0,2:0:0:0:
317,110,178789,2,0,L|448:146,1,116.579994485504,0|8,3:2|2:0,2:0:0:0:
269,45,179050,1,0,2:0:0:0:
356,199,179181,1,0,3:2:0:0:
454,71,179311,6,0,B|340:55|365:176|237:144,1,233.159988971009,4|0,3:2|3:2,2:0:0:0:
457,277,179702,1,0,2:0:0:0:
239,138,179833,2,0,B|281:131|319:116|319:116|331:160|365:212,1,174.869991728257,8|0,2:0|2:0,2:0:0:0:
371,215,180094,5,4,2:1:0:0:
217,322,180224,1,0,3:2:0:0:
381,383,180354,5,8,2:0:0:0:
216,226,180485,1,0,3:2:0:0:
89,383,180615,6,0,P|141:360|210:345,1,116.579994485504,8|0,2:0|3:2,2:0:0:0:
299,261,180876,1,4,3:2:0:0:
142,170,181007,1,4,2:3:0:0:
217,322,181137,5,8,3:2:0:0:
104,75,181268,1,8,3:0:0:0:
30,223,181398,5,4,3:0:0:0:
236,105,181529,1,2,3:0:0:0:
123,258,181659,6,0,P|73:260|25:210,1,109.039998336182,6|0,3:2|2:0,2:0:0:0:
196,233,181920,2,0,P|222:275|203:341,1,109.039998336182,2|0,3:0|2:0,2:0:0:0:
138,183,182181,2,0,P|161:138|228:122,1,109.039998336182,2|0,3:0|2:0,2:0:0:0:
280,159,182441,6,0,B|373:171|330:228|423:243,2,163.559997504273,2|2|2,3:0|3:0|3:0,2:0:0:0:
143,293,183224,2,0,B|50:305|93:362|0:377,2,163.559997504273,2|2|2,3:0|3:0|3:0,2:0:0:0:
68,15,184007,6,0,P|34:63|55:122,1,109.039998336182,10|0,3:0|2:3,2:3:0:0:
206,178,184268,2,0,B|225:157|225:157|124:184,1,109.039998336182,6|0,3:0|2:3,2:3:0:0:
44,254,184528,2,0,B|86:264|86:264|100:281|100:281|158:297,1,109.039998336182,2|0,3:0|2:3,2:3:0:0:
330,384,184789,6,0,B|310:310|378:327|349:219,2,163.559997504273,10|2|2,3:0|3:0|3:0,2:3:0:0:
147,177,185572,2,0,B|167:103|99:120|128:12,2,163.559997504273,2|2|2,3:0|3:0|3:0,2:3:0:0:
406,38,186354,6,0,B|358:10|358:10|293:26,1,109.039998336182,2|0,3:0|2:3,2:3:0:0:
441,203,186615,2,0,B|469:155|469:155|453:90,1,109.039998336182,2|0,3:0|2:3,2:3:0:0:
276,238,186876,2,0,B|324:266|324:266|389:250,1,109.039998336182,2|0,3:0|2:3,2:3:0:0:
332,125,187137,6,0,B|288:132|288:132|272:147|272:147|208:163,1,109.039998336182,10|0,3:0|2:3,2:3:0:0:
166,300,187398,2,0,B|122:292|122:292|106:278|106:278|42:262,1,109.039998336182,6|0,3:0|2:3,2:3:0:0:
6,129,187659,2,0,B|25:109|25:109|3:201,1,109.039998336182,2|0,3:0|2:3,2:3:0:0:
64,267,187920,6,0,P|149:275|175:202,2,163.559997504273,6|2|2,3:0|3:0|3:0,2:3:0:0:
456,354,188702,2,0,P|376:358|345:289,2,163.559997504273,2|2|2,3:0|3:0|3:0,2:3:0:0:
456,354,189485,6,0,B|403:352|413:379|332:370,1,109.039998336182,2|0,3:0|2:3,2:3:0:0:
207,227,189746,2,0,P|246:194|310:212,1,109.039998336182,2|0,3:0|2:3,2:3:0:0:
376,83,190007,2,0,P|337:50|273:68,1,109.039998336182,2|0,3:0|2:3,2:3:0:0:
368,157,190268,2,0,B|421:170|445:133|437:132|467:85|529:103,2,163.559997504273,10|6|2,3:0|3:0|3:0,2:3:0:0:
5,36,191050,6,0,B|81:11|81:11|40:1,1,109.039998336182,6|0,3:0|2:3,2:3:0:0:
167,96,191311,2,0,B|243:121|243:121|216:97,1,109.039998336182,2|0,3:0|2:3,2:3:0:0:
378,19,191572,2,0,B|348:10|348:10|380:94,1,109.039998336182,2|0,3:0|2:3,2:3:0:0:
275,193,191833,6,0,P|353:183|404:242,2,163.559997504273,2|2|2,3:0|3:0|3:0,2:3:0:0:
512,335,192615,2,0,P|433:325|382:384,2,163.559997504273,2|2|2,3:0|3:0|3:0,2:3:0:0:
512,335,193398,6,0,P|459:343|418:310,1,109.039998336182,2|0,3:0|2:3,2:3:0:0:
275,193,193659,2,0,P|222:184|181:217,1,109.039998336182,10|0,3:0|2:3,2:3:0:0:
36,341,193920,2,0,B|77:353|77:353|91:366|91:366|151:381,1,109.039998336182,6|0,3:0|2:3,2:3:0:0:
295,299,194181,6,0,P|280:241|274:172,1,109.039998336182,10|0,3:0|2:3,2:3:0:0:
109,70,194441,2,0,P|94:127|88:197,1,109.039998336182,2|0,3:0|2:3,2:3:0:0:
322,19,194702,2,0,P|270:12|195:-6,1,109.039998336182,2|0,3:0|2:3,2:3:0:0:
376,228,194963,6,0,P|460:233|501:144,2,163.559997504273,2|2|2,3:0|3:0|3:0,2:3:0:0:
162,358,195746,2,0,P|78:363|37:274,2,163.559997504273,2|2|2,3:0|3:0|3:0,2:3:0:0:
162,358,196528,6,0,B|155:315|155:315|160:297|160:297|146:237,1,109.039998336182,2|0,3:0|2:3,2:3:0:0:
388,121,196789,2,0,B|377:166|377:166|382:184|382:184|375:227,1,109.039998336182,10|0,3:0|2:3,2:3:0:0:
185,77,197050,1,6,3:0:0:0:
256,42,197181,1,0,2:3:0:0:
375,227,197311,6,0,B|288:209|336:140|235:127,2,163.559997504273,10|2|2,3:0|3:0|3:0,2:3:0:0:
483,66,198094,6,0,B|464:46|464:46|483:143,1,109.039998336182,2|0,3:0|2:3,2:3:0:0:
375,227,198354,2,0,B|413:238|413:238|429:258|429:258|481:276,1,109.039998336182,2|0,3:0|2:3,2:3:0:0:
342,96,198615,2,0,P|286:94|248:142,1,109.039998336182,2|0,3:0|2:3,2:3:0:0:
211,229,198876,6,0,P|153:265|108:248,1,109.039998336182,2|0,3:0|2:3,2:3:0:0:
35,130,199137,2,0,P|88:149|160:165,1,109.039998336182,2|0,3:0|2:3,2:3:0:0:
0,381,199398,2,0,P|53:361|125:346,1,109.039998336182,2|0,3:0|2:3,2:3:0:0:
0,233,199659,6,0,B|94:218|69:298|199:275,2,163.559997504273,2|6|10,3:0|3:0|3:0,2:3:0:0:
241,17,200441,6,0,P|282:64|261:121,1,109.039998336182,6|0,3:0|2:3,2:3:0:0:
405,237,200702,2,0,B|353:217|369:205|306:185,1,109.039998336182,2|0,3:0|2:3,2:3:0:0:
126,343,200963,2,0,B|178:323|162:311|225:291,1,109.039998336182,2|0,3:0|2:3,2:3:0:0:
65,101,201224,6,0,B|6:138|6:138|-12:208|41:236,2,163.559997504273,2|2|2,3:0|3:0|3:0,2:3:0:0:
405,237,202007,2,0,B|464:274|464:274|482:344|429:372,2,163.559997504273,2|2|2,3:0|3:0|3:0,2:3:0:0:
465,35,202789,6,0,B|408:46|430:66|357:80,1,109.039998336182,10|0,3:0|2:3,2:3:0:0:
225,179,203050,2,0,P|277:172|319:225,1,109.039998336182,6|0,3:0|2:3,2:3:0:0:
445,360,203311,2,0,B|393:349|412:326|341:314,1,109.039998336182,2|0,3:0|2:3,2:3:0:0:
464,182,203572,5,10,3:0:0:0:
478,173,203833,5,0,3:2:0:0:
347,315,203963,2,0,P|325:277|333:217,1,81.7799987521363,8|0,2:0|2:0,2:0:0:0:
278,114,204224,5,0,3:2:0:0:
409,262,204354,2,0,B|325:251|346:335|225:305,1,163.559997504273,8|8,2:0|2:0,2:0:0:0:
392,165,204746,1,0,3:2:0:0:
274,23,204876,2,0,P|257:61|259:110,1,81.7799987521363,8|0,2:0|2:0,2:0:0:0:
387,358,205137,6,0,P|334:298|257:312,1,163.559997504273,6|2,3:0|3:0,2:0:0:0:
121,197,205528,1,0,3:2:0:0:
193,168,205659,1,8,2:0:0:0:
88,327,205789,1,0,3:2:0:0:
232,384,205920,6,0,P|236:349|254:294,1,81.7799987521363,8|0,3:2|2:0,2:0:0:0:
77,103,206181,2,0,P|81:138|99:193,1,81.7799987521363,0|0,3:2|2:0,2:0:0:0:
312,60,206441,1,2,3:2:0:0:
177,0,206572,1,2,2:0:0:0:
315,165,206702,6,0,B|416:141|392:231|516:203,1,174.869991728257,6|0,3:1|2:0,2:0:0:0:
495,191,206963,1,2,3:2:0:0:
351,269,207094,1,2,2:0:0:0:
483,306,207224,5,2,3:2:0:0:
351,186,207354,1,2,2:3:0:0:
309,321,207485,6,0,B|373:305|343:279|430:262,1,116.579994485504,0|8,3:2|2:0,0:0:0:0:
215,377,207746,2,0,B|152:363|185:338|87:316,1,116.579994485504,2|0,3:0|2:0,2:0:0:0:
204,149,208007,1,2,3:2:0:0:
43,190,208137,1,2,2:0:0:0:
222,269,208268,6,0,P|237:178|272:67,1,174.869991728257,4|0,3:2|2:0,2:0:0:0:
215,37,208528,1,0,3:2:0:0:
338,169,208659,1,0,2:0:0:0:
139,233,208789,1,0,3:2:0:0:
204,149,208920,1,2,2:0:0:0:
390,351,209050,6,0,P|289:371|228:260,1,233.159988971009,6|0,3:2|3:2,2:0:0:0:
390,351,209441,1,2,2:3:0:0:
477,179,209572,2,0,P|484:235|505:295,1,116.579994485504,0|2,3:2|2:3,2:0:0:0:
293,92,209833,6,0,P|294:29|387:49,1,174.869991728257,4|0,3:1|2:0,2:0:0:0:
385,41,210094,2,0,B|258:11|300:137|163:92,1,233.159988971009,0|0,3:2|3:2,2:0:0:0:
336,198,210485,1,2,2:0:0:0:
151,306,210615,5,0,3:2:0:0:
247,171,210746,1,8,2:0:0:0:
308,369,210876,5,2,3:2:0:0:
211,249,211007,2,0,L|-2:308,1,174.869991728257,2|0,2:0|2:0,2:0:0:0:
31,317,211268,1,2,2:0:0:0:
168,180,211398,6,0,B|250:198|227:262|318:290,1,174.869991728257,4|0,3:2|2:0,2:0:0:0:
324,291,211659,1,8,2:0:0:0:
152,176,211789,1,8,3:0:0:0:
323,77,211920,1,4,3:0:0:0:
195,0,212050,1,2,3:0:0:0:
307,156,212181,6,0,B|370:178|412:111|398:106|449:47|523:71,1,233.159988971009,6|0,3:2|3:2,2:0:0:0:
307,156,212572,1,0,2:0:0:0:
491,266,212702,2,0,B|482:223|482:223|491:196|491:196|478:146,1,116.579994485504,4|2,3:0|2:3,2:0:0:0:
264,253,212963,6,0,B|200:281|200:281|162:365|220:384,1,174.869991728257,4|0,3:1|2:0,2:0:0:0:
204,376,213224,2,0,P|227:323|181:269,1,116.579994485504,0|0,3:2|2:0,2:0:0:0:
58,138,213485,1,2,3:2:0:0:
261,38,213615,1,2,2:0:0:0:
61,238,213746,5,2,3:2:0:0:
259,326,213876,1,8,2:0:0:0:
198,276,214007,2,0,B|109:261|116:345|3:320,1,174.869991728257,0|0,3:2|2:0,2:0:0:0:
17,342,214268,1,8,3:0:0:0:
176,178,214398,1,6,2:3:0:0:
385,334,214528,6,0,P|306:339|277:254,1,174.869991728257,4|0,3:2|2:0,2:0:0:0:
271,234,214789,1,0,3:2:0:0:
440,384,214920,1,2,2:0:0:0:
259,326,215050,1,2,3:2:0:0:
403,177,215181,1,2,2:0:0:0:
228,21,215311,6,0,B|171:-10|120:50|120:50|142:67|151:101,1,174.869991728257,4|0,3:2|2:0,2:0:0:0:
86,133,215572,2,0,B|176:110|160:190|277:167,1,174.869991728257,0|0,3:0|2:0,2:0:0:0:
273,152,215833,1,8,3:0:0:0:
120,6,215963,1,6,3:0:0:0:
322,82,216094,6,0,P|292:176|273:285,1,174.869991728257,4|0,3:1|2:0,2:0:0:0:
293,275,216354,1,2,3:0:0:0:
148,92,216485,1,0,2:0:0:0:
9,229,216615,2,0,P|52:266|118:257,1,116.579994485504,2|0,3:0|2:0,2:0:0:0:
267,77,216876,6,0,P|310:40|376:49,1,116.579994485504,2|0,3:0|2:0,2:0:0:0:
496,232,217137,1,2,3:0:0:0:
335,150,217268,1,0,2:0:0:0:
459,101,217398,1,2,3:0:0:0:
366,232,217528,1,0,2:0:0:0:
499,311,217659,5,2,3:0:0:0:
415,171,217789,1,0,2:0:0:0:
288,217,217920,5,2,3:0:0:0:
251,368,218050,1,0,2:0:0:0:
392,306,218181,5,2,3:0:0:0:
210,239,218311,1,0,2:0:0:0:
183,316,218441,5,2,3:0:0:0:
34,366,218572,1,0,2:0:0:0:
73,246,218702,5,2,3:0:0:0:
251,368,218833,1,0,2:0:0:0:
76,236,218963,5,2,3:0:0:0:
257,360,219094,1,0,2:0:0:0:
84,229,219224,5,4,3:1:0:0:
306,121,219354,1,2,2:0:0:0:
176,52,219485,1,2,3:2:0:0:
291,219,219615,1,0,2:0:0:0:
119,332,219746,2,0,P|106:249|183:195,1,174.869991728257,2|0,3:2|2:0,2:0:0:0:
222,148,220007,6,0,B|337:126|311:254|454:231,1,233.159988971009,0|0,3:2|3:2,2:0:0:0:
257,360,220398,1,2,2:0:0:0:
427,233,220528,2,0,P|371:226|319:293,1,116.579994485504,0|0,3:2|2:0,2:0:0:0:
456,367,220789,6,0,P|472:207|493:112,1,233.159988971009,4|0,3:2|2:0,2:0:0:0:
326,262,221181,1,2,2:0:0:0:
154,81,221311,2,0,P|165:132|170:198,1,116.579994485504,0|0,3:2|2:0,2:0:0:0:
394,51,221572,5,2,3:2:0:0:
271,5,221702,1,2,2:0:0:0:
370,167,221833,5,2,3:2:0:0:
246,216,221963,1,2,2:0:0:0:
305,96,222094,5,2,3:2:0:0:
427,233,222224,1,2,2:0:0:0:
234,314,222354,5,2,3:2:0:0:
387,148,222485,1,2,2:0:0:0:
170,230,222615,1,2,2:0:0:0:
405,384,222746,1,8,2:0:0:0:
312,258,222876,2,0,B|216:246|235:329|106:303,1,174.869991728257,2|0,3:2|2:0,2:0:0:0:
43,166,223137,6,0,B|99:161|135:113|135:113|136:198|195:259,1,233.159988971009,4|8,3:2|2:0,2:0:0:0:
49,78,223528,1,0,3:2:0:0:
224,151,223659,1,2,3:2:0:0:
62,261,223789,1,2,2:0:0:0:
148,86,223920,6,0,B|265:47|242:185|386:148,1,233.159988971009,2|0,3:2|3:2,2:0:0:0:
170,229,224311,1,2,2:0:0:0:
317,55,224441,2,0,P|358:100|340:181,1,116.579994485504,0|0,3:2|2:0,2:0:0:0:
490,317,224702,5,2,2:0:0:0:
480,304,224963,6,0,B|377:268|376:418|184:342|247:192|363:198|360:297,1,331.469997471085,4|0,3:1|2:0,2:0:0:0:
173,121,225224,6,0,B|266:109|248:186|358:152|358:152|357:93|298:66|247:105,1,331.469997471085,4|0,3:1|2:0,2:0:0:0:
480,288,228615,6,0,B|383:282|400:371|279:344,1,174.869991728257,4|0,3:1|2:0,2:0:0:0:
306,359,228876,1,0,3:2:0:0:
480,288,229007,2,0,P|403:295|367:202,1,174.869991728257,8|0,2:0|2:0,2:0:0:0:
377,199,229268,1,0,3:2:0:0:
343,25,229398,6,0,B|273:56|273:56|234:128|308:169,1,174.869991728257,2|0,3:2|2:0,2:0:0:0:
331,204,229659,2,0,B|418:213|390:276|499:291,1,174.869991728257,8|0,3:0|2:0,2:0:0:0:
502,266,229920,1,4,3:0:0:0:
306,359,230050,1,2,3:0:0:0:
479,152,230181,6,0,P|495:204|501:294,1,116.579994485504,4|0,3:1|2:0,2:0:0:0:
346,112,230441,1,2,2:0:0:0:
219,254,230572,2,0,P|109:263|67:148,1,233.159988971009,8|0,2:0|3:2,2:0:0:0:
250,254,230963,6,0,P|209:290|126:288,1,116.579994485504,4|0,3:2|2:0,2:0:0:0:
268,151,231224,1,10,2:3:0:0:
90,56,231354,1,8,2:0:0:0:
155,184,231485,1,4,2:3:0:0:
289,46,231615,1,2,3:0:0:0:
155,184,231746,6,0,L|186:394,1,174.869991728257,4|0,3:1|2:0,2:0:0:0:
167,377,232007,1,0,3:2:0:0:
335,219,232137,2,0,B|420:228|400:294|495:308,1,174.869991728257,8|0,2:0|2:0,2:0:0:0:
494,321,232398,1,0,3:2:0:0:
335,219,232528,6,0,P|390:221|436:167,1,116.579994485504,8|0,3:2|2:0,2:0:0:0:
263,50,232789,2,0,P|224:98|240:190,1,116.579994485504,10|0,3:0|2:0,2:0:0:0:
456,57,233050,2,0,P|414:12|337:-3,1,116.579994485504,6|2,3:0|2:3,2:0:0:0:
431,180,233311,6,0,B|306:160|321:285|184:244,1,233.159988971009,4|0,3:1|3:2,2:0:0:0:
409,366,233702,1,8,2:0:0:0:
200,243,233833,1,2,2:0:0:0:
351,144,233963,1,0,3:2:0:0:
283,306,234094,6,0,B|205:284|205:284|167:225|167:225|77:202,1,233.159988971009,4|0,3:2|3:2,2:0:0:0:
279,378,234485,1,0,3:2:0:0:
118,290,234615,5,2,3:2:0:0:
267,167,234746,1,2,2:3:0:0:
83,0,234876,6,0,B|27:26|27:26|-17:109|70:151,1,174.869991728257,4|0,3:1|2:0,2:0:0:0:
40,148,235137,1,0,3:2:0:0:
217,27,235268,1,8,2:0:0:0:
272,77,235398,5,2,2:0:0:0:
412,129,235528,1,0,3:2:0:0:
444,60,235659,6,0,P|372:46|309:193,1,233.159988971009,2|8,3:2|3:0,2:0:0:0:
118,290,236050,1,2,2:0:0:0:
268,380,236181,1,6,3:0:0:0:
178,198,236311,1,2,2:3:0:0:
118,290,236441,6,0,B|247:260|216:379|381:348,1,233.159988971009,4|0,3:1|3:2,2:0:0:0:
455,191,236833,1,8,2:0:0:0:
478,263,236963,1,2,2:0:0:0:
297,165,237094,1,0,3:2:0:0:
395,98,237224,6,0,P|374:184|351:340,1,233.159988971009,4|8,3:2|2:0,2:0:0:0:
216,111,237615,1,0,3:2:0:0:
394,252,237746,5,2,3:2:0:0:
163,368,237876,1,2,2:3:0:0:
275,203,238007,5,4,3:1:0:0:
419,375,238137,1,2,2:0:0:0:
275,203,238268,2,0,L|303:55,1,116.579994485504,0|8,3:2|2:0,2:0:0:0:
426,259,238528,2,0,B|367:275|367:275|330:312|330:312|260:332,1,174.869991728257,2|0,3:2|2:0,2:0:0:0:
293,335,238789,6,0,B|336:322|336:322|350:306|350:306|414:285,1,116.579994485504,2|0,3:2|2:0,2:0:0:0:
296,88,239050,2,0,B|339:101|339:101|353:117|353:117|417:138,1,116.579994485504,10|0,3:0|2:0,2:0:0:0:
251,209,239311,2,0,B|149:196|180:262|66:233,1,174.869991728257,6|0,3:0|2:0,2:0:0:0:
70,241,239572,6,0,P|128:250|167:126,1,174.869991728257,4|0,3:1|0:0,2:0:0:0:
201,142,239833,1,0,3:2:0:0:
270,328,239963,1,8,2:0:0:0:
100,162,240094,1,2,2:0:0:0:
296,88,240224,1,0,3:2:0:0:
168,368,240354,5,8,2:0:0:0:
162,380,240615,6,0,B|121:368|121:368|104:341|104:341|39:321,1,116.579994485504,8|0,3:0|2:0,2:0:0:0:
251,209,240876,2,0,B|292:197|292:197|309:170|309:170|374:150,1,116.579994485504,8|2,3:0|2:3,2:0:0:0:
140,12,241137,6,0,B|74:48|74:48|56:118|116:142,1,174.869991728257,4|0,3:1|2:0,2:0:0:0:
112,164,241398,1,0,3:2:0:0:
283,304,241528,2,0,B|372:313|342:374|440:385,1,174.869991728257,8|0,2:0|2:0,2:0:0:0:
450,366,241789,1,0,3:2:0:0:
230,202,241920,6,0,P|189:251|197:330,1,116.579994485504,8|0,2:0|2:0,2:0:0:0:
370,133,242181,2,0,L|351:-2,1,116.579994485504,8|0,3:0|2:0,2:0:0:0:
453,228,242441,1,6,3:0:0:0:
284,101,242572,1,2,2:3:0:0:
472,129,242702,6,0,B|429:112|385:145|385:145|356:211|279:208,1,174.869991728257,4|0,3:1|2:0,2:0:0:0:
308,190,242963,1,0,3:2:0:0:
450,366,243094,2,0,B|458:325|458:325|449:293|449:293|467:232,1,116.579994485504,8|0,2:0|2:0,2:0:0:0:
290,384,243354,1,0,3:2:0:0:
175,198,243485,6,0,B|86:185|103:272|-13:251,1,174.869991728257,2|0,3:2|2:0,2:0:0:0:
0,238,243746,1,8,3:0:0:0:
155,330,243876,1,2,2:0:0:0:
53,384,244007,5,8,2:0:0:0:
187,220,244137,1,2,3:0:0:0:
80,83,244268,6,0,P|91:157|100:269,1,174.869991728257,4|0,3:1|2:0,2:0:0:0:
91,282,244528,1,0,3:2:0:0:
283,105,244659,2,0,B|407:64|387:206|528:171,1,233.159988971009,10|0,2:0|3:2,2:0:0:0:
252,94,245050,6,0,P|299:64|383:85,1,116.579994485504,2|0,3:2|2:0,2:0:0:0:
221,288,245311,2,0,P|268:318|352:297,1,116.579994485504,10|0,3:0|2:0,2:0:0:0:
172,173,245572,2,0,B|240:179|225:195|300:202,1,116.579994485504,8|6,2:0|2:3,2:0:0:0:
47,376,245833,6,0,B|15:280|95:312|48:192,1,174.869991728257,4|0,3:1|2:0,2:0:0:0:
36,191,246094,1,0,3:2:0:0:
141,346,246224,1,8,2:0:0:0:
24,282,246354,1,0,3:2:0:0:
172,173,246485,1,0,3:2:0:0:
48,45,246615,6,0,P|35:99|27:177,1,116.579994485504,8|0,2:0|2:0,2:0:0:0:
255,351,246876,2,0,P|242:297|234:219,1,116.579994485504,8|0,3:0|2:0,2:0:0:0:
432,46,247137,2,0,P|419:100|411:178,1,116.579994485504,8|6,3:2|2:3,2:0:0:0:
495,257,247398,6,0,P|445:203|344:217,1,174.869991728257,4|0,3:1|2:0,2:0:0:0:
335,229,247659,1,0,3:2:0:0:
503,117,247789,1,8,2:0:0:0:
413,29,247920,1,2,2:0:0:0:
495,257,248050,1,0,3:2:0:0:
324,113,248181,6,0,B|212:85|229:205|111:169,1,233.159988971009,6|8,3:2|3:0,2:0:0:0:
332,308,248572,1,2,2:3:0:0:
111,169,248702,2,0,P|171:167|229:233,1,116.579994485504,8|2,3:2|2:3,2:0:0:0:
405,363,248963,6,0,B|360:350|331:307|331:307|321:348|260:372,1,174.869991728257,4|0,3:1|2:0,2:0:0:0:
258,375,249224,1,0,3:2:0:0:
409,228,249354,1,8,2:0:0:0:
253,282,249485,1,0,3:2:0:0:
405,363,249615,1,0,3:2:0:0:
302,209,249746,6,0,P|321:132|337:27,1,174.869991728257,8|0,2:0|2:0,2:0:0:0:
352,31,250007,2,0,B|396:45|396:45|413:62|413:62|479:82,1,116.579994485504,8|0,3:0|2:0,2:0:0:0:
214,199,250268,2,0,B|173:212|173:212|152:230|152:230|87:250,1,116.579994485504,8|6,2:0|2:3,2:0:0:0:
233,74,250528,6,0,P|309:149|301:209,1,174.869991728257,4|0,3:1|2:0,2:0:0:0:
316,231,250789,1,0,3:2:0:0:
139,114,250920,2,0,P|151:58|162:-15,1,116.579994485504,8|0,2:0|2:0,2:0:0:0:
37,156,251181,1,0,3:2:0:0:
219,339,251311,6,0,P|159:273|21:304,2,233.159988971009,4|0|8,3:2|3:2|2:0,2:0:0:0:
37,156,251963,1,2,2:3:0:0:
241,57,252094,5,4,2:1:0:0:
172,246,252224,1,0,3:2:0:0:
248,39,252354,5,8,2:0:0:0:
347,278,252485,1,0,3:2:0:0:
71,365,252615,5,8,2:0:0:0:
139,123,252746,1,0,3:2:0:0:
265,296,252876,6,0,B|203:308|225:331|149:345,1,116.579994485504,4|0,3:2|2:0,2:0:0:0:
318,206,253137,1,8,3:2:0:0:
70,85,253268,1,0,3:2:0:0:
266,11,253398,1,8,3:2:0:0:
99,197,253528,1,2,3:0:0:0:
350,338,253659,6,0,B|430:320|422:387|514:366,1,148.76999818396,4|0,3:2|2:0,2:0:0:0:
512,381,253920,1,0,3:2:0:0:
350,338,254050,2,0,P|422:340|445:267,1,148.76999818396,8|0,2:0|2:0,2:0:0:0:
463,260,254311,1,0,3:2:0:0:
338,302,254441,6,0,B|255:290|271:361|166:338,1,148.76999818396,2|0,3:2|2:0,2:0:0:0:
132,380,254702,2,0,B|116:333|116:333|146:270,1,99.1799987893067,0|0,3:2|2:0,2:0:0:0:
31,89,254963,2,0,B|68:100|68:100|80:112|80:112|140:132,1,99.1799987893067,0|2,3:2|2:3,2:0:0:0:
354,33,255224,6,0,B|268:5|268:5|225:135,1,198.359997578613,4|0,3:2|3:2,2:0:0:0:
64,196,255615,1,8,2:0:0:0:
121,125,255746,2,0,P|147:165|146:233,1,99.1799987893067,2|0,3:2|3:2,2:0:0:0:
369,358,256007,6,0,P|381:244|401:142,1,198.359997578613,10|0,2:0|2:3,2:0:0:0:
339,383,256398,6,0,P|342:336|353:277,1,99.1799987893067,0|0,3:2|2:0,2:0:0:0:
481,201,256659,1,2,3:0:0:0:
512,268,256789,6,0,P|445:269|400:154,1,198.359997578613,4|0,3:1|3:2,2:0:0:0:
471,46,257181,1,2,2:0:0:0:
396,161,257311,2,0,P|351:196|278:187,1,99.1799987893067,0|2,3:2|3:0,2:0:0:0:
113,47,257572,6,0,B|149:82|198:73|198:73|231:154|156:196,2,198.359997578613,12|0|0,2:0|3:2|3:2,2:0:0:0:
174,0,258224,1,2,2:0:0:0:
37,216,258354,6,0,B|137:200|122:272|239:252,1,198.359997578613,4|0,3:2|3:2,2:0:0:0:
80,131,258746,1,8,2:0:0:0:
226,253,258876,2,0,P|191:290|122:275,1,99.1799987893067,0|2,3:2|2:3,2:0:0:0:
332,97,259137,6,0,P|346:187|375:307,1,198.359997578613,8|0,2:0|3:1,2:0:0:0:
241,120,259528,1,0,3:2:0:0:
384,214,259659,1,0,3:2:0:0:
274,334,259789,1,2,3:2:0:0:
307,247,259920,6,0,B|406:257|378:338|507:352,1,198.359997578613,4|0,3:1|3:2,2:0:0:0:
249,144,260311,2,0,P|204:162|143:173,1,99.1799987893067,0|0,3:2|2:0,2:0:0:0:
335,15,260572,1,2,3:0:0:0:
154,172,260702,6,0,P|223:161|307:251,2,198.359997578613,8|0|2,2:0|3:2|3:2,2:0:0:0:
151,181,261485,6,0,P|220:170|304:260,1,198.359997578613,4|0,3:2|3:2,2:0:0:0:
66,377,261876,2,0,L|84:259,1,99.1799987893067,8|0,2:0|2:0,2:0:0:0:
232,351,262137,1,2,3:0:0:0:
387,167,262268,6,0,L|417:325,1,148.76999818396,8|0,2:0|2:0,2:0:0:0:
435,331,262528,1,0,3:2:0:0:
303,255,262659,1,0,3:2:0:0:
478,126,262789,1,0,3:2:0:0:
423,234,262920,1,0,3:2:0:0:
278,78,263050,6,0,B|182:60|189:149|73:121,1,198.359997578613,4|0,3:1|3:2,2:0:0:0:
290,66,263441,2,0,P|238:61|186:89,1,99.1799987893067,8|0,2:0|2:0,2:0:0:0:
311,179,263702,1,2,3:0:0:0:
118,301,263833,6,0,P|180:357|294:324,1,198.359997578613,2|2,3:2|3:2,2:0:0:0:
91,124,264224,1,2,2:0:0:0:
226,207,264354,1,0,3:2:0:0:
49,344,264485,1,2,2:3:0:0:
124,202,264615,5,2,3:2:0:0:
284,334,264746,2,0,B|325:345|325:345|336:356|336:356|406:375,1,99.1799987893067,2|0,2:0|3:2,2:0:0:0:
512,214,265007,1,8,2:0:0:0:
372,177,265137,5,2,3:0:0:0:
499,345,265268,1,0,3:2:0:0:
444,196,265398,1,0,3:2:0:0:
407,282,265659,5,2,2:0:0:0:
493,92,265789,1,2,2:0:0:0:
407,282,265920,1,2,2:0:0:0:
512,214,266050,1,2,2:3:0:0:
331,93,266181,6,0,B|234:75|256:167|124:134,1,187.920004587891,4|0,3:1|2:0,2:0:0:0:
140,128,266441,1,0,3:2:0:0:
0,268,266572,2,0,B|45:260|73:224|73:224|69:287|122:319,1,187.920004587891,8|0,2:0|2:0,2:0:0:0:
128,324,266833,1,0,3:2:0:0:
0,188,266963,6,0,L|30:45,1,125.280003058594,2|0,3:2|2:0,2:0:0:0:
205,248,267224,2,0,L|235:391,1,125.280003058594,10|0,3:0|2:0,2:0:0:0:
432,166,267485,2,0,L|462:23,1,125.280003058594,6|0,3:0|2:0,2:0:0:0:
176,146,267746,6,0,P|214:225|307:225,1,187.920004587891,0|0,3:2|2:0,2:0:0:0:
321,213,268007,1,0,3:2:0:0:
128,324,268137,1,8,2:0:0:0:
230,370,268268,2,0,L|205:248,1,125.280003058594,2|0,3:2|2:0,2:0:0:0:
373,12,268528,6,0,B|420:59|483:51|483:51|417:106|441:211,1,250.560006117188,2|0,3:2|3:2,2:0:0:0:
261,55,268920,1,2,3:0:0:0:
435,166,269050,2,0,B|365:175|380:207|299:216,1,125.280003058594,8|2,2:0|2:3,2:0:0:0:
97,57,269311,6,0,B|138:12|188:37|188:37|180:89|222:120,1,187.920004587891,4|0,3:1|2:0,2:0:0:0:
261,55,269572,1,0,3:2:0:0:
88,164,269702,6,0,B|68:226|68:226|88:277|88:277|71:355,1,187.920004587891,8|0,2:0|2:0,2:0:0:0:
69,362,269963,1,0,3:2:0:0:
161,229,270094,6,0,B|211:242|211:242|228:265|228:265|290:280,1,125.280003058594,2|0,3:2|2:0,2:0:0:0:
371,8,270354,2,0,B|327:18|327:18|310:41|310:41|260:54,1,125.280003058594,10|0,3:0|2:0,2:0:0:0:
493,210,270615,2,0,B|482:166|482:166|459:149|459:149|446:99,1,125.280003058594,6|2,3:0|2:0,2:0:0:0:
345,207,270876,6,0,B|250:272|321:370|321:370|354:368|382:333,1,250.560006117188,4|0,3:2|3:2,2:0:0:0:
236,156,271268,1,8,2:0:0:0:
374,343,271398,2,0,B|318:338|316:387|225:371,1,125.280003058594,0|0,3:2|2:0,2:0:0:0:
66,111,271659,6,0,P|137:79|225:160,1,187.920004587891,0|0,3:2|2:0,2:0:0:0:
236,156,271920,1,0,3:2:0:0:
78,263,272050,1,2,2:3:0:0:
240,361,272181,1,8,2:0:0:0:
139,194,272311,1,2,2:3:0:0:
67,351,272441,6,0,B|123:364|154:317|140:311|180:264|252:279,1,187.920004587891,4|0,3:1|2:0,2:0:0:0:
249,258,272702,1,0,3:2:0:0:
414,55,272833,2,0,B|348:88|348:88|320:180|396:204,1,187.920004587891,10|0,2:0|2:0,2:0:0:0:
395,201,273094,1,0,3:2:0:0:
287,28,273224,5,2,3:2:0:0:
472,141,273354,1,0,2:3:0:0:
249,258,273485,1,8,3:0:0:0:
325,126,273615,1,0,2:0:0:0:
480,279,273746,2,0,P|434:325|349:311,1,125.280003058594,4|0,3:0|2:0,2:0:0:0:
169,69,274007,6,4,B|223:85|266:48|266:48|192:113|231:199,1,250.560006117188,4|0,3:2|3:2,2:0:0:0:
205,1,274398,1,8,2:0:0:0:
325,126,274528,2,0,P|283:172|200:168,1,125.280003058594,0|0,3:2|2:0,2:0:0:0:
39,327,274789,6,0,P|142:291|243:384,1,250.560006117188,2|0,3:2|3:2,2:0:0:0:
80,203,275181,1,2,2:3:0:0:
240,375,275311,2,0,P|175:376|153:323,1,125.280003058594,8|2,3:2|2:3,2:0:0:0:
343,39,275572,6,0,P|354:132|378:238,1,187.920004587891,4|0,3:1|2:0,2:0:0:0:
396,242,275833,1,0,3:2:0:0:
205,82,275963,6,0,B|115:56|115:160|-11:122,1,187.920004587891,8|0,2:0|2:0,2:0:0:0:
15,143,276224,1,0,3:2:0:0:
217,70,276354,6,0,P|156:63|102:120,1,125.280003058594,8|0,3:2|2:0,2:0:0:0:
353,249,276615,2,0,P|333:184|326:107,1,125.280003058594,10|0,3:0|2:0,2:0:0:0:
114,263,276876,2,0,P|134:328|141:405,1,125.280003058594,6|0,3:0|2:0,2:0:0:0:
212,200,277137,6,0,B|120:179|121:279|-3:248,1,187.920004587891,2|0,3:2|2:0,2:0:0:0:
19,267,277398,1,0,3:2:0:0:
109,101,277528,1,8,2:0:0:0:
227,214,277659,2,0,B|289:229|268:259|342:279,1,125.280003058594,0|0,3:2|2:0,2:0:0:0:
224,324,277920,5,2,3:2:0:0:
375,191,278050,1,0,2:0:0:0:
442,296,278181,1,0,3:2:0:0:
295,161,278311,1,2,2:3:0:0:
446,0,278441,2,0,P|467:56|475:136,1,125.280003058594,8|2,2:0|2:3,2:0:0:0:
158,262,278702,6,0,P|167:173|201:57,1,187.920004587891,4|0,3:1|2:0,2:0:0:0:
183,57,278963,1,0,3:2:0:0:
423,275,279094,2,0,B|331:258|349:359|226:335,1,187.920004587891,8|0,2:0|2:0,2:0:0:0:
235,354,279354,1,0,3:2:0:0:
360,73,279485,6,0,B|431:83|417:113|496:124,1,125.280003058594,8|0,2:0|2:0,2:0:0:0:
285,351,279746,2,0,B|356:341|342:311|421:300,1,125.280003058594,8|0,3:0|2:0,2:0:0:0:
176,117,280007,2,0,B|247:127|233:157|312:168,1,125.280003058594,4|0,3:0|2:0,2:0:0:0:
90,384,280268,6,0,P|19:318|53:177,1,250.560006117188,2|0,3:2|3:2,2:0:0:0:
218,23,280659,1,8,2:0:0:0:
143,0,280789,2,0,P|149:63|180:122,1,125.280003058594,0|0,3:2|2:0,2:0:0:0:
429,283,281050,6,0,B|368:285|326:230|326:230|328:310|263:375,1,250.560006117188,2|0,3:2|3:2,2:0:0:0:
419,185,281441,1,2,2:3:0:0:
235,266,281572,2,0,B|321:274|300:343|414:362,1,187.920004587891,8|0,2:0|2:0,2:0:0:0:
402,313,281833,6,0,B|332:316|343:354|266:349,1,125.280003058594,4|0,3:1|2:0,3:2:0:0:
419,185,282094,1,0,3:2:0:0:
218,23,282224,2,0,B|342:-11|316:116|476:82,1,250.560006117188,8|0,2:0|3:2,2:0:0:0:
150,213,282615,6,0,P|121:162|130:82,1,125.280003058594,8|0,3:2|2:0,2:0:0:0:
350,239,282876,2,0,P|299:268|219:259,1,125.280003058594,8|0,3:0|2:0,2:0:0:0:
376,39,283137,2,0,P|405:90|396:170,1,125.280003058594,4|0,3:0|2:0,2:0:0:0:
234,265,283398,6,0,P|336:243|423:346,1,250.560006117188,2|0,3:2|3:2,2:0:0:0:
277,151,283789,1,8,2:0:0:0:
136,306,283920,2,0,B|71:304|90:346|-8:338,1,125.280003058594,0|0,3:2|2:0,2:0:0:0:
235,384,284181,6,0,P|263:332|243:244,1,125.280003058594,2|0,3:2|2:0,2:0:0:0:
156,88,284441,1,0,3:2:0:0:
367,186,284572,1,2,2:3:0:0:
190,215,284702,5,8,2:0:0:0:
338,70,284833,1,2,2:3:0:0:
236,0,284963,6,0,P|253:91|269:201,1,187.920004587891,4|0,3:1|2:0,2:0:0:0:
287,196,285224,1,0,3:2:0:0:
34,352,285354,6,0,P|45:266|77:144,1,187.920004587891,8|0,2:0|2:0,2:0:0:0:
56,147,285615,1,0,3:2:0:0:
220,345,285746,6,0,P|279:350|338:282,1,125.280003058594,8|0,2:0|2:0,2:0:0:0:
456,107,286007,2,0,P|397:95|328:64,1,125.280003058594,8|0,3:0|2:0,2:0:0:0:
485,238,286268,2,0,P|493:296|517:388,1,125.280003058594,4|0,3:0|2:0,2:0:0:0:
288,161,286528,6,0,B|191:180|232:241|111:263,1,187.920004587891,0|0,3:2|2:0,2:0:0:0:
114,243,286789,1,0,3:2:0:0:
328,310,286920,1,8,2:0:0:0:
209,68,287050,2,0,P|177:123|186:193,1,125.280003058594,0|0,3:2|2:0,2:0:0:0:
44,375,287311,6,0,P|111:298|249:337,1,250.560006117188,0|0,3:2|3:2,2:0:0:0:
50,191,287702,1,2,2:3:0:0:
150,326,287833,5,8,2:0:0:0:
297,154,287963,1,2,2:3:0:0:
181,182,288094,6,0,P|220:227|306:224,1,125.280003058594,4|0,3:1|2:0,2:0:0:0:
442,355,288354,1,0,3:2:0:0:
484,293,288485,2,0,P|415:266|312:383,1,250.560006117188,8|0,2:0|3:2,2:0:0:0:
512,290,288876,6,0,P|461:249|389:249,1,125.280003058594,2|0,3:2|2:0,2:0:0:0:
225,64,289137,2,0,P|213:125|194:194,1,125.280003058594,8|0,3:0|2:0,2:0:0:0:
422,121,289398,2,0,P|402:61|387:-16,1,125.280003058594,4|0,3:0|2:0,2:0:0:0:
123,211,289659,6,0,B|223:192|203:282|328:268,1,187.920004587891,2|0,3:2|2:0,2:0:0:0:
311,256,289920,1,0,3:2:0:0:
148,352,290050,1,8,2:0:0:0:
305,164,290181,2,0,B|364:157|352:130|438:118,1,125.280003058594,0|0,3:2|2:0,2:0:0:0:
512,290,290441,6,0,P|451:294|394:230,1,125.280003058594,0|0,3:2|2:0,2:0:0:0:
341,30,290702,1,0,3:2:0:0:
506,152,290833,1,2,2:3:0:0:
294,269,290963,1,8,2:0:0:0:
387,118,291094,1,2,2:3:0:0:
441,189,291224,5,2,2:0:0:0:
240,82,291485,5,2,2:0:0:0:
240,82,291615,1,2,2:0:0:0:
97,258,291876,5,2,2:0:0:0:
97,258,292007,2,0,B|158:248|136:225|216:212,2,111.36,2|2|0,2:0|2:0|2:0,2:0:0:0:
240,82,292789,5,2,2:0:0:0:
318,348,293050,5,2,2:0:0:0:
318,348,293181,1,2,2:0:0:0:
512,193,293441,5,2,2:0:0:0:
512,193,293572,2,0,P|458:190|405:239,1,111.36,2|2,2:0|2:0,2:0:0:0:
236,54,294094,1,2,2:0:0:0:
345,0,294354,6,0,P|330:83|322:173,1,167.04,2|2,2:0|2:0,2:0:0:0:
78,356,295137,6,0,P|73:303|57:226,2,111.36,2|0|2,2:0|2:0|2:0,2:0:0:0:
385,239,295920,6,0,P|345:197|237:214,1,167.04,2|2,2:0|2:0,2:0:0:0:
243,207,296702,6,0,P|290:208|335:153,1,111.36,2|2,2:0|2:0,2:0:0:0:
239,384,297224,1,2,2:0:0:0:
62,245,297485,5,2,2:0:0:0:
325,303,297746,5,2,2:0:0:0:
325,303,297876,1,2,2:0:0:0:
242,47,298137,5,2,2:0:0:0:
242,47,298268,2,0,B|235:85|235:85|242:109|242:109|229:177,2,111.36,2|2|0,2:0|2:0|2:0,2:0:0:0:
484,346,299050,6,0,P|431:355|369:380,1,111.36,2|2,2:0|2:0,2:0:0:0:
275,239,299441,2,0,P|222:230|160:205,1,111.36,2|2,2:0|2:0,2:0:0:0:
24,354,299833,2,0,P|78:352|118:302,2,111.36,2|2|2,2:0|2:0|2:0,2:0:0:0:
159,127,300615,6,0,B|236:151|200:211|281:240,1,167.04,2|2,2:0|2:0,2:0:0:0:
481,53,301398,1,2,2:0:0:0:
195,207,301920,5,2,2:0:0:0:
353,376,302181,2,0,P|382:337|368:266,1,111.36,2|2,2:0|2:0,2:0:0:0:
226,382,302702,1,2,2:0:0:0:
356,147,302963,6,0,P|408:171|480:187,1,111.36,2|2,2:0|2:0,2:0:0:0:
254,279,303485,1,2,2:0:0:0:
466,384,303746,6,0,L|451:299,1,76.5600023364259,2|2,2:0|0:0,0:0:0:0:
397,259,304137,1,2,0:0:0:0:
141,109,304398,5,2,0:0:0:0:
79,150,304528,2,0,L|64:236,2,76.5600023364259,2|2|2,0:0|0:0|0:0,0:0:0:0:
293,54,305311,6,0,P|326:74|370:70,1,76.5600023364259,2|2,0:0|0:0,0:0:0:0:
362,72,305702,2,0,P|351:108|353:154,1,76.5600023364259,2|2,0:0|0:0,0:0:0:0:
410,197,306094,5,2,0:0:0:0:
323,233,306354,1,2,0:0:0:0:
233,272,306615,1,2,0:0:0:0:
388,384,306876,6,0,P|415:344|394:273,1,114.840003504639,2|2,0:0|0:0,0:0:0:0:
271,89,307659,2,0,P|202:129|125:142,1,153.120004672852,2|2,0:0|0:0,0:0:0:0:
123,137,308441,6,0,P|164:125|199:192,1,114.840003504639,2|2,0:0|0:0,0:0:0:0:
315,313,309224,2,0,P|280:321|235:342,2,76.5600023364259,2|2|2,0:0|0:0|0:0,0:0:0:0:
432,142,310007,6,0,P|452:176|448:219,1,76.5600023364259,2|2,0:0|0:0,0:0:0:0:
447,221,310398,2,0,P|408:227|362:240,1,76.5600023364259,2|2,0:0|0:0,0:0:0:0:
367,247,310789,1,2,0:0:0:0:
456,128,311050,1,2,0:0:0:0:
324,98,311311,1,2,0:0:0:0:
483,294,311572,6,0,P|492:333|494:379,1,76.5600023364259,2|2,0:0|0:0,0:0:0:0:
418,383,311963,2,0,P|408:343|408:299,1,76.5600023364259,2|2,0:0|0:0,0:0:0:0:
433,238,312354,1,2,0:0:0:0:
263,332,312615,1,2,0:0:0:0:
126,202,312876,1,2,0:0:0:0:
198,251,313137,6,0,P|183:307|175:375,1,114.840003504639,2|2,0:0|0:0,0:0:0:0:
22,153,313920,2,0,P|61:143|98:124,2,76.5600023364259,2|0|2,0:0|0:0|0:0,0:0:0:0:
16,168,314702,5,2,0:0:0:0:
183,105,314963,1,2,0:0:0:0:
65,287,315224,1,2,0:0:0:0:
104,139,315485,5,2,0:0:0:0:
238,221,315746,1,2,0:0:0:0:
331,107,316007,1,2,0:0:0:0:
240,233,316268,5,2,2:0:0:0:
256,192,316333,12,2,328789,0:0:0:0:
