osu file format v14

[General]
AudioFilename: audio.mp3
AudioLeadIn: 0
PreviewTime: 48010
Countdown: 1
SampleSet: Soft
StackLeniency: 0.7
Mode: 0
LetterboxInBreaks: 0
WidescreenStoryboard: 0

[Editor]
DistanceSpacing: 1.8
BeatDivisor: 4
GridSize: 4
TimelineZoom: 1.5

[Metadata]
Title:Our Sympathy
TitleUnicode:Our Sympathy
Artist:Alfakyun.
ArtistUnicode:+α/あるふぁきゅん。
Creator:Kasuga
Version:Insane
Source:ēlDLIVE
Tags:tv size utaite
BeatmapID:1179973
BeatmapSetID:557700

[Difficulty]
HPDrainRate:7
CircleSize:4
OverallDifficulty:8
ApproachRate:9
SliderMultiplier:1.8
SliderTickRate:1

[Events]
//Background and Video events
Video,0,"our sympathy.avi"
0,0,"elDLIVE.jpg",0,0
//Break Periods
2,30178,81399
//Storyboard Layer 0 (Background)
//Storyboard Layer 1 (Fail)
//Storyboard Layer 2 (Pass)
//Storyboard Layer 3 (Foreground)
//Storyboard Sound Samples

[TimingPoints]
-979,319.148936170213,4,2,0,80,1,0
4765,-200,4,1,0,70,0,0
5403,-100,4,1,0,70,0,0
15616,-133.333333333333,4,2,0,80,0,0
24552,-200,4,2,0,80,0,0
25829,-133.333333333333,4,2,0,80,0,0

[HitObjects]
112,48,138,5,0,0:0:0:0:
112,48,217,1,0,0:0:0:0:
112,48,297,2,0,P|104:116|116:164,1,90,6|0,0:0|0:0,0:0:0:0:
176,220,616,1,0,0:0:0:0:
284,208,776,2,0,L|376:172,1,90,0|2,0:0|0:0,0:0:0:0:
356,284,1095,2,0,L|356:374,1,90
456,248,1414,6,0,P|472:152|432:80,1,180,2|0,0:0|0:0,0:0:0:0:
416,64,1813,1,0,0:0:0:0:
396,48,1893,2,0,L|296:56,1,90
228,132,2212,1,2,0:0:0:0:
332,160,2372,1,0,0:0:0:0:
306,55,2531,1,0,0:0:0:0:
255,242,2691,1,0,0:0:0:0:
211,128,2850,6,0,L|103:139,1,90,6|0,0:0|0:0,0:0:0:0:
345,167,3169,1,0,0:0:0:0:
345,167,3329,2,0,L|453:156,1,90,0|2,0:0|0:0,0:0:0:0:
216,248,3648,2,0,L|108:259,1,90
350,287,3967,1,2,0:0:0:0:
350,287,4765,5,2,0:2:0:0:
363,285,4845,1,0,0:0:0:0:
376,284,4925,1,0,0:0:0:0:
389,283,5005,1,0,0:0:0:0:
402,282,5084,2,0,L|414:203,1,67.5,0|0,0:1|2:0,0:0:0:0:
421,161,5403,6,0,P|372:151|328:149,1,90,4|0,0:0|2:0,0:0:0:0:
149,192,5723,2,0,P|193:202|238:205,1,90,2|0,0:0|2:0,0:0:0:0:
381,43,6042,1,0,0:0:0:0:
332,253,6201,1,0,0:0:0:0:
277,74,6361,1,2,0:0:0:0:
435,221,6521,6,0,L|523:190,1,90
331,253,6840,1,0,0:0:0:0:
225,276,6999,2,0,P|147:281|62:226,1,180,2|0,0:0|0:0,0:0:0:0:
21,128,7478,1,0,0:0:0:0:
129,102,7638,2,0,P|154:139|162:184,1,90,2|0,0:0|0:0,0:0:0:0:
69,316,7957,6,0,P|135:302|207:310,1,135,4|0,0:0|2:0,0:0:0:0:
253,324,8276,2,0,B|298:334|298:334|341:320,1,90,2|0,0:0|2:0,0:0:0:0:
431,263,8595,1,0,0:0:0:0:
335,212,8755,1,0,0:0:0:0:
341,319,8914,1,2,0:0:0:0:
424,250,9074,6,0,L|425:153,1,90
391,57,9393,1,0,0:0:0:0:
301,191,9552,2,0,P|222:186|118:149,1,180,2|0,0:0|0:0,0:0:0:0:
30,103,10031,2,0,L|18:14,2,90,0|2|0,0:0|0:0|0:0,0:0:0:0:
31,211,10510,6,0,L|28:316,1,90,4|0,0:0|2:0,0:0:0:0:
180,358,10829,2,0,L|177:253,1,90,2|0,0:0|2:0,0:0:0:0:
250,122,11148,1,0,0:0:0:0:
250,122,11308,2,0,L|255:65,2,45,0|0|2,0:0|0:0|0:0,0:0:0:0:
325,199,11627,2,0,L|330:256,2,45
378,104,11946,6,0,L|373:47,2,45,0|0|2,0:0|0:0|0:0,0:0:0:0:
449,185,12265,1,0,0:0:0:0:
447,212,12345,1,0,0:0:0:0:
444,238,12425,2,0,L|439:295,3,45
417,298,12744,2,0,L|412:355,3,45,2|0|0|0,0:0|0:0|0:0|0:0,0:0:0:0:
359,337,13063,6,0,P|268:348|169:318,1,180,4|2,0:0|0:0,0:0:0:0:
41,163,13701,1,0,0:0:0:0:
41,163,13861,1,0,0:0:0:0:
84,262,14021,1,2,0:0:0:0:
92,56,14180,1,0,0:0:0:0:
256,192,14260,12,0,15297,2:0:0:0:
188,90,15616,6,0,L|179:167,1,67.5000025749208
281,224,15935,2,0,L|272:147,1,67.5000025749208
252,36,16255,1,0,0:0:0:0:
361,88,16414,1,0,0:0:0:0:
361,88,16494,1,0,0:0:0:0:
361,88,16574,2,0,L|360:175,1,67.5000025749208
381,275,16893,6,0,P|401:309|440:334,2,67.5000025749208
270,223,17372,2,0,L|185:225,2,67.5000025749208
364,147,17850,1,0,0:0:0:0:
279,343,18010,1,0,0:0:0:0:
279,343,18090,1,0,0:0:0:0:
279,343,18169,6,0,L|183:338,1,67.5000025749208
116,262,18489,1,0,0:0:0:0:
185,163,18648,2,0,L|285:157,1,67.5000025749208
424,182,18967,1,0,0:0:0:0:
424,182,19047,1,0,0:0:0:0:
424,182,19127,2,0,P|396:201|364:208,1,67.5000025749208
216,316,19446,6,0,P|230:286|256:264,1,67.5000025749208
370,142,19765,2,0,P|373:176|363:208,1,67.5000025749208
180,192,20084,2,0,P|213:181|272:180,1,67.5000025749208
396,284,20403,1,0,0:0:0:0:
396,284,20483,1,0,0:0:0:0:
396,284,20563,1,0,0:0:0:0:
396,284,20643,1,0,0:0:0:0:
396,284,20723,6,0,P|328:304|256:284,1,135.000005149842
34,74,21361,2,0,P|98:54|164:68,1,135.000005149842
324,152,21840,1,0,0:0:0:0:
324,152,21919,1,0,0:0:0:0:
324,152,21999,6,0,L|324:240,1,67.5000025749208
188,232,22318,2,0,L|188:144,1,67.5000025749208
356,116,22638,2,0,L|356:204,1,67.5000025749208
156,268,22957,1,0,0:0:0:0:
140,264,23036,1,0,0:0:0:0:
124,260,23116,1,0,0:0:0:0:
108,256,23196,1,0,0:0:0:0:
92,252,23276,6,0,L|80:176,1,67.5000025749208
164,96,23595,1,0,0:0:0:0:
200,212,23755,1,0,0:0:0:0:
81,186,23914,1,0,0:0:0:0:
266,129,24074,1,0,0:0:0:0:
239,248,24234,1,0,0:0:0:0:
150,166,24393,1,0,0:0:0:0:
337,210,24552,6,0,L|426:230,1,90
150,166,25031,1,0,0:0:0:0:
150,166,25669,5,0,0:0:0:0:
150,166,25749,1,0,0:0:0:0:
150,166,25829,6,0,L|79:175,1,67.5
254,238,26148,2,0,L|325:247,1,67.5
396,150,26467,1,0,0:0:0:0:
416,321,26627,1,0,0:0:0:0:
492,158,26786,1,0,0:0:0:0:
298,329,26946,6,0,L|224:320,1,67.5000025749208
95,196,27265,2,0,P|118:221|132:252,1,67.5000025749208
24,370,27584,2,0,P|16:337|20:304,1,67.5000025749208
124,136,27903,2,0,P|114:168|95:196,1,67.5000025749208
200,40,28223,1,0,0:0:0:0:
200,40,28302,1,0,0:0:0:0:
200,40,28382,6,0,L|276:48,1,67.5000025749208
402,144,28701,2,0,P|369:151|336:148,1,67.5000025749208
160,148,29021,2,0,P|185:126|216:112,1,67.5000025749208
364,72,29340,1,0,0:0:0:0:
312,240,29499,6,0,L|294:106,1,135.000005149842
294,106,29978,1,0,0:0:0:0:
256,192,81999,12,0,86786,0:0:0:0:
169,100,87106,5,0,0:0:0:0:
169,100,87584,1,0,0:0:0:0:
225,308,87903,5,0,0:0:0:0:
378,154,88063,1,0,0:0:0:0:
169,100,88223,1,0,0:0:0:0:
