osu file format v14

[General]
AudioFilename: audio.mp3
AudioLeadIn: 0
PreviewTime: 405
Countdown: 0
SampleSet: Soft
StackLeniency: 0.7
Mode: 0
LetterboxInBreaks: 0
WidescreenStoryboard: 1

[Editor]
DistanceSpacing: 1
BeatDivisor: 2
GridSize: 16
TimelineZoom: 1.800001

[Metadata]
Title:KING
TitleUnicode:KING
Artist:Alfakyun.
ArtistUnicode:+α/あるふぁきゅん。
Creator:Ryuusei Aika
Version:Wanpachi's Normal
Source:
Tags:japanese pop jpop j-pop wanpachi strengemistake strangemistake battle altai undeadphoneguy kanor あるふぁきゅん。 あるふぁきゅん Kanaria female vocal cover nou のう utaite utattemita 歌ってみた
BeatmapID:2807823
BeatmapSetID:1354539

[Difficulty]
HPDrainRate:4
CircleSize:3
OverallDifficulty:4.5
ApproachRate:5
SliderMultiplier:1.09999990463257
SliderTickRate:1

[Events]
//Background and Video events
0,0,"bg.jpg",0,0
//Break Periods
//Storyboard Layer 0 (Background)
//Storyboard Layer 1 (Fail)
//Storyboard Layer 2 (Pass)
//Storyboard Layer 3 (Foreground)
//Storyboard Layer 4 (Overlay)
//Storyboard Sound Samples

[TimingPoints]
415,361.44578313253,4,2,1,33,1,0
415,-111.111111111111,4,2,1,33,0,0
2945,-111.111111111111,4,2,1,43,0,0
3306,-100,4,2,1,73,0,1
14872,-111.111111111111,4,2,1,63,0,0
26439,-100,4,2,1,63,0,0
38005,-111.111111111111,4,2,1,63,0,0
40896,-100,4,2,1,63,0,0
52463,-90.9090909090909,4,2,1,73,0,1
64029,-111.111111111111,4,2,1,73,0,0
65475,-111.111111111111,4,2,1,63,0,0
66921,-100,4,2,1,63,0,1
78487,-111.111111111111,4,2,1,53,0,0
89330,-111.111111111111,4,2,1,63,0,0
90053,-100,4,2,1,63,0,0
101619,-90.9090909090909,4,2,1,73,0,1
113186,-111.111111111111,4,2,1,73,0,0
116077,-90.9090909090909,4,2,1,73,0,1
127643,-111.111111111111,4,2,1,53,0,0

[Colours]
Combo1 : 128,128,128
Combo2 : 255,0,0

[HitObjects]
59,62,3306,6,0,P|118:45|180:75,1,109.999990463257,4|8,3:2|2:0,0:0:0:0:
201,106,3848,1,0,2:0:0:0:
201,106,4029,2,0,L|197:179,2,54.9999952316285,0|0|8,3:0|2:0|2:0,0:0:0:0:
278,28,4752,2,0,L|332:24,1,54.9999952316285,0|2,3:0|2:0,0:0:0:0:
371,63,5113,2,0,L|425:66,1,54.9999952316285,8|2,2:0|2:0,0:0:0:0:
465,105,5475,2,0,B|485:158|485:158|466:221,1,109.999990463257,0|8,3:0|2:0,0:0:0:0:
433,313,6198,6,0,P|384:278|321:283,1,109.999990463257,0|8,3:0|2:0,0:0:0:0:
295,314,6740,1,0,2:0:0:0:
295,314,6921,2,0,L|299:373,2,54.9999952316285,0|0|8,3:0|2:0|2:0,0:0:0:0:
217,236,7643,2,0,L|158:232,1,54.9999952316285,0|2,3:0|2:0,0:0:0:0:
122,193,8005,2,0,L|63:197,1,54.9999952316285,8|2,2:0|2:0,0:0:0:0:
28,157,8366,2,0,P|12:105|34:55,1,109.999990463257,0|8,3:0|3:2,0:0:0:0:
135,16,9089,6,0,L|244:23,1,109.999990463257,4|8,3:2|2:0,0:0:0:0:
287,66,9631,1,0,2:0:0:0:
287,66,9812,2,0,L|290:120,2,54.9999952316285,0|0|8,3:0|2:0|2:0,0:0:0:0:
377,3,10535,2,0,L|431:6,1,54.9999952316285,0|2,3:0|2:0,0:0:0:0:
470,45,10896,2,0,L|466:99,1,54.9999952316285,8|2,2:0|2:0,0:0:0:0:
427,139,11258,2,0,P|457:205|451:263,1,109.999990463257,0|8,3:0|2:0,0:0:0:0:
358,291,11981,6,0,B|309:266|309:266|251:283,1,109.999990463257,0|8,3:0|2:0,0:0:0:0:
219,322,12523,1,0,2:0:0:0:
219,322,12704,2,0,L|229:383,2,54.9999952316285,0|0|8,3:0|2:0|2:0,0:0:0:0:
124,265,13427,2,0,L|132:210,1,54.9999952316285,0|2,3:0|2:0,0:0:0:0:
93,171,13788,2,0,L|84:116,1,54.9999952316285,8|2,2:0|2:0,0:0:0:0:
123,77,14149,2,0,P|187:51|244:77,1,109.999990463257,0|8,3:0|3:2,0:0:0:0:
294,131,14872,6,0,L|276:287,1,148.499982593537,0|0,3:0|0:0,0:0:0:0:
305,319,15595,2,0,P|352:345|408:322,1,98.9999883956914,0|0,3:0|3:0,0:0:0:0:
429,299,16137,1,0,0:0:0:0:
464,206,16499,2,0,L|526:193,2,49.4999941978457,0|0|0,0:0|3:0|0:0,0:0:0:0:
428,170,17041,2,0,L|331:149,1,98.9999883956914,0|8,3:0|3:2,0:0:0:0:
291,58,17764,6,0,B|251:87|251:87|197:68,1,98.9999883956914,0|0,3:0|3:0,0:0:0:0:
182,32,18306,1,0,0:0:0:0:
182,32,18487,2,0,L|71:45,1,98.9999883956914,0|0,3:0|3:0,0:0:0:0:
42,71,19029,1,0,0:0:0:0:
89,157,19390,2,0,L|82:212,1,49.4999941978457,0|0,0:0|3:0,0:0:0:0:
125,296,19933,2,0,P|183:273|231:293,1,98.9999883956914,0|8,3:0|3:2,0:0:0:0:
295,341,20655,6,0,L|449:326,1,148.499982593537,0|0,3:0|0:0,0:0:0:0:
477,291,21378,2,0,B|495:247|495:247|472:201,1,98.9999883956914,0|0,3:0|3:0,0:0:0:0:
437,165,21921,1,0,2:0:0:0:
463,69,22282,2,0,L|511:80,2,49.4999941978457,0|0|0,2:0|3:0|0:0,0:0:0:0:
427,33,22824,2,0,P|308:70|300:66,1,98.9999883956914,0|8,3:0|3:2,0:0:0:0:
250,43,23547,6,0,L|122:26,1,98.9999883956914,0|0,3:0|3:0,0:0:0:0:
118,66,24089,1,0,0:0:0:0:
118,66,24270,2,0,P|103:120|140:182,1,98.9999883956914,0|0,3:0|3:0,0:0:0:0:
157,186,24812,1,0,0:0:0:0:
120,278,25174,2,0,L|135:342,1,49.4999941978457,0|0,0:0|3:0,0:0:0:0:
219,371,25716,2,0,B|263:349|263:349|329:367,1,98.9999883956914,0|8,3:0|3:0,0:0:0:0:
397,293,26439,6,0,P|415:240|385:175,1,109.999990463257,4|0,3:2|3:0,0:0:0:0:
354,158,26981,1,2,2:0:0:0:
354,158,27161,2,0,L|244:167,1,109.999990463257,0|0,3:0|3:0,0:0:0:0:
166,245,27884,2,0,L|161:299,2,54.9999952316285,0|2|0,3:0|2:0|3:0,0:0:0:0:
88,167,28607,2,0,L|5:174,2,82.4999928474427,0|2|2,3:0|2:0|2:0,0:0:0:0:
126,128,29330,6,0,B|147:76|147:76|125:13,1,109.999990463257,0|0,3:0|3:0,0:0:0:0:
178,0,29872,1,2,2:0:0:0:
178,0,30053,2,0,P|223:29|303:37,1,109.999990463257,0|0,3:0|3:0,0:0:0:0:
380,79,30776,2,0,L|440:77,2,54.9999952316285,0|2|0,3:0|2:0|3:0,0:0:0:0:
317,169,31499,2,0,L|234:166,2,82.4999928474427,4|4|4,3:2|3:2|3:2,0:0:0:0:
367,190,32222,6,0,B|386:244|386:244|360:310,1,109.999990463257,4|0,3:2|3:0,0:0:0:0:
366,352,32764,1,2,2:0:0:0:
366,352,32945,2,0,P|311:302|255:297,1,109.999990463257,0|0,3:0|3:0,0:0:0:0:
173,330,33668,2,0,L|163:384,2,54.9999952316285,0|2|0,3:0|2:0|3:0,0:0:0:0:
95,252,34390,2,0,L|13:265,2,82.4999928474427,0|2|2,3:0|2:0|2:0,0:0:0:0:
133,213,35113,6,0,P|150:151|129:95,1,109.999990463257,0|0,3:0|3:0,0:0:0:0:
112,59,35655,1,2,2:0:0:0:
112,59,35836,2,0,L|224:50,1,109.999990463257,0|0,3:0|3:0,0:0:0:0:
319,101,36559,2,0,B|298:154|298:154|323:225,2,109.999990463257,0|0|2,3:0|3:0|3:2,0:0:0:0:
412,43,37643,1,2,3:2:0:0:
474,120,38005,5,0,3:2:0:0:
443,315,39451,5,4,3:2:0:0:
345,298,39812,1,4,3:2:0:0:
290,380,40174,1,4,3:2:0:0:
199,179,40896,6,0,L|210:65,1,109.999990463257,8|8,3:1|3:1,0:0:0:0:
100,82,41619,2,0,L|92:0,2,82.4999928474427,8|8|8,3:1|3:1|3:1,0:0:0:0:
103,136,42342,1,8,3:1:0:0:
46,230,42704,1,8,3:1:0:0:
128,302,43065,2,0,L|116:389,2,82.4999928474427,8|8|8,3:1|3:1|3:1,0:0:0:0:
175,273,43788,6,0,B|228:256|228:256|292:299,1,109.999990463257,8|8,3:1|3:1,0:0:0:0:
383,280,44511,2,0,L|475:294,2,82.4999928474427,8|8|8,3:1|3:1|3:1,0:0:0:0:
357,231,45234,1,8,3:1:0:0:
312,130,45595,1,8,3:1:0:0:
363,30,45957,2,0,L|455:16,2,54.9999952316285,8|0|8,3:1|0:0|3:1,0:0:0:0:
315,15,46499,1,8,3:1:0:0:
315,15,46680,6,0,P|254:52|209:48,1,109.999990463257,8|8,3:1|3:1,0:0:0:0:
129,116,47402,2,0,L|145:213,2,82.4999928474427,8|8|8,3:1|3:1|3:1,0:0:0:0:
83,84,48125,1,8,3:1:0:0:
18,173,48487,1,8,3:1:0:0:
59,274,48848,2,0,L|43:371,2,82.4999928474427,8|8|8,3:1|3:1|3:1,0:0:0:0:
109,253,49571,6,0,B|153:285|153:285|207:275,1,109.999990463257,8|8,3:1|3:1,0:0:0:0:
317,261,50294,2,0,L|313:356,2,82.4999928474427,8|8|8,3:1|3:1|3:1,0:0:0:0:
359,226,51017,1,8,3:1:0:0:
461,265,51378,1,8,3:1:0:0:
499,161,51740,1,8,3:1:0:0:
461,57,52101,1,0,3:0:0:0:
348,99,52463,6,0,P|296:53|222:48,1,120.999993202209,4|8,3:2|2:0,0:0:0:0:
204,86,53005,1,0,2:0:0:0:
204,86,53186,2,0,L|220:215,1,120.999993202209,0|8,3:0|2:0,0:0:0:0:
171,317,53908,1,0,3:0:0:0:
171,317,54089,2,0,B|124:279|124:279|58:303,1,120.999993202209,2|2,2:0|2:0,0:0:0:0:
21,259,54631,2,0,L|11:192,1,60.4999966011047,0|2,3:0|2:0,0:0:0:0:
1,139,54993,1,8,2:0:0:0:
89,56,55354,6,0,P|153:96|222:79,1,120.999993202209,0|8,3:0|2:0,0:0:0:0:
242,54,55896,1,0,2:0:0:0:
358,19,56258,1,0,2:0:0:0:
433,113,56619,1,0,2:0:0:0:
357,207,56981,2,0,L|294:198,2,60.4999966011047,0|8|0,2:0|2:0|2:0,0:0:0:0:
399,249,57523,2,0,L|408:312,1,60.4999966011047,0|8,3:2|2:0,0:0:0:0:
364,351,57884,1,8,2:0:0:0:
266,278,58246,6,0,P|204:287|164:351,1,120.999993202209,4|8,3:2|2:0,0:0:0:0:
110,312,58788,1,0,2:0:0:0:
110,312,58969,2,0,B|78:258|78:258|93:201,1,120.999993202209,0|8,3:0|2:0,0:0:0:0:
61,84,59692,1,0,3:0:0:0:
61,84,59872,2,0,L|208:56,1,120.999993202209,2|2,2:0|2:0,0:0:0:0:
222,104,60414,2,0,L|295:118,1,60.4999966011047,0|2,3:0|2:0,0:0:0:0:
324,72,60776,1,8,2:0:0:0:
421,142,61137,6,0,B|441:197|441:197|418:264,1,120.999993202209,0|8,3:0|2:0,0:0:0:0:
392,310,61680,1,0,2:0:0:0:
283,255,62041,1,0,2:0:0:0:
182,322,62402,1,0,2:0:0:0:
89,244,62764,2,0,L|103:175,1,60.4999966011047,0|8,2:0|2:0,0:0:0:0:
70,67,63306,1,0,3:0:0:0:
181,19,63668,1,8,2:0:0:0:
291,68,64029,5,4,3:2:0:0:
364,263,65475,5,8,3:1:0:0:
364,263,65655,1,8,3:1:0:0:
364,263,65836,2,0,L|357:336,1,49.4999941978457,8|8,3:1|3:1,0:0:0:0:
85,344,66921,6,0,P|59:293|86:237,1,109.999990463257,4|8,3:2|2:0,0:0:0:0:
122,215,67463,1,0,2:0:0:0:
122,215,67643,2,0,L|115:142,2,54.9999952316285,0|2|8,3:0|2:0|2:0,0:0:0:0:
200,292,68366,2,0,L|273:285,1,54.9999952316285,0|2,3:0|2:0,0:0:0:0:
293,247,68728,2,0,L|366:254,1,54.9999952316285,8|2,2:0|2:0,0:0:0:0:
386,213,69089,2,0,B|408:160|408:160|391:95,1,109.999990463257,0|8,3:0|2:0,0:0:0:0:
312,36,69812,6,0,L|192:52,1,109.999990463257,0|8,3:0|2:0,0:0:0:0:
164,89,70354,1,0,2:0:0:0:
164,89,70535,2,0,L|156:149,2,54.9999952316285,0|2|8,3:0|2:0|2:0,0:0:0:0:
54,73,71258,2,0,L|46:133,1,54.9999952316285,0|2,3:0|2:0,0:0:0:0:
19,175,71619,2,0,L|27:235,1,54.9999952316285,8|2,2:0|2:0,0:0:0:0:
55,276,71981,2,0,P|124:270|183:335,1,109.999990463257,0|8,3:0|3:2,0:0:0:0:
261,323,72704,6,0,B|314:335|314:335|374:308,1,109.999990463257,4|8,3:2|2:0,0:0:0:0:
410,281,73246,1,0,2:0:0:0:
410,281,73427,2,0,L|488:298,2,54.9999952316285,0|2|8,3:0|2:0|2:0,0:0:0:0:
378,175,74149,2,0,L|361:97,1,54.9999952316285,0|2,3:0|2:0,0:0:0:0:
318,92,74511,2,0,L|335:14,1,54.9999952316285,8|2,2:0|2:0,0:0:0:0:
285,4,74872,2,0,P|218:44|167:40,1,109.999990463257,0|8,3:0|2:0,0:0:0:0:
85,85,75595,6,0,B|62:136|62:136|95:206,1,109.999990463257,0|8,3:0|2:0,0:0:0:0:
110,233,76137,1,0,2:0:0:0:
110,233,76318,2,0,L|97:308,2,54.9999952316285,0|2|8,3:0|2:0|2:0,0:0:0:0:
218,215,77041,2,0,L|272:205,1,54.9999952316285,0|2,3:0|2:0,0:0:0:0:
311,244,77402,2,0,L|365:253,1,54.9999952316285,8|2,2:0|2:0,0:0:0:0:
404,214,77764,2,0,P|423:161|404:106,1,109.999990463257,0|8,3:0|3:2,0:0:0:0:
326,55,78487,6,0,L|223:78,1,98.9999883956914,4|0,3:2|3:0,0:0:0:0:
198,115,79029,1,0,2:0:0:0:
198,115,79210,2,0,B|222:160|222:160|204:218,1,98.9999883956914,0|8,3:0|3:2,0:0:0:0:
137,275,79933,2,0,L|148:369,2,74.2499912967686,0|0|0,3:0|2:0|2:0,0:0:0:0:
94,250,80655,2,0,P|51:197|57:151,1,98.9999883956914,0|0,3:0|3:0,0:0:0:0:
89,77,81378,6,0,L|204:66,1,98.9999883956914,0|0,3:0|3:0,0:0:0:0:
232,46,81921,1,0,2:0:0:0:
232,46,82101,2,0,P|288:104|322:108,1,98.9999883956914,0|8,3:0|2:0,0:0:0:0:
395,73,82824,2,0,L|411:-6,2,74.2499912967686,0|0|0,3:0|2:0|2:0,0:0:0:0:
424,112,83547,1,0,3:0:0:0:
459,204,83908,1,8,3:2:0:0:
434,299,84270,6,0,P|362:317|341:338,1,98.9999883956914,4|8,3:2|2:0,0:0:0:0:
309,366,84812,1,0,2:0:0:0:
309,366,84993,2,0,B|211:352,1,98.9999883956914,0|8,3:0|2:0,0:0:0:0:
138,288,85716,2,0,L|65:301,2,74.2499912967686,0|0|0,3:0|2:0|2:0,0:0:0:0:
164,246,86439,2,0,B|183:201|183:201|165:153,1,98.9999883956914,0|0,3:0|3:0,0:0:0:0:
203,62,87161,6,0,P|267:39|312:60,1,98.9999883956914,0|8,3:0|2:0,0:0:0:0:
333,77,87704,1,0,2:0:0:0:
333,77,87884,2,0,L|453:67,1,98.9999883956914,0|8,3:0|2:0,0:0:0:0:
429,167,88607,2,0,L|355:173,2,74.2499912967686,0|0|0,3:0|2:0|2:0,0:0:0:0:
464,201,89330,1,12,3:2:0:0:
503,292,89692,1,12,3:2:0:0:
408,348,90053,6,0,P|365:324|290:317,1,109.999990463257,8|8,3:1|3:1,0:0:0:0:
199,344,90776,2,0,L|109:327,2,82.4999928474427,8|8|8,3:1|3:1|3:1,0:0:0:0:
228,297,91499,1,8,3:1:0:0:
198,191,91860,1,8,3:1:0:0:
262,101,92222,2,0,L|352:84,2,82.4999928474427,8|8|8,3:1|3:1|3:1,0:0:0:0:
216,69,92945,6,0,B|165:44|165:44|103:60,1,109.999990463257,8|8,3:1|3:1,0:0:0:0:
80,162,93668,2,0,L|-10:179,2,82.4999928474427,8|8|8,3:1|3:1|3:1,0:0:0:0:
126,191,94390,1,8,3:1:0:0:
188,281,94752,1,8,3:1:0:0:
114,362,95113,2,0,L|24:345,2,54.9999952316285,8|0|8,3:1|0:0|3:1,0:0:0:0:
171,377,95655,1,8,3:1:0:0:
171,377,95836,6,0,P|226:352|291:347,1,109.999990463257,8|8,3:1|3:1,0:0:0:0:
376,303,96559,2,0,L|393:393,2,82.4999928474427,8|8|8,3:1|3:1|3:1,0:0:0:0:
363,249,97282,1,8,3:1:0:0:
426,159,97643,1,8,3:1:0:0:
340,89,98005,2,0,L|357:-1,2,82.4999928474427,8|8|8,3:1|3:1|3:1,0:0:0:0:
290,113,98728,6,0,B|238:90|238:90|169:104,1,109.999990463257,8|8,3:1|3:1,0:0:0:0:
78,126,99451,2,0,L|61:36,2,82.4999928474427,8|8|8,3:1|3:1|3:1,0:0:0:0:
86,180,100174,1,8,3:1:0:0:
39,279,100535,1,8,3:1:0:0:
101,369,100896,1,8,3:1:0:0:
210,360,101258,1,8,2:3:0:0:
260,251,101619,6,0,B|233:193|233:193|261:124,1,120.999993202209,4|8,3:2|2:0,0:0:0:0:
294,94,102161,1,0,2:0:0:0:
294,94,102342,2,0,P|359:130|431:124,1,120.999993202209,0|8,3:0|2:0,0:0:0:0:
469,233,103065,1,0,3:0:0:0:
469,233,103246,2,0,L|445:359,1,120.999993202209,2|2,2:0|2:0,0:0:0:0:
386,344,103788,2,0,L|374:281,1,60.4999966011047,0|2,3:0|2:0,0:0:0:0:
331,241,104149,1,8,2:0:0:0:
233,313,104511,6,0,B|174:328|174:328|92:284,1,120.999993202209,0|8,3:0|2:0,0:0:0:0:
72,263,105053,1,0,2:0:0:0:
14,156,105414,1,0,2:0:0:0:
67,47,105776,1,0,2:0:0:0:
179,91,106137,2,0,L|170:154,2,60.4999966011047,0|8|0,2:0|2:0|2:0,0:0:0:0:
222,47,106680,2,0,L|285:56,1,60.4999966011047,0|8,3:2|2:0,0:0:0:0:
324,98,107041,1,8,2:0:0:0:
431,42,107402,6,0,P|447:129|492:177,1,120.999993202209,4|8,3:2|2:0,0:0:0:0:
490,215,107945,1,0,2:0:0:0:
490,215,108125,2,0,L|460:353,1,120.999993202209,0|8,3:0|2:0,0:0:0:0:
353,376,108848,1,0,3:0:0:0:
353,376,109029,2,0,B|295:349|295:349|240:364,1,120.999993202209,2|2,2:0|2:0,0:0:0:0:
183,344,109571,2,0,L|163:274,1,60.4999966011047,0|2,3:0|2:0,0:0:0:0:
164,224,109933,1,8,2:0:0:0:
52,176,110294,6,0,P|26:115|55:54,1,120.999993202209,0|8,3:0|2:0,0:0:0:0:
88,25,110836,1,0,2:0:0:0:
190,90,111198,1,0,2:0:0:0:
300,40,111559,1,0,2:0:0:0:
396,113,111921,2,0,L|401:189,1,60.4999966011047,0|8,2:0|2:0,0:0:0:0:
453,281,112463,1,0,3:0:0:0:
370,369,112824,1,8,2:0:0:0:
260,320,113186,5,4,3:2:0:0:
206,139,114631,5,8,3:1:0:0:
206,139,114811,1,8,3:1:0:0:
206,139,114993,2,0,L|197:68,1,49.4999941978457,8|8,3:1|3:1,0:0:0:0:
31,341,116077,6,0,B|89:361|89:361|158:330,1,120.999993202209,4|8,3:2|2:0,0:0:0:0:
193,301,116619,1,2,2:0:0:0:
193,301,116800,2,0,L|187:221,2,60.4999966011047,0|2|10,3:0|2:0|2:0,0:0:0:0:
312,323,117523,2,0,L|392:329,1,60.4999966011047,0|2,3:0|2:0,0:0:0:0:
415,284,117884,2,0,L|409:204,1,60.4999966011047,10|2,2:0|2:0,0:0:0:0:
367,180,118246,2,0,P|402:118|391:59,1,120.999993202209,0|8,3:0|2:0,0:0:0:0:
286,19,118969,6,0,L|157:38,1,120.999993202209,0|8,3:0|2:0,0:0:0:0:
123,79,119511,1,2,2:0:0:0:
123,79,119692,2,0,L|58:69,2,60.4999966011047,0|2|10,3:0|2:0|2:0,0:0:0:0:
208,164,120414,2,0,L|216:223,1,60.4999966011047,0|2,3:0|2:0,0:0:0:0:
259,266,120776,2,0,L|250:325,1,60.4999966011047,10|2,2:0|2:0,0:0:0:0:
293,368,121137,2,0,B|348:349|348:349|416:370,1,120.999993202209,0|8,3:0|2:0,0:0:0:0:
478,269,121860,6,0,P|498:204|476:153,1,120.999993202209,4|8,3:2|2:0,0:0:0:0:
419,149,122402,1,2,2:0:0:0:
419,149,122583,2,0,L|348:158,2,60.4999966011047,0|2|10,3:0|2:0|2:0,0:0:0:0:
400,29,123306,2,0,L|329:20,1,60.4999966011047,0|2,3:0|2:0,0:0:0:0:
296,64,123668,2,0,L|225:73,1,60.4999966011047,10|2,2:0|2:0,0:0:0:0:
193,28,124029,2,0,B|142:61|142:61|79:41,1,120.999993202209,0|8,3:0|2:0,0:0:0:0:
16,142,124752,6,0,L|39:268,1,120.999993202209,0|8,3:0|2:0,0:0:0:0:
80,303,125294,1,2,2:0:0:0:
80,303,125475,2,0,L|68:366,2,60.4999966011047,0|2|10,3:0|2:0|2:0,0:0:0:0:
165,217,126198,2,0,L|228:205,1,60.4999966011047,0|2,3:0|2:0,0:0:0:0:
267,248,126559,2,0,L|330:259,1,60.4999966011047,10|2,2:0|2:0,0:0:0:0:
369,215,126921,2,0,L|432:203,2,60.4999966011047,0|8|8,3:0|2:0|3:2,0:0:0:0:
326,172,127463,1,8,2:0:0:0:
326,172,127643,5,4,3:2:0:0:
