osu file format v14

[General]
AudioFilename: audio.mp3
AudioLeadIn: 0
PreviewTime: 405
Countdown: 0
SampleSet: Soft
StackLeniency: 0.4
Mode: 0
LetterboxInBreaks: 0
WidescreenStoryboard: 1

[Editor]
Bookmarks: 52453,66911,78477,90856,101609,116067,118959
DistanceSpacing: 1.3
BeatDivisor: 4
GridSize: 8
TimelineZoom: 2.9

[Metadata]
Title:KING
TitleUnicode:KING
Artist:Alfakyun.
ArtistUnicode:+α/あるふぁきゅん。
Creator:Ryuusei Aika
Version:Strenge's Hard
Source:
Tags:japanese pop jpop j-pop wanpachi strengemistake strangemistake battle altai undeadphoneguy kanor あるふぁきゅん。 あるふぁきゅん Kanaria female vocal cover nou のう utaite utattemita 歌ってみた
BeatmapID:2810357
BeatmapSetID:1354539

[Difficulty]
HPDrainRate:5
CircleSize:3.3
OverallDifficulty:6.5
ApproachRate:8
SliderMultiplier:1.49999990463257
SliderTickRate:1

[Events]
//Background and Video events
0,0,"bg.jpg",0,0
//Break Periods
//Storyboard Layer 0 (Background)
//Storyboard Layer 1 (Fail)
//Storyboard Layer 2 (Pass)
//Storyboard Layer 3 (Foreground)
//Storyboard Layer 4 (Overlay)
//Storyboard Sound Samples

[TimingPoints]
415,361.44578313253,4,2,1,33,1,0
2583,-200,4,2,1,33,0,0
2854,-200,4,2,1,5,0,0
2944,-200,4,2,1,43,0,0
3306,-90.9090909090909,4,2,1,73,0,0
5746,-90.9090909090909,4,2,1,5,0,0
5836,-90.9090909090909,4,2,1,73,0,0
14872,-111.111111111111,4,2,1,63,0,0
26800,-100,4,2,1,63,0,0
36830,-100,4,2,1,63,0,0
36921,-100,4,2,1,63,0,0
37192,-100,4,2,1,5,0,0
37282,-100,4,2,1,63,0,0
37372,-100,4,2,1,5,0,0
37463,-100,4,2,1,63,0,0
37553,-100,4,2,1,5,0,0
37643,-100,4,2,1,63,0,0
37914,-100,4,2,1,5,0,0
38005,-100,4,2,1,63,0,0
45957,-111.111111111111,4,2,1,63,0,0
51288,-111.111111111111,4,2,1,5,0,0
51378,-111.111111111111,4,2,1,63,0,0
51649,-111.111111111111,4,2,1,5,0,0
51740,-111.111111111111,4,2,1,63,0,0
52011,-111.111111111111,4,2,1,5,0,0
52101,-111.111111111111,4,2,1,63,0,0
52463,-83.3333333333333,4,2,1,63,0,1
52508,-83.3333333333333,4,2,1,73,0,1
54360,-83.3333333333333,4,2,1,5,0,1
54450,-83.3333333333333,4,2,1,73,0,1
55625,-83.3333333333333,4,2,1,5,0,1
55715,-83.3333333333333,4,2,1,73,0,1
55941,-83.3333333333333,4,2,1,5,0,1
56076,-83.3333333333333,4,2,1,73,0,1
56303,-83.3333333333333,4,2,1,5,0,1
56438,-83.3333333333333,4,2,1,73,0,1
56664,-83.3333333333333,4,2,1,5,0,1
56799,-83.3333333333333,4,2,1,73,0,1
60143,-83.3333333333333,4,2,1,5,0,1
60233,-83.3333333333333,4,2,1,73,0,1
61725,-83.3333333333333,4,2,1,5,0,1
61860,-83.3333333333333,4,2,1,73,0,1
62086,-83.3333333333333,4,2,1,5,0,1
62221,-83.3333333333333,4,2,1,73,0,1
62447,-83.3333333333333,4,2,1,5,0,1
62582,-83.3333333333333,4,2,1,73,0,1
63306,-83.3333333333333,4,2,1,73,0,0
63939,-83.3333333333333,4,2,1,5,0,0
64029,-83.3333333333333,4,2,1,73,0,0
65475,-83.3333333333333,4,2,1,63,0,0
66921,-90.9090909090909,4,2,1,63,0,0
78487,-100,4,2,1,53,0,0
88019,-100,4,2,1,5,0,0
88064,-100,4,2,1,53,0,0
88200,-100,4,2,1,5,0,0
88245,-100,4,2,1,53,0,0
89330,-100,4,2,1,63,0,0
95113,-111.111111111111,4,2,1,63,0,0
100445,-111.111111111111,4,2,1,5,0,0
100535,-111.111111111111,4,2,1,63,0,0
101167,-111.111111111111,4,2,1,5,0,0
101258,-111.111111111111,4,2,1,63,0,0
101619,-83.3333333333333,4,2,1,73,0,1
103517,-83.3333333333333,4,2,1,5,0,1
103607,-83.3333333333333,4,2,1,73,0,1
105098,-83.3333333333333,4,2,1,5,0,1
105233,-83.3333333333333,4,2,1,73,0,1
105460,-83.3333333333333,4,2,1,5,0,1
105595,-83.3333333333333,4,2,1,73,0,1
105821,-83.3333333333333,4,2,1,5,0,1
105956,-83.3333333333333,4,2,1,73,0,1
109300,-83.3333333333333,4,2,1,5,0,1
109390,-83.3333333333333,4,2,1,73,0,1
110881,-83.3333333333333,4,2,1,5,0,1
111016,-83.3333333333333,4,2,1,73,0,1
111243,-83.3333333333333,4,2,1,5,0,1
111378,-83.3333333333333,4,2,1,73,0,1
111604,-83.3333333333333,4,2,1,5,0,1
111739,-83.3333333333333,4,2,1,73,0,1
112463,-83.3333333333333,4,2,1,73,0,0
113095,-83.3333333333333,4,2,1,5,0,0
113186,-83.3333333333333,4,2,1,73,0,0
115354,-83.3333333333333,4,2,1,73,0,0
115625,-83.3333333333333,4,2,1,5,0,0
115716,-83.3333333333333,4,2,1,73,0,0
115987,-83.3333333333333,4,2,1,5,0,0
116077,-83.3333333333333,4,2,1,73,0,0
121408,-83.3333333333333,4,2,1,73,0,0
121499,-83.3333333333333,4,2,1,73,0,0
121770,-83.3333333333333,4,2,1,73,0,0
121860,-83.3333333333333,4,2,1,73,0,0
127643,-83.3333333333333,4,2,1,53,0,0

[Colours]
Combo1 : 128,128,128
Combo2 : 255,0,0

[HitObjects]
59,161,415,5,0,2:0:0:0:
195,44,776,2,0,L|189:145,1,74.9999952316285,0|0,2:0|2:0,2:0:0:0:
273,155,1137,2,0,L|278:53,1,74.9999952316285,0|0,2:0|2:0,2:0:0:0:
359,116,1499,2,0,L|354:190,1,74.9999952316285,0|0,2:0|2:0,2:0:0:0:
436,227,1860,2,0,P|472:222|507:236,1,74.9999952316285,0|0,2:0|2:0,2:0:0:0:
496,325,2222,2,0,P|459:329|424:315,1,74.9999952316285,0|0,2:0|2:0,2:0:0:0:
436,227,2583,6,0,P|472:222|507:236,1,74.9999952316285,0|2,2:0|2:0,2:0:0:0:
510,21,3306,6,0,L|503:144,1,123.749992132187,4|0,3:2|2:0,2:0:0:0:
454,132,3668,2,0,P|417:114|376:119,1,82.4999947547913,8|0,2:0|2:0,2:0:0:0:
333,30,4029,2,0,P|299:53|283:90,1,82.4999947547913,0|0,3:0|2:0,2:0:0:0:
184,83,4390,2,0,P|187:123|211:156,1,82.4999947547913,8|0,2:0|2:0,2:0:0:0:
155,238,4752,5,0,3:0:0:0:
100,304,4933,1,2,2:0:0:0:
24,273,5113,1,8,2:0:0:0:
24,188,5294,1,2,2:0:0:0:
108,166,5475,2,0,B|137:194|137:194|131:329,1,164.999989509583,0|8,3:0|2:0,2:0:0:0:
340,366,6198,6,0,P|400:358|456:383,1,123.749992132187,0|0,3:0|2:0,2:0:0:0:
500,361,6559,2,0,L|503:278,1,82.4999947547913,8|0,2:0|2:0,2:0:0:0:
408,246,6921,2,0,L|411:163,1,82.4999947547913,0|0,3:0|2:0,2:0:0:0:
507,138,7282,2,0,L|510:55,1,82.4999947547913,8|0,2:0|2:0,2:0:0:0:
426,2,7643,5,0,3:0:0:0:
352,41,7824,1,2,2:0:0:0:
423,86,8005,1,8,2:0:0:0:
497,47,8186,1,2,2:0:0:0:
426,2,8366,2,0,B|394:27|394:27|388:162,1,164.999989509583,0|8,3:0|3:2,2:0:0:0:
510,327,9089,6,0,B|474:313|474:313|391:333,1,123.749992132187,4|0,3:2|2:0,2:0:0:0:
350,305,9451,2,0,P|338:265|310:235,1,82.4999947547913,8|0,2:0|2:0,2:0:0:0:
250,314,9812,2,0,P|220:285|181:273,1,82.4999947547913,0|0,3:0|2:0,2:0:0:0:
168,372,10174,2,0,P|128:362|88:371,1,82.4999947547913,8|0,2:0|2:0,2:0:0:0:
0,327,10535,5,0,3:0:0:0:
3,239,10716,1,2,2:0:0:0:
83,221,10896,1,8,2:0:0:0:
134,289,11077,1,2,2:0:0:0:
75,356,11258,2,0,B|46:328|46:328|52:193,1,164.999989509583,0|8,3:0|2:0,2:0:0:0:
176,28,11981,6,0,P|231:53|292:45,1,123.749992132187,0|0,3:0|2:0,2:0:0:0:
334,19,12342,2,0,L|331:102,1,82.4999947547913,8|0,2:0|2:0,2:0:0:0:
426,134,12704,2,0,L|423:217,1,82.4999947547913,0|0,3:0|2:0,2:0:0:0:
327,242,13065,2,0,L|324:325,1,82.4999947547913,8|0,2:0|2:0,2:0:0:0:
408,378,13427,5,0,3:0:0:0:
482,339,13607,1,2,2:0:0:0:
411,294,13788,1,8,2:0:0:0:
337,333,13969,1,2,2:0:0:0:
408,378,14149,2,0,B|440:353|440:353|446:218,1,164.999989509583,0|8,3:0|3:2,2:0:0:0:
310,116,14872,6,0,B|247:138|247:67|184:91,1,134.999991416931,0|0,3:0|3:0,2:0:0:0:
109,119,15414,1,0,0:0:0:0:
167,174,15595,2,0,L|161:332,1,134.999991416931,0|0,3:0|3:0,0:0:0:0:
241,342,16137,5,0,2:0:0:0:
241,342,16318,2,0,P|273:336|304:350,1,67.4999936485293,0|0,3:0|2:0,2:0:0:0:
382,329,16680,2,0,L|388:171,1,134.999991416931,0|0,3:0|3:0,2:0:0:0:
395,32,17402,1,8,3:2:0:0:
256,116,17764,6,0,L|250:274,1,134.999991416931,0|0,3:0|3:0,2:0:0:0:
186,298,18306,1,0,0:0:0:0:
186,298,18487,2,0,P|125:269|59:278,1,134.999987297059,0|0,3:0|3:0,0:0:0:0:
1,222,19029,5,0,2:0:0:0:
1,222,19210,2,0,L|4:143,1,67.4999936485293,0|0,3:0|2:0,2:0:0:0:
77,121,19571,2,0,B|138:97|138:168|201:146,1,134.999991416931,0|0,3:0|3:0,2:0:0:0:
342,65,20294,1,8,3:2:0:0:
470,161,20655,6,0,P|492:225|482:291,1,134.999987297059,0|0,3:0|3:0,2:0:0:0:
348,382,21378,2,0,P|326:318|336:252,1,134.999987297059,0|0,3:0|3:0,0:0:0:0:
269,216,21921,5,0,2:0:0:0:
269,216,22101,2,0,P|237:227|204:223,1,67.4999957084657,0|0,3:0|2:0,0:0:0:0:
142,170,22463,2,0,B|116:192|116:192|113:298,1,134.999987297059,0|0,3:0|3:0,2:0:0:0:
246,384,23186,1,8,3:2:0:0:
399,337,23547,6,0,L|405:179,1,134.999991416931,0|0,3:0|3:0,2:0:0:0:
338,165,24089,1,0,0:0:0:0:
338,165,24270,2,0,P|305:163|274:175,2,67.4999957084657,0|0|0,3:0|2:0|3:0,2:0:0:0:
165,133,24993,6,0,L|167:31,1,101.249993562699,0|0,3:0|2:0,2:0:0:0:
132,11,25354,2,0,P|84:-3|38:16,1,101.249993562699,0|0,3:0|2:0,2:0:0:0:
20,53,25716,2,0,L|17:120,1,67.4999957084657,0|0,3:0|2:0,2:0:0:0:
87,173,26077,1,8,3:0:0:0:
87,173,26258,1,0,2:0:0:0:
13,236,26439,5,4,3:2:0:0:
13,236,26619,1,2,2:0:0:0:
94,273,26800,2,0,L|90:355,1,74.9999952316285,0|2,3:0|2:0,2:0:0:0:
175,317,27161,2,0,L|179:235,2,74.9999952316285,0|2|0,3:0|2:0|3:0,2:0:0:0:
347,383,27884,5,0,3:0:0:0:
347,383,28065,1,2,2:0:0:0:
427,343,28246,2,0,L|431:261,1,74.9999952316285,0|2,3:0|2:0,2:0:0:0:
360,211,28607,2,0,B|305:224|311:176|252:195,2,112.499992847443,0|2|2,3:0|2:0|2:0,2:0:0:0:
446,179,29330,5,0,3:0:0:0:
446,179,29511,1,2,2:0:0:0:
387,110,29692,2,0,P|352:96|316:102,1,74.9999952316285,0|2,3:0|2:0,2:0:0:0:
230,74,30053,2,0,L|235:-2,2,74.9999952316285,0|2|0,3:0|2:0|3:0,2:0:0:0:
84,178,30776,5,0,3:0:0:0:
84,178,30957,1,2,2:0:0:0:
165,227,31137,1,0,3:0:0:0:
165,227,31318,1,2,2:0:0:0:
243,181,31499,2,0,B|265:199|265:199|262:295,2,112.499992847443,4|4|4,3:2|3:2|3:2,2:0:0:0:
320,133,32222,5,4,3:2:0:0:
320,133,32402,1,2,2:0:0:0:
390,189,32583,2,0,L|388:268,1,74.9999952316285,0|2,3:0|2:0,2:0:0:0:
440,338,32945,2,0,P|476:342|511:328,2,74.9999952316285,0|2|0,3:0|2:0|3:0,2:0:0:0:
264,377,33668,5,0,3:0:0:0:
264,377,33848,1,2,2:0:0:0:
180,338,34029,2,0,P|144:334|109:348,1,74.9999952316285,0|2,3:0|2:0,2:0:0:0:
26,314,34390,2,0,B|4:296|4:296|7:200,2,112.499992847443,0|2|2,3:0|2:0|2:0,2:0:0:0:
99,260,35113,5,0,3:0:0:0:
99,260,35294,1,2,2:0:0:0:
174,309,35475,2,0,L|172:383,1,74.9999952316285,0|2,3:0|2:0,2:0:0:0:
259,354,35836,5,0,3:0:0:0:
259,354,36017,1,2,2:0:0:0:
346,324,36198,1,0,3:0:0:0:
346,324,36378,1,2,2:0:0:0:
427,286,36559,6,0,L|429:173,1,112.499992847443,0|0,3:0|2:0,2:0:0:0:
386,187,36921,2,0,B|331:200|337:152|278:171,1,112.499992847443,0|0,3:0|2:0,2:0:0:0:
235,159,37282,2,0,L|237:46,1,112.499992847443,2|0,3:2|2:0,2:0:0:0:
194,60,37643,2,0,B|139:73|145:25|86:44,1,112.499992847443,2|0,3:2|2:0,2:0:0:0:
46,62,38005,1,0,3:2:0:0:
88,308,39451,5,4,3:2:0:0:
88,308,39812,1,4,3:2:0:0:
88,308,40174,1,4,3:2:0:0:
432,372,40896,5,8,3:1:0:0:
432,372,41258,1,8,3:1:0:0:
446,210,41619,1,8,3:1:0:0:
330,248,41890,1,8,3:1:0:0:
214,286,42161,1,8,3:1:0:0:
137,259,42342,5,8,3:1:0:0:
137,259,42704,1,8,3:1:0:0:
153,98,43065,1,8,3:1:0:0:
269,60,43336,1,8,3:1:0:0:
385,22,43607,1,8,3:1:0:0:
462,49,43788,5,8,3:1:0:0:
462,49,44149,1,8,3:1:0:0:
446,210,44511,1,8,3:1:0:0:
330,172,44782,1,8,3:1:0:0:
214,210,45053,1,8,3:1:0:0:
205,290,45234,5,8,3:1:0:0:
205,290,45595,1,8,3:1:0:0:
89,252,45866,1,0,3:0:0:0:
89,252,45957,2,0,B|76:238|76:238|78:178,1,67.4999957084657,8|0,3:1|2:0,2:0:0:0:
152,157,46318,2,0,B|165:171|165:171|163:231,1,67.4999957084657,8|8,3:1|3:1,2:0:0:0:
205,290,46680,5,8,3:1:0:0:
205,290,47041,1,8,3:1:0:0:
358,342,47402,1,8,3:1:0:0:
370,220,47674,1,8,3:1:0:0:
383,99,47945,1,8,3:1:0:0:
316,53,48125,5,8,3:1:0:0:
316,53,48487,1,8,3:1:0:0:
159,94,48848,1,8,3:1:0:0:
147,216,49119,1,8,3:1:0:0:
134,337,49390,1,8,3:1:0:0:
201,383,49571,5,8,3:1:0:0:
201,383,49933,1,8,3:1:0:0:
358,342,50294,1,8,3:1:0:0:
253,278,50565,1,8,3:1:0:0:
146,215,50836,1,8,3:1:0:0:
146,215,50927,1,0,2:0:0:0:
146,215,51017,6,0,P|98:204|53:225,1,101.249993562699,8|0,3:1|2:0,2:0:0:0:
17,207,51378,2,0,L|21:88,1,101.249993562699,8|0,3:1|2:0,2:0:0:0:
54,84,51740,2,0,P|102:95|147:74,1,101.249993562699,8|0,3:1|2:0,2:0:0:0:
178,86,52101,2,0,L|180:27,3,33.7499978542329,0|0|0|0,3:0|3:0|3:0|3:0,2:0:0:0:
234,13,52463,6,0,P|271:3|320:21,1,89.9999942779542,4|0,3:2|2:0,2:0:0:0:
365,47,52734,1,0,2:0:0:0:
365,47,52824,2,0,L|361:158,1,89.9999942779542,8|0,2:0|2:0,2:0:0:0:
418,230,53186,2,0,P|381:220|332:238,1,89.9999942779542,0|0,3:0|2:0,2:0:0:0:
300,274,53457,1,0,2:0:0:0:
300,274,53547,2,0,L|296:385,1,89.9999942779542,8|0,2:0|2:0,2:0:0:0:
200,315,53908,5,0,3:0:0:0:
101,270,54089,2,0,L|97:359,2,89.9999942779542,2|8|2,2:0|2:0|2:0,2:0:0:0:
102,170,54631,1,0,3:0:0:0:
190,123,54812,1,2,2:0:0:0:
274,175,54993,1,8,2:0:0:0:
270,274,55174,1,2,2:0:0:0:
182,321,55354,6,0,P|113:340|175:375,1,179.999988555908,0|8,3:0|2:0,2:0:0:0:
281,373,55896,2,0,L|379:381,1,89.9999942779542,0|0,2:0|3:0,2:0:0:0:
349,273,56258,2,0,L|438:280,1,89.9999942779542,0|8,2:0|2:0,2:0:0:0:
417,173,56619,2,0,L|506:180,1,89.9999942779542,0|0,2:0|3:0,2:0:0:0:
500,71,56981,5,0,2:0:0:0:
400,66,57161,1,8,2:0:0:0:
300,63,57342,1,0,2:0:0:0:
248,158,57523,2,0,P|271:189|275:252,2,89.9999915313724,0|8|8,3:2|2:0|2:0,2:0:0:0:
74,0,58246,6,0,L|70:124,1,89.9999942779542,4|0,3:2|2:0,2:0:0:0:
84,142,58517,1,0,2:0:0:0:
84,142,58607,2,0,P|40:135|-1:154,1,89.9999942779542,8|0,2:0|2:0,2:0:0:0:
76,230,58969,2,0,L|72:354,1,89.9999942779542,0|0,3:0|2:0,2:0:0:0:
61,371,59240,1,0,2:0:0:0:
61,371,59330,2,0,P|105:364|146:383,1,89.9999942779542,8|0,2:0|2:0,2:0:0:0:
249,351,59692,5,0,3:0:0:0:
351,317,59872,2,0,P|394:309|435:328,2,89.9999942779542,2|8|2,2:0|2:0|2:0,2:0:0:0:
354,217,60415,1,0,3:0:0:0:
269,163,60595,1,2,2:0:0:0:
182,208,60776,1,8,2:0:0:0:
179,308,60957,1,2,2:0:0:0:
263,361,61137,6,0,B|273:353|273:353|278:186,1,179.999988555908,0|8,3:0|2:0,2:0:0:0:
282,77,61680,2,0,P|263:36|229:9,1,89.9999942779542,0|0,2:0|3:0,2:0:0:0:
177,103,62041,2,0,P|140:77|97:70,1,89.9999942779542,0|8,2:0|2:0,2:0:0:0:
99,178,62402,2,0,P|55:174|14:190,1,89.9999942779542,0|0,2:0|3:0,2:0:0:0:
71,282,62764,2,0,L|130:274,1,44.9999971389771,0|0,2:0|2:0,2:0:0:0:
169,280,62945,2,0,L|228:272,1,44.9999971389771,8|0,2:0|2:0,2:0:0:0:
267,274,63125,1,0,2:0:0:0:
353,366,63306,6,0,P|398:318|464:318,1,134.999991416931,0|0,3:0|2:0,2:0:0:0:
503,280,63668,2,0,B|507:145,1,134.999991416931,8|0,2:0|2:0,2:0:0:0:
467,108,64029,1,4,3:2:0:0:
87,31,65475,5,8,3:1:0:0:
84,131,65655,1,8,3:1:0:0:
184,134,65836,1,8,3:1:0:0:
187,34,66017,1,8,3:1:0:0:
87,31,66198,6,0,B|61:45|61:45|57:150,1,134.999991416931,0|0,2:0|2:0,2:0:0:0:
28,195,66559,2,0,B|96:173|86:242|153:223,1,134.999991416931,0|0,2:0|2:0,2:0:0:0:
201,245,66921,6,0,B|223:259|223:259|218:357,1,123.749992132187,4|0,3:2|2:0,2:0:0:0:
266,365,67282,2,0,P|305:355|345:367,1,82.4999947547913,8|0,2:0|2:0,2:0:0:0:
438,332,67643,2,0,P|410:302|400:262,1,82.4999947547913,0|2,3:0|2:0,2:0:0:0:
324,200,68005,2,0,P|311:239|282:267,1,82.4999947547913,8|2,2:0|2:0,2:0:0:0:
191,230,68366,5,0,3:0:0:0:
194,145,68547,1,2,2:0:0:0:
278,125,68728,1,8,2:0:0:0:
324,200,68908,1,2,2:0:0:0:
266,264,69089,2,0,B|237:236|237:236|243:101,1,164.999989509583,0|8,3:0|2:0,2:0:0:0:
443,34,69812,6,0,L|437:174,1,123.749992132187,0|0,3:0|2:0,2:0:0:0:
453,204,70174,2,0,P|438:242|442:282,1,82.4999947547913,8|0,2:0|2:0,2:0:0:0:
345,262,70535,2,0,P|359:223|355:183,1,82.4999947547913,0|2,3:0|2:0,2:0:0:0:
257,162,70896,2,0,P|242:200|246:240,1,82.4999947547913,8|2,2:0|2:0,2:0:0:0:
157,286,71258,5,0,3:0:0:0:
86,241,71439,1,2,2:0:0:0:
13,281,71619,1,8,2:0:0:0:
83,325,71800,1,2,2:0:0:0:
157,286,71981,2,0,B|182:271|182:271|189:136,1,164.999989509583,0|8,3:0|3:2,2:0:0:0:
358,3,72704,6,0,L|352:143,1,123.749992132187,4|0,3:2|2:0,2:0:0:0:
342,174,73065,2,0,P|342:214|360:251,1,82.4999947547913,8|0,2:0|2:0,2:0:0:0:
454,284,73427,2,0,P|489:263|512:229,1,82.4999947547913,0|2,3:0|2:0,2:0:0:0:
495,132,73788,2,0,P|459:111|418:108,1,82.4999947547913,8|2,2:0|2:0,2:0:0:0:
342,174,74149,5,0,3:0:0:0:
283,237,74330,1,2,2:0:0:0:
209,202,74511,1,8,2:0:0:0:
213,117,74692,1,2,2:0:0:0:
298,99,74872,2,0,B|327:127|327:127|321:262,1,164.999989509583,0|8,3:0|2:0,2:0:0:0:
151,382,75595,6,0,P|96:354|35:360,1,123.749992132187,0|0,3:0|2:0,2:0:0:0:
1,323,75957,2,0,L|4:240,1,82.4999947547913,8|0,2:0|2:0,2:0:0:0:
88,189,76318,2,0,L|85:272,1,82.4999947547913,0|2,3:0|2:0,2:0:0:0:
169,220,76680,2,0,L|172:137,1,82.4999947547913,8|2,2:0|2:0,2:0:0:0:
261,95,77041,5,0,3:0:0:0:
330,140,77222,1,2,2:0:0:0:
258,179,77402,1,8,2:0:0:0:
187,134,77583,1,2,2:0:0:0:
261,95,77764,2,0,B|290:122|290:122|284:257,1,164.999989509583,0|8,3:0|3:2,2:0:0:0:
477,279,78487,6,0,L|470:371,2,74.9999952316285,4|0|0,3:2|2:0|3:0,2:0:0:0:
421,207,79029,1,0,2:0:0:0:
489,148,79210,2,0,L|496:56,2,74.9999952316285,0|0|8,3:0|2:0|3:2,2:0:0:0:
312,112,79933,5,0,3:0:0:0:
312,112,80023,2,0,P|276:123|240:115,1,74.9999952316285,0|0,2:0|2:0,2:0:0:0:
199,95,80294,2,0,P|162:87|127:98,1,74.9999952316285,0|0,3:0|2:0,2:0:0:0:
46,132,80655,1,0,3:0:0:0:
46,132,80836,1,8,2:0:0:0:
40,225,81017,1,0,3:0:0:0:
40,225,81198,1,8,2:0:0:0:
118,276,81378,6,0,L|114:360,2,74.9999952316285,0|0|0,3:0|2:0|3:0,2:0:0:0:
201,234,81921,1,0,2:0:0:0:
279,285,82101,2,0,L|275:369,2,74.9999952316285,0|0|8,3:0|2:0|2:0,2:0:0:0:
428,183,82824,5,0,3:0:0:0:
428,183,82915,2,0,P|395:164|359:166,1,74.9999952316285,0|0,2:0|2:0,2:0:0:0:
315,181,83186,1,0,3:0:0:0:
237,136,83366,1,0,2:0:0:0:
152,167,83547,2,0,P|115:164|83:183,2,74.9999952316285,0|8|8,3:0|2:0|3:2,2:0:0:0:
75,346,84270,6,0,P|39:342|3:352,2,74.9999952316285,4|0|8,3:2|2:0|2:0,2:0:0:0:
165,358,84812,1,0,2:0:0:0:
255,370,84993,2,0,P|291:374|327:364,2,74.9999952316285,0|0|8,3:0|2:0|2:0,2:0:0:0:
419,264,85716,5,0,3:0:0:0:
419,264,85806,2,0,L|424:178,1,74.9999952316285,0|0,2:0|2:0,2:0:0:0:
388,159,86077,2,0,P|351:154|315:164,1,74.9999952316285,8|0,2:0|2:0,2:0:0:0:
236,205,86439,1,0,3:0:0:0:
236,205,86619,1,8,2:0:0:0:
159,168,86800,1,0,3:0:0:0:
159,168,86981,1,8,2:0:0:0:
78,206,87161,6,0,L|73:298,2,74.9999952316285,0|0|8,3:0|2:0|2:0,2:0:0:0:
2,156,87704,1,0,2:0:0:0:
81,115,87884,2,0,L|86:23,2,74.9999952316285,0|0|8,3:0|2:0|2:0,2:0:0:0:
261,118,88607,5,0,3:0:0:0:
261,118,88698,2,0,P|243:150|245:187,1,74.9999952316285,0|0,2:0|2:0,2:0:0:0:
261,226,88969,2,0,L|255:309,1,74.9999952316285,8|0,2:0|2:0,2:0:0:0:
333,341,89330,1,12,3:2:0:0:
333,341,89511,1,12,2:0:0:0:
415,318,89692,1,12,3:2:0:0:
415,318,89872,1,12,2:0:0:0:
493,344,90053,5,8,3:1:0:0:
493,344,90415,1,8,3:1:0:0:
506,182,90776,1,8,3:1:0:0:
390,144,91047,1,8,3:1:0:0:
274,106,91318,1,8,3:1:0:0:
197,133,91499,5,8,3:1:0:0:
197,133,91860,1,8,3:1:0:0:
184,295,92222,1,8,3:1:0:0:
300,333,92493,1,8,3:1:0:0:
416,371,92764,1,8,3:1:0:0:
493,344,92945,5,8,3:1:0:0:
493,344,93306,1,8,3:1:0:0:
506,182,93668,1,8,3:1:0:0:
391,223,93939,1,8,3:1:0:0:
275,185,94210,1,8,3:1:0:0:
281,104,94390,5,8,3:1:0:0:
281,104,94752,1,8,3:1:0:0:
164,65,95023,1,0,3:0:0:0:
164,65,95113,2,0,B|177:79|177:79|176:128,1,67.4999957084657,8|0,3:1|2:0,2:0:0:0:
101,160,95475,2,0,B|88:146|88:146|90:98,1,67.4999957084657,8|8,3:1|3:1,2:0:0:0:
44,30,95836,5,8,3:1:0:0:
44,30,96198,1,8,3:1:0:0:
31,192,96559,1,8,3:1:0:0:
147,230,96830,1,8,3:1:0:0:
263,268,97101,1,8,3:1:0:0:
340,241,97282,5,8,3:1:0:0:
340,241,97643,1,8,3:1:0:0:
353,79,98005,1,8,3:1:0:0:
237,41,98276,1,8,3:1:0:0:
121,3,98547,1,8,3:1:0:0:
44,30,98728,5,8,3:1:0:0:
44,30,99089,1,8,3:1:0:0:
31,192,99451,1,8,3:1:0:0:
147,152,99722,1,8,3:1:0:0:
263,190,99993,1,0,2:0:0:0:
263,190,100083,1,0,3:0:0:0:
263,190,100174,6,0,B|282:211|282:211|280:283,1,101.249993562699,8|0,3:1|2:0,2:0:0:0:
258,315,100535,2,0,B|306:303|307:349|353:338,1,101.249993562699,8|0,3:1|2:0,2:0:0:0:
390,323,100896,2,0,B|394:221,1,101.249993562699,8|0,3:1|2:0,2:0:0:0:
414,182,101258,2,0,L|417:135,3,33.7499978542329,8|8|0|0,2:3|2:3|3:0|3:0,2:0:0:0:
378,92,101619,6,0,P|331:85|288:105,1,89.9999942779542,4|0,3:2|2:0,2:0:0:0:
249,88,101890,1,0,2:0:0:0:
249,88,101981,2,0,L|254:-19,1,89.9999942779542,8|0,2:0|2:0,2:0:0:0:
151,35,102342,2,0,P|104:28|61:48,1,89.9999942779542,0|0,3:0|2:0,2:0:0:0:
45,91,102613,1,0,2:0:0:0:
45,91,102704,2,0,L|40:198,1,89.9999942779542,8|0,2:0|2:0,2:0:0:0:
132,239,103065,5,0,3:0:0:0:
224,294,103246,2,0,L|220:384,2,89.9999942779542,2|8|2,2:0|2:0|2:0,2:0:0:0:
311,249,103788,1,0,3:0:0:0:
314,149,103969,1,2,2:0:0:0:
230,96,104149,1,8,2:0:0:0:
144,142,104330,1,2,2:0:0:0:
141,242,104511,6,0,P|159:309|97:275,1,179.999988555908,0|8,3:0|2:0,2:0:0:0:
41,180,105053,2,0,P|35:135|47:92,1,89.9999942779542,0|0,2:0|3:0,2:0:0:0:
144,142,105415,2,0,P|171:106|210:85,1,89.9999942779542,0|8,2:0|2:0,2:0:0:0:
243,187,105776,2,0,P|287:181|330:193,1,89.9999942779542,0|0,2:0|3:0,2:0:0:0:
426,144,106137,5,0,2:0:0:0:
506,216,106318,1,8,2:0:0:0:
502,315,106499,1,0,2:0:0:0:
410,371,106680,2,0,L|418:248,2,89.9999915313724,0|8|8,3:2|2:0|2:0,2:0:0:0:
176,363,107402,6,0,P|132:355|91:374,1,89.9999942779542,4|0,3:2|2:0,2:0:0:0:
43,362,107674,1,0,2:0:0:0:
43,362,107764,2,0,L|45:272,1,89.9999942779542,8|0,2:0|2:0,2:0:0:0:
34,164,108125,2,0,P|77:156|118:175,1,89.9999942779542,0|0,3:0|2:0,2:0:0:0:
173,162,108396,1,0,2:0:0:0:
173,162,108487,2,0,L|175:72,1,89.9999942779542,8|0,2:0|2:0,2:0:0:0:
268,127,108848,5,0,3:0:0:0:
360,181,109029,2,0,L|363:92,2,89.9999942779542,2|8|2,2:0|2:0|2:0,2:0:0:0:
444,234,109571,1,0,3:0:0:0:
441,334,109752,1,2,2:0:0:0:
354,379,109933,1,8,2:0:0:0:
269,325,110113,1,2,2:0:0:0:
271,224,110294,6,0,P|340:209|281:172,1,179.999988555908,0|8,3:0|2:0,2:0:0:0:
178,208,110836,2,0,P|136:192|91:197,1,89.9999942779542,0|0,2:0|3:0,2:0:0:0:
114,90,111198,2,0,P|148:61|166:20,1,89.9999942779542,0|8,2:0|2:0,2:0:0:0:
247,93,111559,2,0,P|254:137|280:172,1,89.9999942779542,0|0,2:0|3:0,2:0:0:0:
356,96,111921,1,0,2:0:0:0:
356,96,112011,1,0,2:0:0:0:
356,96,112101,2,0,L|359:7,1,89.9999942779542,8|0,2:0|2:0,2:0:0:0:
467,52,112463,6,0,L|462:194,1,134.999991416931,0|0,3:0|2:0,2:0:0:0:
481,237,112824,2,0,P|415:227|353:253,1,134.999991416931,8|0,2:0|2:0,2:0:0:0:
316,292,113186,1,4,3:2:0:0:
89,340,114631,5,8,3:1:0:0:
180,300,114812,1,8,3:1:0:0:
268,362,114993,1,8,3:1:0:0:
359,322,115174,1,8,3:1:0:0:
447,384,115354,6,0,B|459:377|459:377|464:256,1,134.999991416931,0|0,2:0|2:0,2:0:0:0:
464,202,115716,2,0,P|492:157|441:169,1,134.999991416931,0|0,2:0|2:0,2:0:0:0:
395,198,116077,6,0,B|383:189|383:189|391:68,1,134.999991416931,4|0,3:2|2:0,2:0:0:0:
341,48,116439,6,0,P|296:49|256:70,1,89.9999942779542,8|2,2:0|2:0,2:0:0:0:
174,0,116800,2,0,P|153:39|151:83,1,89.9999942779542,0|2,3:0|2:0,2:0:0:0:
48,120,117161,2,0,P|71:157|109:181,1,89.9999942779542,10|2,2:0|2:0,2:0:0:0:
213,214,117523,5,0,3:0:0:0:
273,141,117704,1,2,2:0:0:0:
361,174,117884,1,10,2:0:0:0:
356,269,118065,1,2,2:0:0:0:
265,293,118246,2,0,B|242:277|242:277|247:119,1,179.999988555908,0|8,3:0|2:0,2:0:0:0:
172,347,118969,6,0,P|101:332|44:364,1,134.999991416931,0|0,3:0|2:0,2:0:0:0:
8,324,119330,2,0,B|-3:312|-3:312|1:238,1,89.9999942779542,8|2,2:0|2:0,2:0:0:0:
107,215,119692,2,0,B|119:204|119:204|124:131,1,89.9999942779542,0|2,3:0|2:0,2:0:0:0:
17,150,120053,2,0,B|5:138|5:138|10:64,1,89.9999942779542,10|2,2:0|2:0,2:0:0:0:
108,19,120415,5,0,3:0:0:0:
188,69,120595,1,2,2:0:0:0:
105,113,120776,1,10,2:0:0:0:
25,63,120957,1,2,2:0:0:0:
108,19,121137,6,0,B|127:32|127:32|122:143,1,134.999991416931,0|0,3:0|2:0,2:0:0:0:
110,196,121499,2,0,P|82:241|133:229,1,134.999991416931,8|0,2:0|2:0,2:0:0:0:
186,217,121860,6,0,B|205:230|205:230|200:341,1,134.999991416931,4|0,3:2|2:0,2:0:0:0:
249,364,122222,2,0,P|291:377|335:368,1,89.9999942779542,8|2,2:0|2:0,2:0:0:0:
294,267,122583,2,0,P|333:246|358:209,1,89.9999942779542,0|2,3:0|2:0,2:0:0:0:
257,166,122945,2,0,P|270:123|261:79,1,89.9999942779542,10|2,2:0|2:0,2:0:0:0:
161,122,123306,5,0,3:0:0:0:
101,195,123487,1,2,2:0:0:0:
13,162,123668,1,10,2:0:0:0:
18,67,123848,1,2,2:0:0:0:
109,46,124029,2,0,B|132:62|132:62|127:220,1,179.999988555908,0|8,3:0|2:0,2:0:0:0:
304,367,124752,6,0,B|308:232,1,134.999991416931,0|0,3:0|2:0,2:0:0:0:
265,199,125113,2,0,P|221:190|181:208,1,89.9999942779542,8|2,2:0|2:0,2:0:0:0:
96,140,125475,2,0,L|91:242,1,89.9999942779542,0|2,3:0|2:0,2:0:0:0:
25,315,125836,2,0,P|68:306|108:324,1,89.9999942779542,10|2,2:0|2:0,2:0:0:0:
205,384,126198,5,0,3:0:0:0:
205,384,126378,1,2,2:0:0:0:
217,280,126559,1,10,2:0:0:0:
217,280,126740,1,2,2:0:0:0:
317,240,126921,2,0,L|311:335,1,89.9999942779542,0|8,3:0|2:0,2:0:0:0:
413,294,127282,2,0,L|419:199,1,89.9999942779542,8|8,3:2|2:0,2:0:0:0:
325,148,127643,1,4,3:2:0:0:
