osu file format v14

[General]
AudioFilename: audio.mp3
AudioLeadIn: 0
PreviewTime: 405
Countdown: 0
SampleSet: Soft
StackLeniency: 1
Mode: 0
LetterboxInBreaks: 0
WidescreenStoryboard: 1

[Editor]
DistanceSpacing: 1.3
BeatDivisor: 8
GridSize: 8
TimelineZoom: 1.800001

[Metadata]
Title:KING
TitleUnicode:KING
Artist:Alfakyun.
ArtistUnicode:+α/あるふぁきゅん。
Creator:Ryuusei Aika
Version:Battle's Insane
Source:
Tags:japanese pop jpop j-pop wanpachi strengemistake strangemistake battle altai undeadphoneguy kanor あるふぁきゅん。 あるふぁきゅん Kanaria female vocal cover nou のう utaite utattemita 歌ってみた
BeatmapID:2805447
BeatmapSetID:1354539

[Difficulty]
HPDrainRate:5.5
CircleSize:3.6
OverallDifficulty:7.5
ApproachRate:9
SliderMultiplier:1.49999990463257
SliderTickRate:1

[Events]
//Background and Video events
0,0,"bg.jpg",0,0
//Break Periods
//Storyboard Layer 0 (Background)
//Storyboard Layer 1 (Fail)
//Storyboard Layer 2 (Pass)
//Storyboard Layer 3 (Foreground)
//Storyboard Layer 4 (Overlay)
//Storyboard Sound Samples

[TimingPoints]
415,361.44578313253,4,2,1,33,1,0
2583,-200,4,2,1,33,0,0
2854,-200,4,2,1,5,0,0
2944,-200,4,2,1,43,0,0
3306,-71.4285714285714,4,2,1,73,0,1
3351,-71.4285714285714,4,2,1,73,0,0
4029,-83.3333333333333,4,2,1,73,0,0
5926,-83.3333333333333,4,2,1,5,0,0
6198,-71.4285714285714,4,2,1,73,0,0
6921,-83.3333333333333,4,2,1,73,0,0
9089,-71.4285714285714,4,2,1,73,0,0
10174,-83.3333333333333,4,2,1,73,0,0
11981,-71.4285714285714,4,2,1,73,0,0
13065,-83.3333333333333,4,2,1,73,0,0
14872,-133.333333333333,4,2,1,63,0,0
26439,-83.3333333333333,4,2,1,63,0,0
36921,-71.4285714285714,4,2,1,63,0,0
39451,-100,4,2,1,63,0,0
39541,-100,4,2,1,5,0,0
39812,-100,4,2,1,63,0,0
39902,-100,4,2,1,5,0,0
40174,-100,4,2,1,63,0,0
40264,-100,4,2,1,5,0,0
40896,-100,4,2,1,63,0,1
51017,-66.6666666666667,4,2,1,63,0,0
52463,-66.6666666666667,4,2,1,63,0,1
52508,-66.6666666666667,4,2,1,73,0,0
54360,-66.6666666666667,4,2,1,5,0,0
54450,-66.6666666666667,4,2,1,73,0,0
55354,-80,4,2,1,73,0,0
55625,-80,4,2,1,5,0,0
55715,-80,4,2,1,73,0,0
55896,-66.6666666666667,4,2,1,73,0,0
55941,-66.6666666666667,4,2,1,5,0,0
56077,-66.6666666666667,4,2,1,73,0,0
56303,-66.6666666666667,4,2,1,5,0,0
56439,-66.6666666666667,4,2,1,73,0,0
56664,-66.6666666666667,4,2,1,5,0,0
56799,-66.6666666666667,4,2,1,73,0,0
57251,-66.6666666666667,4,2,1,5,0,0
57341,-66.6666666666667,4,2,1,73,0,0
57523,-57.1428571428571,4,2,1,73,0,0
58246,-66.6666666666667,4,2,1,73,0,1
58291,-66.6666666666667,4,2,1,73,0,0
61137,-80,4,2,1,73,0,0
61680,-66.6666666666667,4,2,1,73,0,0
61725,-66.6666666666667,4,2,1,5,0,0
61860,-66.6666666666667,4,2,1,73,0,0
62086,-66.6666666666667,4,2,1,5,0,0
62222,-66.6666666666667,4,2,1,73,0,0
62447,-66.6666666666667,4,2,1,5,0,0
62582,-66.6666666666667,4,2,1,73,0,0
63306,-80,4,2,1,73,0,0
65475,-80,4,2,1,63,0,0
66921,-71.4285714285714,4,2,1,63,0,1
66966,-71.4285714285714,4,2,1,63,0,0
67643,-83.3333333333333,4,2,1,63,0,0
69812,-71.4285714285714,4,2,1,63,0,0
70535,-83.3333333333333,4,2,1,63,0,0
72704,-71.4285714285714,4,2,1,63,0,0
73427,-83.3333333333333,4,2,1,63,0,0
75595,-71.4285714285714,4,2,1,63,0,0
76318,-83.3333333333333,4,2,1,63,0,0
78487,-125,4,2,1,53,0,0
79390,-83.3333333333333,4,2,1,53,0,0
79571,-125,4,2,1,53,0,0
81559,-83.3333333333333,4,2,1,53,0,0
81740,-125,4,2,1,53,0,0
89330,-125,4,2,1,63,0,0
90053,-100,4,2,1,63,0,1
100174,-83.3333333333333,4,2,1,63,0,0
100896,-66.6666666666667,4,2,1,63,0,0
101619,-66.6666666666667,4,2,1,73,0,1
101664,-66.6666666666667,4,2,1,73,0,0
103517,-66.6666666666667,4,2,1,5,0,0
103607,-66.6666666666667,4,2,1,73,0,0
104511,-80,4,2,1,73,0,0
105053,-66.6666666666667,4,2,1,73,0,0
105098,-66.6666666666667,4,2,1,15,0,0
105234,-66.6666666666667,4,2,1,73,0,0
105460,-66.6666666666667,4,2,1,5,0,0
105595,-66.6666666666667,4,2,1,73,0,0
105821,-66.6666666666667,4,2,1,5,0,0
105956,-66.6666666666667,4,2,1,73,0,0
107402,-66.6666666666667,4,2,1,73,0,1
107448,-66.6666666666667,4,2,1,73,0,0
110294,-80,4,2,1,73,0,0
110836,-66.6666666666667,4,2,1,73,0,0
110881,-66.6666666666667,4,2,1,5,0,0
111017,-66.6666666666667,4,2,1,73,0,0
111243,-66.6666666666667,4,2,1,5,0,0
111378,-66.6666666666667,4,2,1,73,0,0
111604,-66.6666666666667,4,2,1,5,0,0
111739,-66.6666666666667,4,2,1,73,0,0
112463,-80,4,2,1,73,0,0
116077,-62.5,4,2,1,73,0,1
116122,-62.5,4,2,1,73,0,0
121860,-62.5,4,2,1,73,0,1
121905,-62.5,4,2,1,73,0,0
127643,-62.5,4,2,1,53,0,0
127824,-133.333333333333,4,2,1,53,0,0

[Colours]
Combo1 : 128,128,128
Combo2 : 255,0,0

[HitObjects]
95,318,415,5,0,2:0:0:0:
95,336,776,1,0,2:0:0:0:
19,273,957,1,0,2:0:0:0:
66,188,1137,1,0,2:0:0:0:
162,202,1318,1,0,2:0:0:0:
229,131,1499,1,0,2:0:0:0:
184,44,1680,1,0,2:0:0:0:
137,124,1860,5,0,2:0:0:0:
252,216,2041,1,0,2:0:0:0:
118,111,2222,5,0,2:0:0:0:
171,284,2402,1,0,2:0:0:0:
262,115,2583,6,0,L|348:106,1,74.9999952316285,0|2,2:0|2:0,2:0:0:0:
415,54,3306,6,0,B|331:50|314:119|314:119|362:92,1,157.49998998642,4|0,3:2|2:0,2:0:0:0:
437,156,3668,1,8,2:0:0:0:
337,237,3848,1,0,2:0:0:0:
444,363,4029,2,0,P|445:282|412:255,1,89.9999942779542,0|0,3:0|2:0,2:0:0:0:
259,179,4300,1,0,2:0:0:0:
259,179,4390,2,0,P|232:234|248:276,1,89.9999942779542,8|0,2:0|2:0,2:0:0:0:
451,161,4752,5,0,3:0:0:0:
342,253,4933,1,2,2:0:0:0:
259,34,5113,5,8,2:0:0:0:
345,122,5294,1,2,2:0:0:0:
102,194,5475,6,0,P|154:152|218:155,1,89.9999942779542,0|0,3:0|2:0,2:0:0:0:
241,234,5746,1,0,2:0:0:0:
241,234,5836,2,0,P|225:297|223:336,1,89.9999942779542,8|0,2:0|2:0,2:0:0:0:
27,190,6198,6,0,B|123:191|65:139|203:149,1,157.49998998642,0|0,3:0|2:0,2:0:0:0:
276,74,6559,1,8,2:0:0:0:
177,12,6740,1,0,2:0:0:0:
371,150,6921,2,0,P|430:125|470:121,1,89.9999942779542,0|0,3:0|2:0,2:0:0:0:
289,306,7282,2,0,P|277:240|259:193,1,89.9999942779542,8|0,2:0|2:0,2:0:0:0:
428,267,7643,5,0,3:0:0:0:
409,370,7824,1,2,2:0:0:0:
250,115,8005,5,8,2:0:0:0:
269,218,8186,1,2,2:0:0:0:
450,111,8366,5,0,3:0:0:0:
450,111,8457,1,0,2:0:0:0:
450,111,8547,2,0,L|376:120,1,44.9999971389771,8|0,2:0|2:0,2:0:0:0:
179,71,8728,2,0,P|233:28|261:34,1,89.9999942779542,8|0,3:2|2:0,2:0:0:0:
293,175,9089,6,0,B|279:234|279:234|294:275|294:275|284:337,1,157.49998998642,4|0,3:2|2:0,2:0:0:0:
196,293,9451,1,8,2:0:0:0:
382,213,9631,1,0,2:0:0:0:
180,121,9812,1,0,3:0:0:0:
347,30,9993,1,0,2:0:0:0:
347,30,10083,1,0,2:0:0:0:
347,30,10174,2,0,P|280:50|268:81,1,89.9999942779542,8|0,2:0|2:0,2:0:0:0:
102,183,10535,5,0,3:0:0:0:
76,53,10716,1,2,2:0:0:0:
244,188,10896,5,8,2:0:0:0:
9,132,11077,1,2,2:0:0:0:
9,132,11168,1,0,2:0:0:0:
9,132,11258,2,0,P|22:188|23:223,1,89.9999942779542,0|0,3:0|2:0,2:0:0:0:
7,369,11619,1,8,2:0:0:0:
125,272,11800,1,0,2:0:0:0:
125,272,11890,1,0,2:0:0:0:
125,272,11981,6,0,B|222:265|175:327|288:306,1,157.49998998642,0|0,3:0|2:0,2:0:0:0:
126,357,12342,1,8,2:0:0:0:
259,224,12523,1,0,2:0:0:0:
134,156,12704,1,0,3:0:0:0:
277,384,12884,1,0,2:0:0:0:
277,384,12975,1,0,2:0:0:0:
277,384,13065,2,0,P|326:336|365:339,1,89.9999942779542,8|0,2:0|2:0,2:0:0:0:
502,247,13427,5,0,3:0:0:0:
378,230,13607,1,2,2:0:0:0:
209,119,13788,5,8,2:0:0:0:
333,102,13969,1,2,2:0:0:0:
473,6,14149,5,0,3:0:0:0:
467,36,14240,1,0,2:0:0:0:
462,68,14330,1,8,2:0:0:0:
457,99,14421,1,0,2:0:0:0:
453,130,14511,2,0,P|416:193|426:266,1,134.999991416931,8|0,3:2|2:0,2:0:0:0:
282,357,14872,6,0,P|290:290|349:283,3,112.499992847443,0|0|0|0,3:0|3:0|3:0|3:0,2:0:0:0:
477,252,16137,2,0,P|444:274|415:275,1,56.2499964237215,0|0,2:0|3:0,2:0:0:0:
329,165,16499,1,0,2:0:0:0:
428,124,16680,2,0,L|417:194,1,56.2499964237215,0|0,3:0|2:0,2:0:0:0:
253,313,17041,2,0,L|234:178,1,112.499992847443,0|8,3:0|3:2,2:0:0:0:
293,86,17583,1,0,2:0:0:0:
293,86,17674,1,0,2:0:0:0:
293,86,17764,6,0,P|293:28|240:8,3,112.499992847443,0|0|0|0,3:0|3:0|3:0|3:0,2:0:0:0:
110,100,19029,2,0,L|174:80,1,56.2499964237215,0|0,2:0|3:0,2:0:0:0:
249,256,19390,1,0,2:0:0:0:
358,174,19571,2,0,L|241:151,1,112.499992847443,0|0,3:0|3:0,2:0:0:0:
141,202,20113,1,0,2:0:0:0:
141,202,20204,1,0,2:0:0:0:
141,202,20294,2,0,L|154:266,1,56.2499964237215,8|0,3:2|2:0,2:0:0:0:
118,384,20655,6,0,P|191:351|229:357,2,112.499992847443,0|0|0,3:0|3:0|3:0,2:0:0:0:
384,283,21740,1,0,3:0:0:0:
280,266,21921,2,0,P|327:291|387:281,1,112.499992847443,0|0,2:0|2:0,2:0:0:0:
475,218,22463,2,0,P|480:170|490:142,1,56.2499964237215,0|0,3:0|2:0,2:0:0:0:
338,20,22824,2,0,P|367:89|370:142,1,112.499992847443,0|8,3:0|3:2,2:0:0:0:
228,323,23547,6,0,P|246:259|296:248,3,112.499992847443,0|0|0|0,3:0|3:0|3:0|3:0,2:0:0:0:
257,82,24812,2,0,P|276:130|272:142,1,56.2499964237215,0|0,2:0|3:0,2:0:0:0:
94,169,25174,1,0,2:0:0:0:
160,224,25354,2,0,P|179:176|175:164,1,56.2499964237215,0|0,3:0|2:0,2:0:0:0:
105,75,25716,2,0,P|63:77|3:33,1,112.499992847443,0|8,3:0|3:0,2:0:0:0:
128,300,26439,6,0,P|142:237|196:216,1,89.9999942779542,4|2,3:2|2:0,2:0:0:0:
248,293,26710,1,0,2:0:0:0:
248,293,26800,1,0,3:0:0:0:
316,204,26981,1,2,2:0:0:0:
227,143,27161,1,0,3:0:0:0:
410,269,27342,1,2,2:0:0:0:
334,122,27523,1,0,3:0:0:0:
252,373,27704,5,2,2:0:0:0:
252,373,27794,1,0,2:0:0:0:
252,373,27884,2,0,P|312:331|348:334,1,89.9999942779542,0|2,3:0|2:0,2:0:0:0:
501,265,28246,2,0,P|457:254|426:222,1,89.9999942779542,0|2,3:0|2:0,2:0:0:0:
285,79,28607,2,0,P|311:159|310:227,2,134.999991416931,0|2|2,3:0|2:0|2:0,2:0:0:0:
455,112,29330,6,0,P|508:140|500:178,1,89.9999942779542,0|2,3:0|2:0,2:0:0:0:
431,229,29601,1,0,2:0:0:0:
431,229,29692,1,0,3:0:0:0:
310,146,29872,1,2,2:0:0:0:
283,349,30053,2,0,P|302:274|328:260,1,89.9999942779542,0|2,3:0|2:0,2:0:0:0:
136,140,30415,1,0,3:0:0:0:
194,242,30595,1,2,2:0:0:0:
310,146,30776,6,0,P|379:133|423:130,2,89.9999942779542,0|2|0,3:0|2:0|3:0,2:0:0:0:
217,47,31318,1,2,2:0:0:0:
217,47,31408,1,0,2:0:0:0:
217,47,31499,2,0,P|190:101|159:112,1,89.9999942779542,4|0,3:2|2:0,2:0:0:0:
51,151,31770,2,0,P|88:173|102:215,1,89.9999942779542,4|0,3:2|2:0,2:0:0:0:
11,244,32041,1,4,3:2:0:0:
212,210,32222,6,0,P|200:280|195:325,1,89.9999942779542,4|2,3:2|2:0,2:0:0:0:
332,384,32493,1,0,2:0:0:0:
332,384,32583,2,0,P|320:314|315:269,1,89.9999942779542,0|2,3:0|2:0,2:0:0:0:
443,259,32945,1,0,3:0:0:0:
316,179,33125,1,2,2:0:0:0:
485,58,33306,1,0,3:0:0:0:
419,165,33487,1,2,2:0:0:0:
267,26,33668,6,0,P|334:50|346:87,1,89.9999942779542,0|2,3:0|2:0,2:0:0:0:
162,142,33939,1,0,2:0:0:0:
162,142,34029,2,0,P|151:67|139:33,1,89.9999942779542,0|2,3:0|2:0,2:0:0:0:
287,160,34390,2,0,P|260:223|261:294,2,134.999991416931,0|2|2,3:0|2:0|2:0,2:0:0:0:
91,324,35113,6,0,P|118:285|177:286,1,89.9999942779542,0|2,3:0|2:0,2:0:0:0:
208,379,35384,1,0,2:0:0:0:
208,379,35475,1,0,3:0:0:0:
69,217,35655,1,2,2:0:0:0:
201,114,35836,2,0,P|227:158|211:209,1,89.9999942779542,0|2,3:0|2:0,2:0:0:0:
350,327,36107,1,0,2:0:0:0:
350,327,36198,2,0,P|324:283|340:232,1,89.9999942779542,0|2,3:0|2:0,2:0:0:0:
479,159,36559,5,0,3:0:0:0:
355,68,36740,1,0,2:0:0:0:
355,68,36830,1,0,2:0:0:0:
355,68,36921,2,0,B|423:73|387:27|482:35,1,104.99999332428,0|0,3:0|2:0,2:0:0:0:
229,123,37282,5,2,3:2:0:0:
210,23,37463,1,2,2:0:0:0:
347,159,37643,5,2,3:2:0:0:
326,265,37824,1,0,2:0:0:0:
196,373,38005,5,0,3:2:0:0:
185,371,38366,5,0,2:0:0:0:
209,352,38547,1,0,2:0:0:0:
206,379,38728,1,0,2:0:0:0:
166,312,38908,1,0,2:0:0:0:
271,301,39089,1,0,2:0:0:0:
200,210,39270,1,0,2:0:0:0:
374,208,39451,6,0,L|307:212,1,37.4999976158143,4|0,3:2|2:0,2:0:0:0:
189,105,39812,6,0,L|256:109,1,37.4999976158143,4|0,3:2|2:0,2:0:0:0:
371,21,40174,6,0,L|333:23,1,37.4999976158143,4|0,3:2|2:0,2:0:0:0:
64,55,40896,6,0,L|74:236,1,149.999990463257,8|8,3:1|3:1,2:0:0:0:
170,270,41439,1,0,2:0:0:0:
160,101,41619,2,0,L|166:179,1,74.9999952316285,8|0,3:1|2:0,2:0:0:0:
245,215,41890,2,0,L|251:293,1,74.9999952316285,8|0,3:1|2:0,2:0:0:0:
258,383,42161,1,8,3:1:0:0:
455,241,42342,6,0,L|377:240,1,74.9999952316285,8|0,3:1|2:0,2:0:0:0:
302,137,42704,2,0,L|222:137,1,74.9999952316285,8|0,3:1|2:0,2:0:0:0:
450,47,43065,2,0,L|372:46,1,74.9999952316285,8|0,3:1|2:0,2:0:0:0:
302,137,43336,2,0,L|222:137,1,74.9999952316285,8|0,3:1|2:0,2:0:0:0:
141,60,43607,1,8,3:1:0:0:
51,129,43788,1,8,3:1:0:0:
53,141,44149,6,0,L|46:56,1,74.9999952316285,8|0,3:1|2:0,2:0:0:0:
147,266,44511,2,0,L|140:181,1,74.9999952316285,8|0,3:1|2:0,2:0:0:0:
221,135,44782,2,0,L|214:50,1,74.9999952316285,8|0,3:1|2:0,2:0:0:0:
128,23,45053,1,8,3:1:0:0:
221,135,45234,6,0,L|307:127,1,74.9999952316285,8|0,3:1|2:0,2:0:0:0:
366,63,45595,2,0,L|440:56,1,74.9999952316285,8|0,3:1|2:0,2:0:0:0:
372,201,45866,1,0,3:0:0:0:
372,201,45957,2,0,L|458:193,1,74.9999952316285,8|0,3:1|2:0,2:0:0:0:
234,317,46318,1,8,3:1:0:0:
372,315,46499,1,8,3:1:0:0:
171,240,46680,6,0,L|93:299,1,74.9999952316285,8|0,3:1|2:0,2:0:0:0:
35,123,47041,2,0,L|91:202,1,74.9999952316285,8|0,3:1|2:0,2:0:0:0:
262,199,47402,2,0,L|184:126,1,74.9999952316285,8|0,3:1|2:0,2:0:0:0:
183,48,47674,2,0,L|125:96,1,74.9999952316285,8|0,3:1|2:0,2:0:0:0:
78,184,47945,1,8,3:1:0:0:
286,107,48125,6,0,P|303:54|339:38,1,74.9999952316285,8|0,3:1|2:0,2:0:0:0:
327,209,48487,2,0,L|235:231,1,74.9999952316285,8|0,3:1|2:0,2:0:0:0:
389,110,48848,2,0,L|426:198,1,74.9999952316285,8|0,3:1|2:0,2:0:0:0:
511,241,49119,2,0,P|478:289|479:316,1,74.9999952316285,8|0,3:1|2:0,2:0:0:0:
404,384,49390,1,8,3:1:0:0:
276,326,49571,6,0,L|348:308,1,74.9999952316285,8|0,3:1|2:0,2:0:0:0:
243,159,49933,2,0,P|286:198|288:230,1,74.9999952316285,8|0,3:1|2:0,2:0:0:0:
161,367,50294,2,0,L|185:279,1,74.9999952316285,8|0,3:1|2:0,2:0:0:0:
61,211,50565,2,0,L|80:283,1,74.9999952316285,8|0,3:1|2:0,2:0:0:0:
159,199,50836,1,8,3:1:0:0:
49,94,51017,6,0,P|124:69|102:16,1,112.499992847443,8|0,3:1|2:0,2:0:0:0:
203,93,51378,2,0,P|127:68|149:15,1,112.499992847443,8|0,3:1|2:0,2:0:0:0:
493,96,51740,6,0,P|417:71|439:18,1,112.499992847443,8|0,3:1|2:0,2:0:0:0:
282,9,52101,1,0,3:0:0:0:
302,65,52192,1,0,3:0:0:0:
310,124,52282,1,0,3:0:0:0:
162,364,52463,6,0,P|169:288|228:284,1,112.499992847443,4|0,3:2|2:0,2:0:0:0:
94,219,52734,1,0,2:0:0:0:
94,219,52824,2,0,P|152:164|188:171,1,112.499992847443,8|0,2:0|2:0,2:0:0:0:
352,365,53186,6,0,P|345:289|286:285,1,112.499992847443,0|0,3:0|2:0,2:0:0:0:
419,218,53457,1,0,2:0:0:0:
419,218,53547,2,0,P|361:163|325:170,1,112.499992847443,8|0,2:0|2:0,2:0:0:0:
86,117,53908,5,0,3:0:0:0:
189,161,54089,1,2,2:0:0:0:
69,29,54270,2,0,P|13:56|5:120,1,112.499992847443,8|2,2:0|2:0,2:0:0:0:
19,202,54541,1,0,2:0:0:0:
19,202,54631,1,0,3:0:0:0:
193,118,54812,1,2,2:0:0:0:
129,298,54993,1,8,2:0:0:0:
86,117,55174,1,2,2:0:0:0:
250,230,55354,6,0,B|368:228|281:142|454:166,1,187.499988079071,0|8,3:0|2:0,2:0:0:0:
282,43,55896,6,0,L|304:123,1,56.2499964237213,0|0,2:0|2:0,2:0:0:0:
214,114,56077,1,0,3:0:0:0:
429,107,56258,6,0,L|407:187,1,56.2499964237213,0|0,2:0|2:0,2:0:0:0:
497,178,56439,1,8,2:0:0:0:
295,254,56619,6,0,P|311:309|318:378,1,112.499992847443,0|0,2:0|3:0,2:0:0:0:
429,272,56981,5,0,2:0:0:0:
271,163,57161,2,0,P|199:200|195:253,1,112.499992847443,8|0,2:0|2:0,2:0:0:0:
0,197,57433,1,0,2:0:0:0:
0,197,57523,2,0,P|53:200|104:134,1,131.24999165535,0|8,3:2|2:0,2:0:0:0:
15,94,57884,1,8,2:0:0:0:
90,297,58065,1,0,2:0:0:0:
214,134,58246,6,0,P|157:141|89:146,1,112.499992847443,4|0,3:2|2:0,2:0:0:0:
189,237,58517,1,0,2:0:0:0:
189,237,58607,1,8,2:0:0:0:
131,55,58788,1,0,2:0:0:0:
353,128,58969,6,0,P|410:135|478:140,1,112.499992847443,0|0,3:0|2:0,2:0:0:0:
378,231,59240,1,0,2:0:0:0:
378,231,59330,1,8,2:0:0:0:
436,49,59511,1,0,2:0:0:0:
268,212,59692,5,0,3:0:0:0:
213,21,59872,2,0,P|287:54|297:131,1,112.499992847443,2|8,2:0|2:0,2:0:0:0:
156,213,60234,1,2,2:0:0:0:
156,213,60324,1,0,2:0:0:0:
156,213,60415,1,0,3:0:0:0:
209,112,60595,1,2,2:0:0:0:
70,16,60776,1,8,2:0:0:0:
99,123,60957,1,2,2:0:0:0:
329,269,61137,6,0,P|304:213|249:210,2,93.7499940395356,0|0|8,3:0|2:0|2:0,2:0:0:0:
442,97,61680,6,0,L|421:169,1,56.2499964237213,0|0,2:0|2:0,2:0:0:0:
476,214,61860,1,0,3:0:0:0:
297,4,62041,6,0,L|318:76,1,56.2499964237213,0|0,2:0|2:0,2:0:0:0:
263,121,62222,1,8,2:0:0:0:
354,233,62402,6,0,P|337:299|328:352,1,112.499992847443,0|0,2:0|3:0,2:0:0:0:
221,276,62764,1,0,2:0:0:0:
221,276,62854,1,0,2:0:0:0:
221,276,62945,1,8,2:0:0:0:
123,384,63125,1,0,2:0:0:0:
181,155,63306,6,0,P|110:190|138:304,1,187.499988079071,0|8,3:0|2:0,2:0:0:0:
297,135,64029,2,0,P|252:175|176:149,1,140.624991059303,4|0,3:2|2:0,2:0:0:0:
132,83,64390,5,0,2:0:0:0:
192,13,64571,1,0,2:0:0:0:
236,87,64752,1,0,2:0:0:0:
180,154,64933,1,0,2:0:0:0:
112,84,65113,1,0,2:0:0:0:
265,168,65294,1,0,2:0:0:0:
106,211,65475,5,8,3:1:0:0:
236,87,65655,1,8,3:1:0:0:
234,267,65836,5,8,3:1:0:0:
115,86,66017,1,8,3:1:0:0:
157,373,66921,6,0,B|185:308|262:311|262:311|233:346,1,157.49998998642,4|0,3:2|2:0,2:0:0:0:
171,281,67282,1,8,2:0:0:0:
300,209,67463,1,0,2:0:0:0:
167,89,67643,2,0,P|201:162|186:198,1,89.9999942779542,0|2,3:0|2:0,2:0:0:0:
17,179,67915,1,0,2:0:0:0:
17,179,68005,2,0,L|111:157,1,89.9999942779542,8|2,2:0|2:0,2:0:0:0:
239,27,68366,5,0,3:0:0:0:
126,3,68547,1,2,2:0:0:0:
200,166,68728,5,8,2:0:0:0:
313,142,68908,1,2,2:0:0:0:
435,8,69089,6,0,P|411:68|417:103,1,89.9999942779542,0|0,3:0|2:0,2:0:0:0:
512,226,69360,1,0,2:0:0:0:
512,226,69451,2,0,P|508:170|463:168,1,89.9999942779542,8|0,2:0|2:0,2:0:0:0:
376,246,69812,6,0,B|280:253|352:312|212:326,1,157.49998998642,0|0,3:0|2:0,2:0:0:0:
154,346,70174,1,8,2:0:0:0:
232,224,70354,1,0,2:0:0:0:
93,161,70535,2,0,P|125:226|133:271,1,89.9999942779542,0|2,3:0|2:0,2:0:0:0:
304,149,70896,2,0,P|253:128|202:127,1,89.9999942779542,8|2,2:0|2:0,2:0:0:0:
87,54,71258,5,0,3:0:0:0:
191,15,71439,1,2,2:0:0:0:
21,136,71619,5,8,2:0:0:0:
125,175,71800,1,2,2:0:0:0:
64,306,71981,5,0,3:0:0:0:
64,306,72071,1,0,2:0:0:0:
64,306,72161,2,0,L|45:241,1,44.9999971389771,8|0,2:0|2:0,2:0:0:0:
218,125,72342,2,0,B|237:169|237:169|203:248,1,89.9999942779542,8|0,3:2|2:0,2:0:0:0:
164,377,72704,6,0,B|201:328|273:333|273:333|232:375,1,157.49998998642,4|0,3:2|2:0,2:0:0:0:
209,241,73065,1,8,2:0:0:0:
376,357,73246,1,0,2:0:0:0:
485,214,73427,2,0,P|438:262|419:254,1,89.9999942779542,0|2,3:0|2:0,2:0:0:0:
298,141,73698,1,0,2:0:0:0:
298,141,73788,2,0,P|345:177|346:219,1,89.9999942779542,8|2,2:0|2:0,2:0:0:0:
486,349,74149,5,0,3:0:0:0:
341,296,74330,1,2,2:0:0:0:
466,210,74511,5,8,2:0:0:0:
392,384,74692,1,2,2:0:0:0:
367,125,74872,6,0,P|361:194|315:213,1,89.9999942779542,0|0,3:0|2:0,2:0:0:0:
280,139,75143,1,0,2:0:0:0:
280,139,75234,1,8,2:0:0:0:
242,345,75415,1,0,2:0:0:0:
212,242,75595,6,0,P|142:288|137:372,1,157.49998998642,0|0,3:0|2:0,2:0:0:0:
242,345,75957,1,8,2:0:0:0:
107,267,76137,1,0,2:0:0:0:
270,191,76318,2,0,P|236:241|203:238,1,89.9999942779542,0|2,3:0|2:0,2:0:0:0:
122,88,76589,1,0,2:0:0:0:
122,88,76680,2,0,P|139:166|145:202,1,89.9999942779542,8|2,2:0|2:0,2:0:0:0:
0,367,77041,5,0,3:0:0:0:
107,267,77222,1,2,2:0:0:0:
3,222,77402,5,8,2:0:0:0:
142,370,77583,1,2,2:0:0:0:
140,175,77764,5,0,3:0:0:0:
150,209,77854,1,0,2:0:0:0:
178,234,77945,1,8,2:0:0:0:
215,241,78035,1,0,2:0:0:0:
254,230,78125,2,0,P|327:231|348:260,1,89.9999942779542,8|8,3:2|2:0,2:0:0:0:
413,374,78487,6,0,P|401:336|409:295,1,59.9999961853028,4|0,3:2|2:0,2:0:0:0:
482,252,78848,2,0,P|492:224|492:194,1,59.9999961853028,0|0,3:0|2:0,2:0:0:0:
421,104,79210,1,0,3:0:0:0:
421,104,79300,1,0,2:0:0:0:
421,104,79390,2,0,L|362:112,1,44.9999971389771,0|0,2:0|2:0,2:0:0:0:
311,190,79571,2,0,L|240:175,1,59.9999961853028,8|0,3:2|2:0,2:0:0:0:
145,121,79933,5,0,3:0:0:0:
132,121,80023,1,0,2:0:0:0:
229,57,80204,5,0,2:0:0:0:
242,57,80294,1,0,3:0:0:0:
142,9,80475,5,0,2:0:0:0:
236,155,80655,2,0,P|213:199|217:230,1,59.9999961853028,0|8,3:0|2:0,2:0:0:0:
142,302,81017,2,0,P|165:346|161:377,1,59.9999961853028,0|8,3:0|2:0,2:0:0:0:
0,273,81378,5,0,3:0:0:0:
0,273,81469,1,0,2:0:0:0:
0,273,81559,2,0,L|61:261,1,44.9999971389771,0|0,2:0|2:0,2:0:0:0:
79,161,81740,2,0,P|123:180|136:203,1,59.9999961853028,0|0,3:0|2:0,2:0:0:0:
227,242,82101,1,0,3:0:0:0:
296,162,82282,1,0,2:0:0:0:
385,223,82463,1,8,2:0:0:0:
200,109,82824,5,0,3:0:0:0:
202,124,82915,1,0,2:0:0:0:
294,24,83095,5,0,2:0:0:0:
292,39,83186,1,0,3:0:0:0:
220,216,83366,5,0,2:0:0:0:
302,142,83547,1,0,3:0:0:0:
394,185,83728,1,8,2:0:0:0:
316,256,83908,2,0,L|307:321,1,59.9999961853028,8|0,3:2|2:0,2:0:0:0:
476,368,84270,5,4,3:2:0:0:
398,296,84451,1,0,2:0:0:0:
498,224,84631,1,8,2:0:0:0:
407,162,84812,1,0,2:0:0:0:
384,354,84993,6,0,L|401:281,1,59.9999961853028,0|0,3:0|2:0,2:0:0:0:
272,202,85354,2,0,L|289:275,1,59.9999961853028,8|0,2:0|2:0,2:0:0:0:
383,200,85716,5,0,3:0:0:0:
410,195,85806,1,0,2:0:0:0:
294,115,85987,5,0,2:0:0:0:
267,110,86077,1,8,2:0:0:0:
396,33,86258,5,0,2:0:0:0:
181,95,86439,2,0,P|198:52|214:38,1,59.9999961853028,0|8,3:0|2:0,2:0:0:0:
298,254,86800,2,0,P|290:225|271:201,1,59.9999961853028,0|8,3:0|2:0,2:0:0:0:
162,195,87161,5,0,3:0:0:0:
81,214,87342,1,0,2:0:0:0:
0,230,87523,1,8,2:0:0:0:
267,110,87704,5,0,2:0:0:0:
146,114,87884,5,0,3:0:0:0:
162,195,88065,1,0,2:0:0:0:
181,276,88246,1,8,2:0:0:0:
275,116,88607,5,0,3:0:0:0:
275,116,88698,1,0,2:0:0:0:
367,59,88878,5,0,2:0:0:0:
367,59,88969,1,8,2:0:0:0:
448,123,89149,1,0,2:0:0:0:
310,255,89330,5,12,3:2:0:0:
366,152,89511,1,12,2:0:0:0:
428,274,89692,5,12,3:2:0:0:
251,159,89872,1,12,2:0:0:0:
257,372,90053,6,0,P|284:265|334:254,1,149.999990463257,8|8,3:1|3:1,2:0:0:0:
348,344,90595,1,0,2:0:0:0:
180,220,90776,2,0,L|217:297,1,74.9999952316285,8|0,3:1|2:0,2:0:0:0:
294,125,91047,2,0,L|275:211,1,74.9999952316285,8|0,3:1|2:0,2:0:0:0:
381,185,91318,1,8,3:1:0:0:
240,38,91499,6,0,P|200:78|201:117,1,74.9999952316285,8|0,3:1|2:0,2:0:0:0:
320,254,91860,2,0,P|307:219|277:198,1,74.9999952316285,8|0,3:1|2:0,2:0:0:0:
82,212,92222,2,0,L|173:189,1,74.9999952316285,8|0,3:1|2:0,2:0:0:0:
197,93,92493,2,0,L|124:111,1,74.9999952316285,8|0,3:1|2:0,2:0:0:0:
131,288,92764,1,8,3:1:0:0:
255,186,92945,1,8,3:1:0:0:
254,168,93306,6,0,L|265:251,1,74.9999952316285,8|0,3:1|2:0,2:0:0:0:
336,63,93668,2,0,L|345:137,1,74.9999952316285,8|0,3:1|2:0,2:0:0:0:
431,170,93939,2,0,L|440:244,1,74.9999952316285,8|0,3:1|2:0,2:0:0:0:
369,337,94210,1,8,3:1:0:0:
481,339,94390,5,8,3:1:0:0:
350,241,94571,1,0,2:0:0:0:
480,125,94752,2,0,P|450:167|413:164,1,74.9999952316285,8|0,3:1|2:0,2:0:0:0:
325,106,95023,1,0,3:0:0:0:
325,106,95113,5,8,3:1:0:0:
405,35,95294,1,0,2:0:0:0:
312,191,95475,5,8,3:1:0:0:
289,16,95655,1,8,3:1:0:0:
193,120,95836,5,8,3:1:0:0:
187,141,96198,6,0,P|160:86|129:76,1,74.9999952316285,8|0,3:1|2:0,2:0:0:0:
21,20,96559,2,0,L|49:100,1,74.9999952316285,8|0,3:1|2:0,2:0:0:0:
104,151,96830,2,0,L|76:231,1,74.9999952316285,8|0,3:1|2:0,2:0:0:0:
0,173,97101,1,8,3:1:0:0:
44,341,97282,6,0,P|86:313|124:314,1,74.9999952316285,8|0,3:1|2:0,2:0:0:0:
251,254,97643,2,0,P|214:248|186:225,1,74.9999952316285,8|0,3:1|2:0,2:0:0:0:
233,84,98005,2,0,L|248:157,1,74.9999952316285,8|0,3:1|2:0,2:0:0:0:
98,195,98276,2,0,P|124:151|158:141,1,74.9999952316285,8|0,3:1|2:0,2:0:0:0:
185,224,98547,1,8,3:1:0:0:
309,16,98728,6,0,L|329:106,1,74.9999952316285,8|0,3:1|2:0,2:0:0:0:
480,55,99089,2,0,L|402:34,1,74.9999952316285,8|0,3:1|2:0,2:0:0:0:
463,195,99451,2,0,P|433:156|396:155,1,74.9999952316285,8|0,3:1|2:0,2:0:0:0:
325,89,99722,2,0,P|295:135|304:163,1,74.9999952316285,8|0,3:1|0:0,2:0:0:0:
280,296,99993,1,0,2:0:0:0:
280,296,100083,1,0,3:0:0:0:
280,296,100174,6,0,L|263:404,1,89.9999942779542,8|0,3:1|2:0,2:0:0:0:
388,228,100535,2,0,L|371:336,1,89.9999915313724,8|0,3:1|2:0,2:0:0:0:
198,240,100896,6,0,P|259:191|304:208,1,112.499992847443,8|0,3:1|2:0,2:0:0:0:
421,37,101258,1,8,2:3:0:0:
378,65,101348,1,8,2:3:0:0:
327,56,101439,1,0,3:0:0:0:
184,41,101619,6,0,P|173:115|165:173,1,112.499992847443,4|0,3:2|2:0,2:0:0:0:
86,267,101890,1,0,2:0:0:0:
86,267,101981,2,0,P|77:208|68:150,1,112.499992847443,8|0,2:0|2:0,2:0:0:0:
335,37,102342,6,0,P|346:111|354:169,1,112.499992847443,0|0,3:0|2:0,2:0:0:0:
432,264,102613,1,0,2:0:0:0:
433,263,102704,2,0,P|441:204|450:146,1,112.499992847443,8|0,2:0|2:0,2:0:0:0:
198,251,103065,5,0,3:0:0:0:
305,148,103246,1,2,2:0:0:0:
275,360,103427,2,0,P|289:286|329:268,1,112.499992847443,8|2,2:0|2:0,2:0:0:0:
172,123,103698,1,0,2:0:0:0:
172,123,103788,2,0,P|210:203|192:241,1,112.499992847443,0|2,3:0|2:0,2:0:0:0:
103,203,104149,1,8,2:0:0:0:
367,112,104330,1,2,2:0:0:0:
290,17,104511,6,0,P|278:101|275:135,2,93.7499940395356,0|0|8,3:0|2:0|2:0,2:0:0:0:
327,217,105053,6,0,L|398:202,1,56.2499964237213,0|0,2:0|2:0,2:0:0:0:
465,191,105234,1,0,3:0:0:0:
454,362,105415,6,0,L|383:347,1,56.2499964237213,0|0,2:0|2:0,2:0:0:0:
316,336,105595,1,8,2:0:0:0:
221,206,105776,6,0,P|181:276|197:349,1,112.499992847443,0|0,2:0|3:0,2:0:0:0:
0,169,106137,5,0,2:0:0:0:
90,186,106318,1,8,2:0:0:0:
164,114,106499,1,0,2:0:0:0:
101,19,106680,2,0,P|51:69|97:110,1,112.499992847443,0|8,3:2|2:0,2:0:0:0:
200,192,106951,1,0,2:0:0:0:
200,192,107041,2,0,P|209:140|163:113,1,112.499992847443,8|0,2:0|2:0,2:0:0:0:
52,343,107402,6,0,P|126:296|186:298,1,112.499992847443,4|0,3:2|2:0,2:0:0:0:
191,384,107674,1,0,2:0:0:0:
191,384,107764,1,8,2:0:0:0:
110,211,107945,1,0,2:0:0:0:
488,344,108125,6,0,P|414:297|354:299,1,112.499992847443,0|0,3:0|2:0,2:0:0:0:
341,375,108396,1,0,2:0:0:0:
341,375,108487,1,8,2:0:0:0:
434,196,108668,1,0,2:0:0:0:
295,249,108848,5,0,3:0:0:0:
310,95,109029,2,0,P|369:139|354:205,1,112.499992847443,2|8,2:0|2:0,2:0:0:0:
201,303,109390,1,2,2:0:0:0:
201,303,109481,1,0,2:0:0:0:
201,303,109571,1,0,3:0:0:0:
277,192,109752,1,2,2:0:0:0:
151,196,109933,1,8,2:0:0:0:
315,308,110113,1,2,2:0:0:0:
191,118,110294,6,0,B|74:141|155:195|23:216,1,187.499988079071,0|8,3:0|2:0,2:0:0:0:
176,63,110836,6,0,L|197:142,1,56.2499964237213,0|0,2:0|2:0,2:0:0:0:
273,181,111017,1,0,3:0:0:0:
364,241,111198,6,0,L|343:320,1,56.2499964237213,0|0,2:0|2:0,2:0:0:0:
267,359,111378,1,8,2:0:0:0:
127,336,111559,6,0,P|163:276|233:275,1,112.499992847443,0|0,2:0|3:0,2:0:0:0:
306,176,111921,1,0,2:0:0:0:
306,176,112011,1,0,2:0:0:0:
306,176,112101,1,8,2:0:0:0:
190,117,112282,1,0,2:0:0:0:
407,16,112463,6,0,P|358:82|269:11,1,187.499988079071,0|8,3:0|2:0,2:0:0:0:
447,130,113186,2,0,P|442:39|379:12,1,140.624991059303,4|0,3:2|2:0,2:0:0:0:
364,97,113547,5,0,2:0:0:0:
294,152,113728,1,0,2:0:0:0:
376,198,113908,1,0,2:0:0:0:
280,129,114089,1,0,2:0:0:0:
229,231,114270,1,0,2:0:0:0:
378,92,114451,1,0,2:0:0:0:
212,97,114631,5,8,3:1:0:0:
316,278,114812,1,8,3:1:0:0:
138,199,114993,5,8,3:1:0:0:
363,183,115174,1,8,3:1:0:0:
61,371,116077,6,0,P|79:302|148:293,1,119.999992370606,4|0,3:2|2:0,2:0:0:0:
219,313,116348,1,0,2:0:0:0:
219,313,116439,1,8,2:0:0:0:
104,184,116619,1,2,2:0:0:0:
255,80,116800,2,0,L|208:196,1,119.999992370606,0|2,3:0|2:0,2:0:0:0:
20,158,117161,2,0,P|68:101|124:99,1,119.999992370606,10|2,2:0|2:0,2:0:0:0:
160,285,117523,5,0,3:0:0:0:
104,184,117704,1,2,2:0:0:0:
303,140,117884,2,0,P|243:194|191:181,1,119.999992370606,10|2,2:0|2:0,2:0:0:0:
131,367,118155,1,0,2:0:0:0:
131,367,118246,2,0,P|189:309|244:319,1,119.999992370606,0|8,3:0|2:0,2:0:0:0:
350,232,118607,1,8,2:0:0:0:
226,110,118788,1,0,2:0:0:0:
339,374,118969,6,0,P|339:278|380:207,1,179.999988555908,0|0,3:0|2:0,2:0:0:0:
493,234,119330,2,0,P|459:305|429:295,1,119.999992370606,8|2,2:0|2:0,2:0:0:0:
281,195,119692,1,0,3:0:0:0:
438,128,119872,1,2,2:0:0:0:
295,11,120053,2,0,P|350:76|333:123,1,119.999992370606,10|2,2:0|2:0,2:0:0:0:
238,93,120324,1,0,2:0:0:0:
238,93,120415,5,0,3:0:0:0:
288,244,120595,1,2,2:0:0:0:
171,172,120776,5,10,2:0:0:0:
377,198,120957,1,2,2:0:0:0:
83,226,121137,6,0,P|82:134|137:117,1,119.999992370606,0|0,3:0|2:0,2:0:0:0:
218,18,121408,1,0,2:0:0:0:
218,18,121499,2,0,P|193:92|221:131,1,119.999992370606,8|0,2:0|2:0,2:0:0:0:
310,166,121770,1,0,2:0:0:0:
310,166,121860,6,0,B|419:170|357:102|481:93,1,179.999988555908,4|0,3:2|2:0,2:0:0:0:
468,187,122222,1,8,2:0:0:0:
316,76,122402,1,2,2:0:0:0:
453,359,122583,2,0,P|463:303|397:277,1,119.999992370606,0|2,3:0|2:0,2:0:0:0:
270,235,122854,1,0,2:0:0:0:
270,235,122945,2,0,P|298:314|302:365,1,119.999992370606,10|2,2:0|2:0,2:0:0:0:
190,297,123306,5,0,3:0:0:0:
365,191,123487,1,2,2:0:0:0:
205,183,123668,5,10,2:0:0:0:
303,62,123848,1,2,2:0:0:0:
85,64,124029,6,0,P|169:63|204:112,1,119.999992370606,0|8,3:0|2:0,2:0:0:0:
107,188,124300,1,0,2:0:0:0:
107,188,124390,2,0,P|23:187|-12:236,1,119.999992370606,8|0,2:0|2:0,2:0:0:0:
19,368,124752,6,0,B|67:348|75:305|75:305|113:334|172:320,1,179.999988555908,0|0,3:0|2:0,2:0:0:0:
257,236,125113,2,0,P|235:191|155:198,1,119.999992370606,8|2,2:0|2:0,2:0:0:0:
284,364,125475,1,0,3:0:0:0:
374,269,125655,1,2,2:0:0:0:
294,135,125836,2,0,P|249:195|268:253,1,119.999992370606,10|2,2:0|2:0,2:0:0:0:
396,172,126107,1,0,2:0:0:0:
396,172,126198,5,0,3:0:0:0:
212,84,126378,1,2,2:0:0:0:
362,51,126559,5,10,2:0:0:0:
256,235,126740,1,2,2:0:0:0:
188,95,126921,5,0,3:0:0:0:
276,158,127101,1,8,2:0:0:0:
165,108,127282,1,8,3:2:0:0:
282,77,127463,1,8,2:0:0:0:
180,208,127643,5,4,3:2:0:0:
180,208,127824,2,0,L|98:217,1,56.2499964237215,0|0,2:0|3:0,2:0:0:0:
8,161,128186,2,0,P|33:223|38:285,2,112.499992847443,0|0|0,2:0|2:0|2:0,2:0:0:0:
111,98,129089,5,0,3:0:0:0:
111,98,129270,2,0,L|193:107,1,56.2499964237215,0|0,2:0|3:0,2:0:0:0:
272,37,129631,2,0,P|321:13|401:17,2,112.499992847443,0|0|0,2:0|2:0|2:0,2:0:0:0:
354,113,130535,5,0,3:0:0:0:
354,113,130716,2,0,L|345:195,1,56.2499964237215,0|0,2:0|3:0,2:0:0:0:
267,239,131077,2,0,P|197:222|158:243,2,112.499992847443,0|0|0,2:0|2:0|2:0,2:0:0:0:
324,356,131981,5,0,3:0:0:0:
324,356,132161,2,0,L|406:365,1,56.2499964237215,0|0,2:0|3:0,2:0:0:0:
470,290,132523,2,0,P|467:222|421:192,2,112.499992847443,0|2|2,2:0|2:0|2:0,2:0:0:0:
