osu file format v14

[General]
AudioFilename: audio.mp3
AudioLeadIn: 0
PreviewTime: 405
Countdown: 0
SampleSet: Soft
StackLeniency: 0.5
Mode: 0
LetterboxInBreaks: 0
WidescreenStoryboard: 1

[Editor]
Bookmarks: 3296,14862,26429,37995,40886,52453,64019,66911,78477,90043,101609,113176,116067,127633,133417
DistanceSpacing: 1.3
BeatDivisor: 8
GridSize: 16
TimelineZoom: 2.9

[Metadata]
Title:KING
TitleUnicode:KING
Artist:Alfakyun.
ArtistUnicode:+α/あるふぁきゅん。
Creator:Ryuusei Aika
Version:Altai's Expert
Source:
Tags:japanese pop jpop j-pop wanpachi strengemistake strangemistake battle altai undeadphoneguy kanor あるふぁきゅん。 あるふぁきゅん Kanaria female vocal cover nou のう utaite utattemita 歌ってみた
BeatmapID:2810356
BeatmapSetID:1354539

[Difficulty]
HPDrainRate:5.5
CircleSize:4
OverallDifficulty:8.5
ApproachRate:9.2
SliderMultiplier:2.59999990463257
SliderTickRate:1

[Events]
//Background and Video events
0,0,"bg.jpg",0,0
//Break Periods
//Storyboard Layer 0 (Background)
//Storyboard Layer 1 (Fail)
//Storyboard Layer 2 (Pass)
//Storyboard Layer 3 (Foreground)
//Storyboard Layer 4 (Overlay)
//Storyboard Sound Samples

[TimingPoints]
415,361.44578313253,4,2,1,33,1,0
2583,-500,4,2,1,33,0,0
2854,-500,4,2,1,5,0,0
2945,-66.6666666666667,4,2,1,43,0,0
3306,-76.9230769230769,4,2,1,73,0,0
5475,-200,4,2,1,73,0,0
5836,-57.1428571428571,4,2,1,73,0,0
5926,-57.1428571428571,4,2,1,5,0,0
6198,-76.9230769230769,4,2,1,73,0,0
8366,-200,4,2,1,73,0,0
9089,-76.9230769230769,4,2,1,73,0,0
11619,-57.1428571428571,4,2,1,73,0,0
11981,-76.9230769230769,4,2,1,73,0,0
14872,-74.0740740740741,4,2,1,63,0,0
20113,-133.333333333333,4,2,1,63,0,0
20655,-74.0740740740741,4,2,1,63,0,0
26619,-66.6666666666667,4,2,1,63,0,0
36559,-47.6190476190476,4,2,1,63,0,1
36830,-47.6190476190476,4,2,1,5,0,1
36921,-44.4444444444445,4,2,1,63,0,1
37192,-44.4444444444445,4,2,1,5,0,1
37282,-40,4,2,1,63,0,1
37372,-40,4,2,1,5,0,1
37463,-40,4,2,1,63,0,1
37553,-40,4,2,1,5,0,1
37643,-35.7142857142857,4,2,1,63,0,1
37914,-35.7142857142857,4,2,1,5,0,1
38005,-400,4,2,1,63,0,0
39451,-66.6666666666667,4,2,1,63,0,0
39541,-66.6666666666667,4,2,1,5,0,0
39812,-66.6666666666667,4,2,1,63,0,0
39902,-66.6666666666667,4,2,1,5,0,0
40174,-66.6666666666667,4,2,1,63,0,0
40264,-66.6666666666667,4,2,1,5,0,0
40896,-50,4,2,1,63,0,0
51017,-50,4,2,1,63,0,0
51107,-50,4,2,1,5,0,0
51378,-50,4,2,1,63,0,0
51468,-50,4,2,1,5,0,0
51740,-50,4,2,1,63,0,0
51830,-50,4,2,1,5,0,0
52101,-50,4,2,1,63,0,0
52282,-100,4,2,1,63,0,0
52463,-54.054054054054,4,2,1,63,0,1
52508,-54.054054054054,4,2,1,73,0,1
52824,-60.6060606060606,4,2,1,73,0,1
53186,-54.054054054054,4,2,1,73,0,1
53547,-60.6060606060606,4,2,1,73,0,1
54089,-57.1428571428571,4,2,1,73,0,1
54631,-60.6060606060606,4,2,1,73,0,1
55941,-60.6060606060606,4,2,1,5,0,1
56077,-60.6060606060606,4,2,1,73,0,1
56303,-60.6060606060606,4,2,1,5,0,1
56439,-60.6060606060606,4,2,1,73,0,1
56664,-60.6060606060606,4,2,1,5,0,1
56800,-60.6060606060606,4,2,1,73,0,1
58246,-54.054054054054,4,2,1,73,0,1
58607,-60.6060606060606,4,2,1,73,0,1
58969,-54.054054054054,4,2,1,73,0,1
59330,-60.6060606060606,4,2,1,73,0,1
59872,-57.1428571428571,4,2,1,73,0,1
60415,-60.6060606060606,4,2,1,73,0,1
61725,-60.6060606060606,4,2,1,5,0,1
61860,-60.6060606060606,4,2,1,73,0,1
62086,-60.6060606060606,4,2,1,5,0,1
62222,-60.6060606060606,4,2,1,73,0,1
62447,-60.6060606060606,4,2,1,5,0,1
62583,-60.6060606060606,4,2,1,73,0,1
64029,-60.6060606060606,4,2,1,73,0,0
65475,-60.6060606060606,4,2,1,63,0,0
66198,-100,4,2,1,63,0,0
66921,-76.9230769230769,4,2,1,63,0,0
69089,-200,4,2,1,63,0,0
69451,-57.1428571428571,4,2,1,63,0,0
69812,-76.9230769230769,4,2,1,63,0,0
71981,-200,4,2,1,63,0,0
72704,-76.9230769230769,4,2,1,63,0,0
75234,-57.1428571428571,4,2,1,63,0,0
75595,-76.9230769230769,4,2,1,63,0,0
78487,-80,4,2,1,53,0,0
89330,-62.5,4,2,1,63,0,1
90053,-62.5,4,2,1,63,0,0
91499,-100,4,2,1,63,0,0
100174,-50,4,2,1,63,0,0
100264,-50,4,2,1,5,0,0
100535,-50,4,2,1,63,0,0
100625,-50,4,2,1,5,0,0
100896,-50,4,2,1,63,0,0
100986,-50,4,2,1,5,0,0
101258,-50,4,2,1,63,0,0
101439,-100,4,2,1,63,0,0
101619,-54.054054054054,4,2,1,73,0,1
101981,-60.6060606060606,4,2,1,73,0,1
102342,-54.054054054054,4,2,1,73,0,1
102704,-60.6060606060606,4,2,1,73,0,1
103246,-57.1428571428571,4,2,1,73,0,1
103788,-60.6060606060606,4,2,1,73,0,1
105098,-60.6060606060606,4,2,1,5,0,1
105234,-60.6060606060606,4,2,1,73,0,1
105460,-60.6060606060606,4,2,1,5,0,1
105595,-60.6060606060606,4,2,1,73,0,1
105821,-60.6060606060606,4,2,1,5,0,1
105957,-60.6060606060606,4,2,1,73,0,1
107402,-54.054054054054,4,2,1,73,0,1
107764,-60.6060606060606,4,2,1,73,0,1
108125,-54.054054054054,4,2,1,73,0,1
108487,-60.6060606060606,4,2,1,73,0,1
109029,-57.1428571428571,4,2,1,73,0,1
109571,-60.6060606060606,4,2,1,73,0,1
110881,-60.6060606060606,4,2,1,5,0,1
111017,-60.6060606060606,4,2,1,73,0,1
111243,-60.6060606060606,4,2,1,5,0,1
111378,-60.6060606060606,4,2,1,73,0,1
111604,-60.6060606060606,4,2,1,5,0,1
111740,-60.6060606060606,4,2,1,73,0,1
113186,-60.6060606060606,4,2,1,73,0,0
115354,-90.9090909090909,4,2,1,73,0,0
115625,-90.9090909090909,4,2,1,5,0,0
115716,-90.9090909090909,4,2,1,73,0,0
115987,-90.9090909090909,4,2,1,5,0,0
116077,-58.8235294117647,4,2,1,73,0,0
118246,-200,4,2,1,73,0,0
118607,-52.6315789473684,4,2,1,73,0,0
118969,-58.8235294117647,4,2,1,73,0,0
124390,-52.6315789473684,4,2,1,73,0,0
124752,-58.8235294117647,4,2,1,73,0,0
127643,-100,4,2,1,53,0,0
133426,-100,4,2,1,5,0,0

[Colours]
Combo1 : 128,128,128
Combo2 : 255,0,0

[HitObjects]
19,236,415,5,0,2:0:0:0:
19,236,776,5,0,2:0:0:0:
57,172,957,1,0,2:0:0:0:
129,186,1137,1,0,2:0:0:0:
171,247,1318,1,0,2:0:0:0:
192,317,1499,1,0,2:0:0:0:
255,355,1680,1,0,2:0:0:0:
315,314,1860,5,0,2:0:0:0:
101,358,2041,1,0,2:0:0:0:
315,314,2222,1,0,2:0:0:0:
101,358,2402,1,0,2:0:0:0:
260,255,2583,6,0,P|264:234|270:209,1,38.9999985694886,0|0,2:0|2:0,2:0:0:0:
316,156,2945,6,0,P|411:178|508:199,1,194.999992847443,2|0,2:0|2:0,2:0:0:0:
0,360,3306,6,0,B|77:380|116:304|56:284|121:209|185:233,1,253.499990701676,4|0,3:2|2:0,2:0:0:0:
214,153,3668,6,0,P|202:104|193:63,1,84.4999969005585,8|0,2:0|2:0,2:0:0:0:
30,68,3848,1,0,2:0:0:0:
30,68,3939,1,0,2:0:0:0:
30,68,4029,2,0,P|42:117|67:247,1,168.999993801117,0|0,3:0|2:0,2:0:0:0:
232,380,4390,6,0,P|247:320|257:291,1,84.4999969005585,8|0,2:0|2:0,2:0:0:0:
181,231,4571,1,0,2:0:0:0:
489,257,4752,5,0,3:0:0:0:
362,279,4933,1,2,2:0:0:0:
340,153,5113,1,8,2:0:0:0:
466,130,5294,1,2,2:0:0:0:
166,334,5475,6,0,P|124:323|87:316,1,64.9999976158143,0|0,3:0|2:0,2:0:0:0:
102,318,5746,1,0,2:0:0:0:
102,318,5836,2,0,P|130:200|156:90,1,227.49999165535,8|0,2:0|2:0,2:0:0:0:
464,353,6198,6,0,B|387:373|348:297|408:277|343:202|279:226,1,253.499990701676,0|0,3:0|2:0,2:0:0:0:
241,154,6559,6,0,P|253:105|262:64,1,84.4999969005585,8|0,2:0|2:0,2:0:0:0:
427,64,6740,1,0,2:0:0:0:
427,64,6830,1,0,2:0:0:0:
427,64,6921,2,0,P|415:113|390:243,1,168.999993801117,0|0,3:0|2:0,2:0:0:0:
217,374,7282,6,0,P|196:325|157:314,1,84.4999969005585,8|0,2:0|2:0,2:0:0:0:
62,368,7463,1,0,2:0:0:0:
7,125,7643,5,0,3:0:0:0:
134,147,7824,1,2,2:0:0:0:
134,147,7915,1,0,2:0:0:0:
134,147,8005,1,8,2:0:0:0:
156,21,8186,1,2,2:0:0:0:
318,257,8366,6,0,P|362:235|399:233,1,64.9999976158143,0|8,3:0|2:0,2:0:0:0:
396,163,8637,1,0,2:0:0:0:
396,163,8728,1,8,3:2:0:0:
482,195,8908,1,0,2:0:0:0:
141,382,9089,6,0,P|114:250|84:122,1,253.499990701676,4|0,3:2|2:0,2:0:0:0:
129,71,9451,6,0,P|85:35|54:40,1,84.4999969005585,8|0,2:0|2:0,2:0:0:0:
9,255,9631,1,0,2:0:0:0:
9,255,9722,1,0,2:0:0:0:
9,255,9812,2,0,P|76:186|145:186,1,168.999993801117,0|0,3:0|2:0,2:0:0:0:
224,228,10083,5,0,2:0:0:0:
224,228,10174,2,0,P|242:177|262:143,1,84.4999969005585,8|0,2:0|2:0,2:0:0:0:
206,55,10354,1,0,2:0:0:0:
419,290,10535,5,0,3:0:0:0:
343,192,10716,1,2,2:0:0:0:
380,170,10806,1,0,2:0:0:0:
394,127,10896,1,8,2:0:0:0:
427,169,10987,1,0,2:0:0:0:
466,174,11077,1,2,2:0:0:0:
141,382,11258,5,0,3:0:0:0:
213,337,11439,1,0,2:0:0:0:
213,337,11529,1,0,2:0:0:0:
213,337,11619,2,0,P|191:249|72:263,1,227.49999165535,8|0,2:0|2:0,2:0:0:0:
370,382,11981,6,0,P|396:257|424:134,1,253.499990701676,0|0,3:0|2:0,2:0:0:0:
382,71,12342,6,0,P|410:40|451:37,1,84.4999969005585,8|0,2:0|2:0,2:0:0:0:
506,261,12523,1,0,2:0:0:0:
506,261,12613,1,0,2:0:0:0:
506,261,12704,2,0,P|439:192|370:192,1,168.999993801117,0|0,3:0|2:0,2:0:0:0:
297,276,12975,5,0,2:0:0:0:
297,276,13065,2,0,B|307:234|307:234|276:203,1,84.4999969005585,8|0,2:0|2:0,2:0:0:0:
243,29,13246,1,0,2:0:0:0:
53,350,13427,5,0,3:0:0:0:
154,165,13607,1,2,2:0:0:0:
105,192,13698,1,0,2:0:0:0:
88,247,13788,1,8,2:0:0:0:
53,203,13878,1,0,2:0:0:0:
0,196,13969,1,2,2:0:0:0:
326,384,14149,5,0,3:0:0:0:
414,346,14330,1,8,2:0:0:0:
414,346,14421,1,0,2:0:0:0:
414,346,14511,2,0,P|401:301|391:263,2,84.4999969005585,8|0|8,3:2|2:0|2:0,2:0:0:0:
125,373,14872,6,0,P|152:204|183:22,2,350.999987125397,0|0|0,3:0|3:0|3:0,2:0:0:0:
13,272,15957,1,0,3:0:0:0:
387,373,16318,6,0,P|360:204|329:22,2,350.999987125397,0|0|0,3:0|3:0|3:0,2:0:0:0:
499,272,17222,1,0,2:0:0:0:
499,272,17312,1,0,2:0:0:0:
499,272,17402,1,8,3:2:0:0:
13,272,17764,6,0,B|95:346|174:236|147:218|119:206|198:91|278:152,2,350.999987125397,0|0|0,3:0|3:0|3:0,2:0:0:0:
125,373,18668,1,0,2:0:0:0:
125,373,18758,1,0,2:0:0:0:
125,373,18848,1,0,3:0:0:0:
499,272,19210,6,0,B|416:346|337:236|364:218|392:206|314:91|233:152,1,350.999987125397,0|0,3:0|3:0,2:0:0:0:
336,361,19933,5,0,3:0:0:0:
338,349,20023,1,0,2:0:0:0:
340,337,20113,2,0,L|349:276,1,48.7499982118608,0|0,2:0|2:0,2:0:0:0:
269,282,20294,5,8,3:2:0:0:
267,294,20384,1,0,2:0:0:0:
265,306,20475,2,0,L|256:367,1,48.7499982118608,0|0,2:0|2:0,2:0:0:0:
176,361,20655,6,0,B|169:267|77:189|1:198|1:198|45:173|36:123,2,350.999987125397,0|0|0,3:0|3:0|3:0,2:0:0:0:
124,142,21740,1,0,3:0:0:0:
336,361,22101,6,0,B|343:267|435:189|511:198|511:198|467:173|476:123,2,350.999987125397,0|0|0,3:0|3:0|3:0,2:0:0:0:
388,142,23005,1,0,2:0:0:0:
388,142,23095,1,0,2:0:0:0:
388,142,23186,1,8,3:2:0:0:
6,297,23547,6,0,B|65:295|110:378|110:378|81:252|199:200,2,350.999987125397,0|0|0,3:0|3:0|3:0,2:0:0:0:
164,47,24451,1,0,2:0:0:0:
164,47,24541,1,0,2:0:0:0:
164,47,24631,1,0,3:0:0:0:
147,121,24812,1,0,2:0:0:0:
506,297,24993,6,0,B|446:295|401:378|401:378|430:252|312:200,1,350.999987125397,0|0,3:0|3:0,2:0:0:0:
430,69,25716,2,0,B|370:70|325:-12|325:-12|354:113|236:165,1,350.999987125397,0|8,3:0|3:0,2:0:0:0:
255,382,26439,5,4,3:2:0:0:
53,331,26619,6,0,P|18:292|30:252,1,97.4999964237213,2|0,2:0|2:0,2:0:0:0:
141,223,26800,2,0,P|175:260|162:300,1,97.4999964237213,0|0,3:0|2:0,2:0:0:0:
27,173,26981,5,2,2:0:0:0:
27,173,27071,1,0,2:0:0:0:
27,173,27161,2,0,P|45:122|57:66,1,97.4999964237213,0|0,3:0|2:0,2:0:0:0:
193,41,27342,2,0,P|174:93|163:144,1,97.4999964237213,2|0,2:0|2:0,2:0:0:0:
428,234,27523,6,0,P|409:182|397:129,1,97.4999964237213,0|0,3:0|2:0,2:0:0:0:
262,102,27704,2,0,P|281:154|291:208,1,97.4999964237213,2|0,2:0|2:0,2:0:0:0:
255,382,27884,6,0,P|195:319|101:349,2,194.999992847443,0|2|0,3:0|2:0|3:0,2:0:0:0:
395,317,28427,5,2,2:0:0:0:
395,317,28517,1,0,2:0:0:0:
395,317,28607,2,0,P|419:216|443:115,1,194.999992847443,0|0,3:0|2:0,2:0:0:0:
512,104,28878,2,0,P|411:80|313:58,1,194.999992847443,2|0,2:0|2:0,2:0:0:0:
262,102,29149,1,2,2:0:0:0:
395,317,29330,5,0,3:0:0:0:
195,157,29511,2,0,P|178:234|162:279,1,97.4999964237213,2|0,2:0|2:0,2:0:0:0:
286,275,29692,2,0,P|303:198|314:158,1,97.4999964237213,0|0,3:0|2:0,2:0:0:0:
399,45,29872,5,2,2:0:0:0:
399,45,29963,1,0,2:0:0:0:
399,45,30053,2,0,P|430:90|408:132,1,97.4999964237213,0|0,3:0|2:0,2:0:0:0:
262,102,30234,2,0,P|231:57|253:15,1,97.4999964237213,2|0,2:0|2:0,2:0:0:0:
474,243,30415,6,0,P|417:203|374:207,1,97.4999964237213,0|0,3:0|2:0,2:0:0:0:
321,355,30595,1,2,2:0:0:0:
114,147,30776,6,0,P|151:279|165:353,1,194.999992847443,0|2,3:0|2:0,2:0:0:0:
391,202,31137,2,0,P|354:70|339:-5,1,194.999992847443,0|2,3:0|2:0,2:0:0:0:
321,355,31499,6,0,P|277:263|189:279,1,194.999992847443,4|0,3:2|2:0,2:0:0:0:
139,223,31770,2,0,P|58:236|4:148,1,194.999992847443,4|0,3:2|2:0,2:0:0:0:
67,105,32041,1,4,3:2:0:0:
162,335,32222,5,4,3:2:0:0:
391,202,32402,6,0,P|428:161|412:119,1,97.4999964237213,2|0,2:0|2:0,2:0:0:0:
310,92,32583,2,0,P|273:133|289:175,1,97.4999964237213,0|0,3:0|2:0,2:0:0:0:
505,334,32764,5,2,2:0:0:0:
505,334,32854,1,0,2:0:0:0:
505,334,32945,2,0,P|445:303|400:286,1,97.4999964237213,0|0,3:0|2:0,2:0:0:0:
243,335,33125,2,0,P|291:353|334:375,1,97.4999964237213,2|0,2:0|2:0,2:0:0:0:
391,202,33306,6,0,P|310:218|276:229,1,97.4999964237213,0|0,3:0|2:0,2:0:0:0:
234,112,33487,2,0,P|153:128|119:138,1,97.4999964237213,2|0,2:0|2:0,2:0:0:0:
100,286,33668,6,0,P|213:254|309:233,2,194.999992847443,0|2|0,3:0|2:0|3:0,2:0:0:0:
94,73,34210,5,2,2:0:0:0:
94,73,34300,1,0,2:0:0:0:
94,73,34390,2,0,B|130:108|186:75|178:61|170:47|226:10|268:45,1,194.999992847443,0|0,3:0|2:0,2:0:0:0:
309,115,34661,2,0,B|345:79|401:112|393:126|385:140|441:177|482:140,1,194.999992847443,2|0,2:0|2:0,2:0:0:0:
498,53,34933,1,2,2:0:0:0:
417,291,35113,5,0,3:0:0:0:
173,212,35294,2,0,P|156:289|144:332,1,97.4999964237213,2|0,2:0|2:0,2:0:0:0:
266,331,35475,2,0,P|283:254|295:212,1,97.4999964237213,0|0,3:0|2:0,2:0:0:0:
259,45,35655,5,2,2:0:0:0:
259,45,35746,1,0,2:0:0:0:
259,45,35836,2,0,P|322:30|377:21,1,97.4999964237213,0|0,3:0|2:0,2:0:0:0:
498,53,36017,2,0,P|437:67|378:82,1,97.4999964237213,2|0,2:0|2:0,2:0:0:0:
287,236,36198,6,0,P|277:183|314:150,1,97.4999964237213,0|0,3:0|2:0,2:0:0:0:
508,217,36378,2,0,P|518:270|481:303,1,97.4999964237213,2|0,2:0|2:0,2:0:0:0:
94,227,36559,6,0,P|303:178|498:134,1,409.49998497963,0|0,3:0|2:0,2:0:0:0:
508,217,36921,2,0,P|292:259|81:316,1,438.749983906746,0|0,3:0|2:0,2:0:0:0:
243,355,37282,6,0,B|271:190|397:108|493:135|493:135|413:158|413:238,1,487.499982118607,2|0,3:2|2:0,2:0:0:0:
487,362,37643,2,0,P|373:188|41:141,1,545.99997997284,2|0,3:2|2:0,2:0:0:0:
4,77,38005,6,0,P|12:48|22:13,1,64.9999976158143,0|0,3:2|2:0,2:0:0:0:
364,327,39451,6,0,B|373:348|373:348|398:354|398:354|388:332|388:332|364:327,1,97.5000001430512,4|0,3:2|2:0,2:0:0:0:
85,262,39812,2,0,B|61:259|61:259|44:277|44:277|68:280|68:280|85:262,1,97.5000001430512,4|0,3:2|2:0,2:0:0:0:
280,53,40174,2,0,B|294:33|294:33|286:9|286:9|272:29|272:29|280:53,1,97.5000001430512,4|0,3:2|2:0,2:0:0:0:
167,186,40896,5,8,3:1:0:0:
210,289,41258,5,8,3:1:0:0:
303,243,41619,5,8,3:1:0:0:
364,327,41800,5,0,2:0:0:0:
364,327,41890,1,8,3:1:0:0:
458,281,42161,5,8,3:1:0:0:
344,60,42342,5,8,3:1:0:0:
349,167,42704,5,8,3:1:0:0:
454,196,43065,5,8,3:1:0:0:
512,104,43336,5,8,3:1:0:0:
445,19,43607,5,8,3:1:0:0:
303,243,43788,5,8,3:1:0:0:
260,140,44149,5,8,3:1:0:0:
167,186,44511,5,8,3:1:0:0:
106,102,44692,5,0,2:0:0:0:
106,102,44782,1,8,3:1:0:0:
12,148,45053,5,8,3:1:0:0:
68,306,45234,5,8,3:1:0:0:
70,290,45415,1,0,2:0:0:0:
73,274,45595,1,8,3:1:0:0:
148,319,45836,5,0,3:0:0:0:
150,303,45896,1,0,3:0:0:0:
153,287,45957,1,8,3:1:0:0:
227,321,46137,1,0,2:0:0:0:
119,141,46318,5,8,3:1:0:0:
51,179,46499,1,8,3:1:0:0:
224,240,46680,5,8,3:1:0:0:
313,189,47041,5,8,3:1:0:0:
393,254,47402,5,8,3:1:0:0:
483,204,47583,5,0,2:0:0:0:
483,204,47674,1,8,3:1:0:0:
403,139,47945,5,8,3:1:0:0:
169,383,48125,5,8,3:1:0:0:
153,287,48487,5,8,3:1:0:0:
138,192,48848,5,8,3:1:0:0:
123,97,49119,5,8,3:1:0:0:
107,2,49390,5,8,3:1:0:0:
326,278,49571,5,8,3:1:0:0:
232,234,49933,5,8,3:1:0:0:
158,306,50294,5,8,3:1:0:0:
64,264,50475,5,0,2:0:0:0:
64,264,50565,1,8,3:1:0:0:
138,192,50836,5,8,3:1:0:0:
436,105,51017,6,0,P|410:173|391:248,1,129.999995231629,8|0,3:1|2:0,2:0:0:0:
66,125,51378,2,0,P|92:57|111:-18,1,129.999995231629,8|0,3:1|2:0,2:0:0:0:
252,308,51740,2,0,P|184:282|109:263,1,129.999995231629,8|0,3:1|2:0,2:0:0:0:
279,91,52101,5,0,3:0:0:0:
279,91,52192,1,0,3:0:0:0:
279,91,52282,2,0,L|319:82,2,32.4999988079071,0|0|0,3:0|3:0|3:0,2:0:0:0:
216,179,52463,6,0,B|145:189|79:127|166:105|67:-12|-20:18|-41:98|3:144|35:138,1,360.749986767769,4|0,3:2|2:0,2:0:0:0:
37,149,52824,2,0,P|9:190|44:232,1,107.249996066094,8|0,2:0|2:0,2:0:0:0:
310,241,53005,5,0,2:0:0:0:
310,241,53095,1,0,2:0:0:0:
310,241,53186,2,0,B|380:251|446:189|359:167|458:49|546:80|567:160|522:206|490:200,1,360.749986767769,0|0,3:0|2:0,2:0:0:0:
481,211,53547,2,0,P|509:252|474:294,1,107.249996066094,8|0,2:0|2:0,2:0:0:0:
262,371,53728,5,0,2:0:0:0:
262,371,53818,1,0,2:0:0:0:
262,371,53908,1,0,3:0:0:0:
98,0,54089,6,0,B|71:60|124:109|162:67|214:116|199:173,1,227.49999165535,2|8,2:0|2:0,2:0:0:0:
0,373,54451,5,2,2:0:0:0:
0,373,54541,1,0,2:0:0:0:
0,373,54631,2,0,P|53:350|104:330,1,107.249996066094,0|0,3:0|2:0,2:0:0:0:
50,271,54812,2,0,P|103:248|154:228,1,107.249996066094,2|0,2:0|2:0,2:0:0:0:
255,28,54993,6,0,P|308:51|359:71,1,107.249996066094,8|0,2:0|2:0,2:0:0:0:
294,135,55174,2,0,P|347:158|398:178,1,107.249996066094,2|0,2:0|2:0,2:0:0:0:
512,102,55354,5,0,3:0:0:0:
418,271,55535,1,0,2:0:0:0:
418,271,55625,1,0,2:0:0:0:
418,271,55716,1,8,2:0:0:0:
144,63,55896,6,0,P|189:71|202:129,1,107.249996066094,0|0,2:0|2:0,2:0:0:0:
150,230,56077,1,0,3:0:0:0:
300,308,56258,6,0,P|269:342|213:325,1,107.249996066094,0|0,2:0|2:0,2:0:0:0:
150,230,56439,1,8,2:0:0:0:
9,320,56619,6,0,P|-6:276|37:235,1,107.249996066094,0|0,2:0|2:0,2:0:0:0:
150,230,56800,1,0,3:0:0:0:
0,25,56981,6,0,P|17:88|30:137,1,107.249996066094,0|0,2:0|2:0,2:0:0:0:
117,149,57161,1,8,2:0:0:0:
126,147,57252,2,0,P|189:130|339:93,1,214.499992132187,0|0,2:0|2:0,2:0:0:0:
378,21,57523,5,0,3:2:0:0:
378,21,57613,1,0,2:0:0:0:
378,21,57704,1,8,2:0:0:0:
409,168,57884,5,8,2:0:0:0:
473,138,57975,1,0,2:0:0:0:
458,68,58065,1,0,2:0:0:0:
201,365,58246,6,0,B|137:383|77:319|132:284|56:213|-24:256|-24:256|7:283|4:325,1,360.749986767769,4|0,3:2|2:0,2:0:0:0:
14,327,58607,2,0,P|54:293|102:270,1,107.249996066094,8|0,2:0|2:0,2:0:0:0:
311,264,58788,5,0,2:0:0:0:
311,264,58878,1,0,2:0:0:0:
311,264,58969,2,0,B|374:282|434:218|379:183|455:112|536:155|536:155|504:182|507:224,1,360.749986767769,0|0,3:0|2:0,2:0:0:0:
498,226,59330,2,0,P|457:191|409:168,1,107.249996066094,8|0,2:0|2:0,2:0:0:0:
251,24,59511,5,0,2:0:0:0:
251,24,59601,1,0,2:0:0:0:
251,24,59692,1,0,3:0:0:0:
306,347,59872,6,0,B|333:287|280:238|242:280|190:231|205:174,1,227.49999165535,2|8,2:0|2:0,2:0:0:0:
446,31,60234,5,2,2:0:0:0:
446,31,60324,1,0,2:0:0:0:
446,31,60415,2,0,P|388:52|342:74,1,107.249996066094,0|0,3:0|2:0,2:0:0:0:
301,129,60595,2,0,P|248:106|197:86,1,107.249996066094,2|0,2:0|2:0,2:0:0:0:
5,230,60776,6,0,P|63:251|109:273,1,107.249996066094,8|0,2:0|2:0,2:0:0:0:
150,326,60957,2,0,P|203:303|254:283,1,107.249996066094,2|0,2:0|2:0,2:0:0:0:
370,192,61137,5,0,3:0:0:0:
306,347,61318,1,0,2:0:0:0:
306,347,61408,1,0,2:0:0:0:
306,347,61499,1,8,2:0:0:0:
175,6,61680,6,0,P|130:14|117:72,1,107.249996066094,0|0,2:0|2:0,2:0:0:0:
169,173,61860,1,0,3:0:0:0:
19,251,62041,6,0,P|50:285|106:268,1,107.249996066094,0|0,2:0|2:0,2:0:0:0:
169,173,62222,1,8,2:0:0:0:
310,263,62402,6,0,P|325:219|282:178,1,107.249996066094,0|0,2:0|2:0,2:0:0:0:
169,173,62583,1,0,3:0:0:0:
337,31,62764,5,0,2:0:0:0:
337,31,62854,1,0,2:0:0:0:
337,31,62945,1,8,2:0:0:0:
431,371,63306,6,0,P|451:277|482:161,1,214.499992132187,0|0,3:0|2:0,2:0:0:0:
235,103,63668,2,0,P|207:206|184:311,1,214.499992132187,8|0,2:0|2:0,2:0:0:0:
461,17,64029,5,4,3:2:0:0:
461,17,65475,5,8,3:1:0:0:
481,162,65655,1,8,3:1:0:0:
336,182,65836,1,8,3:1:0:0:
316,37,66017,1,8,3:1:0:0:
325,189,66198,6,0,P|341:125|403:117,1,129.999995231629,0|0,2:0|2:0,2:0:0:0:
432,312,66559,2,0,P|491:297|504:237,1,129.999995231629,0|0,2:0|2:0,2:0:0:0:
31,235,66921,6,0,B|108:215|147:291|87:311|152:386|216:362,1,253.499990701676,4|0,3:2|2:0,2:0:0:0:
265,307,67282,6,0,P|299:291|352:278,1,84.4999969005585,8|0,2:0|2:0,2:0:0:0:
314,110,67463,1,0,2:0:0:0:
314,110,67553,1,0,2:0:0:0:
314,110,67643,2,0,P|207:149|130:175,1,168.999993801117,0|2,3:0|2:0,2:0:0:0:
2,38,68005,6,0,P|53:52|86:65,1,84.4999969005585,8|0,2:0|2:0,2:0:0:0:
179,10,68186,1,2,2:0:0:0:
260,218,68366,5,0,3:0:0:0:
182,310,68547,1,2,2:0:0:0:
78,250,68728,1,8,2:0:0:0:
1,342,68908,1,2,2:0:0:0:
344,279,69089,6,0,P|351:244|357:205,1,64.9999976158143,0|0,3:0|2:0,2:0:0:0:
355,215,69360,1,0,2:0:0:0:
355,215,69451,2,0,P|455:228|440:337,1,227.49999165535,8|0,2:0|2:0,2:0:0:0:
99,368,69812,6,0,P|120:242|144:117,1,253.499990701676,0|0,3:0|2:0,2:0:0:0:
119,45,70174,6,0,P|82:31|34:58,1,84.4999969005585,8|0,2:0|2:0,2:0:0:0:
29,218,70354,1,0,2:0:0:0:
29,218,70445,1,0,2:0:0:0:
29,218,70535,2,0,P|107:244|165:187,1,168.999993801117,0|2,3:0|2:0,2:0:0:0:
273,30,70896,6,0,P|260:77|252:118,1,84.4999969005585,8|0,2:0|2:0,2:0:0:0:
355,215,71077,1,2,2:0:0:0:
99,368,71258,5,0,3:0:0:0:
252,341,71439,1,2,2:0:0:0:
252,341,71529,1,0,2:0:0:0:
252,341,71619,1,8,2:0:0:0:
380,301,71800,1,2,2:0:0:0:
225,209,71981,6,0,P|181:194|144:185,1,64.9999976158143,0|8,3:0|2:0,2:0:0:0:
104,139,72252,1,0,2:0:0:0:
104,139,72342,1,8,3:2:0:0:
29,218,72523,1,0,2:0:0:0:
479,30,72704,6,0,B|402:10|363:86|423:106|358:181|294:157,1,253.499990701676,4|0,3:2|2:0,2:0:0:0:
312,85,73065,2,0,P|367:106|398:114,1,84.4999969005585,8|0,2:0|2:0,2:0:0:0:
493,235,73246,5,0,2:0:0:0:
493,235,73336,1,0,2:0:0:0:
493,235,73427,2,0,P|405:267|331:310,1,168.999993801117,0|2,3:0|2:0,2:0:0:0:
260,357,73698,5,0,2:0:0:0:
260,357,73788,2,0,P|304:337|342:317,1,84.4999969005585,8|0,2:0|2:0,2:0:0:0:
430,357,73969,1,2,2:0:0:0:
163,189,74149,5,0,3:0:0:0:
229,253,74330,1,2,2:0:0:0:
192,275,74421,1,0,2:0:0:0:
178,318,74511,1,8,2:0:0:0:
145,276,74601,1,0,2:0:0:0:
106,270,74692,1,2,2:0:0:0:
394,39,74872,5,0,3:0:0:0:
463,111,75053,1,0,2:0:0:0:
463,111,75143,1,0,2:0:0:0:
463,111,75234,2,0,B|399:105|374:167|374:167|376:100|303:82,1,227.49999165535,8|0,2:0|2:0,2:0:0:0:
101,351,75595,6,0,P|80:225|56:100,1,253.499990701676,0|0,3:0|2:0,2:0:0:0:
104,46,75957,6,0,P|132:15|173:12,1,84.4999969005585,8|0,2:0|2:0,2:0:0:0:
319,188,76137,1,0,2:0:0:0:
319,188,76228,1,0,2:0:0:0:
319,188,76318,2,0,P|252:119|183:119,1,168.999993801117,0|2,3:0|2:0,2:0:0:0:
115,162,76589,5,0,2:0:0:0:
115,162,76680,2,0,B|105:204|105:204|136:235,1,84.4999969005585,8|0,2:0|2:0,2:0:0:0:
101,351,76860,1,2,2:0:0:0:
435,171,77041,5,0,3:0:0:0:
338,263,77222,1,2,2:0:0:0:
387,290,77312,1,0,2:0:0:0:
404,345,77402,1,8,2:0:0:0:
439,301,77493,1,0,2:0:0:0:
492,294,77583,1,2,2:0:0:0:
101,351,77764,5,0,3:0:0:0:
175,310,77945,1,8,2:0:0:0:
175,310,78035,1,0,2:0:0:0:
175,310,78125,2,0,P|219:317|259:330,2,84.4999969005585,8|0|8,3:2|2:0|2:0,2:0:0:0:
46,183,78487,6,0,P|36:145|19:101,1,81.2499970197678,4|0,3:2|2:0,2:0:0:0:
90,84,78668,2,0,P|104:122|115:162,1,81.2499970197678,0|0,2:0|2:0,2:0:0:0:
266,249,78848,6,0,P|276:211|293:167,1,81.2499970197678,0|0,3:0|2:0,2:0:0:0:
221,150,79029,2,0,P|207:188|197:228,1,81.2499970197678,0|0,2:0|2:0,2:0:0:0:
85,352,79210,6,0,P|61:260|31:182,2,162.499994039536,0|0|8,3:0|2:0|3:2,2:0:0:0:
302,319,79933,5,0,3:0:0:0:
314,313,80023,2,0,P|356:297|401:287,1,81.2499970197678,0|0,2:0|2:0,2:0:0:0:
504,173,80204,1,0,2:0:0:0:
492,179,80294,2,0,P|450:195|405:205,1,81.2499970197678,0|0,3:0|2:0,2:0:0:0:
276,98,80475,1,0,2:0:0:0:
392,371,80655,6,0,P|423:214|428:184,1,162.499994039536,0|8,3:0|2:0,2:0:0:0:
313,355,81017,2,0,P|344:198|349:168,1,162.499994039536,0|8,3:0|2:0,2:0:0:0:
119,133,81378,6,0,P|97:100|101:59,1,81.2499970197678,0|0,3:0|2:0,2:0:0:0:
174,43,81559,2,0,P|196:76|192:117,1,81.2499970197678,0|0,2:0|2:0,2:0:0:0:
325,268,81740,6,0,P|347:235|343:194,1,81.2499970197678,0|0,3:0|2:0,2:0:0:0:
270,178,81921,2,0,P|248:211|252:252,1,81.2499970197678,0|0,2:0|2:0,2:0:0:0:
85,352,82101,5,0,3:0:0:0:
174,346,82282,2,0,P|113:270|47:273,1,162.499994039536,0|8,2:0|2:0,2:0:0:0:
503,374,82824,5,0,3:0:0:0:
491,370,82915,2,0,P|440:353|406:343,1,81.2499970197678,0|0,2:0|2:0,2:0:0:0:
432,223,83095,1,0,2:0:0:0:
420,219,83186,2,0,P|369:202|335:192,1,81.2499970197678,0|0,3:0|2:0,2:0:0:0:
251,250,83366,1,0,2:0:0:0:
509,217,83547,6,0,P|428:253|349:296,2,162.499994039536,0|8|8,3:0|2:0|3:2,2:0:0:0:
218,129,84270,6,0,P|228:91|245:47,1,81.2499970197678,4|0,3:2|2:0,2:0:0:0:
174,30,84451,2,0,P|160:68|149:108,1,81.2499970197678,0|0,2:0|2:0,2:0:0:0:
24,248,84631,6,0,P|14:210|-3:166,1,81.2499970197678,8|0,2:0|2:0,2:0:0:0:
69,149,84812,2,0,P|83:187|93:227,1,81.2499970197678,0|0,2:0|2:0,2:0:0:0:
255,354,84993,6,0,B|249:349|249:349|91:326,2,162.499994039536,0|0|8,3:0|2:0|2:0,2:0:0:0:
509,217,85716,5,0,3:0:0:0:
501,206,85806,2,0,P|461:185|423:201,1,81.2499970197678,0|0,2:0|2:0,2:0:0:0:
401,333,85987,1,0,2:0:0:0:
409,344,86077,2,0,P|448:364|486:348,1,81.2499970197678,8|0,2:0|2:0,2:0:0:0:
355,165,86258,1,0,2:0:0:0:
171,324,86439,6,0,P|265:292|337:278,1,162.499994039536,0|8,3:0|2:0,2:0:0:0:
132,254,86800,2,0,P|226:221|297:204,1,162.499994039536,0|8,3:0|2:0,2:0:0:0:
32,8,87161,6,0,P|83:19|94:58,1,81.2499970197678,0|0,3:0|2:0,2:0:0:0:
173,60,87342,2,0,P|188:110|160:139,1,81.2499970197678,0|0,2:0|2:0,2:0:0:0:
197,209,87523,2,0,P|161:247|121:237,1,81.2499970197678,8|0,2:0|2:0,2:0:0:0:
30,175,87704,5,0,2:0:0:0:
30,175,87794,1,0,2:0:0:0:
30,175,87884,2,0,P|75:175|126:180,1,81.2499970197678,0|0,3:0|2:0,2:0:0:0:
173,131,88065,2,0,P|215:115|261:93,1,81.2499970197678,0|0,2:0|2:0,2:0:0:0:
308,164,88246,2,0,P|386:172|474:188,1,162.499994039536,8|0,2:0|2:0,2:0:0:0:
382,262,88607,5,0,3:0:0:0:
370,259,88698,2,0,P|329:252|289:248,1,81.2499970197678,0|0,2:0|2:0,2:0:0:0:
316,74,88878,1,0,2:0:0:0:
327,77,88969,2,0,P|367:83|407:87,1,81.2499970197678,8|0,2:0|2:0,2:0:0:0:
468,186,89149,1,0,2:0:0:0:
108,161,89330,6,0,B|66:128|66:128|93:68,1,103.999996185303,12|0,3:2|2:0,2:0:0:0:
173,60,89511,2,0,B|214:92|214:92|187:152,1,103.999996185303,12|0,2:0|2:0,2:0:0:0:
361,340,89692,6,0,B|402:307|402:307|375:247,1,103.999996185303,12|0,3:2|2:0,2:0:0:0:
296,239,89872,2,0,B|254:271|254:271|281:331,1,103.999996185303,12|0,2:0|2:0,2:0:0:0:
16,368,90053,5,8,3:1:0:0:
48,256,90415,5,8,3:1:0:0:
160,288,90776,5,8,3:1:0:0:
192,176,90957,5,0,2:0:0:0:
192,176,91047,1,8,3:1:0:0:
304,208,91318,5,8,3:1:0:0:
38,159,91499,6,0,P|22:104|0:33,1,129.999995231629,8|0,3:1|2:0,2:0:0:0:
111,140,91860,2,0,P|95:85|73:14,1,129.999995231629,8|0,3:1|2:0,2:0:0:0:
192,176,92222,5,8,3:1:0:0:
56,87,92493,5,8,3:1:0:0:
253,17,92764,5,8,3:1:0:0:
413,316,92945,5,8,3:1:0:0:
352,216,93306,5,8,3:1:0:0:
252,276,93668,5,8,3:1:0:0:
192,176,93848,5,0,2:0:0:0:
192,176,93939,1,8,3:1:0:0:
92,236,94210,5,8,3:1:0:0:
335,118,94390,5,8,3:1:0:0:
333,102,94571,1,0,2:0:0:0:
330,86,94752,1,8,3:1:0:0:
413,106,94993,5,0,3:0:0:0:
411,90,95053,1,0,3:0:0:0:
408,74,95113,1,8,3:1:0:0:
491,153,95294,1,0,2:0:0:0:
413,316,95475,5,8,3:1:0:0:
481,278,95655,1,8,3:1:0:0:
174,87,95836,5,8,3:1:0:0:
270,21,96198,5,8,3:1:0:0:
335,118,96559,5,8,3:1:0:0:
239,183,96740,5,0,2:0:0:0:
239,183,96830,1,8,3:1:0:0:
174,87,97101,5,8,3:1:0:0:
58,320,97282,6,0,P|75:250|92:182,1,129.999995231629,8|0,3:1|2:0,2:0:0:0:
130,339,97643,2,0,P|147:269|164:201,1,129.999995231629,8|0,3:1|2:0,2:0:0:0:
39,128,98005,5,8,3:1:0:0:
194,284,98276,5,8,3:1:0:0:
6,379,98547,5,8,3:1:0:0:
355,253,98728,5,8,3:1:0:0:
259,187,99089,5,8,3:1:0:0:
194,284,99451,5,8,3:1:0:0:
290,349,99631,5,0,2:0:0:0:
290,349,99722,1,8,3:1:0:0:
355,253,99993,5,8,3:1:0:0:
39,128,100174,6,0,P|112:103|162:85,1,129.999995231629,8|0,3:1|2:0,2:0:0:0:
478,202,100535,2,0,P|405:177|355:159,1,129.999995231629,8|0,3:1|2:0,2:0:0:0:
6,379,100896,2,0,P|79:354|129:336,1,129.999995231629,8|0,3:1|2:0,2:0:0:0:
244,61,101258,5,8,2:3:0:0:
244,61,101348,1,8,2:3:0:0:
244,61,101439,2,0,L|253:21,2,32.4999988079071,0|0|0,3:0|3:0|3:0,2:0:0:0:
179,194,101619,6,0,B|164:122|116:59|70:46|-6:63|-41:102|-24:185|49:180|64:152,1,360.749986767769,4|0,3:2|2:0,2:0:0:0:
68,165,101981,2,0,P|40:206|75:248,1,107.249996066094,8|0,2:0|2:0,2:0:0:0:
347,254,102161,5,0,2:0:0:0:
347,254,102252,1,0,2:0:0:0:
347,254,102342,2,0,B|361:182|409:119|456:106|531:123|567:162|549:245|476:240|461:212,1,360.749986767769,0|0,3:0|2:0,2:0:0:0:
458,225,102704,2,0,P|486:266|451:308,1,107.249996066094,8|0,2:0|2:0,2:0:0:0:
260,372,102884,5,0,2:0:0:0:
260,372,102975,1,0,2:0:0:0:
260,372,103065,1,0,3:0:0:0:
357,47,103246,6,0,B|369:24|394:17|394:17|329:18|283:84|290:144,1,227.49999165535,2|8,2:0|2:0,2:0:0:0:
511,370,103607,5,2,2:0:0:0:
511,370,103698,1,0,2:0:0:0:
511,370,103788,2,0,P|458:347|407:327,1,107.249996066094,0|0,3:0|2:0,2:0:0:0:
422,256,103969,2,0,P|369:233|318:213,1,107.249996066094,2|0,2:0|2:0,2:0:0:0:
242,21,104149,6,0,P|189:44|138:64,1,107.249996066094,8|0,2:0|2:0,2:0:0:0:
208,125,104330,2,0,P|155:148|104:168,1,107.249996066094,2|0,2:0|2:0,2:0:0:0:
30,323,104511,5,0,3:0:0:0:
0,148,104692,1,0,2:0:0:0:
0,148,104782,1,0,2:0:0:0:
0,148,104872,1,8,2:0:0:0:
211,367,105053,6,0,P|266:338|247:287,1,107.249996066094,0|0,2:0|2:0,2:0:0:0:
139,246,105234,1,0,3:0:0:0:
208,125,105415,6,0,P|155:90|120:133,1,107.249996066094,0|0,2:0|2:0,2:0:0:0:
139,246,105595,1,8,2:0:0:0:
0,247,105776,6,0,P|-3:309|51:318,1,107.249996066094,0|0,2:0|2:0,2:0:0:0:
139,246,105957,1,0,3:0:0:0:
288,371,106137,6,0,P|329:360|398:353,1,107.249996066094,0|0,2:0|2:0,2:0:0:0:
459,302,106318,1,8,2:0:0:0:
456,292,106408,2,0,P|436:177|423:74,1,214.499992132187,0|0,2:0|2:0,2:0:0:0:
482,24,106680,5,0,3:2:0:0:
482,24,106770,1,0,2:0:0:0:
482,24,106860,1,8,2:0:0:0:
336,108,107041,5,8,2:0:0:0:
312,41,107131,1,0,2:0:0:0:
372,1,107222,1,0,2:0:0:0:
202,358,107402,6,0,B|192:268|107:201|8:243|8:243|63:269|62:329,1,360.749986767769,4|0,3:2|2:0,2:0:0:0:
71,311,107764,2,0,P|95:253|132:233,1,107.249996066094,8|0,2:0|2:0,2:0:0:0:
336,272,107945,5,0,2:0:0:0:
336,272,108035,1,0,2:0:0:0:
336,272,108125,2,0,B|346:182|431:115|530:157|530:157|475:183|476:243,1,360.749986767769,0|0,3:0|2:0,2:0:0:0:
467,225,108487,2,0,P|443:167|406:147,1,107.249996066094,8|0,2:0|2:0,2:0:0:0:
256,28,108668,5,0,2:0:0:0:
256,28,108758,1,0,2:0:0:0:
256,28,108848,1,0,3:0:0:0:
71,311,109029,6,0,B|59:334|34:341|34:341|99:340|145:274|138:214,1,227.49999165535,2|8,2:0|2:0,2:0:0:0:
12,24,109390,5,2,2:0:0:0:
12,24,109481,1,0,2:0:0:0:
12,24,109571,2,0,P|70:45|115:67,1,107.249996066094,0|0,3:0|2:0,2:0:0:0:
115,143,109752,2,0,P|168:120|219:100,1,107.249996066094,2|0,2:0|2:0,2:0:0:0:
434,229,109933,6,0,P|376:250|330:272,1,107.249996066094,8|0,2:0|2:0,2:0:0:0:
331,348,110113,2,0,P|278:325|227:305,1,107.249996066094,2|0,2:0|2:0,2:0:0:0:
57,233,110294,5,0,3:0:0:0:
111,64,110475,1,0,2:0:0:0:
111,64,110565,1,0,2:0:0:0:
111,64,110655,1,8,2:0:0:0:
231,306,110836,6,0,P|176:277|195:226,1,107.249996066094,0|0,2:0|2:0,2:0:0:0:
303,185,111017,1,0,3:0:0:0:
234,64,111198,6,0,P|287:29|322:72,1,107.249996066094,0|0,2:0|2:0,2:0:0:0:
303,185,111378,1,8,2:0:0:0:
442,186,111559,6,0,P|445:248|391:257,1,107.249996066094,0|0,2:0|2:0,2:0:0:0:
303,185,111740,1,0,3:0:0:0:
492,380,111921,5,0,2:0:0:0:
492,380,112011,1,0,2:0:0:0:
492,380,112101,1,8,2:0:0:0:
77,141,112463,6,0,P|106:255|128:361,1,214.499992132187,0|0,3:0|2:0,2:0:0:0:
324,267,112824,2,0,P|295:153|273:47,1,214.499992132187,8|0,2:0|2:0,2:0:0:0:
35,330,113186,5,4,3:2:0:0:
35,330,114631,5,8,3:1:0:0:
137,271,114812,1,8,3:1:0:0:
275,58,114993,5,8,3:1:0:0:
173,117,115174,1,8,3:1:0:0:
137,271,115354,6,0,P|178:186|88:186,1,214.499992132187,0|0,2:0|2:0,2:0:0:0:
76,184,115716,2,0,P|-14:173|30:94,1,214.499992132187,0|0,2:0|2:0,2:0:0:0:
127,31,116077,6,0,P|84:184|42:359,1,331.499987840653,4|0,3:2|2:0,2:0:0:0:
123,349,116439,6,0,P|168:301|213:305,1,110.499995946884,8|0,2:0|2:0,2:0:0:0:
346,248,116619,1,2,2:0:0:0:
346,248,116710,1,0,2:0:0:0:
346,248,116800,2,0,B|287:274|239:222|280:185|232:134|176:149,1,220.999991893768,0|2,3:0|2:0,2:0:0:0:
350,31,117161,6,0,P|335:81|320:144,1,110.499995946884,10|0,2:0|2:0,2:0:0:0:
186,221,117342,1,2,2:0:0:0:
471,356,117523,5,0,3:0:0:0:
298,325,117704,1,2,2:0:0:0:
328,152,117884,1,10,2:0:0:0:
501,183,118065,1,2,2:0:0:0:
177,307,118246,6,0,P|125:319|98:331,1,64.9999976158143,0|8,3:0|2:0,2:0:0:0:
114,323,118517,1,0,2:0:0:0:
114,323,118607,2,0,P|62:170|20:65,1,246.999990940094,8|0,2:0|2:0,2:0:0:0:
262,353,118969,6,0,B|353:384|418:300|352:250|417:167|503:182,1,331.499987840653,0|0,3:0|2:0,2:0:0:0:
512,107,119330,6,0,P|472:96|403:78,1,110.499995946884,8|0,2:0|2:0,2:0:0:0:
254,86,119511,1,2,2:0:0:0:
254,86,119601,1,0,2:0:0:0:
254,86,119692,2,0,P|356:46|480:3,1,220.999991893768,0|2,3:0|2:0,2:0:0:0:
361,235,120053,6,0,P|315:196|331:153,1,110.499995946884,10|0,2:0|2:0,2:0:0:0:
405,78,120234,1,2,2:0:0:0:
110,233,120415,5,0,3:0:0:0:
161,72,120595,1,2,2:0:0:0:
161,72,120686,1,0,2:0:0:0:
161,72,120776,1,10,2:0:0:0:
0,34,120957,1,2,2:0:0:0:
55,294,121137,6,0,P|158:252|262:217,1,220.999991893768,0|0,3:0|2:0,2:0:0:0:
461,9,121499,2,0,P|356:45|254:86,1,220.999991893768,8|0,2:0|2:0,2:0:0:0:
271,344,121860,6,0,P|310:190|356:16,1,331.499987840653,4|0,3:2|2:0,2:0:0:0:
417,77,122222,2,0,P|461:96|456:161,1,110.499995946884,8|0,2:0|2:0,2:0:0:0:
487,330,122402,5,2,2:0:0:0:
487,330,122493,1,0,2:0:0:0:
487,330,122583,2,0,P|429:252|320:284,1,220.999991893768,0|2,3:0|2:0,2:0:0:0:
253,86,122945,6,0,P|313:113|312:171,1,110.499995946884,10|0,2:0|2:0,2:0:0:0:
433,230,123125,1,2,2:0:0:0:
191,365,123306,5,0,3:0:0:0:
55,294,123487,1,2,2:0:0:0:
106,269,123577,1,0,2:0:0:0:
157,271,123668,1,10,2:0:0:0:
108,242,123758,1,0,2:0:0:0:
74,195,123848,1,2,2:0:0:0:
433,230,124029,5,0,3:0:0:0:
397,331,124210,1,8,2:0:0:0:
397,331,124300,1,0,2:0:0:0:
397,331,124390,2,0,P|420:189|446:76,1,246.999990940094,8|0,2:0|2:0,2:0:0:0:
242,375,124752,6,0,B|156:410|88:325|154:275|90:192|0:219,1,331.499987840653,0|0,3:0|2:0,2:0:0:0:
5,137,125113,2,0,P|60:120|76:70,1,110.499995946884,8|0,2:0|2:0,2:0:0:0:
230,12,125294,5,2,2:0:0:0:
230,12,125384,1,0,2:0:0:0:
230,12,125475,2,0,P|198:133|176:230,1,220.999991893768,0|2,3:0|2:0,2:0:0:0:
359,257,125836,6,0,P|330:184|317:146,1,110.499995946884,10|0,2:0|2:0,2:0:0:0:
358,68,126017,1,2,2:0:0:0:
255,353,126198,5,0,3:0:0:0:
408,324,126378,1,2,2:0:0:0:
459,295,126469,1,0,2:0:0:0:
512,295,126559,1,10,2:0:0:0:
459,263,126649,1,0,2:0:0:0:
424,213,126740,1,2,2:0:0:0:
488,41,126921,5,0,3:0:0:0:
359,257,127101,1,8,2:0:0:0:
337,203,127192,1,0,2:0:0:0:
319,153,127282,1,8,3:2:0:0:
255,353,127463,1,8,2:0:0:0:
147,103,127643,6,0,L|103:360,1,259.999990463257,4|0,3:2|3:0,2:0:0:0:
87,272,128186,6,0,B|6:255|6:255|18:200,1,129.999995231629,0|0,2:0|3:0,2:0:0:0:
147,103,128547,2,0,B|227:119|227:119|215:174,1,129.999995231629,0|0,2:0|3:0,2:0:0:0:
16,208,128908,1,0,2:0:0:0:
258,274,129089,6,0,B|372:253|372:253|375:257|375:257|515:233,1,259.999990463257,0|0,3:0|3:0,2:0:0:0:
385,287,129631,6,0,B|335:295|335:295|349:374,1,129.999995231629,0|0,2:0|3:0,2:0:0:0:
430,208,129993,2,0,B|479:199|479:199|465:120,1,129.999995231629,0|0,2:0|3:0,2:0:0:0:
385,287,130354,1,0,2:0:0:0:
213,17,130535,6,0,L|259:279,1,259.999990463257,0|0,3:0|3:0,2:0:0:0:
278,158,131077,6,0,B|264:79|264:79|327:68,1,129.999995231629,0|0,2:0|3:0,2:0:0:0:
152,214,131439,2,0,B|201:205|201:205|187:126,1,129.999995231629,0|0,2:0|3:0,2:0:0:0:
313,70,131800,1,0,2:0:0:0:
257,273,131981,6,0,B|143:252|143:252|140:256|140:256|1:232,1,259.999990463257,0|0,3:0|3:0,2:0:0:0:
170,352,132523,6,0,B|104:341|104:341|99:337|99:337|43:328,1,129.999995231629,0|0,2:0|3:0,2:0:0:0:
115,167,132884,2,0,B|182:179|182:179|186:182|186:182|243:192,1,129.999995231629,2|0,2:0|3:0,2:0:0:0:
131,258,133246,2,0,B|64:246|64:246|60:243|60:243|3:233,1,129.999995231629,2|0,2:0|2:0,2:0:0:0:
