osu file format v14

[General]
AudioFilename: audio.mp3
AudioLeadIn: 0
PreviewTime: 50312
Countdown: 0
SampleSet: Soft
StackLeniency: 0.7
Mode: 0
LetterboxInBreaks: 0
WidescreenStoryboard: 0

[Editor]
DistanceSpacing: 1.7
BeatDivisor: 4
GridSize: 32
TimelineZoom: 2.899999

[Metadata]
Title:Vanilla Chocolat (Sped Up Ver.)
TitleUnicode:Vanilla Chocolat (Sped Up Ver.)
Artist:Alexandra Stan feat. Connect-R
ArtistUnicode:Alexandra Stan feat. Connect-R
Creator:DeRandom Otaku
Version:Sweet
Source:
Tags:unlocked nightcore romanian french dance pop remix kowari alphabet venax ren speed
BeatmapID:2041972
BeatmapSetID:975620

[Difficulty]
HPDrainRate:5.5
CircleSize:3.8
OverallDifficulty:8
ApproachRate:9
SliderMultiplier:1.92
SliderTickRate:1

[Events]
//Background and Video events
0,0,"BG.jpg",0,0
//Break Periods
//Storyboard Layer 0 (Background)
//Storyboard Layer 1 (Fail)
//Storyboard Layer 2 (Pass)
//Storyboard Layer 3 (Foreground)
//Storyboard Sound Samples

[TimingPoints]
1777,390.625,4,1,0,100,1,0
14277,-98.0392156862744,4,2,0,50,0,0
26777,-89.2857142857143,4,2,0,60,0,0
39277,-89.2857142857143,4,2,0,68,0,0
50409,-89.2857142857143,4,2,0,50,0,0
51777,-81.9672131147541,4,2,0,72,0,1
64277,-89.2857142857143,4,2,0,68,0,0
76874,-89.2857142857143,4,2,0,5,0,0

[Colours]
Combo1 : 168,81,255
Combo2 : 255,151,255
Combo3 : 187,119,119
Combo4 : 138,138,255

[HitObjects]
63,218,14277,6,0,B|188:221|115:151|257:169,1,195.840001195313,0|2,1:2|1:2,0:2:0:0:
71,131,14862,1,2,0:2:0:0:
158,277,15058,1,2,1:2:0:0:
179,81,15253,1,2,0:2:0:0:
281,240,15448,2,0,P|285:188|302:133,1,97.9200005976563,2|0,1:2|0:2,0:2:0:0:
312,110,15741,1,2,0:2:0:0:
312,110,15839,6,0,B|452:109|363:171|496:185,1,195.840001195313,0|0,1:2|1:2,0:2:0:0:
486,81,16425,1,2,0:2:0:0:
387,247,16620,1,2,1:2:0:0:
456,66,16816,1,2,0:2:0:0:
494,279,17011,1,2,1:2:0:0:
384,121,17206,1,2,0:2:0:0:
306,326,17402,6,0,P|297:250|279:183,1,146.880000896484,2|0,1:2|0:2,0:2:0:0:
256,159,17792,2,0,P|231:202|223:256,1,97.9200005976563,2|0,1:2|0:2,0:2:0:0:
111,372,18183,2,0,P|102:296|84:229,1,146.880000896484,2|0,1:2|0:2,0:2:0:0:
63,197,18573,1,0,1:2:0:0:
16,349,18769,1,0,0:2:0:0:
212,243,18964,6,0,P|267:230|355:258,1,146.880000896484,0|0,1:2|0:2,0:2:0:0:
378,276,19355,1,2,1:2:0:0:
264,345,19550,1,0,0:2:0:0:
478,325,19745,2,0,P|469:262|476:165,1,146.880000896484,2|0,1:2|0:2,0:2:0:0:
482,147,20136,2,0,P|445:122|375:115,1,97.9200005976563,0|0,1:2|0:2,0:2:0:0:
212,243,20527,6,0,P|267:205|372:195,1,146.880000896484,0|0,1:2|3:2,0:2:0:0:
389,212,20917,1,2,1:2:0:0:
274,60,21112,1,2,3:2:0:0:
307,282,21308,1,0,1:2:0:0:
378,96,21503,1,2,0:2:0:0:
467,285,21698,2,0,P|469:230|485:168,1,97.9200005976563,2|0,1:2|0:2,0:2:0:0:
489,152,21991,1,2,0:2:0:0:
489,152,22089,6,0,B|373:180|432:101|276:151,1,195.840001195313,0|0,1:2|1:2,0:2:0:0:
157,237,22675,1,2,0:2:0:0:
228,66,22870,1,2,1:2:0:0:
187,257,23066,1,2,0:2:0:0:
116,86,23261,1,2,1:2:0:0:
52,276,23456,1,2,0:2:0:0:
206,99,23652,6,0,P|249:79|359:79,1,146.880000896484,2|0,1:2|3:2,0:2:0:0:
384,99,24042,1,2,1:2:0:0:
272,233,24237,1,2,3:2:0:0:
482,171,24433,2,0,P|456:241|454:335,1,146.880000896484,2|0,1:2|0:2,0:2:0:0:
466,348,24823,2,0,P|417:331|361:326,1,97.9200005976563,0|0,1:2|0:2,0:2:0:0:
130,266,25214,6,0,P|202:257|272:233,1,146.880000896484,0|0,1:2|0:2,0:2:0:0:
350,194,25605,1,2,1:2:0:0:
297,361,25800,1,0,0:2:0:0:
328,175,25995,1,2,1:2:0:0:
203,302,26191,1,0,0:2:0:0:
389,282,26386,2,0,P|393:217|415:105,1,146.880000896484,0|0,1:2|0:2,0:2:0:0:
432,49,26777,6,0,P|390:23|324:22,1,107.5200013125,14|0,0:2|0:2,0:2:0:0:
219,152,27167,1,8,0:2:0:0:
439,151,27362,1,0,0:2:0:0:
294,314,27558,2,0,P|252:340|139:341,1,161.28000196875,10|0,0:2|0:2,0:2:0:0:
101,325,27948,2,0,P|111:275|103:208,1,107.5200013125,8|2,0:2|0:2,0:2:0:0:
68,27,28339,5,10,0:2:0:0:
19,209,28534,1,0,0:2:0:0:
151,82,28730,1,10,0:2:0:0:
200,264,28925,1,2,0:2:0:0:
279,93,29120,1,10,0:2:0:0:
121,206,29316,1,2,0:2:0:0:
121,206,29413,1,0,0:2:0:0:
121,206,29511,1,10,0:2:0:0:
303,184,29706,1,2,0:2:0:0:
206,39,29902,6,0,P|252:12|310:8,1,107.5200013125,10|0,0:2|0:2,0:2:0:0:
437,228,30292,1,10,0:2:0:0:
303,184,30487,1,2,0:2:0:0:
492,142,30683,1,8,0:2:0:0:
492,142,30878,1,2,0:2:0:0:
295,92,31073,1,10,0:2:0:0:
437,228,31269,2,0,P|426:270|421:338,1,107.5200013125,2|8,0:2|0:2,0:2:0:0:
310,191,31659,5,2,0:2:0:0:
310,191,31855,1,10,0:2:0:0:
214,357,32050,1,2,0:2:0:0:
174,169,32245,1,10,0:2:0:0:
174,169,32343,1,2,0:2:0:0:
174,169,32441,1,2,0:2:0:0:
182,137,32538,1,2,0:2:0:0:
190,105,32636,2,0,P|146:77|88:78,1,107.5200013125,10|0,0:2|0:2,0:2:0:0:
0,362,33027,6,0,P|53:362|97:333,1,107.5200013125,10|0,0:2|0:2,0:2:0:0:
248,233,33417,1,8,0:2:0:0:
13,142,33612,1,0,0:2:0:0:
255,34,33808,2,0,P|238:110|229:200,1,161.28000196875,10|0,0:2|0:2,0:2:0:0:
248,233,34198,2,0,P|297:213|361:211,1,107.5200013125,8|2,0:2|0:2,0:2:0:0:
509,264,34589,5,10,0:2:0:0:
385,131,34784,1,0,0:2:0:0:
428,313,34980,1,10,0:2:0:0:
481,124,35175,1,2,0:2:0:0:
406,287,35370,1,10,0:2:0:0:
363,105,35566,1,2,0:2:0:0:
363,105,35663,1,0,0:2:0:0:
363,105,35761,1,10,0:2:0:0:
309,298,35956,1,2,0:2:0:0:
253,80,36152,6,0,P|206:54|94:75,1,161.28000196875,10|0,0:2|0:2,0:2:0:0:
68,85,36542,2,0,P|88:136|84:202,1,107.5200013125,10|0,0:2|0:2,0:2:0:0:
51,376,36933,1,10,0:2:0:0:
0,217,37128,1,2,0:2:0:0:
138,354,37323,1,10,0:2:0:0:
189,176,37519,2,0,P|237:150|301:150,1,107.5200013125,2|8,0:2|0:2,0:2:0:0:
492,222,37909,5,2,0:2:0:0:
370,90,38105,1,10,0:2:0:0:
410,272,38300,1,2,0:2:0:0:
409,69,38495,1,10,0:2:0:0:
321,241,38691,1,2,0:2:0:0:
321,241,38788,1,0,0:2:0:0:
321,241,38886,2,0,P|337:303|343:357,1,107.5200013125,10|0,0:2|0:2,0:2:0:0:
230,188,39277,6,0,P|268:150|380:156,1,161.28000196875,10|0,1:2|0:2,0:2:0:0:
406,173,39667,1,8,0:2:0:0:
266,28,39862,1,2,0:2:0:0:
321,241,40058,1,10,0:2:0:0:
393,60,40253,1,2,0:2:0:0:
393,60,40351,1,2,0:2:0:0:
393,60,40448,1,10,0:2:0:0:
443,272,40644,1,2,0:2:0:0:
288,125,40839,1,10,1:2:0:0:
212,346,41034,5,2,0:2:0:0:
355,211,41230,1,10,0:2:0:0:
167,201,41425,1,2,0:2:0:0:
310,336,41620,1,10,0:2:0:0:
264,143,41816,1,2,0:2:0:0:
174,343,42011,2,0,P|167:289|145:228,1,107.5200013125,10|0,0:2|0:2,0:2:0:0:
317,26,42402,6,0,P|299:76|306:203,1,161.28000196875,10|0,1:2|0:2,0:2:0:0:
309,225,42792,1,8,0:2:0:0:
215,44,42987,1,2,0:2:0:0:
223,207,43183,1,10,0:2:0:0:
324,33,43378,1,2,0:2:0:0:
324,33,43476,1,0,0:2:0:0:
324,33,43573,1,10,0:2:0:0:
392,211,43769,1,2,0:2:0:0:
215,44,43964,1,10,1:2:0:0:
141,249,44159,5,2,0:2:0:0:
294,139,44355,1,10,0:2:0:0:
128,213,44550,1,2,0:2:0:0:
325,261,44745,1,10,0:2:0:0:
183,131,44941,1,2,0:2:0:0:
153,354,45136,2,0,P|149:301|140:248,1,107.5200013125,10|0,0:2|0:2,0:2:0:0:
405,104,45527,6,0,P|396:157|394:283,1,161.28000196875,10|0,1:2|0:2,0:2:0:0:
401,301,45917,1,10,0:2:0:0:
304,129,46112,1,2,0:2:0:0:
271,324,46308,1,10,0:2:0:0:
414,187,46503,1,2,0:2:0:0:
414,187,46601,1,0,0:2:0:0:
414,187,46698,1,10,0:2:0:0:
487,363,46894,1,2,0:2:0:0:
509,142,47089,1,10,1:2:0:0:
401,301,47284,5,2,0:2:0:0:
352,127,47480,1,10,0:2:0:0:
271,324,47675,1,2,0:2:0:0:
320,150,47870,1,10,0:2:0:0:
345,360,48066,1,2,0:2:0:0:
244,189,48261,2,0,P|203:171|124:171,1,107.5200013125,10|0,0:2|0:2,0:2:0:0:
140,167,50409,5,2,0:2:0:0:
212,253,50605,1,2,0:2:0:0:
284,167,50800,1,2,0:2:0:0:
212,344,50995,5,2,1:2:0:0:
212,81,51191,1,2,0:2:0:0:
79,277,51386,1,10,0:2:0:0:
342,277,51581,1,0,1:2:0:0:
78,92,51777,6,0,B|66:209|120:152|110:267,1,175.679992762207,6|0,1:2|0:2,0:2:0:0:
103,366,52167,1,10,0:2:0:0:
170,124,52362,1,2,0:2:0:0:
226,375,52558,2,0,P|234:334|246:306,1,58.5599975874024,2|0,1:2|0:2,0:2:0:0:
286,116,52753,2,0,P|295:143|299:172,1,58.5599975874024,2|0,0:2|0:2,0:2:0:0:
313,367,52948,1,10,0:2:0:0:
206,208,53144,1,2,0:2:0:0:
418,321,53339,6,0,P|426:240|444:128,1,175.679992762207,2|0,1:2|0:2,0:2:0:0:
482,48,53730,1,10,0:2:0:0:
507,285,53925,1,2,0:2:0:0:
364,78,54120,1,2,1:2:0:0:
335,304,54316,1,2,0:2:0:0:
395,64,54511,1,10,0:2:0:0:
422,345,54706,1,2,0:2:0:0:
279,135,54902,6,0,B|176:97|200:175|95:128,1,175.679992762207,0|0,1:2|0:2,0:2:0:0:
13,178,55292,2,0,P|64:162|125:184,1,117.119995174805,8|0,0:2|0:2,0:2:0:0:
314,369,55683,2,0,P|318:320|323:288,1,58.5599975874024,2|0,1:2|0:2,0:2:0:0:
120,270,55878,2,0,P|123:299|125:328,1,58.5599975874024,2|0,0:2|0:2,0:2:0:0:
330,216,56073,1,10,0:2:0:0:
150,60,56269,1,2,0:2:0:0:
150,60,56366,1,0,0:2:0:0:
150,60,56464,1,0,1:2:0:0:
225,280,56659,5,2,0:2:0:0:
314,74,56855,1,10,0:2:0:0:
363,296,57050,1,2,0:2:0:0:
182,158,57245,1,2,1:2:0:0:
133,380,57441,1,2,0:2:0:0:
329,184,57636,2,0,P|384:155|449:157,1,117.119995174805,10|0,0:2|0:2,0:2:0:0:
486,238,57929,1,0,0:2:0:0:
486,238,58027,6,0,B|457:133|524:191|485:22,1,175.679992762207,2|0,1:2|0:2,0:2:0:0:
412,11,58417,2,0,P|386:61|410:113,1,117.119995174805,10|0,0:2|0:2,0:2:0:0:
503,345,58808,2,0,P|466:328|423:326,1,58.5599975874024,2|0,1:2|0:2,0:2:0:0:
238,286,59003,2,0,P|266:279|292:266,1,58.5599975874024,2|0,0:2|0:2,0:2:0:0:
436,145,59198,1,10,0:2:0:0:
347,371,59394,1,2,0:2:0:0:
263,147,59589,6,0,P|209:120|146:120,1,117.119995174805,2|0,1:2|0:2,0:2:0:0:
58,165,59882,1,0,0:2:0:0:
58,165,59980,1,10,0:2:0:0:
289,61,60175,1,2,0:2:0:0:
130,239,60370,1,2,1:2:0:0:
404,250,60566,1,10,0:2:0:0:
167,82,60761,1,10,0:2:0:0:
245,353,60956,1,2,0:2:0:0:
245,353,61054,1,0,0:2:0:0:
245,353,61152,6,0,B|155:288|149:380|63:356,1,175.679992762207,0|0,1:2|0:2,0:2:0:0:
12,279,61542,2,0,P|30:228|32:159,1,117.119995174805,8|0,0:2|0:2,0:2:0:0:
28,59,61835,1,0,0:2:0:0:
28,59,61933,2,0,P|68:46|108:42,1,58.5599975874024,2|0,1:2|0:2,0:2:0:0:
257,176,62128,2,0,P|284:185|313:191,1,58.5599975874024,2|0,0:2|0:2,0:2:0:0:
191,4,62323,1,10,0:2:0:0:
148,246,62519,1,2,0:2:0:0:
148,246,62616,1,0,0:2:0:0:
148,246,62714,1,0,1:2:0:0:
301,77,62909,5,2,0:2:0:0:
343,287,63105,1,10,0:2:0:0:
267,95,63300,1,2,0:2:0:0:
225,305,63495,1,2,1:2:0:0:
349,138,63691,1,2,0:2:0:0:
476,369,63886,2,0,B|454:254|518:335|476:147,1,175.679992762207,10|0,0:2|0:2,0:2:0:0:
469,103,64277,6,0,P|418:96|381:198,1,161.28000196875,0|0,1:2|0:2,0:2:0:0:
383,219,64667,1,8,0:2:0:0:
301,25,64862,1,2,0:2:0:0:
259,226,65058,1,2,1:2:0:0:
399,65,65253,1,2,0:2:0:0:
441,266,65448,1,10,1:2:0:0:
283,121,65644,1,2,0:2:0:0:
325,322,65839,6,0,P|281:353|172:325,1,161.28000196875,2|0,1:2|0:2,0:2:0:0:
148,313,66230,1,8,0:2:0:0:
342,215,66425,1,2,0:2:0:0:
139,219,66620,1,2,1:2:0:0:
325,322,66816,1,2,0:2:0:0:
192,99,67011,1,10,0:2:0:0:
460,98,67206,1,2,0:2:0:0:
460,98,67304,1,0,0:2:0:0:
460,98,67402,6,0,P|434:151|429:264,1,161.28000196875,0|0,1:2|0:2,0:2:0:0:
429,290,67792,1,8,0:2:0:0:
345,95,67987,1,2,0:2:0:0:
317,293,68183,1,2,1:2:0:0:
468,167,68378,1,2,0:2:0:0:
496,365,68573,1,10,0:2:0:0:
384,182,68769,1,2,0:2:0:0:
356,380,68964,1,2,1:2:0:0:
276,154,69159,6,0,P|283:196|280:229,1,53.76000065625,2|0,0:2|0:2,0:2:0:0:
258,367,69355,1,8,0:2:0:0:
190,209,69550,1,2,0:2:0:0:
344,298,69745,1,2,1:2:0:0:
167,304,69941,1,2,0:2:0:0:
359,263,70136,2,0,P|414:268|481:277,1,107.5200013125,10|0,0:2|0:2,0:2:0:0:
284,64,70527,6,0,B|178:70|244:122|125:122,1,161.28000196875,0|0,1:2|0:2,0:2:0:0:
71,78,70917,1,8,0:2:0:0:
276,154,71112,1,2,0:2:0:0:
148,39,71308,1,2,1:2:0:0:
186,205,71503,1,2,0:2:0:0:
284,64,71698,1,10,0:2:0:0:
264,259,71894,1,2,0:2:0:0:
139,121,72089,6,0,P|87:97|0:155,1,161.28000196875,2|0,1:2|0:2,0:2:0:0:
5,178,72480,1,8,0:2:0:0:
166,29,72675,1,2,0:2:0:0:
151,226,72870,1,2,1:2:0:0:
126,16,73066,1,2,0:2:0:0:
64,257,73261,1,10,0:2:0:0:
253,83,73456,1,2,0:2:0:0:
253,83,73554,1,0,0:2:0:0:
253,83,73652,6,0,P|296:57|417:68,1,161.28000196875,0|0,1:2|0:2,0:2:0:0:
441,76,74042,1,8,0:2:0:0:
279,176,74237,1,2,0:2:0:0:
463,224,74433,1,2,1:2:0:0:
299,150,74628,1,2,0:2:0:0:
369,297,74823,1,10,0:2:0:0:
425,88,75019,1,2,0:2:0:0:
334,301,75214,1,2,1:2:0:0:
268,75,75409,6,0,P|237:65|206:66,1,53.76000065625,2|0,0:2|0:2,0:2:0:0:
202,291,75605,1,10,0:2:0:0:
128,120,75800,1,2,0:2:0:0:
274,223,75995,1,0,1:2:0:0:
94,218,76191,1,2,0:2:0:0:
312,146,76386,2,0,B|414:132|356:185|481:181,1,161.28000196875,10|0,0:2|0:2,0:2:0:0:
494,172,76777,5,0,1:2:0:0:
256,192,76874,12,0,79120,0:2:0:0:
