osu file format v14

[General]
AudioFilename: audio.mp3
AudioLeadIn: 0
PreviewTime: 50312
Countdown: 0
SampleSet: Soft
StackLeniency: 0.7
Mode: 0
LetterboxInBreaks: 0
WidescreenStoryboard: 1

[Editor]
DistanceSpacing: 1
BeatDivisor: 4
GridSize: 32
TimelineZoom: 1.6

[Metadata]
Title:Vanilla Chocolat (Sped Up Ver.)
TitleUnicode:Vanilla Chocolat (Sped Up Ver.)
Artist:Alexandra Stan feat. Connect-R
ArtistUnicode:Alexandra Stan feat. Connect-R
Creator:DeRandom Otaku
Version:Normal
Source:
Tags:unlocked nightcore romanian french dance pop remix kowari alphabet venax ren speed
BeatmapID:2053797
BeatmapSetID:975620

[Difficulty]
HPDrainRate:4
CircleSize:3
OverallDifficulty:4.5
ApproachRate:5
SliderMultiplier:1.1
SliderTickRate:1

[Events]
//Background and Video events
0,0,"BG.jpg",0,0
//Break Periods
//Storyboard Layer 0 (Background)
//Storyboard Layer 1 (Fail)
//Storyboard Layer 2 (Pass)
//Storyboard Layer 3 (Foreground)
//Storyboard Sound Samples

[TimingPoints]
1777,390.625,4,1,0,100,1,0
14277,-100,4,2,0,50,0,0
26777,-100,4,2,0,60,0,0
39277,-100,4,2,0,68,0,0
50409,-100,4,2,0,50,0,0
51777,-100,4,2,0,72,0,1
64277,-100,4,2,0,68,0,0
76874,-100,4,2,0,5,0,0

[Colours]
Combo1 : 168,81,255
Combo2 : 255,151,255
Combo3 : 187,119,119
Combo4 : 138,138,255

[HitObjects]
32,44,14277,6,0,L|150:53,1,110,0|2,1:2|1:2,0:0:0:0:
233,112,15058,2,0,P|288:113|345:74,1,110,2|2,1:2|1:2,0:0:0:0:
372,46,15644,1,0,0:2:0:0:
372,46,15839,2,0,L|491:57,1,110,0|0,1:2|1:2,0:0:0:0:
508,162,16620,2,0,P|497:215|499:277,1,110,2|2,1:2|1:2,0:0:0:0:
508,380,17402,6,0,P|470:357|395:353,1,110,2|2,1:2|1:2,0:0:0:0:
296,367,18183,2,0,P|286:333|287:253,1,110,2|0,1:2|1:2,0:0:0:0:
300,205,18769,1,0,0:2:0:0:
300,205,18964,1,0,1:2:0:0:
223,126,19355,2,0,L|161:130,1,55,2|0,1:2|0:2,0:0:0:0:
114,117,19745,2,0,P|133:179|130:245,1,110,2|0,1:2|1:2,0:0:0:0:
91,325,20527,6,0,P|160:317|208:318,1,110,0|2,1:2|1:2,0:0:0:0:
245,348,21112,1,2,3:2:0:0:
245,348,21308,2,0,P|314:356|362:355,1,110,0|2,1:2|1:2,0:0:0:0:
455,311,22089,2,0,P|468:253|469:198,1,110,0|0,1:2|1:2,0:0:0:0:
464,147,22675,1,2,0:2:0:0:
464,147,22870,2,0,P|431:137|399:137,1,55,2|2,1:2|0:2,0:0:0:0:
357,149,23261,1,2,1:2:0:0:
256,193,23652,6,0,P|244:142|244:60,1,110,2|2,1:2|1:2,0:0:0:0:
150,22,24433,2,0,P|147:76|135:130,1,110,2|0,1:2|1:2,0:0:0:0:
105,176,25019,1,0,0:2:0:0:
105,176,25214,1,0,1:2:0:0:
27,253,25605,1,2,1:2:0:0:
78,349,25995,2,0,P|135:349|179:315,1,110,2|0,1:2|1:2,0:0:0:0:
247,234,26777,6,0,B|305:226|300:264|368:261,1,110,14|8,0:2|0:2,0:0:0:0:
461,254,27558,2,0,P|467:214|468:137,1,110,10|8,0:2|0:2,0:0:0:0:
461,89,28144,1,2,0:2:0:0:
461,89,28339,1,10,0:2:0:0:
370,26,28730,2,0,L|302:30,1,55,10|2,0:2|0:2,0:0:0:0:
276,68,29120,2,0,L|208:64,1,55,10|2,0:2|0:2,0:0:0:0:
166,59,29511,1,10,0:2:0:0:
63,19,29902,6,0,P|44:57|46:132,1,110,10|10,0:2|0:2,0:0:0:0:
79,164,30487,1,2,0:2:0:0:
79,164,30683,2,0,L|73:221,2,55,8|2|10,0:2|0:2|0:2,0:0:0:0:
123,131,31269,2,0,P|152:117|236:112,1,110,2|2,0:2|0:2,0:0:0:0:
283,119,31855,1,10,0:2:0:0:
373,181,32245,2,0,P|406:180|435:171,1,55,10|2,0:2|0:2,0:0:0:0:
476,149,32636,1,10,0:2:0:0:
499,256,33027,6,0,P|491:313|491:389,1,110,10|8,0:2|0:2,0:0:0:0:
380,373,33808,2,0,P|378:318|370:263,1,110,10|8,0:2|0:2,0:0:0:0:
351,211,34394,1,2,0:2:0:0:
351,211,34589,1,10,0:2:0:0:
270,285,34980,2,0,P|232:285|204:274,1,55,10|2,0:2|0:2,0:0:0:0:
169,250,35370,1,10,0:2:0:0:
65,213,35761,2,0,P|70:253|68:289,1,55,10|2,0:2|0:2,0:0:0:0:
59,321,36152,5,10,0:2:0:0:
159,365,36542,2,0,L|283:358,1,110,10|10,0:2|0:2,0:0:0:0:
323,369,37128,2,0,L|377:366,1,55,2|10,0:2|0:2,0:0:0:0:
432,376,37519,2,0,P|426:330|426:246,1,110,2|2,0:2|0:2,0:0:0:0:
445,215,38105,1,10,0:2:0:0:
367,137,38495,1,10,0:2:0:0:
289,214,38886,1,10,0:2:0:0:
211,136,39277,6,0,P|156:137|110:237,1,165,10|2,1:2|0:2,0:0:0:0:
131,274,40058,2,0,L|65:277,2,55,10|2|10,0:2|0:2|0:2,0:0:0:0:
178,302,40644,1,2,0:2:0:0:
178,302,40839,2,0,P|228:289|303:285,1,110,10|10,1:2|0:2,0:0:0:0:
394,301,41620,1,10,0:2:0:0:
487,359,42011,1,10,0:2:0:0:
481,249,42402,6,0,L|495:80,1,165,10|2,1:2|0:2,0:0:0:0:
503,30,43183,2,0,P|467:23|435:23,1,55,10|2,0:2|0:2,0:0:0:0:
407,58,43573,2,0,P|371:65|339:65,1,55,10|2,0:2|0:2,0:0:0:0:
308,32,43964,2,0,B|248:31|268:57|197:60,1,110,10|10,1:2|0:2,0:0:0:0:
103,12,44745,1,10,0:2:0:0:
18,82,45136,1,10,0:2:0:0:
105,148,45527,6,0,L|94:316,1,165,10|2,1:2|0:2,0:0:0:0:
99,367,46308,2,0,P|60:362|22:360,2,55,10|2|10,0:2|0:2|0:2,0:0:0:0:
152,379,46894,1,2,0:2:0:0:
152,379,47089,2,0,P|202:372|241:324,1,110,10|10,1:2|0:2,0:0:0:0:
259,220,47870,1,10,0:2:0:0:
335,298,48261,1,10,0:2:0:0:
256,192,48652,12,2,50409,0:2:0:0:
370,298,51777,6,0,P|401:251|403:180,1,110,6|10,1:2|0:2,0:0:0:0:
394,145,52362,1,2,0:2:0:0:
394,145,52558,2,0,P|338:125|283:124,1,110,2|10,1:2|0:2,0:0:0:0:
235,140,53144,1,2,0:2:0:0:
235,140,53339,1,2,1:2:0:0:
128,168,53730,2,0,P|124:131|126:98,1,55,10|2,0:2|0:2,0:0:0:0:
160,72,54120,2,0,P|120:50|55:47,1,110,2|10,1:2|0:2,0:0:0:0:
12,79,54706,1,2,0:2:0:0:
12,79,54902,6,0,P|24:128|31:198,1,110,0|8,1:2|0:2,0:0:0:0:
20,296,55683,2,0,P|66:282|135:278,1,110,2|10,1:2|0:2,0:0:0:0:
173,307,56269,1,2,0:2:0:0:
269,359,56659,1,2,0:2:0:0:
269,359,56855,2,0,L|330:355,1,55,10|2,0:2|0:2,0:0:0:0:
362,316,57245,2,0,L|423:320,1,55,2|2,1:2|0:2,0:0:0:0:
471,322,57636,1,10,0:2:0:0:
443,215,58027,6,0,P|441:157|465:96,1,110,2|10,1:2|0:2,0:0:0:0:
482,59,58612,1,0,0:2:0:0:
482,59,58808,2,0,P|431:33|367:33,1,110,2|10,1:2|0:2,0:0:0:0:
328,53,59394,1,2,0:2:0:0:
328,53,59589,1,2,1:2:0:0:
222,22,59980,2,0,L|167:26,1,55,10|2,0:2|0:2,0:0:0:0:
113,15,60370,2,0,P|130:62|137:140,1,110,2|10,1:2|0:2,0:0:0:0:
132,176,60956,1,2,0:2:0:0:
132,176,61152,6,0,P|166:164|248:164,1,110,0|8,1:2|0:2,0:0:0:0:
347,179,61933,2,0,P|344:231|344:307,1,110,2|10,1:2|0:2,0:0:0:0:
364,340,62519,1,2,0:2:0:0:
256,359,62909,1,2,0:2:0:0:
256,359,63105,2,0,P|214:351|186:352,1,55,10|2,0:2|0:2,0:0:0:0:
150,370,63495,2,0,P|122:368|95:361,1,55,2|2,1:2|0:2,0:0:0:0:
46,337,63886,1,10,0:2:0:0:
26,228,64277,6,0,P|25:161|103:82,1,165,0|2,1:2|0:2,0:0:0:0:
140,95,65058,2,0,P|145:65|153:35,2,55,2|2|10,1:2|0:2|1:2,0:0:0:0:
157,147,65644,1,2,0:2:0:0:
157,147,65839,2,0,P|199:138|268:135,1,110,2|8,1:2|0:2,0:0:0:0:
373,156,66620,2,0,P|374:128|379:101,2,55,2|2|10,1:2|0:2|0:2,0:0:0:0:
398,204,67206,1,2,0:2:0:0:
398,204,67402,6,0,P|397:299|339:352,1,165,0|2,1:2|0:2,0:0:0:0:
305,376,68183,1,2,1:2:0:0:
224,301,68573,2,0,P|193:294|164:294,1,55,10|2,0:2|0:2,0:0:0:0:
118,313,68964,2,0,P|113:277|114:197,1,110,2|8,1:2|0:2,0:0:0:0:
140,96,69745,1,2,1:2:0:0:
218,173,70136,1,10,0:2:0:0:
293,92,70527,6,0,P|365:92|414:166,1,165,0|2,1:2|0:2,0:0:0:0:
409,218,71308,2,0,P|441:215|471:217,2,55,2|2|10,1:2|0:2|0:2,0:0:0:0:
357,238,71894,1,2,0:2:0:0:
357,238,72089,2,0,L|245:232,1,110,2|8,1:2|0:2,0:0:0:0:
137,244,72870,2,0,P|137:206|140:179,2,55,2|2|10,1:2|0:2|0:2,0:0:0:0:
143,298,73456,1,2,0:2:0:0:
143,298,73652,6,0,B|245:295|194:350|306:356,1,165,0|2,1:2|0:2,0:0:0:0:
346,347,74433,1,2,1:2:0:0:
313,242,74823,2,0,P|313:200|318:178,1,55,10|2,0:2|0:2,0:0:0:0:
330,134,75214,2,0,P|372:151|437:138,1,110,2|10,1:2|0:2,0:0:0:0:
499,50,75995,1,0,1:2:0:0:
392,22,76386,1,10,0:2:0:0:
256,192,76777,12,0,79120,0:2:0:0:
