osu file format v14

[General]
AudioFilename: audio.mp3
AudioLeadIn: 0
PreviewTime: 50312
Countdown: 0
SampleSet: Soft
StackLeniency: 0.7
Mode: 0
LetterboxInBreaks: 0
WidescreenStoryboard: 1

[Editor]
DistanceSpacing: 1.7
BeatDivisor: 4
GridSize: 32
TimelineZoom: 2.899999

[Metadata]
Title:Vanilla Chocolat (Sped Up Ver.)
TitleUnicode:Vanilla Chocolat (Sped Up Ver.)
Artist:Alexandra Stan feat. Connect-R
ArtistUnicode:Alexandra Stan feat. Connect-R
Creator:DeRandom Otaku
Version:Alphabet's Insane
Source:
Tags:unlocked nightcore romanian french dance pop remix kowari alphabet venax ren speed
BeatmapID:2053796
BeatmapSetID:975620

[Difficulty]
HPDrainRate:5.3
CircleSize:4
OverallDifficulty:7.5
ApproachRate:8.7
SliderMultiplier:1.79
SliderTickRate:1

[Events]
//Background and Video events
0,0,"BG.jpg",0,0
//Break Periods
//Storyboard Layer 0 (Background)
//Storyboard Layer 1 (Fail)
//Storyboard Layer 2 (Pass)
//Storyboard Layer 3 (Foreground)
//Storyboard Sound Samples

[TimingPoints]
1777,390.625,4,1,0,100,1,0
14277,-101.010101010101,4,2,0,50,0,0
26777,-91.743119266055,4,2,0,60,0,0
39277,-84.0336134453781,4,2,0,68,0,0
51777,-71.9424460431655,4,2,0,72,0,1
64277,-71.9424460431655,4,2,0,68,0,0

[Colours]
Combo1 : 168,81,255
Combo2 : 255,151,255
Combo3 : 187,119,119
Combo4 : 138,138,255

[HitObjects]
36,129,14277,6,0,P|103:108|224:82,1,177.209999459198,0|2,1:2|1:2,0:0:0:0:
297,201,14862,1,2,0:2:0:0:
297,201,15058,2,0,P|250:189|219:148,1,88.604999729599,2|2,1:2|0:2,0:0:0:0:
316,48,15448,2,0,P|358:35|399:49,1,88.604999729599,2|0,1:2|0:2,0:0:0:0:
459,171,15839,6,0,P|439:235|423:369,1,177.209999459198,0|0,1:2|1:2,0:0:0:0:
309,238,16425,1,2,0:2:0:0:
277,373,16620,2,0,P|222:359|192:329,1,88.604999729599,2|2,1:2|0:2,0:0:0:0:
294,224,17011,2,0,P|328:197|372:189,1,88.604999729599,2|2,1:2|0:2,0:0:0:0:
190,332,17402,6,0,P|125:322|30:327,1,132.907499594399,2|0,1:2|0:2,0:0:0:0:
36,340,17792,2,0,P|59:273|48:231,1,88.604999729599,2|0,1:2|0:2,0:0:0:0:
172,186,18183,2,0,P|162:121|167:26,1,132.907499594399,2|0,1:2|0:2,0:0:0:0:
180,32,18573,2,0,P|113:55|71:44,1,88.604999729599,0|0,1:2|0:2,0:0:0:0:
260,128,18964,6,0,P|327:135|417:162,1,132.907499594399,0|0,1:2|0:2,0:0:0:0:
410,161,19355,1,2,1:2:0:0:
357,38,19550,1,0,0:2:0:0:
304,236,19745,1,2,1:2:0:0:
304,236,20136,2,0,P|256:220|200:208,1,88.604999729599,0|0,1:2|0:2,0:0:0:0:
11,301,20527,6,0,B|82:282|73:342|156:313,1,132.907499594399,0|0,1:2|3:2,0:0:0:0:
169,335,20917,2,0,P|215:335|260:359,1,88.604999729599,2|2,1:2|3:2,0:0:0:0:
387,224,21308,1,0,1:2:0:0:
254,259,21503,1,2,0:2:0:0:
254,259,21601,1,0,0:0:0:0:
254,259,21698,2,0,P|245:214|252:167,1,88.604999729599,2|0,1:2|0:2,0:0:0:0:
364,73,22089,6,0,P|384:118|403:239,1,132.907499594399,0|0,1:2|0:0,0:0:0:0:
387,224,22480,2,0,P|374:287|379:340,1,88.604999729599,0|2,1:2|0:2,0:0:0:0:
507,220,22870,2,0,P|505:175|494:133,1,88.604999729599,2|2,1:2|0:2,0:0:0:0:
372,230,23261,2,0,P|359:293|364:346,1,88.604999729599,2|2,1:2|0:2,0:0:0:0:
250,155,23652,6,0,B|182:134|198:191|105:177,1,132.907499594399,2|0,1:2|3:2,0:0:0:0:
91,195,24042,2,0,P|48:185|22:148,1,88.604999729599,2|2,1:2|3:2,0:0:0:0:
231,227,24433,2,0,P|247:267|248:311,1,88.604999729599,2|0,1:2|0:2,0:0:0:0:
135,101,24823,2,0,P|138:47|160:5,1,88.604999729599,0|0,1:2|0:2,0:0:0:0:
276,166,25214,6,0,P|329:170|426:134,1,132.907499594399,0|0,1:2|0:2,0:0:0:0:
418,120,25605,2,0,P|413:76|422:25,1,88.604999729599,2|2,1:2|0:2,0:0:0:0:
400,265,25995,1,2,1:2:0:0:
477,201,26191,1,2,0:2:0:0:
512,273,26386,2,0,P|507:323|496:367,1,88.604999729599,0|0,1:2|0:0,0:0:0:0:
274,262,26777,6,0,P|199:239|143:185,1,146.332501563,14|0,0:2|0:2,0:0:0:0:
118,196,27167,2,0,P|75:230|21:244,1,97.5550010419998,8|0,0:2|0:2,0:0:0:0:
0,74,27558,2,0,P|74:73|157:114,1,146.332501563,10|0,0:2|0:2,0:0:0:0:
178,104,27948,2,0,P|234:117|292:100,1,97.5550010419998,8|2,0:2|0:2,0:0:0:0:
398,45,28339,5,10,0:2:0:0:
342,175,28534,2,0,P|346:207|354:241,1,48.7775005209999,0|0,0:2|0:0,0:0:0:0:
364,247,28730,2,0,P|358:302|343:352,1,97.5550010419998,10|2,0:2|0:2,0:0:0:0:
478,207,29120,2,0,P|465:159|460:111,1,97.5550010419998,10|2,0:2|0:2,0:0:0:0:
351,252,29511,2,0,P|345:307|330:357,1,97.5550010419998,10|2,0:2|0:2,0:0:0:0:
241,159,29902,6,0,P|178:149|61:148,1,146.332501563,10|0,0:2|0:2,0:0:0:0:
81,170,30292,1,10,0:2:0:0:
188,56,30487,1,2,0:2:0:0:
114,13,30683,1,8,0:2:0:0:
47,62,30878,1,2,0:2:0:0:
161,121,31073,1,10,0:2:0:0:
34,54,31269,6,0,P|7:103|-1:156,1,97.5550010419998,2|8,0:2|0:2,0:0:0:0:
121,304,31659,1,2,0:2:0:0:
121,304,31855,2,0,P|126:255|117:208,1,97.5550010419998,10|2,0:2|0:2,0:0:0:0:
19,346,32245,1,10,0:2:0:0:
212,259,32441,1,2,0:2:0:0:
212,259,32538,1,2,0:2:0:0:
212,259,32636,2,0,P|276:267|327:287,1,97.5550010419998,10|0,0:2|0:2,0:0:0:0:
493,121,33027,6,0,P|476:180|470:242,1,97.5550010419998,10|0,0:2|0:2,0:0:0:0:
471,255,33319,1,0,0:2:0:0:
471,255,33417,2,0,P|412:238|350:232,1,97.5550010419998,8|0,0:2|0:2,0:0:0:0:
261,122,33808,2,0,P|209:169|126:200,1,146.332501563,10|0,0:2|0:2,0:0:0:0:
117,225,34198,2,0,P|72:203|6:196,1,97.5550010419998,8|2,0:2|0:2,0:0:0:0:
156,348,34589,5,10,0:2:0:0:
258,264,34784,2,0,P|288:270|310:281,1,48.7775005209999,0|0,0:2|0:0,0:0:0:0:
319,304,34980,2,0,P|378:298|415:275,1,97.5550010419998,10|2,0:2|0:2,0:0:0:0:
285,160,35370,2,0,P|242:137|193:135,1,97.5550010419998,10|2,0:2|0:2,0:0:0:0:
331,320,35761,2,0,P|390:314|427:291,1,97.5550010419998,10|2,0:2|0:2,0:0:0:0:
501,138,36152,6,0,P|437:125|357:62,1,146.332501563,10|0,0:2|0:2,0:0:0:0:
353,49,36542,1,10,0:2:0:0:
297,161,36737,1,0,0:2:0:0:
175,45,36933,1,10,0:2:0:0:
204,119,37128,1,2,0:2:0:0:
255,54,37323,1,10,0:2:0:0:
224,247,37519,6,0,P|206:309|204:352,1,97.5550010419998,2|8,0:2|0:2,0:0:0:0:
375,247,37909,1,2,0:2:0:0:
309,204,38105,1,10,0:2:0:0:
302,118,38300,1,2,0:2:0:0:
199,156,38495,1,10,0:2:0:0:
321,299,38691,1,2,0:2:0:0:
321,299,38788,1,0,0:2:0:0:
321,299,38886,2,0,P|321:243|305:196,1,97.5550010419998,10|0,0:2|0:2,0:0:0:0:
72,58,39277,6,0,B|194:38|157:119|281:107,1,213.009995774643,10|8,1:2|0:2,0:0:0:0:
395,31,39862,1,2,0:2:0:0:
395,31,40058,2,0,P|399:89|387:154,1,106.504997887322,10|2,0:2|0:2,0:0:0:0:
465,269,40448,2,0,P|457:216|461:163,1,106.504997887322,10|2,0:2|0:2,0:0:0:0:
293,100,40839,5,10,1:2:0:0:
349,165,41034,1,2,0:2:0:0:
295,292,41230,1,10,0:2:0:0:
257,219,41425,1,2,0:2:0:0:
186,374,41620,1,10,0:2:0:0:
116,302,41816,1,2,0:2:0:0:
116,302,41913,1,0,0:0:0:0:
116,302,42011,2,0,P|79:242|79:193,1,106.504997887322,10|0,0:2|0:2,0:0:0:0:
177,40,42402,6,0,B|295:21|256:117|386:107,1,213.009995774643,10|8,1:2|0:2,0:0:0:0:
504,209,42987,1,2,0:2:0:0:
504,209,43183,2,0,P|439:181|386:180,1,106.504997887322,10|2,0:2|0:2,0:0:0:0:
352,30,43573,2,0,P|404:23|451:0,1,106.504997887322,10|2,0:2|0:2,0:0:0:0:
287,201,43964,5,10,1:2:0:0:
112,98,44159,1,2,0:2:0:0:
174,43,44355,1,10,0:2:0:0:
221,250,44550,1,2,0:2:0:0:
294,284,44745,1,10,0:2:0:0:
191,158,44941,1,2,0:2:0:0:
191,158,45038,1,0,0:0:0:0:
191,158,45136,2,0,P|179:103|191:37,1,106.504997887322,10|0,0:2|0:2,0:0:0:0:
422,209,45527,6,0,B|311:183|335:283|211:257,1,213.009995774643,10|10,1:2|0:2,0:0:0:0:
74,349,46112,1,2,0:2:0:0:
74,349,46308,2,0,P|43:305|34:233,1,106.504997887322,10|2,0:2|0:2,0:0:0:0:
170,158,46698,2,0,P|169:210|147:259,1,106.504997887322,10|2,0:2|0:2,0:0:0:0:
306,368,47089,5,10,1:2:0:0:
364,284,47284,1,2,0:2:0:0:
260,296,47480,1,10,0:2:0:0:
330,179,47675,5,2,0:2:0:0:
452,340,47870,1,10,0:2:0:0:
456,130,48066,1,2,0:2:0:0:
456,130,48163,1,0,0:0:0:0:
456,130,48261,2,0,P|442:71|453:17,1,106.504997887322,10|0,0:2|0:2,0:0:0:0:
325,112,50409,5,2,0:2:0:0:
410,80,50605,1,2,0:2:0:0:
489,123,50800,1,2,0:2:0:0:
507,208,50995,5,2,1:2:0:0:
325,112,51191,1,2,0:2:0:0:
372,241,51386,1,10,0:2:0:0:
440,291,51581,1,0,1:2:0:0:
244,306,51777,6,0,B|145:289|166:388|32:348,1,186.607505694809,6|0,1:2|0:2,0:0:0:0:
44,336,52167,1,10,0:2:0:0:
306,373,52362,1,2,0:2:0:0:
250,176,52558,1,2,1:2:0:0:
331,221,52753,1,2,0:2:0:0:
331,221,52851,1,0,0:2:0:0:
331,221,52948,2,0,P|357:162|352:99,1,124.405003796539,10|2,0:2|0:2,0:0:0:0:
133,25,53339,6,0,P|106:104|112:224,1,186.607505694809,2|0,1:2|0:2,0:0:0:0:
125,234,53730,2,0,P|186:262|237:312,1,124.405003796539,10|2,0:2|0:2,0:0:0:0:
316,86,54120,2,0,P|258:109|197:115,1,124.405003796539,2|2,1:2|0:2,0:0:0:0:
116,243,54511,2,0,P|177:271|228:321,1,124.405003796539,10|2,0:2|0:2,0:0:0:0:
496,222,54902,6,0,B|412:182|404:261|311:221,1,186.607505694809,0|0,1:2|0:2,0:0:0:0:
283,206,55292,2,0,P|227:182|151:189,1,124.405003796539,8|0,0:2|0:2,0:0:0:0:
64,315,55683,1,2,1:2:0:0:
230,266,55878,1,2,0:2:0:0:
230,266,55976,1,0,0:2:0:0:
230,266,56073,2,0,P|263:318|270:379,1,124.405003796539,10|2,0:2|0:2,0:0:0:0:
389,135,56464,5,0,1:2:0:0:
348,280,56659,1,2,0:2:0:0:
408,344,56855,1,10,0:2:0:0:
482,297,57050,1,2,0:2:0:0:
421,223,57245,1,2,1:2:0:0:
348,280,57441,1,2,0:2:0:0:
276,173,57636,2,0,P|212:159|152:126,1,124.405003796539,10|0,0:2|0:2,0:0:0:0:
16,300,58027,6,0,P|111:265|226:296,1,186.607505694809,2|0,1:2|0:2,0:0:0:0:
216,310,58417,2,0,P|284:344|346:332,1,124.405003796539,10|0,0:2|0:2,0:0:0:0:
385,199,58808,1,2,1:2:0:0:
483,352,59003,1,2,0:2:0:0:
483,352,59101,1,0,0:2:0:0:
483,352,59198,2,0,P|457:291|458:226,1,124.405003796539,10|2,0:2|0:2,0:0:0:0:
490,50,59589,6,0,B|391:24|415:99|309:84,1,186.607505694809,2|0,1:2|0:2,0:0:0:0:
282,71,59980,1,10,0:2:0:0:
221,12,60175,1,2,0:2:0:0:
202,93,60370,1,2,1:2:0:0:
319,274,60566,5,10,0:2:0:0:
288,62,60761,1,10,0:2:0:0:
258,226,60956,1,2,0:2:0:0:
258,226,61054,1,0,0:2:0:0:
258,226,61152,6,0,P|177:216|72:150,1,186.607505694809,0|0,1:2|0:2,0:0:0:0:
66,140,61542,2,0,P|62:212|43:278,1,124.405003796539,8|0,0:2|0:2,0:0:0:0:
130,80,61933,1,2,1:2:0:0:
254,279,62128,1,2,0:2:0:0:
254,279,62226,1,0,0:2:0:0:
254,279,62323,2,0,P|326:305|380:304,1,124.405003796539,10|2,0:2|0:2,0:0:0:0:
472,86,62714,5,0,1:2:0:0:
329,160,62909,1,2,0:2:0:0:
425,160,63105,1,10,0:2:0:0:
369,71,63300,1,2,0:2:0:0:
468,244,63495,1,2,1:2:0:0:
332,304,63691,1,2,0:2:0:0:
416,378,63886,2,0,P|423:305|397:154,1,186.607505694809,10|0,0:2|0:2,0:0:0:0:
410,112,64277,6,0,P|336:135|330:255,1,186.607505694809,0|0,1:2|0:2,0:0:0:0:
331,263,64667,2,0,P|341:336|324:396,1,124.405003796539,8|2,0:2|0:2,0:0:0:0:
182,252,65058,2,0,P|169:191|180:130,1,124.405003796539,2|2,1:2|0:2,0:0:0:0:
356,260,65448,2,0,P|366:333|349:393,1,124.405003796539,10|2,1:2|0:2,0:0:0:0:
107,365,65839,6,0,P|144:289|144:180,1,186.607505694809,2|0,1:2|0:2,0:0:0:0:
123,171,66230,2,0,P|86:95|83:38,1,124.405003796539,8|2,0:2|0:2,0:0:0:0:
257,10,66620,1,2,1:2:0:0:
216,89,66816,1,2,0:2:0:0:
258,184,67011,1,10,0:2:0:0:
389,252,67206,1,2,0:2:0:0:
471,108,67402,6,0,P|383:86|288:126,1,186.607505694809,0|0,1:2|0:2,0:0:0:0:
265,110,67792,2,0,P|187:129|130:108,1,124.405003796539,8|2,0:2|0:2,0:0:0:0:
104,247,68183,2,0,P|154:212|216:207,1,124.405003796539,2|2,1:2|0:2,0:0:0:0:
264,90,68573,2,0,P|183:93|131:62,1,124.405003796539,10|2,0:2|0:2,0:0:0:0:
410,235,68964,5,2,1:2:0:0:
437,332,69159,1,2,0:2:0:0:
338,193,69355,1,8,0:2:0:0:
397,86,69550,1,2,0:2:0:0:
338,10,69745,1,2,1:2:0:0:
501,72,69941,1,2,0:2:0:0:
512,169,70136,2,0,P|439:146|368:140,1,124.405003796539,10|0,0:2|0:2,0:0:0:0:
192,243,70527,6,0,P|261:256|354:332,1,186.607505694809,0|0,1:2|0:0,0:0:0:0:
358,353,70917,2,0,P|427:340|483:304,1,124.405003796539,8|2,0:2|0:2,0:0:0:0:
311,173,71308,2,0,P|257:142|195:132,1,124.405003796539,2|2,1:2|0:2,0:0:0:0:
368,375,71698,2,0,P|437:362|493:326,1,124.405003796539,10|2,0:2|0:2,0:0:0:0:
241,227,72089,6,0,P|179:241|78:323,1,186.607505694809,2|0,1:2|0:2,0:0:0:0:
64,335,72480,2,0,P|50:273|8:213,1,124.405003796539,8|2,0:2|0:2,0:0:0:0:
173,50,72870,2,0,P|139:102|126:162,1,124.405003796539,2|2,1:2|0:2,0:0:0:0:
157,334,73261,1,10,0:2:0:0:
277,107,73456,2,0,P|289:152|290:201,1,62.2025018982697,2|0,0:2|0:2,0:0:0:0:
307,176,73652,6,0,P|288:257|299:375,1,186.607505694809,0|0,1:2|0:2,0:0:0:0:
313,384,74042,2,0,P|394:365|458:371,1,124.405003796539,8|2,0:2|0:2,0:0:0:0:
502,226,74433,2,0,P|439:225|380:208,1,124.405003796539,2|2,1:2|0:2,0:0:0:0:
304,361,74823,2,0,P|385:342|449:348,1,124.405003796539,10|2,0:2|0:2,0:0:0:0:
236,172,75214,5,2,1:2:0:0:
159,352,75409,1,2,0:2:0:0:
67,234,75605,1,10,0:2:0:0:
163,123,75800,1,2,0:2:0:0:
284,270,75995,1,0,1:2:0:0:
355,143,76191,1,2,0:2:0:0:
287,97,76386,1,10,0:2:0:0:
365,350,76581,2,0,P|427:341|482:287,1,124.405003796539,0|0,0:2|1:2,0:0:0:0:
