osu file format v14

[General]
AudioFilename: audio.mp3
AudioLeadIn: 0
PreviewTime: 50214
Countdown: 0
SampleSet: Normal
StackLeniency: 0.7
Mode: 1
LetterboxInBreaks: 0
WidescreenStoryboard: 1

[Editor]
Bookmarks: 14277,20527,26777,32831,33027,39277
DistanceSpacing: 1
BeatDivisor: 4
GridSize: 32
TimelineZoom: 1.6

[Metadata]
Title:Vanilla Chocolat (Sped Up & Cut Ver.)
TitleUnicode:Vanilla Chocolat (Sped Up & Cut Ver.)
Artist:Alexandra Stan feat. Connect-R
ArtistUnicode:Alexandra Stan feat. Connect-R
Creator:[-E S I A-]
Version:Ron's Delicious Tasty Treat
Source:
Tags:[r] ron chromoxx chocolate unlocked edm electronic nightcore romanian french francais français dance pop remix speed short version E_S_I_A [-E_S_I_A-] ESIA [-ESIA-]
BeatmapID:3779006
BeatmapSetID:1821468

[Difficulty]
HPDrainRate:6
CircleSize:2
OverallDifficulty:6
ApproachRate:10
SliderMultiplier:1.4
SliderTickRate:1

[Events]
//Background and Video events
0,0,"vanillatos chocolatos.jpg",0,50
//Break Periods
//Storyboard Layer 0 (Background)
//Storyboard Layer 1 (Fail)
//Storyboard Layer 2 (Pass)
//Storyboard Layer 3 (Foreground)
//Storyboard Layer 4 (Overlay)
//Storyboard Sound Samples

[TimingPoints]
1777,390.625,4,1,0,50,1,0
7929,-100,4,1,0,60,0,0
14179,-100,4,1,0,70,0,0
26679,-100,4,1,0,75,0,0
39179,-100,4,1,0,80,0,0
48554,-100,4,1,0,70,0,0
50898,-100,4,1,0,80,0,0
51728,-100,4,1,0,90,0,0
51777,-100,4,1,0,90,0,1
76728,-100,4,1,0,80,0,1
76777,-100,4,1,0,80,0,0
76972,-100,4,1,0,70,0,0
77167,-100,4,1,0,60,0,0
77558,-100,4,1,0,50,0,0
77948,-100,4,1,0,40,0,0
78339,-100,4,1,0,30,0,0
78730,-100,4,1,0,20,0,0
79120,-100,4,1,0,10,0,0

[HitObjects]
166,202,1777,5,0,0:0:0:0:
327,219,2069,1,0,0:0:0:0:
327,219,2167,1,8,0:0:0:0:
339,286,2362,1,8,0:0:0:0:
308,208,2558,1,0,0:0:0:0:
266,230,2851,1,8,0:0:0:0:
327,219,2948,1,0,0:0:0:0:
273,247,3144,1,0,0:0:0:0:
266,230,3339,1,8,0:0:0:0:
340,279,3632,1,0,0:0:0:0:
340,279,3730,1,0,0:0:0:0:
340,279,3925,1,8,0:0:0:0:
273,247,4120,1,0,0:0:0:0:
288,193,4316,1,0,0:0:0:0:
340,279,4413,1,0,0:0:0:0:
278,255,4511,1,8,0:0:0:0:
278,255,4706,1,8,0:0:0:0:
239,237,4902,1,0,0:0:0:0:
298,213,5194,1,8,0:0:0:0:
340,279,5292,1,0,0:0:0:0:
298,213,5487,1,8,0:0:0:0:
298,213,5683,1,0,0:0:0:0:
423,252,5878,1,0,0:0:0:0:
364,283,5976,1,0,0:0:0:0:
423,252,6073,1,8,0:0:0:0:
340,279,6171,1,0,0:0:0:0:
237,281,6269,1,8,0:0:0:0:
237,281,6464,1,0,0:0:0:0:
236,242,6757,1,8,0:0:0:0:
340,279,6855,1,0,0:0:0:0:
287,184,7050,1,8,0:0:0:0:
287,184,7245,1,0,0:0:0:0:
291,93,7441,1,0,0:0:0:0:
223,138,7538,1,0,0:0:0:0:
291,93,7636,1,8,0:0:0:0:
297,215,8027,1,4,0:0:0:0:
222,150,8222,1,8,0:0:0:0:
256,179,8319,1,8,0:0:0:0:
222,150,8417,1,0,0:0:0:0:
222,150,8612,1,8,0:0:0:0:
260,194,8808,1,0,0:0:0:0:
340,279,8905,1,0,0:0:0:0:
259,194,9101,1,0,0:0:0:0:
246,155,9198,1,8,0:0:0:0:
246,155,9394,1,0,0:0:0:0:
246,155,9589,1,8,0:0:0:0:
340,279,9784,1,0,0:0:0:0:
208,169,9882,1,0,0:0:0:0:
208,169,9980,1,8,0:0:0:0:
262,162,10175,1,0,0:0:0:0:
262,162,10370,1,8,0:0:0:0:
293,204,10468,1,8,0:0:0:0:
340,279,10663,1,0,0:0:0:0:
293,204,10761,1,8,0:0:0:0:
253,224,10956,1,8,0:0:0:0:
253,224,11152,1,0,0:0:0:0:
222,150,11347,1,8,0:0:0:0:
289,185,11444,1,8,0:0:0:0:
289,185,11542,1,0,0:0:0:0:
280,172,11737,1,8,0:0:0:0:
277,220,11933,1,0,0:0:0:0:
303,253,12030,1,0,0:0:0:0:
347,210,12128,1,8,0:0:0:0:
347,210,12226,1,0,0:0:0:0:
303,253,12323,1,8,0:0:0:0:
259,178,12519,1,0,0:0:0:0:
259,178,12714,1,8,0:0:0:0:
262,162,12812,1,0,0:0:0:0:
202,66,13007,1,0,0:0:0:0:
202,66,13105,1,8,0:0:0:0:
222,150,13202,1,0,0:0:0:0:
147,93,13300,1,8,0:0:0:0:
147,93,13495,1,0,0:0:0:0:
342,191,13691,1,0,0:0:0:0:
332,258,13788,1,0,0:0:0:0:
272,146,13886,1,8,0:0:0:0:
240,130,14277,1,4,0:0:0:0:
289,208,14569,1,8,0:0:0:0:
289,208,14667,1,0,0:0:0:0:
224,135,14862,1,8,0:0:0:0:
224,135,15058,1,0,0:0:0:0:
322,146,15155,1,8,0:0:0:0:
283,285,15253,1,0,0:0:0:0:
309,255,15351,1,0,0:0:0:0:
283,285,15448,1,8,0:0:0:0:
298,208,15644,1,8,0:0:0:0:
298,208,15839,1,0,0:0:0:0:
236,202,16132,1,8,0:0:0:0:
234,233,16230,1,0,0:0:0:0:
229,230,16425,1,8,0:0:0:0:
304,258,16620,1,0,0:0:0:0:
283,285,16718,1,0,0:0:0:0:
283,285,16816,1,8,0:0:0:0:
208,148,16913,1,8,0:0:0:0:
201,173,17011,1,0,0:0:0:0:
201,173,17206,1,8,0:0:0:0:
201,173,17402,1,0,0:0:0:0:
266,198,17694,1,0,0:0:0:0:
272,214,17792,1,8,0:0:0:0:
272,214,17987,1,0,0:0:0:0:
330,225,18183,1,8,0:0:0:0:
266,198,18280,1,0,0:0:0:0:
266,198,18476,1,0,0:0:0:0:
260,202,18573,1,8,0:0:0:0:
283,285,18671,1,8,0:0:0:0:
238,157,18769,1,0,0:0:0:0:
247,194,18964,1,8,0:0:0:0:
246,213,19257,1,0,0:0:0:0:
327,250,19355,1,8,0:0:0:0:
327,250,19550,1,0,0:0:0:0:
327,250,19745,1,8,0:0:0:0:
283,285,19843,1,8,0:0:0:0:
279,216,19941,1,0,0:0:0:0:
309,212,20038,1,0,0:0:0:0:
187,189,20136,1,8,0:0:0:0:
283,285,20331,1,0,0:0:0:0:
288,291,20527,1,0,0:0:0:0:
374,163,20819,1,8,0:0:0:0:
237,177,20917,1,0,0:0:0:0:
237,177,21112,1,8,0:0:0:0:
221,149,21308,1,0,0:0:0:0:
237,138,21405,1,8,0:0:0:0:
308,233,21503,1,0,0:0:0:0:
280,181,21601,1,0,0:0:0:0:
205,273,21698,1,8,0:0:0:0:
302,263,21894,1,8,0:0:0:0:
283,285,21991,1,8,0:0:0:0:
302,263,22089,1,0,0:0:0:0:
302,263,22382,1,8,0:0:0:0:
205,224,22480,1,0,0:0:0:0:
205,224,22675,1,8,0:0:0:0:
266,171,22870,1,0,0:0:0:0:
288,277,22968,1,0,0:0:0:0:
266,171,23066,1,8,0:0:0:0:
287,105,23163,1,8,0:0:0:0:
410,263,23261,1,0,0:0:0:0:
246,235,23456,1,8,0:0:0:0:
246,235,23652,1,0,0:0:0:0:
283,285,23749,1,0,0:0:0:0:
221,205,23944,1,0,0:0:0:0:
241,126,24042,1,8,0:0:0:0:
395,185,24237,1,0,0:0:0:0:
395,185,24433,1,8,0:0:0:0:
262,195,24530,1,0,0:0:0:0:
283,285,24628,1,0,0:0:0:0:
262,195,24726,1,0,0:0:0:0:
262,195,24823,1,8,0:0:0:0:
289,236,24921,1,8,0:0:0:0:
280,237,25019,1,0,0:0:0:0:
280,237,25214,1,8,0:0:0:0:
280,237,25507,1,0,0:0:0:0:
288,153,25605,1,8,0:0:0:0:
291,172,25800,1,0,0:0:0:0:
291,172,25995,1,8,0:0:0:0:
322,136,26093,1,8,0:0:0:0:
226,140,26191,1,0,0:0:0:0:
244,152,26288,1,0,0:0:0:0:
243,147,26386,1,8,0:0:0:0:
262,162,26581,1,0,0:0:0:0:
307,136,26777,1,8,0:0:0:0:
262,237,27069,1,0,0:0:0:0:
255,200,27167,1,8,0:0:0:0:
255,200,27362,1,0,0:0:0:0:
262,237,27558,1,8,0:0:0:0:
168,172,27655,1,0,0:0:0:0:
168,172,27851,1,0,0:0:0:0:
335,165,27948,1,8,0:0:0:0:
335,165,28144,1,0,0:0:0:0:
306,218,28339,1,8,0:0:0:0:
168,172,28437,1,0,0:0:0:0:
168,172,28534,1,0,0:0:0:0:
306,218,28632,1,0,0:0:0:0:
251,198,28730,1,8,0:0:0:0:
251,198,28925,1,0,0:0:0:0:
251,198,29120,1,8,0:0:0:0:
360,221,29316,1,8,0:0:0:0:
357,257,29413,1,8,0:0:0:0:
286,279,29511,1,0,0:0:0:0:
383,275,29706,1,0,0:0:0:0:
378,247,29902,1,8,0:0:0:0:
347,210,29999,1,8,0:0:0:0:
347,210,30097,1,0,0:0:0:0:
292,198,30194,1,0,0:0:0:0:
292,198,30292,1,8,0:0:0:0:
195,202,30487,1,8,0:0:0:0:
195,202,30683,1,0,0:0:0:0:
347,210,30878,1,0,0:0:0:0:
238,123,30976,1,0,0:0:0:0:
238,123,31073,1,8,0:0:0:0:
254,139,31269,1,8,0:0:0:0:
254,139,31464,1,0,0:0:0:0:
347,210,31659,1,8,0:0:0:0:
213,186,31757,1,8,0:0:0:0:
254,139,31855,1,0,0:0:0:0:
213,186,32050,1,8,0:0:0:0:
154,151,32245,1,0,0:0:0:0:
266,221,32343,1,0,0:0:0:0:
182,193,32441,1,8,0:0:0:0:
322,254,32538,1,0,0:0:0:0:
318,242,32636,1,8,0:0:0:0:
347,210,32734,1,8,0:0:0:0:
168,172,32831,1,0,0:0:0:0:
367,258,33027,1,8,0:0:0:0:
267,241,33319,1,0,0:0:0:0:
367,258,33417,1,8,0:0:0:0:
264,153,33612,1,0,0:0:0:0:
307,190,33808,1,8,0:0:0:0:
307,190,33905,1,0,0:0:0:0:
231,236,34101,1,0,0:0:0:0:
235,228,34198,1,8,0:0:0:0:
235,228,34394,1,0,0:0:0:0:
288,224,34589,1,8,0:0:0:0:
347,210,34687,1,0,0:0:0:0:
288,224,34784,1,0,0:0:0:0:
221,206,34882,1,0,0:0:0:0:
219,182,34980,1,8,0:0:0:0:
219,182,35175,1,0,0:0:0:0:
219,182,35370,1,8,0:0:0:0:
228,208,35468,1,0,0:0:0:0:
280,204,35566,1,8,0:0:0:0:
327,167,35663,1,8,0:0:0:0:
284,203,35761,1,0,0:0:0:0:
274,273,35956,1,8,0:0:0:0:
160,178,36152,1,0,0:0:0:0:
383,252,36347,1,0,0:0:0:0:
295,209,36444,1,0,0:0:0:0:
277,177,36542,1,8,0:0:0:0:
277,178,36737,1,0,0:0:0:0:
277,178,36933,1,8,0:0:0:0:
260,121,37128,1,8,0:0:0:0:
238,169,37226,1,8,0:0:0:0:
217,175,37323,1,0,0:0:0:0:
277,178,37421,1,0,0:0:0:0:
217,175,37519,1,8,0:0:0:0:
217,175,37714,1,0,0:0:0:0:
240,252,37909,1,8,0:0:0:0:
229,194,38007,1,8,0:0:0:0:
295,199,38105,1,0,0:0:0:0:
295,199,38300,1,8,0:0:0:0:
309,208,38495,1,0,0:0:0:0:
342,283,38593,1,0,0:0:0:0:
346,233,38691,1,8,0:0:0:0:
345,262,38788,1,0,0:0:0:0:
345,262,38886,1,8,0:0:0:0:
168,172,38984,1,8,0:0:0:0:
168,172,39081,1,0,0:0:0:0:
350,254,39277,1,8,0:0:0:0:
392,256,39569,1,0,0:0:0:0:
293,200,39667,1,8,0:0:0:0:
266,239,39862,1,0,0:0:0:0:
266,239,40058,1,8,0:0:0:0:
293,200,40155,1,0,0:0:0:0:
266,239,40253,1,8,0:0:0:0:
274,196,40351,1,8,0:0:0:0:
276,190,40448,1,0,0:0:0:0:
262,161,40644,1,0,0:0:0:0:
267,173,40839,1,8,0:0:0:0:
168,172,41034,1,8,0:0:0:0:
308,180,41132,1,8,0:0:0:0:
308,180,41230,1,0,0:0:0:0:
220,123,41425,1,8,0:0:0:0:
220,123,41620,1,0,0:0:0:0:
168,172,41718,1,8,0:0:0:0:
457,318,41816,1,0,0:0:0:0:
379,319,41913,1,0,0:0:0:0:
371,315,42011,1,8,0:0:0:0:
366,306,42109,1,8,0:0:0:0:
362,300,42206,1,0,0:0:0:0:
353,276,42402,1,8,0:0:0:0:
334,234,42694,1,0,0:0:0:0:
314,219,42792,1,0,0:0:0:0:
314,219,42987,1,8,0:0:0:0:
314,219,43183,1,0,0:0:0:0:
320,241,43280,1,0,0:0:0:0:
322,238,43378,1,8,0:0:0:0:
322,238,43476,1,8,0:0:0:0:
320,241,43573,1,0,0:0:0:0:
313,239,43769,1,0,0:0:0:0:
371,235,43964,1,8,0:0:0:0:
168,172,44159,1,8,0:0:0:0:
302,211,44257,1,8,0:0:0:0:
293,193,44355,1,0,0:0:0:0:
293,193,44550,1,8,0:0:0:0:
293,193,44745,1,0,0:0:0:0:
168,172,44843,1,0,0:0:0:0:
293,193,44941,1,8,0:0:0:0:
291,194,45038,1,0,0:0:0:0:
291,194,45136,1,8,0:0:0:0:
291,223,45234,1,8,0:0:0:0:
291,224,45331,1,0,0:0:0:0:
291,224,45527,1,8,0:0:0:0:
282,285,45819,1,0,0:0:0:0:
282,285,45917,1,8,0:0:0:0:
282,285,46112,1,0,0:0:0:0:
282,233,46308,1,8,0:0:0:0:
285,200,46405,1,0,0:0:0:0:
282,233,46503,1,8,0:0:0:0:
281,205,46601,1,8,0:0:0:0:
281,201,46698,1,0,0:0:0:0:
285,200,46894,1,0,0:0:0:0:
290,191,47089,1,8,0:0:0:0:
168,172,47284,1,8,0:0:0:0:
292,191,47382,1,8,0:0:0:0:
293,184,47480,1,0,0:0:0:0:
293,184,47675,1,8,0:0:0:0:
293,184,47870,1,0,0:0:0:0:
168,172,47968,1,8,0:0:0:0:
293,184,48066,1,0,0:0:0:0:
292,191,48163,1,0,0:0:0:0:
305,211,48261,1,8,0:0:0:0:
284,237,48359,1,8,0:0:0:0:
283,265,48456,1,0,0:0:0:0:
168,172,48652,1,8,0:0:0:0:
168,172,49042,1,8,0:0:0:0:
168,172,49237,1,0,0:0:0:0:
168,172,49433,1,8,0:0:0:0:
168,172,49823,1,8,0:0:0:0:
168,172,50019,1,0,0:0:0:0:
329,215,50995,1,0,0:0:0:0:
329,215,51191,1,0,0:0:0:0:
329,215,51386,1,8,0:0:0:0:
168,172,51581,1,0,0:0:0:0:
342,237,51777,1,12,0:0:0:0:
324,271,52069,1,8,0:0:0:0:
297,250,52167,1,0,0:0:0:0:
297,250,52362,1,8,0:0:0:0:
297,250,52558,1,0,0:0:0:0:
342,237,52655,1,8,0:0:0:0:
288,243,52753,1,0,0:0:0:0:
288,243,52851,1,0,0:0:0:0:
280,221,52948,1,8,0:0:0:0:
280,221,53144,1,8,0:0:0:0:
280,221,53241,1,8,0:0:0:0:
21,187,53339,1,0,0:0:0:0:
288,173,53632,1,0,0:0:0:0:
276,219,53730,1,8,0:0:0:0:
280,221,53925,1,0,0:0:0:0:
280,221,54120,1,8,0:0:0:0:
261,242,54218,1,8,0:0:0:0:
261,242,54316,1,0,0:0:0:0:
270,244,54413,1,0,0:0:0:0:
327,291,54511,1,8,0:0:0:0:
270,244,54706,1,8,0:0:0:0:
280,221,54804,1,8,0:0:0:0:
388,232,54902,1,0,0:0:0:0:
388,232,55194,1,8,0:0:0:0:
77,183,55292,1,0,0:0:0:0:
343,235,55487,1,8,0:0:0:0:
383,245,55683,1,0,0:0:0:0:
354,253,55780,1,0,0:0:0:0:
280,221,55878,1,0,0:0:0:0:
287,288,55976,1,0,0:0:0:0:
287,288,56073,1,8,0:0:0:0:
280,221,56171,1,8,0:0:0:0:
280,221,56269,1,0,0:0:0:0:
332,181,56464,1,8,0:0:0:0:
332,181,56659,1,0,0:0:0:0:
341,192,56757,1,8,0:0:0:0:
308,161,56855,1,0,0:0:0:0:
308,161,57050,1,8,0:0:0:0:
308,161,57245,1,0,0:0:0:0:
168,172,57343,1,0,0:0:0:0:
354,232,57441,1,8,0:0:0:0:
335,264,57538,1,0,0:0:0:0:
323,264,57636,1,8,0:0:0:0:
318,266,57734,1,8,0:0:0:0:
319,268,57831,1,0,0:0:0:0:
341,241,58027,1,12,0:0:0:0:
380,273,58319,1,8,0:0:0:0:
380,273,58417,1,0,0:0:0:0:
313,240,58612,1,8,0:0:0:0:
313,240,58808,1,0,0:0:0:0:
305,229,58905,1,8,0:0:0:0:
312,251,59003,1,0,0:0:0:0:
305,229,59101,1,0,0:0:0:0:
313,240,59198,1,8,0:0:0:0:
299,237,59394,1,8,0:0:0:0:
299,237,59491,1,8,0:0:0:0:
299,237,59589,1,0,0:0:0:0:
246,188,59882,1,0,0:0:0:0:
254,209,59980,1,8,0:0:0:0:
254,209,60175,1,0,0:0:0:0:
258,202,60370,1,8,0:0:0:0:
299,237,60468,1,0,0:0:0:0:
265,205,60566,1,8,0:0:0:0:
292,226,60663,1,0,0:0:0:0:
271,204,60761,1,8,0:0:0:0:
271,204,60956,1,8,0:0:0:0:
343,248,61054,1,8,0:0:0:0:
304,288,61152,1,0,0:0:0:0:
292,149,61444,1,8,0:0:0:0:
292,149,61542,1,0,0:0:0:0:
313,200,61737,1,8,0:0:0:0:
313,200,61933,1,0,0:0:0:0:
310,189,62030,1,0,0:0:0:0:
299,237,62128,1,0,0:0:0:0:
310,188,62226,1,0,0:0:0:0:
310,188,62323,1,8,0:0:0:0:
299,237,62421,1,8,0:0:0:0:
299,237,62519,1,0,0:0:0:0:
353,212,62714,1,8,0:0:0:0:
295,212,62909,1,0,0:0:0:0:
284,208,63007,1,0,0:0:0:0:
284,208,63105,1,8,0:0:0:0:
299,237,63202,1,0,0:0:0:0:
358,252,63300,1,8,0:0:0:0:
357,216,63398,1,8,0:0:0:0:
358,252,63495,1,0,0:0:0:0:
358,252,63691,1,0,0:0:0:0:
219,100,63886,1,12,0:0:0:0:
319,251,64277,1,4,0:0:0:0:
275,208,64569,1,8,0:0:0:0:
275,208,64667,1,0,0:0:0:0:
269,152,64765,1,0,0:0:0:0:
296,293,64862,1,8,0:0:0:0:
269,152,65058,1,0,0:0:0:0:
331,260,65253,1,8,0:0:0:0:
284,212,65351,1,8,0:0:0:0:
285,207,65448,1,0,0:0:0:0:
285,207,65644,1,12,0:0:0:0:
325,206,65839,1,12,0:0:0:0:
349,196,66132,1,8,0:0:0:0:
259,194,66230,1,0,0:0:0:0:
281,198,66425,1,8,0:0:0:0:
281,198,66620,1,0,0:0:0:0:
269,152,66718,1,0,0:0:0:0:
295,248,66816,1,8,0:0:0:0:
299,254,66913,1,0,0:0:0:0:
343,189,67011,1,8,0:0:0:0:
343,189,67206,1,8,0:0:0:0:
295,248,67304,1,8,0:0:0:0:
343,189,67402,1,0,0:0:0:0:
333,223,67694,1,8,0:0:0:0:
255,114,67792,1,0,0:0:0:0:
269,152,67890,1,0,0:0:0:0:
374,266,67987,1,8,0:0:0:0:
250,220,68183,1,0,0:0:0:0:
272,250,68378,1,8,0:0:0:0:
270,237,68476,1,8,0:0:0:0:
271,227,68573,1,0,0:0:0:0:
250,220,68769,1,12,0:0:0:0:
250,220,68964,1,12,0:0:0:0:
321,171,69159,1,0,0:0:0:0:
321,171,69257,1,8,0:0:0:0:
277,156,69355,1,0,0:0:0:0:
277,156,69550,1,8,0:0:0:0:
365,204,69745,1,0,0:0:0:0:
269,152,69843,1,0,0:0:0:0:
373,212,69941,1,8,0:0:0:0:
364,248,70038,1,0,0:0:0:0:
290,246,70136,1,8,0:0:0:0:
290,246,70234,1,8,0:0:0:0:
275,241,70331,1,0,0:0:0:0:
275,241,70527,1,4,0:0:0:0:
296,230,70819,1,8,0:0:0:0:
296,230,70917,1,0,0:0:0:0:
269,152,71015,1,0,0:0:0:0:
296,230,71112,1,8,0:0:0:0:
296,230,71308,1,0,0:0:0:0:
288,247,71503,1,8,0:0:0:0:
273,273,71601,1,8,0:0:0:0:
270,264,71698,1,0,0:0:0:0:
270,264,71894,1,12,0:0:0:0:
270,264,72089,1,12,0:0:0:0:
210,182,72382,1,8,0:0:0:0:
210,182,72480,1,0,0:0:0:0:
226,226,72675,1,8,0:0:0:0:
226,226,72870,1,0,0:0:0:0:
269,152,72968,1,0,0:0:0:0:
347,255,73066,1,8,0:0:0:0:
269,152,73163,1,0,0:0:0:0:
347,255,73261,1,8,0:0:0:0:
347,255,73456,1,8,0:0:0:0:
357,254,73554,1,8,0:0:0:0:
317,229,73652,1,0,0:0:0:0:
302,227,73944,1,8,0:0:0:0:
302,227,74042,1,0,0:0:0:0:
269,152,74140,1,0,0:0:0:0:
293,242,74237,1,8,0:0:0:0:
293,242,74433,1,0,0:0:0:0:
293,213,74628,1,8,0:0:0:0:
292,234,74726,1,8,0:0:0:0:
283,126,74823,1,0,0:0:0:0:
283,126,75019,1,12,0:0:0:0:
283,126,75214,1,12,0:0:0:0:
324,212,75409,1,0,0:0:0:0:
324,212,75507,1,8,0:0:0:0:
310,220,75605,1,0,0:0:0:0:
310,220,75800,1,8,0:0:0:0:
310,220,75995,1,0,0:0:0:0:
269,152,76093,1,0,0:0:0:0:
310,220,76191,1,8,0:0:0:0:
270,149,76288,1,0,0:0:0:0:
310,220,76386,1,8,0:0:0:0:
227,248,76484,1,8,0:0:0:0:
207,225,76581,1,0,0:0:0:0:
195,155,76777,1,0,0:0:0:0:
256,192,76972,8,0,79120,0:0:0:0:
