osu file format v14

[General]
AudioFilename: audio.mp3
AudioLeadIn: 0
PreviewTime: 48865
Countdown: 0
SampleSet: Soft
StackLeniency: 0.7
Mode: 0
LetterboxInBreaks: 0
WidescreenStoryboard: 1

[Editor]
Bookmarks: 17896,28331,38766,49201,59635,70070,75288,85722,96157,117027,127461,137896,148331,158766,169201,179635,190070,200505,208168
DistanceSpacing: 1
BeatDivisor: 4
GridSize: 16
TimelineZoom: 2.3

[Metadata]
Title:Start Without You (feat. Laza Morgan)
TitleUnicode:Start Without You (feat. Laza Morgan)
Artist:Alexandra Burke
ArtistUnicode:Alexandra Burke
Creator:AJT
Version:Normal
Source:
Tags:english pop r&b reggae dancehall black x factor uk aranel
BeatmapID:3690835
BeatmapSetID:1785234

[Difficulty]
HPDrainRate:3
CircleSize:4
OverallDifficulty:4
ApproachRate:6
SliderMultiplier:2.25
SliderTickRate:1

[Events]
//Background and Video events
0,0,"sbbg.png",0,0
//Break Periods
2,46782,47815
2,70260,74228
2,104174,105207
2,127652,136836
2,158956,162923
//Storyboard Layer 0 (Background)
//Storyboard Layer 1 (Fail)
//Storyboard Layer 2 (Pass)
//Storyboard Layer 3 (Foreground)
//Storyboard Layer 4 (Overlay)
//Storyboard Sound Samples

[TimingPoints]
7452,652.173913043478,4,2,0,85,1,8
17886,-100,4,2,0,85,0,8
19191,-100,4,2,0,85,0,8
19843,-100,4,2,0,85,0,8
48212,-100,4,2,0,85,0,8
49191,-90.9090909090909,4,2,0,100,0,9
70060,-100,4,2,0,85,0,8
75278,652.173913043478,4,2,0,85,1,0
76582,-100,4,2,0,85,0,8
77071,-100,4,2,0,85,0,8
85386,-100,4,2,0,85,0,8
85712,-100,4,2,0,85,0,8
101038,-100,4,2,0,85,0,8
101365,-100,4,2,0,85,0,8
105604,-100,4,2,0,85,0,8
106582,-90.9090909090909,4,2,0,100,0,9
127451,-100,4,2,0,85,0,8
169191,-90.9090909090909,4,2,0,100,0,9
189734,-100,4,2,0,85,0,8
190060,-90.9090909090909,4,2,0,100,0,9
208158,-100,4,2,0,85,0,8

[Colours]
Combo1 : 255,53,255
Combo2 : 128,0,128
Combo3 : 0,128,192
Combo4 : 0,0,255

[HitObjects]
32,36,17886,6,0,B|83:42|77:87|128:93,1,112.5,6|0,1:2|0:0,0:0:0:0:
157,145,18375,1,0,1:0:0:0:
157,145,18538,2,0,P|147:209|104:236,1,112.5,10|0,0:0|1:2,0:0:0:0:
59,334,19191,1,2,1:2:0:0:
104,366,19354,2,0,B|168:352|226:351,1,112.5,2|0,0:0|0:0,0:0:0:0:
270,342,19843,1,10,0:0:0:0:
295,232,20169,1,2,1:2:0:0:
405,252,20495,6,0,P|442:219|444:138,1,112.5,6|0,1:2|0:0,0:0:0:0:
499,127,20984,1,0,1:0:0:0:
499,127,21147,2,0,P|464:60|416:46,1,112.5,10|0,0:0|1:2,0:0:0:0:
324,62,21799,1,2,1:2:0:0:
324,62,21963,1,2,0:0:0:0:
217,87,22289,1,0,1:0:0:0:
217,87,22452,1,10,0:0:0:0:
118,32,22778,1,0,1:0:0:0:
28,100,23104,6,0,P|36:131|41:157,1,56.25,6|2,0:0|0:0,0:0:0:0:
80,194,23430,1,2,0:0:0:0:
80,194,23593,1,2,1:2:0:0:
80,194,23756,1,10,0:0:0:0:
58,304,24082,2,0,P|26:297|-5:291,2,56.25,2|2|2,1:2|0:0|1:2,0:0:0:0:
139,380,24734,1,2,0:0:0:0:
235,322,25060,2,0,P|298:308|361:306,1,112.5,10|2,0:0|1:2,0:0:0:0:
396,278,25549,5,6,1:0:0:0:
416,167,25875,1,2,0:1:0:0:
353,79,26201,1,2,0:1:0:0:
353,79,26365,2,0,P|322:87|288:90,1,56.25,10|2,0:0|0:0,0:0:0:0:
264,50,26691,1,2,1:2:0:0:
264,50,26854,2,0,B|200:32|211:61|150:42,1,112.5,2|2,0:0|0:0,0:0:0:0:
100,23,27343,1,2,0:0:0:0:
33,113,27669,2,0,B|1:170|32:167|0:222,1,112.5,10|2,0:0|1:2,0:0:0:0:
97,278,28321,6,0,P|123:221|213:247,1,168.75,6|0,1:2|1:0,0:0:0:0:
234,294,28973,1,10,0:0:0:0:
332,349,29299,1,0,1:2:0:0:
377,248,29626,1,2,1:2:0:0:
377,248,29788,2,0,B|424:211|424:211|472:240,1,112.5,2|0,0:0|1:2,0:0:0:0:
502,283,30278,1,10,0:0:0:0:
461,64,30930,6,0,P|400:41|331:30,1,112.5,6|0,1:2|0:0,0:0:0:0:
306,58,31419,1,0,1:0:0:0:
306,58,31582,2,0,P|281:115|234:130,2,112.5,10|0|2,0:0|1:2|1:2,0:0:0:0:
261,23,32397,2,0,P|195:23|138:35,1,112.5,2|0,0:2|1:0,0:0:0:0:
97,54,32887,1,10,0:0:0:0:
32,145,33213,1,0,1:0:0:0:
128,202,33538,6,0,P|159:210|185:215,1,56.25,2|2,1:2|0:2,0:0:0:0:
222,254,33864,1,2,0:0:0:0:
222,254,34027,1,2,1:2:0:0:
222,254,34190,1,10,0:0:0:0:
183,359,34516,2,0,P|151:366|120:372,2,56.25,2|2|2,1:2|0:0|1:2,0:0:0:0:
294,342,35168,1,2,0:1:0:0:
404,323,35494,2,0,P|466:303|521:275,1,112.5,10|2,0:1|0:0,0:0:0:0:
501,227,35983,5,2,3:2:0:0:
464,120,36309,1,2,0:0:0:0:
416,23,36635,1,2,1:2:0:0:
416,23,36799,1,10,0:0:0:0:
310,53,37125,1,2,1:2:0:0:
310,53,37289,1,2,0:0:0:0:
206,91,37615,1,2,0:0:0:0:
206,91,37779,1,2,0:0:0:0:
252,192,38103,2,0,B|271:255|290:230|308:291,1,112.5,10|0,0:0|1:0,0:0:0:0:
237,376,38756,6,0,P|125:354|118:191,1,281.25,6|0,1:2|0:0,0:0:0:0:
54,183,39734,1,2,1:2:0:0:
117,90,40060,2,0,P|181:75|230:71,1,112.5,2|0,1:2|0:0,0:0:0:0:
287,73,40549,1,2,1:2:0:0:
287,73,40712,1,10,1:0:0:0:
320,180,41038,1,2,0:0:0:0:
431,164,41365,6,0,P|495:180|475:292,2,168.75,2|2|2,1:2|1:2|0:0,0:0:0:0:
320,180,42669,2,0,P|246:187|180:199,1,112.5,2|2,1:2|0:0,0:0:0:0:
167,231,43158,1,2,1:2:0:0:
177,286,43321,1,10,1:1:0:0:
121,383,43647,2,0,P|89:376|67:369,1,56.25,0|0,1:0|3:0,0:0:0:0:
32,323,43973,6,0,B|15:232|84:179|61:84,1,225,6|10,1:2|1:0,0:0:0:0:
156,40,44951,1,2,0:0:0:0:
247,105,45277,2,0,P|312:95|361:76,1,112.5,2|2,1:2|0:0,0:0:0:0:
398,42,45766,1,2,1:2:0:0:
398,42,45929,1,10,1:0:0:0:
463,133,46256,2,0,P|473:198|492:247,1,112.5,2|2,0:0|3:2,0:0:0:0:
256,192,48865,5,0,1:0:0:0:
301,76,49191,2,0,P|275:19|156:40,1,185.625005664826,6|2,1:2|1:2,0:0:0:0:
132,77,49843,1,8,1:0:0:0:
39,158,50169,2,0,P|38:196|49:232,1,61.8750018882752,2|2,1:2|0:0,0:0:0:0:
7,269,50495,2,0,P|33:326|152:305,1,185.625005664826,2|2,1:2|1:2,0:0:0:0:
197,347,51147,1,8,1:0:0:0:
382,342,51636,6,0,P|421:359|510:381,2,123.75000377655,2|2|2,0:2|3:2|0:2,0:0:0:0:
353,287,52451,1,8,1:0:0:0:
412,177,52778,1,0,1:0:0:0:
467,66,53104,1,0,1:0:0:0:
467,66,53267,2,0,P|418:47|298:24,1,123.75000377655,2|2,1:0|3:1,0:0:0:0:
294,59,53756,1,10,1:1:0:0:
235,169,54082,1,2,0:1:0:0:
235,169,54245,6,0,P|254:218|277:338,2,123.75000377655,2|2|2,3:2|0:0|0:0,0:0:0:0:
173,169,55060,1,8,1:0:0:0:
309,43,55549,2,0,P|358:24|478:1,2,123.75000377655,2|2|2,3:2|0:0|0:0,0:0:0:0:
309,105,56364,1,8,1:0:0:0:
212,264,56854,6,0,P|231:313|254:433,2,123.75000377655,2|2|0,3:2|0:0|3:0,0:0:0:0:
150,264,57669,1,8,1:0:0:0:
61,184,57995,1,2,0:0:0:0:
61,184,58158,1,2,3:2:0:0:
103,70,58484,1,2,1:1:0:0:
224,91,58810,1,2,0:1:0:0:
224,91,58973,1,10,1:0:0:0:
336,38,59299,1,2,1:1:0:0:
360,159,59625,6,0,P|385:194|505:195,1,123.75000377655,6|0,1:2|0:0,0:0:0:0:
502,170,60115,1,2,1:2:0:0:
502,170,60277,1,8,1:0:0:0:
498,293,60603,2,0,P|463:306|429:328,1,61.8750018882752,2|2,1:2|0:0,0:0:0:0:
415,374,60929,2,0,P|389:317|270:338,1,185.625005664826,2|2,1:2|1:2,0:0:0:0:
238,369,61581,1,8,1:0:0:0:
56,332,62070,6,0,P|39:293|17:204,2,123.75000377655,2|2|0,3:2|3:2|0:0,0:0:0:0:
116,317,62885,1,8,1:0:0:0:
230,269,63212,1,0,1:0:0:0:
222,149,63538,1,0,1:0:0:0:
222,149,63701,2,0,P|173:130|53:107,1,123.75000377655,2|2,1:0|3:1,0:0:0:0:
42,116,64190,1,10,1:0:0:0:
136,35,64516,1,2,0:1:0:0:
136,35,64679,6,0,P|185:16|305:-7,2,123.75000377655,2|0|2,3:2|1:0|0:0,0:0:0:0:
79,10,65494,1,8,1:1:0:0:
92,195,65983,2,0,P|73:244|50:364,2,123.75000377655,2|0|2,3:2|1:2|0:0,0:0:0:0:
144,162,66798,1,8,1:1:0:0:
297,266,67288,6,0,P|316:315|339:435,2,123.75000377655,2|2|0,0:0|0:2|3:0,0:0:0:0:
346,228,68103,1,8,1:0:0:0:
424,133,68429,1,2,0:0:0:0:
424,133,68592,1,0,1:1:0:0:
369,21,68918,1,2,1:1:0:0:
253,59,69244,1,2,0:1:0:0:
253,59,69407,1,10,1:0:0:0:
226,179,69733,1,2,1:1:0:0:
204,289,70060,5,6,0:0:0:0:
490,376,75278,6,0,B|439:370|445:325|394:319,1,112.5,6|0,1:2|0:0,0:0:0:0:
367,277,75767,1,0,1:0:0:0:
367,277,75930,1,10,0:0:0:0:
428,182,76256,1,0,1:2:0:0:
437,69,76582,2,0,B|483:73|511:80,2,75,2|2|2,1:2|0:2|0:0,0:0:0:0:
373,27,77235,1,10,0:2:0:0:
289,102,77561,1,0,1:0:0:0:
196,37,77887,6,0,P|159:70|157:151,1,112.5,6|0,1:2|0:0,0:0:0:0:
101,155,78376,1,0,1:0:0:0:
101,155,78539,2,0,P|136:222|184:236,1,112.5,10|0,1:2|1:0,0:0:0:0:
117,335,79191,2,0,B|71:339|42:346,2,75,2|2|2,1:2|0:2|0:0,0:0:0:0:
186,364,79844,1,10,0:0:0:0:
297,348,80170,1,0,1:0:0:0:
408,337,80496,6,0,P|400:306|395:280,1,56.25,6|2,1:2|0:0,0:0:0:0:
424,234,80821,2,0,P|455:226|481:221,1,56.25,2|2,0:0|1:2,0:0:0:0:
506,172,81148,1,10,0:0:0:0:
423,96,81474,2,0,P|430:64|436:33,2,56.25,2|2|2,1:2|0:0|1:2,0:0:0:0:
336,167,82126,1,2,3:2:0:0:
424,234,82452,2,0,P|410:297|408:360,1,112.5,10|2,0:0|1:2,0:0:0:0:
354,364,82941,5,2,3:1:0:0:
243,384,83267,1,2,0:1:0:0:
147,334,83593,1,2,1:0:0:0:
147,334,83757,1,10,0:0:0:0:
108,233,84082,1,2,1:2:0:0:
108,233,84246,1,2,0:0:0:0:
131,123,84571,1,2,0:0:0:0:
131,123,84735,1,2,0:0:0:0:
340,42,85386,1,6,1:2:0:0:
449,14,85713,6,0,P|506:40|480:130,1,168.75,6|0,1:2|1:0,0:0:0:0:
448,172,86365,1,10,0:0:0:0:
341,136,86691,1,0,1:2:0:0:
261,215,87017,2,0,B|215:219|176:227,2,84.375,2|2|2,1:2|0:0|1:2,0:0:0:0:
296,258,87670,1,10,1:2:0:0:
245,358,87995,2,0,L|174:371,1,56.25,2|2,1:0|3:2,0:0:0:0:
134,373,88322,6,0,P|111:312|100:243,1,112.5,6|0,1:2|0:0,0:0:0:0:
71,225,88811,1,0,1:0:0:0:
71,225,88973,1,8,1:2:0:0:
9,130,89299,1,2,0:0:0:0:
78,41,89625,2,0,P|40:22|-17:15,2,84.375,2|2|2,1:2|0:0|0:0,0:0:0:0:
99,93,90279,1,10,0:0:0:0:
187,24,90604,6,0,P|218:32|244:37,1,56.25,2|2,3:1|3:2,0:0:0:0:
291,63,90930,2,0,P|299:94|304:120,1,56.25,2|2,1:2|0:2,0:0:0:0:
359,153,91256,1,2,0:0:0:0:
359,153,91419,1,2,1:2:0:0:
359,153,91582,1,10,0:0:0:0:
434,236,91908,2,0,P|466:229|497:223,2,56.25,2|2|2,1:2|0:0|1:2,0:0:0:0:
378,333,92560,1,2,1:0:0:0:
287,266,92886,2,0,P|225:246|170:218,1,112.5,10|2,1:0|0:0,0:0:0:0:
190,170,93375,5,2,3:2:0:0:
290,118,93701,1,2,0:0:0:0:
253,16,94027,1,0,3:0:0:0:
253,16,94191,1,10,0:0:0:0:
144,9,94517,1,2,0:0:0:0:
144,9,94681,1,2,0:0:0:0:
92,110,95007,1,2,0:0:0:0:
92,110,95169,1,2,0:0:0:0:
44,213,95495,1,10,0:0:0:0:
44,213,95658,2,0,L|50:270,1,56.25,2|2,0:0|0:0,0:0:0:0:
80,377,96148,6,0,P|102:265|265:258,1,281.25,6|0,1:2|0:0,0:0:0:0:
261,300,97126,1,2,0:0:0:0:
371,318,97452,2,0,P|386:254|390:205,1,112.5,2|0,1:2|0:0,0:0:0:0:
444,187,97941,1,2,1:2:0:0:
444,187,98104,1,10,1:0:0:0:
376,97,98430,1,2,0:0:0:0:
263,108,98757,6,0,P|199:92|219:-20,2,168.75,2|2|2,1:2|1:2|0:0,0:0:0:0:
292,216,100061,2,0,P|285:290|273:356,1,112.5,2|2,1:2|0:0,0:0:0:0:
241,369,100550,1,2,1:2:0:0:
186,359,100713,1,10,1:1:0:0:
90,298,101038,2,0,P|58:291|36:284,1,56.25,2|0,1:1|0:0,0:0:0:0:
2,238,101365,6,0,B|-15:147|54:94|31:-1,1,225,6|10,0:0|1:0,0:0:0:0:
145,35,102343,1,2,0:0:0:0:
209,127,102669,2,0,P|219:192|238:241,1,112.5,2|2,1:2|0:0,0:0:0:0:
272,278,103158,1,2,1:2:0:0:
272,278,103321,1,10,1:0:0:0:
380,248,103648,2,0,P|390:183|409:134,1,112.5,2|6,1:2|0:0,0:0:0:0:
89,329,106257,5,0,1:0:0:0:
211,308,106583,2,0,P|237:365|356:344,1,185.625005664826,6|2,1:2|1:2,0:0:0:0:
380,307,107235,1,8,1:0:0:0:
483,238,107561,1,2,1:2:0:0:
460,180,107724,1,2,0:0:0:0:
496,130,107887,2,0,P|470:73|351:94,1,185.625005664826,2|2,1:2|1:2,0:0:0:0:
315,37,108539,1,8,1:0:0:0:
130,42,109028,6,0,P|91:25|2:3,2,123.75000377655,2|2|2,0:2|3:2|0:2,0:0:0:0:
159,97,109843,1,8,1:0:0:0:
53,162,110170,1,0,1:0:0:0:
118,273,110496,1,0,1:0:0:0:
118,273,110659,2,0,P|167:292|287:315,1,123.75000377655,2|2,1:0|3:1,0:0:0:0:
272,358,111148,1,10,1:1:0:0:
354,266,111474,1,2,0:1:0:0:
354,266,111637,6,0,P|373:217|396:97,2,123.75000377655,2|2|2,3:2|0:0|0:0,0:0:0:0:
389,316,112452,1,8,1:0:0:0:
284,162,112941,2,0,P|235:181|115:204,2,123.75000377655,2|2|2,3:2|0:0|0:0,0:0:0:0:
311,106,113756,1,8,1:0:0:0:
138,35,114246,6,0,P|89:16|-31:-7,2,123.75000377655,2|2|0,3:2|0:0|3:0,0:0:0:0:
199,26,115061,1,8,1:0:0:0:
130,129,115387,1,2,0:0:0:0:
130,129,115550,1,2,3:2:0:0:
230,200,115876,1,2,1:1:0:0:
179,314,116202,1,2,0:1:0:0:
179,314,116365,1,10,1:0:0:0:
55,302,116691,1,2,1:1:0:0:
14,185,117017,6,0,P|39:150|159:149,1,123.75000377655,6|0,1:2|0:0,0:0:0:0:
177,148,117507,1,2,1:2:0:0:
177,148,117669,1,8,1:0:0:0:
243,252,117995,2,0,P|278:239|312:217,1,61.8750018882752,2|2,1:2|0:0,0:0:0:0:
360,230,118321,2,0,P|303:204|324:85,1,185.625005664826,2|2,1:2|1:2,0:0:0:0:
290,36,118973,1,8,1:0:0:0:
475,28,119462,6,0,P|507:55|493:132,2,123.75000377655,2|2|0,3:2|3:2|0:0,0:0:0:0:
413,24,120277,1,8,1:0:0:0:
382,144,120604,1,0,1:0:0:0:
355,267,120930,1,0,1:0:0:0:
355,267,121093,2,0,P|306:248|186:225,1,123.75000377655,2|2,1:0|3:1,0:0:0:0:
188,269,121582,1,10,1:0:0:0:
117,173,121908,1,2,0:1:0:0:
117,173,122071,6,0,P|68:192|-52:215,2,123.75000377655,2|0|2,3:2|1:0|0:0,0:0:0:0:
119,111,122886,1,8,1:1:0:0:
221,265,123375,2,0,P|202:314|179:434,2,123.75000377655,2|0|2,3:2|1:2|0:0,0:0:0:0:
282,258,124190,1,8,1:1:0:0:
444,168,124680,6,0,P|463:119|486:-1,2,123.75000377655,2|2|0,0:0|0:2|3:0,0:0:0:0:
382,162,125495,1,8,1:0:0:0:
319,60,125821,1,2,0:0:0:0:
319,60,125984,1,0,1:1:0:0:
198,31,126310,1,2,1:1:0:0:
82,69,126636,1,2,0:1:0:0:
82,69,126799,1,10,1:0:0:0:
28,180,127125,1,2,1:1:0:0:
90,274,127452,5,6,1:2:0:0:
475,275,137886,6,0,P|494:328|504:384,2,112.5,4|2|10,1:2|0:0|1:2,0:0:0:0:
362,269,138865,1,2,1:2:0:0:
362,269,139028,2,0,P|380:216|390:160,1,112.5,2|2,3:2|0:0,0:0:0:0:
351,120,139517,1,2,0:0:0:0:
420,31,139843,1,10,1:2:0:0:
308,15,140169,2,0,P|274:11|240:12,1,56.25,2|2,1:2|2:0,0:3:0:0:
208,47,140495,5,2,1:2:0:0:
99,74,140821,2,0,P|74:51|45:31,2,56.25,2|2|10,2:0|1:2|1:2,0:0:0:0:
71,185,141473,1,2,1:2:0:0:
71,185,141636,1,2,1:2:0:0:
85,296,141962,2,0,P|60:318|31:338,2,56.25,2|2|4,0:0|3:2|1:2,0:0:0:0:
136,272,142451,2,0,L|222:295,1,56.25,10|2,1:2|0:0,0:0:0:0:
217,336,142778,1,6,1:2:0:0:
319,290,143104,6,0,P|337:237|347:181,1,112.5,2|2,1:2|0:0,0:0:0:0:
311,138,143593,1,0,1:2:0:0:
306,81,143756,2,0,P|253:62|197:52,2,112.5,10|2|2,1:2|1:2|1:2,0:0:0:0:
400,20,144734,1,2,0:0:0:0:
469,108,145060,6,0,P|493:130|522:150,2,56.25,8|0|0,1:0|0:0|1:0,0:0:0:0:
433,152,145549,1,0,0:0:0:0:
433,152,145712,2,0,P|422:183|401:282,1,112.5,0|2,1:0|1:0,0:0:0:0:
418,319,146201,1,2,0:0:0:0:
418,319,146365,1,10,1:0:0:0:
313,360,146691,1,2,1:0:0:0:
225,289,147017,2,0,P|193:278|95:257,2,112.5,2|2|10,1:2|3:2|1:0,0:0:0:0:
297,202,147995,1,2,1:2:0:0:
257,96,148321,1,6,1:2:0:0:
347,29,148647,6,0,P|379:36|475:66,1,112.5,2|8,0:0|1:0,0:0:0:0:
465,114,149136,1,2,0:0:0:0:
447,230,149462,1,2,0:0:0:0:
447,230,149625,2,0,P|461:260|353:336,2,168.75,2|2|2,1:2|1:2|1:2,0:0:0:0:
336,254,150930,1,2,1:2:0:0:
255,332,151256,2,0,P|215:336|167:347,1,56.25,2|0,0:0|1:0,0:0:0:0:
146,359,151582,1,10,1:2:0:0:
146,359,151745,1,2,3:2:0:0:
62,291,152071,1,2,0:0:0:0:
62,291,152234,2,0,P|47:260|155:184,2,168.75,2|2|0,1:2|1:2|1:0,0:0:0:0:
24,68,153865,5,2,1:2:0:0:
136,62,154191,1,8,1:0:0:0:
248,51,154517,2,0,P|284:45|316:45,1,56.25,2|2,1:2|0:0,0:0:0:0:
356,63,154843,2,0,P|363:122|355:188,1,112.5,2|2,1:2|0:0,0:0:0:0:
307,200,155332,1,0,1:0:0:0:
393,345,155821,1,0,1:0:0:0:
455,251,156147,6,0,P|506:246|533:247,2,56.25,2|2|0,1:2|0:0|1:0,0:0:0:0:
420,213,156636,1,2,1:2:0:0:
420,213,156799,2,0,P|419:178|430:144,1,56.25,8|2,1:0|0:0,0:0:0:0:
465,118,157125,1,2,1:2:0:0:
437,8,157451,2,0,P|488:3|515:4,2,56.25,0|2|2,1:0|3:2|3:2,0:0:0:0:
354,84,158104,1,10,1:0:0:0:
248,122,158430,1,2,1:2:0:0:
244,234,158756,1,6,0:0:0:0:
256,192,163973,5,2,0:0:0:0:
256,192,164136,12,0,166582,1:0:0:0:
162,28,169191,6,0,B|235:1|288:75|354:22,1,185.625005664826,6|2,1:2|1:2,0:0:0:0:
402,15,169843,1,8,1:0:0:0:
491,100,170169,1,2,1:2:0:0:
475,159,170332,1,2,0:0:0:0:
413,165,170495,2,0,P|381:214|376:301,1,123.75000377655,2|2,1:2|0:0,0:0:0:0:
400,337,170984,1,2,1:2:0:0:
400,337,171147,1,8,1:0:0:0:
214,347,171636,6,0,P|175:364|86:386,2,123.75000377655,2|2|2,0:2|3:2|0:2,0:0:0:0:
232,287,172451,1,8,1:0:0:0:
281,173,172778,1,0,1:0:0:0:
157,183,173104,1,0,1:0:0:0:
131,61,173430,2,0,P|82:42|-38:19,2,123.75000377655,2|10|2,0:0|1:1|0:1,0:0:0:0:
187,35,174245,6,0,P|236:16|356:-7,2,123.75000377655,2|2|2,3:2|0:0|0:0,0:0:0:0:
173,95,175060,1,8,1:0:0:0:
244,266,175549,2,0,P|225:315|202:435,2,123.75000377655,2|2|2,3:2|0:0|0:0,0:0:0:0:
305,258,176364,1,8,1:0:0:0:
123,215,176854,6,0,P|74:234|-46:257,2,123.75000377655,2|2|0,3:2|0:0|3:0,0:0:0:0:
113,153,177669,1,8,1:0:0:0:
19,80,177995,1,2,0:0:0:0:
19,80,178158,1,2,3:2:0:0:
123,14,178484,1,2,1:1:0:0:
123,14,178647,2,0,L|215:30,1,61.8750018882752,2|2,0:0|0:1,0:0:0:0:
249,32,178973,1,10,1:0:0:0:
368,65,179299,1,2,1:1:0:0:
487,96,179625,6,0,P|490:138|399:216,1,123.75000377655,6|0,1:2|0:0,0:0:0:0:
386,229,180115,1,2,1:2:0:0:
386,229,180277,1,8,1:0:0:0:
294,145,180603,2,0,P|259:158|225:180,1,61.8750018882752,2|2,1:2|0:0,0:0:0:0:
208,224,180929,2,0,P|151:198|142:138,1,123.75000377655,2|0,1:2|0:0,0:0:0:0:
94,108,181419,1,2,1:2:0:0:
94,108,181581,1,8,1:0:0:0:
33,283,182070,6,0,P|1:310|15:387,2,123.75000377655,2|2|0,3:2|3:2|0:0,0:0:0:0:
94,292,182885,1,8,1:0:0:0:
215,318,183212,1,0,1:0:0:0:
339,349,183538,1,0,1:0:0:0:
339,349,183701,2,0,P|358:300|381:180,1,123.75000377655,2|2,1:0|3:1,0:0:0:0:
424,193,184190,1,10,1:0:0:0:
389,79,184516,1,2,0:1:0:0:
389,79,184679,6,0,P|340:60|220:37,2,123.75000377655,2|0|2,3:2|1:0|0:0,0:0:0:0:
447,59,185494,1,8,1:1:0:0:
310,184,185983,2,0,P|261:203|141:226,2,123.75000377655,2|0|2,3:2|1:2|0:0,0:0:0:0:
305,122,186798,1,8,1:1:0:0:
146,25,187288,6,0,P|97:44|-23:67,2,123.75000377655,2|2|0,3:2|0:2|3:0,0:0:0:0:
200,53,188103,1,8,1:0:0:0:
184,178,188429,1,2,0:0:0:0:
184,178,188592,1,0,1:1:0:0:
60,175,188918,1,2,1:1:0:0:
60,175,189082,2,0,L|48:264,1,61.8750018882752,2|2,0:0|0:1,0:0:0:0:
16,286,189407,1,10,1:0:0:0:
134,319,189733,1,2,1:1:0:0:
255,346,190060,5,6,1:2:0:0:
178,110,190712,1,8,1:0:0:0:
272,30,191038,1,2,1:2:0:0:
330,10,191201,1,2,0:0:0:0:
384,38,191364,2,0,P|425:68|432:136,1,123.75000377655,2|2,1:2|0:0,0:0:0:0:
377,163,191854,1,2,1:2:0:0:
377,163,192017,2,0,P|336:193|329:261,1,123.75000377655,8|2,1:0|1:2,0:0:0:0:
283,302,192505,6,0,P|244:285|155:263,2,123.75000377655,2|2|2,0:2|3:2|0:2,0:0:0:0:
295,362,193320,1,8,1:0:0:0:
417,345,193647,1,0,1:0:0:0:
469,235,193973,1,0,1:0:0:0:
469,235,194136,2,0,P|488:186|511:66,1,123.75000377655,2|2,1:0|3:1,0:0:0:0:
476,62,194625,1,10,1:1:0:0:
356,56,194951,1,2,0:1:0:0:
356,56,195114,6,0,P|307:37|187:14,2,123.75000377655,2|2|2,3:2|0:0|0:0,0:0:0:0:
336,114,195929,1,8,1:0:0:0:
285,292,196418,2,0,P|236:311|116:334,2,123.75000377655,2|2|2,3:2|0:0|0:0,0:0:0:0:
333,330,197233,1,8,1:0:0:0:
182,221,197723,6,0,P|133:240|13:263,2,123.75000377655,2|2|0,3:2|0:0|3:0,0:0:0:0:
183,159,198538,1,8,1:0:0:0:
134,50,198864,1,2,0:0:0:0:
134,50,199027,1,2,3:2:0:0:
248,3,199353,1,2,1:1:0:0:
347,85,199679,1,2,0:1:0:0:
347,85,199842,1,10,1:0:0:0:
273,184,200168,1,2,1:1:0:0:
305,303,200494,5,6,1:2:0:0:
126,345,200984,1,2,1:2:0:0:
126,345,201146,1,8,1:0:0:0:
35,260,201472,2,0,P|46:224|49:184,1,61.8750018882752,2|2,1:2|0:0,0:0:0:0:
3,158,201798,2,0,P|33:128|68:50,1,123.75000377655,2|0,1:2|0:0,0:0:0:0:
121,24,202288,2,0,P|156:35|196:38,1,61.8750018882752,2|8,1:2|1:0,0:0:0:0:
347,120,202941,6,0,P|374:88|451:102,2,123.75000377655,2|2|2,1:2|3:2|0:0,0:0:0:0:
289,143,203756,1,8,1:0:0:0:
235,255,204081,1,0,1:0:0:0:
172,363,204407,1,0,1:0:0:0:
296,358,204734,2,0,P|345:339|465:316,1,123.75000377655,2|10,0:0|1:0,0:0:0:0:
458,209,205385,1,2,0:1:0:0:
458,209,205548,6,0,P|477:160|500:40,2,123.75000377655,2|0|2,3:2|1:0|0:0,0:0:0:0:
460,270,206365,1,8,1:1:0:0:
274,266,206854,2,0,P|255:315|232:435,2,123.75000377655,2|0|2,3:2|1:2|0:0,0:0:0:0:
231,221,207669,1,8,1:1:0:0:
113,343,208158,5,2,3:2:0:0:
