osu file format v14

[General]
AudioFilename: audio.mp3
AudioLeadIn: 0
PreviewTime: 48865
Countdown: 0
SampleSet: Soft
StackLeniency: 0.7
Mode: 0
LetterboxInBreaks: 0
WidescreenStoryboard: 0

[Editor]
Bookmarks: 17896,28331,38766,49201,59635,70070,75288,85722,96157,117027,127461,137896,148331,158766,169201,179635,190070,200505,204408,208168
DistanceSpacing: 2.3
BeatDivisor: 4
GridSize: 16
TimelineZoom: 1.6

[Metadata]
Title:Start Without You (feat. Laza Morgan)
TitleUnicode:Start Without You (feat. Laza Morgan)
Artist:Alexandra Burke
ArtistUnicode:Alexandra Burke
Creator:AJT
Version:Here I Go
Source:
Tags:english pop r&b reggae dancehall black x factor uk aranel
BeatmapID:3656529
BeatmapSetID:1785234

[Difficulty]
HPDrainRate:6
CircleSize:4
OverallDifficulty:8
ApproachRate:9
SliderMultiplier:2.95
SliderTickRate:1

[Events]
//Background and Video events
0,0,"sbbg.png",0,0
//Break Periods
2,70260,74678
2,104174,105657
2,158956,163373
//Storyboard Layer 0 (Background)
//Storyboard Layer 1 (Fail)
//Storyboard Layer 2 (Pass)
//Storyboard Layer 3 (Foreground)
//Storyboard Layer 4 (Overlay)
//Storyboard Sound Samples

[TimingPoints]
7452,652.173913043478,4,2,0,85,1,8
17886,-100,4,2,0,85,0,8
19191,-80,4,2,0,85,0,8
19843,-100,4,2,0,85,0,8
48212,-133.333333333333,4,2,0,85,0,8
49191,-80,4,2,0,100,0,9
70060,-100,4,2,0,85,0,8
75278,652.173913043478,4,2,0,85,1,0
76582,-100,4,2,0,85,0,8
77071,-100,4,2,0,85,0,8
85386,-66.6666666666667,4,2,0,85,0,8
85712,-100,4,2,0,85,0,8
101038,-80,4,2,0,85,0,8
101365,-100,4,2,0,85,0,8
105604,-133.333333333333,4,2,0,85,0,8
106582,-80,4,2,0,100,0,9
127451,-100,4,2,0,85,0,8
169191,-80,4,2,0,100,0,9
189734,-100,4,2,0,85,0,8
190060,-66.6666666666667,4,2,0,100,0,9
208158,-100,4,2,0,85,0,8

[Colours]
Combo1 : 255,53,255
Combo2 : 128,0,128
Combo3 : 0,128,192
Combo4 : 0,0,255

[HitObjects]
3,126,17560,5,0,1:0:0:0:
3,126,17886,6,0,P|19:226|43:273,1,147.5,6|0,1:2|0:0,0:0:0:0:
139,164,18375,1,0,1:0:0:0:
245,69,18538,2,0,P|178:40|105:33,1,147.5,10|0,0:0|1:2,0:0:0:0:
258,248,19191,6,0,P|219:278|175:300,1,92.1875,2|2,1:2|0:0,0:0:0:0:
320,368,19625,1,0,1:0:0:0:
320,368,19843,2,0,P|327:340|333:282,1,73.75,10|0,0:0|0:0,0:0:0:0:
496,352,20169,1,2,1:2:0:0:
472,266,20332,1,2,0:0:0:0:
472,266,20414,1,2,0:0:0:0:
472,266,20495,6,0,P|501:199|509:126,1,147.5,6|0,1:2|0:0,0:0:0:0:
371,176,20984,1,0,1:0:0:0:
407,33,21147,2,0,P|333:40|266:69,2,147.5,10|0|2,0:0|1:2|1:2,0:0:0:0:
407,33,21962,1,2,0:0:0:0:
208,129,22234,6,0,P|164:107|125:77,1,98.3333333333333,0|10,1:0|0:0,0:0:0:0:
16,352,22778,1,0,1:0:0:0:
119,311,22941,1,0,3:0:0:0:
119,311,23023,1,0,3:0:0:0:
119,311,23104,6,0,P|168:322|209:338,1,73.75,6|2,0:0|0:0,0:0:0:0:
333,366,23430,2,0,P|284:377|243:393,1,73.75,2|2,0:0|1:2,0:0:0:0:
136,277,23756,2,0,P|185:288|226:304,1,73.75,10|2,0:0|0:0,0:0:0:0:
350,332,24082,2,0,P|301:343|260:359,1,73.75,2|2,1:2|0:0,0:0:0:0:
282,217,24408,5,2,1:2:0:0:
299,122,24571,1,2,0:0:0:0:
362,7,24734,2,0,P|313:18|272:34,1,73.75,2|0,0:0|1:0,0:0:0:0:
148,62,25060,2,0,P|197:73|238:89,1,73.75,10|0,0:0|0:0,0:0:0:0:
299,122,25386,1,2,1:2:0:0:
432,48,25549,6,0,P|503:119|497:172,2,147.5,6|2|2,1:0|0:1|0:1,0:0:0:0:
416,192,26365,2,0,P|427:241|443:282,1,73.75,10|2,0:0|0:0,0:0:0:0:
512,272,26691,1,2,1:2:0:0:
384,352,26854,6,0,P|293:331|227:327,1,147.5,2|2,0:0|0:0,0:0:0:0:
0,320,27343,2,0,P|31:301|65:285,1,73.75,2|0,0:0|1:0,0:0:0:0:
171,383,27669,2,0,P|164:347|153:312,1,73.75,10|0,0:0|0:0,0:0:0:0:
134,214,27995,1,2,1:2:0:0:
71,139,28158,1,2,3:2:0:0:
66,107,28240,1,2,3:2:0:0:
88,83,28322,6,0,P|161:90|232:108,1,147.5,6|0,1:2|0:0,0:0:0:0:
336,0,28810,1,0,1:0:0:0:
512,48,28973,2,0,P|439:55|368:73,2,147.5,10|0|2,0:0|1:2|1:2,0:0:0:0:
512,48,29788,2,0,P|476:95|506:172,1,147.5,2|0,0:0|1:2,0:0:0:0:
504,171,30278,1,10,0:0:0:0:
17,240,30604,1,2,1:2:0:0:
90,316,30767,1,2,3:2:0:0:
122,321,30849,1,2,3:2:0:0:
146,299,30931,6,0,P|139:226|121:155,1,147.5,6|0,1:2|0:0,0:0:0:0:
17,240,31419,1,0,1:0:0:0:
120,154,31582,2,0,P|138:225|146:299,2,147.5,10|0|2,0:0|1:2|1:2,0:0:0:0:
228,140,32397,2,0,P|235:213|254:285,1,147.5,2|0,0:2|1:0,0:0:0:0:
209,375,32887,1,10,0:0:0:0:
512,288,33213,5,0,1:0:0:0:
492,204,33375,1,0,3:0:0:0:
492,204,33457,1,0,3:0:0:0:
492,204,33538,6,0,P|503:155|519:114,1,73.75,2|2,1:2|0:2,0:0:0:0:
416,16,33865,1,2,0:0:0:0:
434,87,34028,1,2,1:2:0:0:
449,193,34191,1,10,0:0:0:0:
467,121,34354,1,2,0:0:0:0:
373,5,34518,2,0,P|384:54|400:95,1,73.75,2|2,1:2|0:0,0:0:0:0:
304,208,34843,5,2,1:2:0:0:
240,336,35006,1,2,0:0:0:0:
304,384,35169,2,0,P|353:373|394:357,1,73.75,2|0,0:1|0:0,0:0:0:0:
192,272,35495,2,0,P|181:223|147:122,1,147.5,10|2,0:1|0:0,0:0:0:0:
80,64,35984,1,2,3:2:0:0:
80,64,36066,1,0,3:2:0:0:
80,64,36147,6,0,P|44:57|9:46,2,73.75,4|2|0,1:2|0:0|0:0,0:0:0:0:
186,34,36636,1,2,1:2:0:0:
70,174,36799,1,10,0:0:0:0:
70,174,37125,5,2,1:2:0:0:
156,367,37288,2,0,P|167:296|136:230,1,147.5,2|2,0:0|0:0,0:0:0:0:
20,247,37778,2,0,P|9:324|40:385,2,147.5,2|10|0,0:0|0:0|1:0,0:0:0:0:
256,384,38593,1,2,0:0:0:0:
256,384,38675,1,2,0:0:0:0:
256,384,38756,6,0,P|358:362|419:340,1,147.5,6|0,1:2|0:0,0:0:0:0:
470,284,39245,1,2,1:2:0:0:
384,160,39408,1,10,1:0:0:0:
384,160,39734,2,0,P|345:152|292:151,1,73.75,2|0,1:2|0:0,0:0:0:0:
190,287,40060,6,0,B|232:248|282:290|329:243,1,147.5,2|0,1:2|0:0,0:0:0:0:
384,160,40549,1,2,1:2:0:0:
384,160,40712,2,0,P|345:152|292:151,1,73.75,10|0,1:0|0:0,0:0:0:0:
224,0,41038,2,0,P|232:39|233:92,1,73.75,2|2,0:0|0:0,0:0:0:0:
226,85,41283,1,2,0:0:0:0:
217,99,41365,6,0,B|144:105|55:132,1,147.5,2|2,1:2|0:0,0:0:0:0:
16,205,41854,1,2,1:2:0:0:
96,352,42017,1,10,1:1:0:0:
96,352,42343,2,0,P|135:344|213:344,1,110.625,2|0,0:0|0:0,0:0:0:0:
234,371,42669,6,0,P|306:351|281:273,1,147.5,2|2,1:2|0:0,0:0:0:0:
396,253,43158,1,2,1:2:0:0:
396,253,43321,2,0,P|376:181|298:206,1,147.5,10|0,1:1|0:0,0:0:0:0:
256,0,43810,1,0,3:0:0:0:
256,0,43892,1,2,3:2:0:0:
256,0,43973,6,0,P|154:22|93:44,1,147.5,6|0,1:2|0:0,0:0:0:0:
42,100,44462,1,2,1:2:0:0:
128,224,44625,1,10,1:0:0:0:
128,224,44951,2,0,P|167:232|220:233,1,73.75,2|0,1:2|0:0,0:0:0:0:
322,97,45278,6,0,B|280:136|230:94|183:141,1,147.5,2|2,1:2|0:0,0:0:0:0:
128,224,45766,1,2,1:2:0:0:
128,224,45929,2,0,P|167:232|220:233,1,73.75,10|0,1:0|0:0,0:0:0:0:
288,384,46255,2,0,P|280:345|279:292,1,73.75,2|2,0:0|0:0,0:0:0:0:
286,299,46500,1,2,0:0:0:0:
295,285,46582,6,0,B|336:288|385:274,2,73.75,2|0|0,3:2|0:0|0:0,0:0:0:0:
356,195,47071,2,0,B|376:160|384:109,2,73.75,4|0|0,0:3|0:0|0:0,0:0:0:0:
302,102,47560,2,0,B|278:69|235:40,2,73.75,4|0|2,0:3|0:0|0:0,0:0:0:0:
125,137,48212,6,0,B|153:119|194:112,1,73.75,2|0,0:0|0:0,0:0:0:0:
256,192,48701,1,2,0:0:0:0:
256,192,48865,1,0,1:0:0:0:
256,192,49191,6,0,P|166:320|114:212,1,276.5625,6|2,1:2|1:2,0:0:0:0:
116,276,49843,1,8,1:0:0:0:
116,276,50169,5,2,1:2:0:0:
256,384,50332,1,2,0:0:0:0:
396,276,50495,2,0,P|406:202|442:71,1,184.375,2|2,1:2|0:0,0:0:0:0:
501,209,50984,1,2,1:2:0:0:
460,73,51147,1,8,1:0:0:0:
256,192,51473,5,2,1:2:0:0:
283,326,51636,2,0,P|256:327|192:308,1,92.1875,2|0,0:2|1:2,0:0:0:0:
357,101,51962,2,0,P|372:122|389:188,1,92.1875,2|0,3:2|0:0,0:0:0:0:
125,147,52288,1,2,0:2:0:0:
125,147,52451,2,0,P|137:124|185:77,1,92.1875,8|0,1:0|0:0,0:0:0:0:
357,101,52778,2,0,P|372:122|389:188,1,92.1875,0|0,1:0|0:0,0:0:0:0:
283,326,53104,2,0,P|256:327|192:308,1,92.1875,0|2,1:0|1:0,0:0:0:0:
256,192,53593,5,2,3:1:0:0:
256,192,53756,1,10,1:1:0:0:
256,192,54082,1,2,0:1:0:0:
388,185,54245,6,0,P|431:251|470:382,2,184.375,2|2|2,3:2|0:0|0:0,0:0:0:0:
256,192,55060,1,8,1:0:0:0:
256,192,55386,1,0,3:0:0:0:
124,185,55549,2,0,P|81:251|42:382,2,184.375,2|2|2,3:2|0:0|0:0,0:0:0:0:
256,384,56365,1,8,1:0:0:0:
256,384,56691,1,0,3:3:0:0:
345,262,56854,6,0,B|410:246|410:246|431:192|431:192|506:166,2,184.375,2|2|0,3:2|0:0|3:0,0:0:0:0:
256,384,57669,2,0,L|211:282,1,92.1875,8|0,1:0|0:0,0:0:0:0:
345,262,57995,1,2,0:0:0:0:
167,213,58158,2,0,P|101:256|-30:295,2,184.375,2|2|2,3:2|1:1|0:1,0:2:0:0:
146,37,58973,2,0,P|172:74|183:119,1,92.1875,10|0,1:0|0:0,0:1:0:0:
53,18,59299,1,2,1:1:0:0:
256,0,59462,1,2,3:2:0:0:
256,0,59544,1,2,3:2:0:0:
256,0,59625,6,0,P|350:47|347:141,1,184.375,6|0,1:2|0:0,0:0:0:0:
358,117,60115,2,0,P|344:158|351:205,1,92.1875,2|8,1:2|1:0,0:0:0:0:
512,221,60604,5,2,1:2:0:0:
363,244,60767,1,2,0:0:0:0:
215,269,60930,2,0,P|205:195|169:64,1,184.375,2|0,1:2|0:0,0:0:0:0:
177,88,61419,2,0,P|139:57|99:49,1,92.1875,2|8,1:2|1:0,0:0:0:0:
97,48,61908,1,2,1:2:0:0:
86,201,62071,6,0,B|16:246|74:325|0:364,2,184.375,2|2|0,3:2|3:2|0:0,0:0:0:0:
168,174,62886,2,0,P|207:197|237:232,1,92.1875,8|0,1:0|0:0,0:0:0:0:
224,314,63212,2,0,P|236:326|189:374,1,92.1875,0|0,1:0|0:0,0:0:0:0:
204,378,63538,2,0,L|322:354,1,92.1875,0|2,1:0|1:0,0:0:0:0:
512,192,64028,2,0,L|394:216,1,92.1875,2|10,3:1|1:0,0:0:0:0:
421,210,64517,1,2,0:1:0:0:
456,335,64680,5,2,3:2:0:0:
218,365,65006,1,0,1:0:0:0:
52,192,65332,1,2,0:0:0:0:
52,192,65495,1,8,1:1:0:0:
456,49,65821,5,0,3:2:0:0:
456,49,65984,1,2,3:2:0:0:
218,19,66310,1,0,1:2:0:0:
52,192,66636,1,2,0:0:0:0:
52,192,66799,1,8,1:1:0:0:
422,367,67125,5,0,1:1:0:0:
422,367,67288,1,2,0:0:0:0:
189,310,67614,1,2,0:2:0:0:
92,99,67940,1,0,3:0:0:0:
92,99,68104,6,0,P|86:140|45:296,1,184.375,8|0,1:0|0:0,0:0:0:0:
189,310,68593,1,0,1:1:0:0:
189,310,68919,2,0,P|194:270|236:113,1,184.375,2|2,1:1|0:1,0:0:0:0:
384,288,69408,2,0,P|378:247|337:91,1,184.375,10|2,1:0|1:1,0:1:0:0:
392,6,69897,1,0,3:0:0:0:
392,6,69979,1,0,3:0:0:0:
392,6,70060,1,6,0:0:0:0:
509,126,75278,6,0,P|493:226|469:273,1,147.5,6|0,1:2|0:0,0:0:0:0:
373,164,75767,1,0,1:0:0:0:
267,69,75930,2,0,P|334:40|407:33,1,147.5,10|0,0:0|1:2,0:0:0:0:
254,248,76582,6,0,P|293:278|337:299,2,98.3333333333333,2|2|2,1:2|0:2|0:0,0:0:0:0:
224,368,77234,2,0,P|182:355|126:348,1,73.75,10|0,0:2|0:0,0:0:0:0:
32,384,77561,1,0,1:0:0:0:
40,266,77724,1,2,3:2:0:0:
40,266,77806,1,2,3:2:0:0:
40,266,77887,6,0,P|11:199|3:126,1,147.5,6|0,1:2|0:0,0:0:0:0:
141,176,78376,1,0,1:0:0:0:
105,33,78539,2,0,P|179:40|246:69,2,147.5,10|0|2,1:2|1:0|1:2,0:0:0:0:
141,176,79408,5,2,0:2:0:0:
173,299,79626,2,0,P|218:279|255:248,1,98.3333333333333,2|10,0:0|0:0,0:0:0:0:
480,368,80169,1,0,1:0:0:0:
432,304,80332,1,0,3:0:0:0:
432,304,80413,1,0,3:0:0:0:
432,304,80495,6,0,P|443:255|459:214,1,73.75,6|2,1:2|0:0,0:0:0:0:
487,90,80821,1,2,0:0:0:0:
505,161,80984,1,2,1:2:0:0:
409,266,81147,2,0,P|420:217|436:176,1,73.75,10|2,0:0|0:0,0:0:0:0:
464,52,81473,2,0,P|475:101|491:142,1,73.75,2|2,1:2|0:0,0:0:0:0:
318,155,81800,5,2,1:2:0:0:
240,208,81963,1,2,0:0:0:0:
144,80,82126,2,0,P|155:31|171:-10,1,73.75,2|0,3:2|1:0,0:0:0:0:
336,83,82452,2,0,P|325:132|309:173,1,73.75,10|0,0:0|0:0,0:0:0:0:
317,154,82778,1,2,1:2:0:0:
155,171,82941,6,0,B|87:171|87:205|13:207,2,147.5,2|2|2,3:1|0:1|1:0,0:0:0:0:
206,248,83757,2,0,P|195:297|179:338,1,73.75,10|2,0:0|0:0,0:0:0:0:
110,328,84083,1,2,1:2:0:0:
240,384,84246,2,0,P|331:363|397:359,1,147.5,2|2,0:0|0:0,0:0:0:0:
384,359,84735,2,0,P|355:305|421:271,1,147.5,2|10,0:0|0:0,0:0:0:0:
512,0,85386,6,0,B|463:4|463:4|447:17|447:17|406:19,1,110.625004220009,6|0,1:2|0:0,0:0:0:0:
352,96,85631,1,0,3:0:0:0:
352,96,85712,6,0,B|275:107|259:59|208:71,1,147.5,6|0,1:2|0:0,0:0:0:0:
209,70,86202,1,0,1:0:0:0:
0,32,86365,2,0,P|73:25|144:7,1,147.5,10|0,0:0|1:2,0:0:0:0:
305,314,87017,6,0,L|323:187,1,110.625,2|2,1:2|0:0,0:0:0:0:
342,190,87343,1,2,0:0:0:0:
283,85,87506,1,2,1:2:0:0:
367,0,87669,2,0,P|441:16|444:98,1,147.5,10|2,1:2|1:0,0:0:0:0:
437,198,88159,1,2,3:2:0:0:
437,198,88239,1,2,3:2:0:0:
437,198,88321,6,0,P|412:267|398:339,1,147.5,6|0,1:2|0:0,0:0:0:0:
495,290,88810,1,0,1:0:0:0:
305,314,88973,2,0,P|329:244|343:172,2,147.5,8|2|2,1:2|0:0|1:2,0:0:0:0:
160,384,89869,5,2,0:0:0:0:
160,384,89951,2,0,P|115:375|77:361,1,73.75,0|2,3:0|0:0,0:0:0:0:
26,285,90277,1,10,0:0:0:0:
256,48,90604,5,2,3:1:0:0:
256,48,90685,1,2,0:0:0:0:
256,48,90766,1,2,3:2:0:0:
256,48,90848,1,0,3:0:0:0:
256,48,90929,6,0,P|207:59|166:75,1,73.75,2|2,1:2|0:2,0:0:0:0:
40,138,91256,1,2,0:0:0:0:
40,138,91419,1,2,1:2:0:0:
166,220,91582,1,10,0:0:0:0:
72,250,91908,5,2,1:2:0:0:
166,378,92071,1,2,0:0:0:0:
72,348,92234,1,2,1:2:0:0:
223,299,92397,1,2,0:0:0:0:
375,365,92561,6,0,P|339:376|303:384,1,73.75,2|0,1:0|0:0,0:0:0:0:
223,299,92887,2,0,P|240:227|264:157,1,147.5,10|2,1:0|0:0,0:0:0:0:
128,0,93375,6,0,P|139:49|173:150,2,147.5,2|2|0,3:2|0:0|3:0,0:0:0:0:
264,157,94191,1,10,0:0:0:0:
264,157,94517,5,2,0:0:0:0:
457,243,94680,2,0,B|386:254|386:254|315:221,1,147.5,2|2,0:0|0:0,0:0:0:0:
337,107,95170,2,0,B|411:95|411:95|477:128,1,147.5,2|10,0:0|0:0,0:0:0:0:
317,222,95658,1,2,0:0:0:0:
457,243,95821,1,2,0:0:0:0:
368,368,95985,1,2,3:2:0:0:
368,368,96067,1,2,3:2:0:0:
368,368,96148,6,0,P|266:346|205:324,1,147.5,6|0,1:2|0:0,0:0:0:0:
32,384,96637,1,2,1:2:0:0:
118,260,96800,1,10,1:0:0:0:
118,260,97126,2,0,P|157:252|210:251,1,73.75,2|0,1:2|0:0,0:0:0:0:
351,199,97452,6,0,B|354:141|290:129|297:66,1,147.5,2|0,1:2|0:0,0:0:0:0:
382,9,97941,1,2,1:2:0:0:
382,9,98104,2,0,P|421:1|474:0,1,73.75,10|0,1:0|0:0,0:0:0:0:
503,73,98430,2,0,P|511:112|512:165,1,73.75,2|2,0:0|0:0,0:0:0:0:
505,158,98675,1,2,3:2:0:0:
497,170,98757,6,0,B|424:164|335:137,1,147.5,2|2,1:2|0:0,0:0:0:0:
352,0,99246,1,2,1:2:0:0:
288,64,99409,1,10,1:1:0:0:
288,64,99735,2,0,P|248:56|176:27,1,110.625,2|0,0:0|0:0,0:0:0:0:
160,22,100061,6,0,P|88:42|113:120,1,147.5,2|2,1:2|0:0,0:0:0:0:
176,176,100550,1,2,1:2:0:0:
176,176,100713,2,0,P|178:225|126:220,1,110.625,10|0,1:1|0:0,0:0:0:0:
118,231,101038,2,0,B|102:277|102:277|128:315,1,92.1875,2|0,1:1|0:0,0:0:0:0:
192,384,101284,1,2,3:2:0:0:
192,384,101365,6,0,P|294:362|355:340,1,147.5,6|0,0:0|0:0,0:0:0:0:
496,384,101854,1,2,1:2:0:0:
410,260,102017,1,10,1:0:0:0:
410,260,102343,2,0,P|371:252|318:251,1,73.75,2|0,1:2|0:0,0:0:0:0:
149,330,102669,6,0,P|217:354|262:290,1,147.5,2|2,1:2|0:0,0:0:0:0:
337,250,103158,1,2,1:2:0:0:
337,250,103321,2,0,P|373:252|410:260,1,73.75,10|0,1:0|0:0,0:0:0:0:
512,144,103647,2,0,P|473:152|420:153,1,73.75,2|2,1:2|0:0,0:0:0:0:
439,154,103892,1,2,3:2:0:0:
439,154,103974,5,6,0:0:0:0:
0,384,106257,5,0,1:0:0:0:
0,384,106582,6,0,B|121:399|93:249|219:230,1,276.5625,6|2,1:2|1:2,0:0:0:0:
435,260,107234,1,8,1:0:0:0:
435,260,107560,5,2,1:2:0:0:
306,384,107723,1,2,0:0:0:0:
212,231,107886,2,0,P|202:157|166:26,1,184.375,2|2,1:2|0:0,0:0:0:0:
37,38,108375,1,2,1:2:0:0:
66,173,108538,1,8,1:0:0:0:
362,259,108864,5,2,1:2:0:0:
239,383,109027,2,0,P|197:365|152:355,1,92.1875,2|0,0:2|1:2,0:0:0:0:
334,172,109354,2,0,P|344:217|363:260,1,92.1875,2|0,3:2|0:0,0:0:0:0:
103,200,109679,1,2,0:2:0:0:
103,200,109842,2,0,P|126:188|173:140,1,92.1875,8|0,1:0|0:0,0:0:0:0:
334,172,110169,2,0,P|344:217|363:260,1,92.1875,0|0,1:0|0:0,0:0:0:0:
239,383,110495,2,0,P|197:365|152:355,1,92.1875,0|2,1:0|1:0,0:0:0:0:
360,29,110984,5,2,3:1:0:0:
360,29,111147,1,10,1:1:0:0:
167,77,111473,1,2,0:1:0:0:
167,77,111636,6,0,P|101:34|-30:-5,2,184.375,2|2|2,3:2|0:0|0:0,0:0:0:0:
256,192,112451,1,8,1:0:0:0:
256,192,112778,1,0,3:0:0:0:
345,77,112941,2,0,P|411:34|542:-5,2,184.375,2|2|2,3:2|0:0|0:0,0:0:0:0:
256,192,113756,1,8,1:0:0:0:
336,384,114082,1,0,3:3:0:0:
256,192,114245,6,0,P|284:229|340:251,1,92.1875,2|0,3:2|1:0,0:0:0:0:
336,384,114571,2,0,P|351:341|350:293,1,92.1875,2|0,0:0|0:0,0:0:0:0:
419,223,114897,1,0,3:0:0:0:
250,317,115060,2,0,P|203:314|154:280,1,92.1875,8|0,1:0|0:0,0:0:0:0:
128,192,115386,1,2,0:0:0:0:
77,375,115549,2,0,P|34:309|-5:178,2,184.375,2|2|2,3:2|1:1|0:1,0:2:0:0:
233,343,116364,2,0,P|260:306|272:262,1,92.1875,10|0,1:0|0:0,0:1:0:0:
395,311,116690,1,2,1:1:0:0:
499,229,116853,1,2,3:2:0:0:
499,229,116935,1,2,3:2:0:0:
499,229,117016,6,0,P|452:135|358:138,1,184.375,6|0,1:2|0:0,0:0:0:0:
306,159,117506,2,0,P|292:200|299:247,1,92.1875,2|8,1:2|1:0,0:0:0:0:
403,311,117995,5,2,1:2:0:0:
253,289,118158,1,2,0:0:0:0:
104,270,118321,2,0,P|116:196|119:60,1,184.375,2|0,1:2|0:0,0:0:0:0:
184,0,118810,1,2,1:2:0:0:
184,0,118973,1,8,1:0:0:0:
184,0,119299,1,2,1:2:0:0:
232,93,119462,6,0,P|214:184|208:276,2,184.375,2|2|0,3:2|3:2|0:0,0:0:0:0:
356,33,120277,2,0,P|395:56|425:91,1,92.1875,8|0,1:0|0:0,0:0:0:0:
380,224,120603,2,0,P|396:226|386:293,1,92.1875,0|0,1:0|0:0,0:0:0:0:
402,287,120929,1,0,1:0:0:0:
496,336,121092,1,2,1:0:0:0:
236,378,121419,2,0,L|118:354,1,92.1875,2|10,3:1|1:0,0:0:0:0:
145,359,121908,1,2,0:1:0:0:
64,247,122071,6,0,P|80:192|88:132,1,92.1875,2|0,3:2|0:0,0:0:0:0:
64,0,122397,2,0,P|90:37|121:72,1,92.1875,0|0,1:0|0:0,0:0:0:0:
192,192,122723,1,2,0:0:0:0:
145,359,122886,1,8,1:1:0:0:
448,247,123212,5,0,1:1:0:0:
448,247,123375,2,0,P|432:192|424:132,1,92.1875,2|0,3:2|0:0,0:0:0:0:
448,0,123701,2,0,P|421:37|390:72,1,92.1875,0|0,1:2|0:0,0:0:0:0:
320,192,124027,1,2,0:0:0:0:
367,359,124190,1,8,1:1:0:0:
145,359,124516,5,0,1:1:0:0:
145,359,124680,2,0,P|107:333|60:327,1,92.1875,2|0,0:0|1:0,0:0:0:0:
367,359,125006,2,0,P|405:333|452:327,1,92.1875,2|0,0:2|0:0,0:0:0:0:
512,132,125331,1,0,3:0:0:0:
448,247,125495,2,0,P|431:192|401:19,1,184.375,8|0,1:0|0:0,0:0:0:0:
256,192,125984,1,0,1:1:0:0:
64,247,126310,6,0,P|80:192|111:19,1,184.375,2|2,1:1|0:1,0:0:0:0:
256,192,126799,1,10,1:0:0:0:
256,192,127125,1,2,1:1:0:0:
335,307,127288,1,0,3:0:0:0:
335,307,127370,1,0,3:0:0:0:
335,307,127451,6,0,P|305:324|222:339,1,110.625,6|0,1:2|0:0,0:0:0:0:
181,366,127778,2,0,P|151:348|92:339,1,73.75,2|0,0:0|0:0,0:0:0:0:
6,366,128104,2,0,P|23:336|38:253,1,110.625,10|0,1:2|0:0,0:0:0:0:
65,212,128431,2,0,P|47:182|38:123,1,73.75,0|0,1:0|0:0,0:0:0:0:
106,58,128756,2,0,P|160:64|211:88,1,110.625,0|0,1:0|0:0,0:0:0:0:
255,25,129082,2,0,P|292:15|331:0,1,73.75,2|0,0:0|0:0,0:0:0:0:
269,142,129408,2,0,P|307:136|349:135,1,73.75,10|0,1:2|0:0,0:0:0:0:
401,57,129734,1,0,1:0:0:0:
317,239,129897,5,2,3:2:0:0:
317,239,129979,1,2,3:2:0:0:
317,239,130060,2,0,P|321:257|324:276,2,36.875,2|0|0,1:2|0:0|0:0,0:0:0:0:
391,362,130386,1,2,0:0:0:0:
495,325,130549,1,0,1:0:0:0:
398,209,130712,2,0,P|408:172|423:133,1,73.75,8|0,1:0|0:0,0:0:0:0:
512,64,131038,1,2,1:2:0:0:
512,64,131201,1,2,0:0:0:0:
391,31,131365,5,0,1:0:0:0:
420,138,131528,1,2,0:0:0:0:
313,167,131691,1,2,0:0:0:0:
284,60,131854,1,0,1:0:0:0:
206,138,132017,5,8,1:0:0:0:
284,274,132180,1,2,0:0:0:0:
313,167,132343,1,0,1:0:0:0:
177,245,132506,1,0,3:0:0:0:
177,245,132587,1,0,3:0:0:0:
177,245,132669,6,0,L|162:336,2,73.75,0|2|2,1:0|0:0|0:0,0:0:0:0:
120,176,133158,2,0,P|58:205|34:278,1,147.5,0|0,1:0|0:0,0:0:0:0:
33,276,133647,1,0,1:0:0:0:
33,276,133810,1,0,3:0:0:0:
143,361,133973,5,0,1:0:0:0:
227,372,134136,1,2,0:0:0:0:
310,384,134299,1,2,0:0:0:0:
412,321,134462,2,0,P|401:259|387:167,1,147.5,0|0,1:0|0:0,0:0:0:0:
493,238,134951,1,0,1:0:0:0:
466,97,135115,1,0,3:0:0:0:
466,97,135196,1,0,3:0:0:0:
466,97,135278,6,0,L|481:6,2,73.75,0|2|2,1:0|0:0|0:0,0:0:0:0:
388,175,135767,2,0,B|329:222|298:183|250:227,1,147.5,0|0,1:0|0:0,0:0:0:0:
285,297,136256,2,0,P|256:324|218:341,1,73.75,0|0,1:0|0:0,0:0:0:0:
152,304,136582,1,0,1:0:0:0:
95,361,136745,5,0,3:0:0:0:
95,361,136827,1,0,3:0:0:0:
95,361,136908,2,0,P|77:365|58:368,3,36.875,0|0|0|0,3:0|0:0|0:0|0:0,0:0:0:0:
152,304,137234,2,0,P|170:308|189:311,3,36.875,0|0|0|0,1:0|0:0|0:0|0:0,0:0:0:0:
88,247,137560,2,0,P|77:185|76:136,1,110.625,2|0,1:2|0:0,0:0:0:0:
89,98,137886,6,0,P|123:78|164:71,1,73.75,4|0,1:2|0:0,0:0:0:0:
255,21,138212,1,2,0:0:0:0:
255,21,138375,1,0,1:0:0:0:
327,104,138538,2,0,P|346:138|353:179,1,73.75,10|0,1:2|0:0,0:0:0:0:
432,224,138865,1,2,1:2:0:0:
432,224,139028,2,0,P|393:218|273:205,1,147.5,2|2,3:2|0:0,0:0:0:0:
221,255,139517,2,0,P|225:293|244:330,1,73.75,2|0,0:0|0:0,0:0:0:0:
435,368,139843,6,0,P|459:310|471:262,1,110.625,10|0,1:2|0:0,0:0:0:0:
468,222,140169,2,0,P|439:195|400:179,1,73.75,2|2,1:2|2:0,0:3:0:0:
432,150,140413,1,0,0:0:0:0:
432,150,140495,2,0,P|456:92|365:68,1,147.5,2|2,1:2|2:0,0:3:0:0:
227,18,140984,1,2,1:2:0:0:
299,73,141147,1,10,1:2:0:0:
299,73,141473,1,2,1:2:0:0:
227,18,141636,2,0,P|165:7|153:105,1,147.5,2|0,1:2|0:0,0:0:0:0:
51,80,142125,5,2,3:2:0:0:
109,102,142288,1,4,1:2:0:0:
151,181,142451,1,10,1:2:0:0:
224,195,142614,1,2,0:0:0:0:
293,283,142778,2,0,P|290:311|274:382,1,73.75,6|2,1:2|0:0,0:0:0:0:
251,381,143022,1,2,3:2:0:0:
251,381,143104,1,2,1:2:0:0:
381,229,143430,5,2,0:0:0:0:
469,276,143593,1,0,1:2:0:0:
480,176,143756,1,10,1:2:0:0:
391,130,143919,1,2,0:0:0:0:
381,229,144082,2,0,P|371:264|359:299,1,73.75,2|2,1:2|0:0,0:0:0:0:
403,367,144408,2,0,P|367:358|241:345,1,147.5,2|2,1:2|0:0,0:0:0:0:
88,239,145060,5,8,1:0:0:0:
35,338,145223,1,0,0:0:0:0:
114,320,145386,1,0,1:0:0:0:
61,221,145549,1,0,0:0:0:0:
136,190,145712,1,0,1:0:0:0:
83,289,145875,1,0,0:0:0:0:
156,361,146038,6,0,P|191:371|226:383,1,73.75,2|2,1:0|0:0,0:0:0:0:
303,357,146365,2,0,P|313:322|325:287,1,73.75,10|2,1:0|0:0,0:0:0:0:
379,226,146691,1,2,1:0:0:0:
320,171,146854,2,0,P|285:161|250:149,1,73.75,2|2,0:1|1:2,0:0:0:0:
278,48,147180,5,2,3:1:0:0:
278,48,147262,1,2,3:2:0:0:
278,48,147343,2,0,P|296:44|315:41,5,36.875,2|0|0|0|10|0,3:2|0:0|1:0|0:0|1:0|0:0,0:0:0:0:
344,11,147832,1,2,1:2:0:0:
344,11,147914,1,2,1:2:0:0:
344,11,147995,2,0,P|416:8|432:82,1,147.5,2|6,1:2|1:2,0:0:0:0:
208,190,148647,6,0,P|214:168|91:128,1,147.5,2|8,0:0|1:0,0:0:0:0:
93,167,149136,2,0,P|71:161|31:284,1,147.5,2|2,0:0|0:0,0:0:0:0:
102,324,149625,2,0,P|166:338|219:354,1,110.625,2|0,1:2|0:0,0:0:0:0:
231,384,149951,2,0,P|269:377|315:362,1,73.75,2|2,3:2|1:2,0:0:0:0:
344,230,150278,1,8,1:0:0:0:
370,306,150441,1,2,0:0:0:0:
440,227,150604,2,0,P|454:163|473:82,1,147.5,2|2,1:2|1:2,0:0:0:0:
256,128,151256,5,2,0:0:0:0:
156,139,151419,1,0,1:0:0:0:
110,50,151582,1,10,1:2:0:0:
209,40,151745,2,0,P|244:30|279:18,1,73.75,2|0,3:2|0:0,0:0:0:0:
256,128,152071,5,2,0:0:0:0:
156,139,152234,2,0,P|146:174|119:248,1,110.625,2|0,1:2|0:0,0:0:0:0:
113,283,152560,2,0,P|78:293|43:305,1,73.75,2|2,0:0|1:2,0:0:0:0:
114,384,152886,1,8,1:0:0:0:
193,336,153049,1,2,0:0:0:0:
50,204,153212,2,0,P|40:169|22:131,1,73.75,0|2,1:0|0:0,0:0:0:0:
24,135,153457,1,2,3:2:0:0:
24,135,153538,1,6,3:2:0:0:
256,16,153865,6,0,B|322:-2|313:54|401:49,2,147.5,2|8|2,1:2|1:0|1:2,0:0:0:0:
186,58,154680,1,2,0:0:0:0:
256,137,154843,2,0,P|270:201|289:282,1,147.5,2|2,1:2|0:0,0:0:0:0:
240,384,155332,1,0,1:0:0:0:
384,320,155495,2,0,P|320:306|239:287,1,147.5,8|0,1:0|1:0,0:0:0:0:
128,384,155984,1,2,3:2:0:0:
128,384,156065,1,2,3:2:0:0:
128,384,156147,6,0,L|113:293,1,73.75,2|2,1:2|0:0,0:0:0:0:
58,195,156473,1,0,1:0:0:0:
47,268,156636,1,2,1:2:0:0:
137,166,156799,5,8,1:0:0:0:
73,115,156962,1,2,0:0:0:0:
131,59,157125,2,0,L|222:44,2,73.75,2|0|0,1:2|0:0|1:0,0:0:0:0:
19,49,157615,5,2,3:2:0:0:
19,49,157697,1,2,3:2:0:0:
19,49,157778,2,0,P|11:32|5:14,3,36.875,2|0|0|0,3:2|3:0|1:0|3:0,0:0:0:0:
0,96,158104,1,10,1:0:0:0:
137,166,158267,1,2,3:2:0:0:
137,166,158349,1,2,3:2:0:0:
137,166,158430,1,2,1:2:0:0:
49,275,158756,5,6,0:0:0:0:
256,192,163973,5,2,0:0:0:0:
256,192,164136,12,0,166582,1:0:0:0:
256,192,166745,12,0,169028,0:0:0:0:
256,192,169191,6,0,P|346:64|398:172,1,276.5625,6|2,1:2|1:2,0:0:0:0:
396,108,169843,1,8,1:0:0:0:
396,108,170169,5,2,1:2:0:0:
256,0,170332,1,2,0:0:0:0:
116,108,170495,2,0,P|106:182|70:313,1,184.375,2|2,1:2|0:0,0:0:0:0:
11,175,170984,1,2,1:2:0:0:
178,310,171147,2,0,P|188:236|224:105,1,184.375,8|2,1:0|1:2,0:0:0:0:
272,63,171636,6,0,P|314:46|360:41,1,92.1875,2|0,0:2|1:2,0:0:0:0:
384,208,171962,2,0,P|395:233|405:299,1,92.1875,2|0,3:2|0:0,0:0:0:0:
240,320,172288,1,2,0:2:0:0:
191,383,172451,2,0,P|152:360|122:325,1,92.1875,8|0,1:0|0:0,0:0:0:0:
128,176,172778,2,0,P|116:150|106:84,1,92.1875,0|0,1:0|0:0,0:0:0:0:
272,64,173104,2,0,P|297:52|363:42,1,92.1875,0|2,1:0|1:0,0:0:0:0:
256,192,173430,5,2,0:0:0:0:
256,288,173593,1,2,3:1:0:0:
256,384,173756,1,10,1:1:0:0:
256,192,174082,1,2,0:1:0:0:
124,199,174245,6,0,B|127:106|64:132|42:2,2,184.375,2|2|2,3:2|0:0|0:0,0:0:0:0:
256,288,175060,1,8,1:0:0:0:
256,288,175386,1,0,3:0:0:0:
388,199,175549,2,0,B|385:106|448:132|470:2,2,184.375,2|2|2,3:2|0:0|0:0,0:0:0:0:
256,384,176365,1,8,1:0:0:0:
388,199,176691,5,0,3:3:0:0:
388,199,176854,2,0,P|406:241|416:304,1,92.1875,2|0,3:2|1:0,0:0:0:0:
256,384,177180,2,0,P|238:342|228:279,1,92.1875,2|0,0:0|0:0,0:0:0:0:
109,255,177506,1,0,3:0:0:0:
109,255,177669,2,0,P|127:213|137:150,1,92.1875,8|0,1:0|0:0,0:0:0:0:
0,0,177995,1,2,0:0:0:0:
0,1,178158,2,0,P|10:69|36:182,1,184.375,2|2,3:2|1:1,0:2:0:0:
137,168,178647,5,2,0:0:0:0:
64,368,178810,1,2,0:1:0:0:
160,336,178973,2,0,P|197:329|364:330,1,184.375,10|2,1:0|1:1,0:1:0:0:
480,256,179462,1,2,3:2:0:0:
480,256,179544,1,2,3:2:0:0:
480,256,179625,6,0,P|385:301|386:395,1,184.375,6|0,1:2|0:0,0:0:0:0:
480,256,180115,2,0,P|494:215|487:168,1,92.1875,2|8,1:2|1:0,0:0:0:0:
512,163,180604,5,2,1:2:0:0:
363,140,180767,1,2,0:0:0:0:
215,115,180930,2,0,P|205:189|169:320,1,184.375,2|0,1:2|0:0,0:0:0:0:
16,304,181419,2,0,P|54:335|94:343,1,92.1875,2|8,1:2|1:0,0:0:0:0:
95,343,181908,1,2,1:2:0:0:
84,231,182071,6,0,B|14:186|72:107|-2:68,2,184.375,2|2|0,3:2|3:2|0:0,0:0:0:0:
170,378,182886,2,0,P|214:376|258:359,1,92.1875,8|0,1:0|0:0,0:0:0:0:
281,286,183212,2,0,P|284:268|349:283,1,92.1875,0|0,1:0|0:0,0:0:0:0:
344,265,183538,1,0,1:0:0:0:
432,329,183701,1,2,1:0:0:0:
398,165,184028,2,0,L|417:75,1,92.1875,2|10,3:1|1:0,0:0:0:0:
417,75,184517,1,2,0:1:0:0:
512,32,184680,5,2,3:2:0:0:
274,2,185006,1,0,1:0:0:0:
108,175,185332,1,2,0:0:0:0:
108,175,185495,1,8,1:1:0:0:
456,335,185821,5,0,1:0:0:0:
456,335,185984,1,2,3:2:0:0:
218,365,186310,1,0,1:2:0:0:
52,192,186636,1,2,0:0:0:0:
52,192,186799,1,8,1:1:0:0:
422,17,187125,5,0,1:1:0:0:
422,17,187288,1,2,3:2:0:0:
189,74,187614,1,2,0:2:0:0:
92,285,187940,1,0,3:0:0:0:
92,285,188104,6,0,P|86:244|45:88,1,184.375,8|0,1:0|0:0,0:0:0:0:
189,74,188593,1,0,1:1:0:0:
189,74,188919,1,2,1:1:0:0:
297,0,189082,5,2,0:0:0:0:
189,74,189245,1,2,0:1:0:0:
384,96,189408,2,0,P|378:137|337:293,1,184.375,10|2,1:0|1:1,0:1:0:0:
448,384,189897,1,0,3:0:0:0:
448,384,189979,1,0,3:0:0:0:
448,384,190060,6,0,B|304:401|356:203|187:200,1,331.875012660027,6|2,1:2|1:2,0:0:0:0:
52,271,190712,1,8,1:0:0:0:
52,271,191038,5,2,1:2:0:0:
161,356,191201,1,2,0:0:0:0:
197,201,191364,2,0,P|177:131|29:100,1,221.250008440018,2|2,1:2|0:0,0:0:0:0:
88,178,191853,1,2,1:2:0:0:
256,0,192017,6,0,P|295:92|469:55,1,221.250008440018,8|2,1:0|1:2,0:0:0:0:
405,112,192505,2,0,P|422:168|451:220,1,110.625004220009,2|0,0:2|1:2,0:0:0:0:
65,213,192832,2,0,P|91:164|107:112,1,110.625004220009,2|0,3:2|0:0,0:0:0:0:
320,0,193157,1,2,0:2:0:0:
320,0,193320,6,0,P|332:45|333:108,1,110.625004220009,8|0,1:0|0:0,0:0:0:0:
179,108,193647,2,0,P|178:52|192:0,1,110.625004220009,0|0,1:0|0:0,0:0:0:0:
256,192,193973,1,0,1:0:0:0:
256,288,194136,1,2,1:0:0:0:
256,384,194462,5,2,3:1:0:0:
256,384,194625,1,10,1:1:0:0:
256,192,194952,1,2,0:1:0:0:
144,320,195115,6,0,P|41:254|56:117,2,221.250008440018,2|2|2,3:2|0:0|0:0,0:0:0:0:
256,192,195930,1,8,1:0:0:0:
256,192,196256,1,0,3:0:0:0:
368,320,196419,2,0,P|470:254|455:117,2,221.250008440018,2|2|2,3:2|0:0|0:0,0:0:0:0:
256,192,197235,1,8,1:0:0:0:
512,384,197560,5,0,3:3:0:0:
512,384,197724,1,2,3:2:0:0:
361,192,198050,1,2,0:0:0:0:
200,375,198376,1,0,3:0:0:0:
200,375,198538,2,0,P|203:274|111:154,1,221.250008440018,8|2,1:0|0:0,0:0:0:0:
183,59,199028,2,0,P|284:62|404:-30,1,221.250008440018,2|2,3:2|1:1,0:2:0:0:
383,0,199680,5,2,0:1:0:0:
454,99,199843,2,0,P|451:200|543:320,1,221.250008440018,10|2,1:0|1:1,0:1:0:0:
288,384,200331,1,2,3:2:0:0:
288,384,200413,1,2,3:2:0:0:
288,384,200494,6,0,P|263:281|155:252,1,221.250008440018,6|0,1:2|0:0,0:0:0:0:
4,230,200984,1,2,1:2:0:0:
64,373,201147,1,8,1:0:0:0:
448,373,201473,5,2,1:2:0:0:
508,230,201636,1,2,0:0:0:0:
350,251,201800,2,0,P|249:281|224:384,1,221.250008440018,2|0,1:2|0:0,0:0:0:0:
224,384,202288,1,2,1:2:0:0:
224,384,202451,1,8,1:0:0:0:
415,207,202941,6,0,B|496:154|428:62|515:17,1,221.250008440018,2|2,1:2|3:2,0:0:0:0:
192,96,203593,1,2,0:0:0:0:
192,96,203756,2,0,P|143:128|119:175,1,110.625004220009,8|0,1:0|0:0,0:0:0:0:
160,256,204082,2,0,P|192:305|239:329,1,110.625004220009,0|0,1:0|0:0,0:0:0:0:
320,288,204408,2,0,P|369:256|393:209,1,110.625004220009,0|2,1:0|1:0,0:0:0:0:
352,128,204734,1,2,0:0:0:0:
352,128,204897,2,0,P|320:79|273:55,1,110.625004220009,2|10,3:1|1:0,0:0:0:0:
0,0,205387,1,2,0:1:0:0:
0,0,205549,5,2,3:2:0:0:
175,254,205875,1,0,1:0:0:0:
468,149,206201,1,2,0:0:0:0:
468,149,206364,1,8,1:1:0:0:
0,384,206691,5,0,1:0:0:0:
0,384,206854,1,2,3:2:0:0:
175,130,207180,1,0,1:2:0:0:
468,235,207506,1,2,0:0:0:0:
468,235,207669,1,8,1:1:0:0:
367,25,207994,5,0,1:1:0:0:
512,0,208157,1,2,3:2:0:0:
512,0,208240,1,0,3:2:0:0:
512,0,208321,1,0,3:2:0:0:
