osu file format v14

[General]
AudioFilename: audio.mp3
AudioLeadIn: 0
PreviewTime: 48865
Countdown: 0
SampleSet: Soft
StackLeniency: 0.7
Mode: 0
LetterboxInBreaks: 0
WidescreenStoryboard: 1

[Editor]
Bookmarks: 17896,28331,38766,49201,59635,70070,75288,85722,96157,106582,117027,127461,137896,148331,158766,169201,179635,190070,200505,208168
DistanceSpacing: 1.2
BeatDivisor: 4
GridSize: 8
TimelineZoom: 2.6

[Metadata]
Title:Start Without You (feat. Laza Morgan)
TitleUnicode:Start Without You (feat. Laza Morgan)
Artist:Alexandra Burke
ArtistUnicode:Alexandra Burke
Creator:AJT
Version:Aranel's Hard
Source:
Tags:english pop r&b reggae dancehall black x factor uk aranel
BeatmapID:3690741
BeatmapSetID:1785234

[Difficulty]
HPDrainRate:4.5
CircleSize:4
OverallDifficulty:6.5
ApproachRate:7.5
SliderMultiplier:2.6
SliderTickRate:1

[Events]
//Background and Video events
0,0,"sbbg.png",0,0
//Break Periods
2,70260,74378
2,127652,136986
2,158956,163073
//Storyboard Layer 0 (Background)
//Storyboard Layer 1 (Fail)
//Storyboard Layer 2 (Pass)
//Storyboard Layer 3 (Foreground)
//Storyboard Layer 4 (Overlay)
//Storyboard Sound Samples

[TimingPoints]
7452,652.173913043478,4,2,0,85,1,8
17886,-100,4,2,0,85,0,8
19191,-100,4,2,0,85,0,8
19843,-100,4,2,0,85,0,8
48212,-100,4,2,0,85,0,8
49191,-90.9090909090909,4,2,0,100,0,9
70060,-100,4,2,0,85,0,8
75278,652.173913043478,4,2,0,85,1,0
76582,-100,4,2,0,85,0,8
77071,-100,4,2,0,85,0,8
85386,-66.6666666666667,4,2,0,85,0,8
85712,-100,4,2,0,85,0,8
101038,-100,4,2,0,85,0,8
101365,-100,4,2,0,85,0,8
105604,-100,4,2,0,85,0,8
106582,-90.9090909090909,4,2,0,100,0,9
127451,-100,4,2,0,85,0,8
158104,-66.6666666666667,4,2,0,85,0,8
169191,-90.9090909090909,4,2,0,100,0,9
186799,-80,4,2,0,100,0,9
187125,-90.9090909090909,4,2,0,100,0,9
189734,-100,4,2,0,85,0,8
190060,-90.9090909090909,4,2,0,100,0,9
208158,-100,4,2,0,85,0,8

[Colours]
Combo1 : 255,53,255
Combo2 : 128,0,128
Combo3 : 0,128,192
Combo4 : 0,0,255

[HitObjects]
173,295,17886,6,0,B|235:279|249:333|311:317,1,130,6|0,1:2|0:0,0:0:0:0:
359,366,18375,1,0,1:0:0:0:
359,366,18538,2,0,P|423:356|449:271,1,130,10|0,0:0|1:2,0:0:0:0:
496,155,19191,1,2,1:2:0:0:
496,155,19354,2,0,B|434:140|433:187|359:170,1,130,2|2,0:0|1:2,0:0:0:0:
297,202,19843,1,10,0:0:0:0:
211,71,20169,2,0,L|128:55,1,65,2|2,1:2|0:0,0:0:0:0:
109,48,20413,1,2,0:0:0:0:
109,48,20495,6,0,P|64:94|65:174,1,130,6|0,1:2|0:0,0:0:0:0:
18,224,20984,1,0,1:0:0:0:
18,224,21147,2,0,P|53:291|120:310,1,130,10|0,0:0|1:2,0:0:0:0:
248,251,21800,1,2,1:2:0:0:
248,251,21963,2,0,B|273:98,1,130,2|2,0:0|1:2,0:0:0:0:
211,71,22452,1,10,0:0:0:0:
352,4,22778,1,0,1:0:0:0:
415,146,23104,5,6,0:0:0:0:
469,201,23267,1,2,0:0:0:0:
427,267,23430,1,2,0:0:0:0:
481,322,23593,1,2,1:2:0:0:
427,380,23756,2,0,P|396:372|364:366,1,65,10|2,0:0|0:0,0:0:0:0:
307,313,24082,2,0,P|314:281|320:249,1,65,2|2,0:0|0:0,0:0:0:0:
256,204,24408,2,0,P|224:211|192:217,2,65,2|2|2,1:2|0:0|0:0,0:0:0:0:
356,85,25060,2,0,P|286:74|210:57,1,130,10|2,0:0|1:2,0:0:0:0:
162,19,25549,6,0,P|98:32|34:42,2,130,6|2|2,0:0|0:0|1:2,0:0:0:0:
228,61,26365,2,0,P|220:92|214:124,1,65,10|2,0:0|0:0,0:0:0:0:
261,187,26691,1,2,1:2:0:0:
261,187,26854,2,0,B|281:234|243:271|269:316,1,130,2|2,0:0|0:0,0:0:0:0:
224,379,27343,1,2,0:0:0:0:
89,300,27669,2,0,B|109:255|71:220|97:171,1,130,10|2,0:0|1:2,0:0:0:0:
54,98,28158,1,2,3:2:0:0:
54,98,28240,1,2,3:2:0:0:
54,98,28321,6,0,P|113:96|183:76,1,130,6|0,1:2|0:0,0:0:0:0:
236,22,28810,1,0,1:0:0:0:
236,22,28973,2,0,B|298:35|298:35|303:41|303:41|364:54,1,130,10|0,0:0|1:2,0:0:0:0:
512,7,29626,1,2,1:2:0:0:
512,7,29788,2,0,B|471:40|471:40|484:134,1,130,2|2,0:0|1:2,0:0:0:0:
495,193,30278,1,10,0:0:0:0:
385,304,30604,2,0,P|347:317|302:320,1,65,2|2,1:2|3:2,0:0:0:0:
283,341,30848,1,2,3:2:0:0:
283,341,30930,6,0,P|222:318|149:306,1,130,6|0,1:2|0:0,0:0:0:0:
90,344,31419,1,0,1:0:0:0:
90,344,31582,2,0,P|33:319|18:258,1,130,10|0,0:0|1:2,0:0:0:0:
99,125,32235,1,2,1:2:0:0:
99,125,32397,2,0,P|160:102|233:90,1,130,2|2,0:2|1:2,0:0:0:0:
284,41,32887,1,10,0:0:0:0:
335,188,33213,1,0,1:0:0:0:
187,239,33539,5,2,1:2:0:0:
187,239,33702,1,2,0:2:0:0:
152,308,33865,1,2,0:0:0:0:
213,355,34028,1,2,0:0:0:0:
279,314,34191,2,0,P|310:322|342:328,1,65,10|2,0:0|0:0,0:0:0:0:
410,290,34517,2,0,P|403:258|397:226,1,65,2|2,1:2|0:0,0:0:0:0:
445,165,34843,2,0,P|477:158|509:152,2,65,2|2|2,1:2|0:0|0:1,0:0:0:0:
322,68,35495,2,0,P|252:53|176:40,1,130,10|2,0:1|0:0,0:0:0:0:
143,101,35984,6,0,P|79:112|15:126,2,130,2|2|2,3:2|0:0|1:2,0:0:0:0:
194,43,36799,1,10,0:0:0:0:
163,195,37126,1,2,1:2:0:0:
163,195,37289,2,0,P|176:252|186:327,1,130,2|2,0:0|0:0,0:0:0:0:
246,369,37778,1,2,0:0:0:0:
355,258,38104,2,0,P|413:262|450:341,1,130,10|2,0:0|1:2,0:0:0:0:
512,378,38593,1,2,0:0:0:0:
512,378,38674,1,2,0:0:0:0:
512,378,38756,5,6,1:2:0:0:
266,275,39245,1,2,1:2:0:0:
369,29,39734,1,2,1:2:0:0:
429,176,40060,2,0,P|365:161|301:152,1,130,2|0,1:2|0:0,0:0:0:0:
245,105,40549,1,2,1:2:0:0:
245,105,40712,1,10,1:0:0:0:
114,190,41038,2,0,P|82:197|49:200,1,65,2|2,1:2|0:0,0:0:0:0:
13,181,41283,1,2,0:0:0:0:
13,181,41365,6,0,P|-5:117|51:60,1,130,2|2,1:2|0:0,0:0:0:0:
97,30,41854,1,2,1:2:0:0:
97,30,42017,1,10,1:1:0:0:
184,150,42343,1,2,1:2:0:0:
315,80,42669,2,0,P|322:154|336:253,1,130,2|2,1:2|0:0,0:0:0:0:
390,265,43158,1,2,1:2:0:0:
390,265,43321,1,10,1:1:0:0:
268,363,43647,2,0,P|236:356|204:350,1,65,0|0,1:2|3:0,0:0:0:0:
166,341,43892,1,2,3:2:0:0:
166,341,43973,5,6,1:2:0:0:
322,167,44462,1,2,1:2:0:0:
98,115,44951,1,2,1:2:0:0:
177,249,45277,2,0,P|187:184|208:123,1,130,2|0,1:2|0:0,0:0:0:0:
248,57,45766,1,2,1:2:0:0:
248,57,45929,1,10,1:0:0:0:
98,115,46256,5,0,1:2:0:0:
10,88,46419,1,2,0:0:0:0:
10,88,46500,1,2,0:0:0:0:
10,88,46582,2,0,P|31:183|43:281,2,195,2|4|4,3:2|0:3|0:3,0:0:0:0:
10,88,48865,1,0,1:0:0:0:
42,279,49191,6,0,B|102:294|102:294|110:310|110:310|170:328,1,143.000004364014,6|0,1:2|0:0,0:0:0:0:
249,295,49680,1,2,1:2:0:0:
301,364,49843,1,8,1:0:0:0:
474,327,50169,5,2,1:2:0:0:
474,327,50332,1,2,0:0:0:0:
410,269,50495,2,0,P|420:198|434:128,1,143.000004364014,2|2,1:2|0:0,0:0:0:0:
482,56,50984,1,2,1:2:0:0:
416,2,51147,1,8,1:0:0:0:
275,99,51473,5,2,1:2:0:0:
275,99,51636,2,0,P|285:133|291:168,1,71.5000021820069,2|0,0:2|1:2,0:0:0:0:
326,246,51962,2,0,B|246:256|271:291|191:310,1,143.000004364014,2|2,3:2|0:2,0:0:0:0:
137,366,52451,1,8,1:0:0:0:
26,234,52778,2,0,P|58:217|86:195,1,71.5000021820069,2|0,1:2|0:0,0:0:0:0:
144,129,53104,1,2,1:2:0:0:
83,64,53267,2,0,P|101:147|112:233,1,143.000004364014,2|2,1:0|3:1,0:0:0:0:
26,234,53756,2,0,P|15:163|0:93,1,143.000004364014,10|2,1:1|0:1,0:0:0:0:
20,10,54245,5,2,3:2:0:0:
150,117,54571,1,2,3:2:0:0:
301,37,54897,1,2,3:2:0:0:
223,0,55060,2,0,P|205:83|194:169,1,143.000004364014,8|0,1:0|3:0,0:0:0:0:
234,217,55549,5,2,3:2:0:0:
390,147,55875,1,2,3:2:0:0:
488,287,56201,1,2,3:2:0:0:
452,365,56365,2,0,P|441:294|425:224,1,143.000004364014,8|0,1:0|3:3,0:0:0:0:
390,147,56853,5,2,3:2:0:0:
344,312,57180,1,2,3:2:0:0:
175,278,57506,1,2,3:2:0:0:
232,213,57669,2,0,P|216:301|210:367,1,143.000004364014,8|2,1:0|0:0,0:0:0:0:
294,370,58158,2,0,P|298:319|308:270,1,71.5000021820069,2|0,3:2|0:0,0:0:0:0:
322,221,58484,1,2,1:1:0:0:
436,328,58810,1,2,1:1:0:0:
379,383,58973,2,0,P|386:311|400:241,1,143.000004364014,10|2,1:0|1:1,0:0:0:0:
487,219,59462,5,2,3:2:0:0:
487,219,59544,1,2,3:2:0:0:
487,219,59625,2,0,B|472:138|438:175|416:86,1,143.000004364014,6|0,1:2|0:0,0:0:0:0:
364,30,60114,1,2,1:2:0:0:
285,64,60277,1,8,1:0:0:0:
126,12,60603,5,2,1:2:0:0:
126,12,60766,1,2,0:0:0:0:
167,87,60930,2,0,P|154:157|140:227,1,143.000004364014,2|0,1:2|0:0,0:0:0:0:
79,286,61418,1,2,1:2:0:0:
123,360,61581,1,8,1:0:0:0:
260,256,61907,5,2,1:2:0:0:
260,256,62071,2,0,P|263:299|269:338,1,71.5000021820069,2|0,0:2|1:0,0:0:0:0:
335,380,62397,2,0,P|393:370|409:279,1,143.000004364014,2|2,3:2|3:2,0:0:0:0:
465,226,62885,1,8,1:0:0:0:
317,127,63212,2,0,P|349:112|375:88,1,71.5000021820069,2|0,1:2|0:0,0:0:0:0:
428,0,63538,1,2,1:2:0:0:
481,67,63701,2,0,P|409:82|347:29,1,143.000004364014,2|2,1:0|3:1,0:0:0:0:
428,0,64190,2,0,P|417:68|405:158,1,143.000004364014,10|2,1:0|0:1,0:0:0:0:
451,215,64679,5,2,3:2:0:0:
305,123,65007,1,2,3:2:0:0:
204,260,65331,1,2,3:2:0:0:
264,320,65495,2,0,P|250:248|239:175,1,143.000004364014,8|0,1:1|0:0,0:0:0:0:
305,123,65984,5,2,3:2:0:0:
145,190,66310,1,2,3:2:0:0:
34,59,66636,1,2,3:2:0:0:
97,1,66799,2,0,P|83:73|72:146,1,143.000004364014,8|0,1:1|1:1,0:0:0:0:
8,198,67287,5,2,3:2:0:0:
42,366,67614,1,2,3:2:0:0:
208,321,67941,1,2,3:2:0:0:
141,268,68103,2,0,P|229:284|295:290,1,143.000004364014,8|2,1:0|0:0,0:0:0:0:
297,204,68593,2,0,P|234:197|174:185,1,71.5000021820069,2|0,1:2|0:0,0:0:0:0:
151,182,68919,1,2,1:1:0:0:
256,63,69245,1,2,1:1:0:0:
311,119,69407,2,0,P|239:112|169:98,1,143.000004364014,10|2,1:0|1:1,0:0:0:0:
141,268,70060,1,6,0:0:0:0:
253,27,75278,6,0,B|322:34|310:65|373:71,1,130,6|0,1:2|0:0,0:0:0:0:
440,29,75767,1,0,1:0:0:0:
440,29,75930,2,0,P|489:70|468:156,1,130,10|0,0:0|1:2,0:0:0:0:
406,270,76582,2,0,L|421:368,2,86.6666666666667,2|2|2,1:2|0:2|0:0,0:0:0:0:
344,206,77234,2,0,P|282:189|229:223,1,130,10|0,0:2|1:0,0:0:0:0:
196,295,77723,1,2,3:2:0:0:
196,295,77805,1,2,3:2:0:0:
196,295,77886,6,0,B|124:296|148:340|68:348,1,130,6|0,1:2|0:0,0:0:0:0:
20,303,78376,1,0,1:0:0:0:
20,303,78538,2,0,P|31:240|38:169,1,130,10|2,1:2|0:0,0:0:0:0:
156,85,79191,2,0,P|147:42|141:0,2,86.6666666666667,2|2|2,1:2|0:2|0:0,0:0:0:0:
225,134,79844,1,10,0:0:0:0:
356,50,80170,1,0,1:0:0:0:
454,171,80496,5,6,1:2:0:0:
387,212,80659,1,2,0:0:0:0:
333,154,80822,1,2,0:0:0:0:
268,197,80985,1,2,1:2:0:0:
225,134,81148,2,0,P|194:126|162:120,1,65,10|2,0:0|0:0,0:0:0:0:
109,178,81474,2,0,P|116:210|122:242,1,65,2|2,1:2|0:0,0:0:0:0:
85,310,81800,2,0,P|53:317|21:323,2,65,2|2|2,1:2|0:0|3:2,0:0:0:0:
232,360,82452,2,0,P|302:371|378:388,1,130,10|2,0:0|0:0,0:0:0:0:
375,307,82941,6,0,P|311:293|247:283,2,130,2|2|2,3:1|0:1|1:0,0:0:0:0:
429,250,83757,2,0,P|421:219|415:187,1,65,10|2,0:0|0:0,0:0:0:0:
457,121,84083,1,2,1:2:0:0:
457,121,84246,2,0,B|392:106|419:65|349:52,1,130,2|2,0:0|0:0,0:0:0:0:
286,5,84734,1,2,0:0:0:0:
182,123,85060,1,10,0:0:0:0:
43,13,85386,6,0,B|67:26|94:33|94:33|66:145,1,146.250005578995,6|0,1:2|3:0,0:0:0:0:
59,142,85713,6,0,B|66:200|66:200|81:214|81:214|89:278,1,130,6|0,1:2|0:0,0:0:0:0:
44,331,86202,1,0,1:0:0:0:
44,331,86365,2,0,P|105:344|155:302,1,130,10|0,0:0|1:2,0:0:0:0:
278,209,87017,2,0,B|270:251|270:251|276:267|276:267|268:303,2,97.5,2|2|2,1:2|0:0|1:2,0:0:0:0:
347,174,87669,2,0,P|339:112|329:35,1,130,10|2,1:2|1:2,0:0:0:0:
413,35,88158,1,2,3:2:0:0:
413,35,88240,1,2,3:2:0:0:
413,35,88321,6,0,P|419:99|429:163,1,130,6|0,1:2|0:0,0:0:0:0:
495,215,88811,1,0,1:0:0:0:
495,215,88973,2,0,P|505:283|511:343,1,130,8|2,1:0|1:2,0:0:0:0:
368,282,89625,2,0,P|359:336|353:384,2,97.5,2|2|2,1:2|0:0|1:2,0:0:0:0:
312,226,90278,1,10,0:0:0:0:
167,285,90604,2,0,P|162:248|153:200,1,65,2|2,1:2|3:2,0:0:0:0:
204,160,90931,5,2,1:2:0:0:
204,160,91094,1,2,0:2:0:0:
158,97,91256,1,2,0:0:0:0:
158,97,91419,1,2,0:0:0:0:
209,38,91583,2,0,B|260:46|260:46|271:70|271:70|322:77,1,130,10|2,0:0|1:2,0:0:0:0:
388,117,92071,1,2,0:0:0:0:
439,57,92235,2,0,P|432:25|421:-8,2,65,2|2|2,1:2|0:0|1:0,0:0:0:0:
510,198,92887,2,0,P|497:264|487:354,1,130,10|2,1:0|0:0,0:0:0:0:
413,315,93375,6,0,P|421:250|433:186,2,130,2|2|2,3:2|0:0|1:2,0:0:0:0:
443,384,94191,1,10,0:0:0:0:
318,289,94518,1,2,1:2:0:0:
318,289,94681,2,0,B|248:278|260:322|190:310,1,130,2|2,0:0|0:0,0:0:0:0:
132,359,95170,1,2,0:0:0:0:
46,228,95496,2,0,P|11:234|-29:247,2,65,10|2|2,0:0|0:0|1:2,0:0:0:0:
103,175,95985,1,2,3:2:0:0:
103,175,96066,1,2,3:2:0:0:
103,175,96148,5,6,1:2:0:0:
318,289,96637,1,2,1:2:0:0:
453,98,97126,1,2,1:2:0:0:
318,18,97452,2,0,P|333:82|342:146,1,130,2|0,1:2|0:0,0:0:0:0:
400,204,97941,1,2,1:2:0:0:
400,204,98104,1,10,1:0:0:0:
258,137,98430,2,0,P|253:106|247:72,1,65,2|2,0:0|0:0,0:0:0:0:
234,31,98675,1,2,3:2:0:0:
234,31,98757,6,0,B|165:18|179:65|111:54,1,130,2|2,1:2|0:0,0:0:0:0:
46,97,99246,1,2,1:2:0:0:
46,97,99409,1,10,1:1:0:0:
155,207,99735,1,2,0:0:0:0:
19,282,100060,2,0,B|88:269|74:316|141:305,1,130,2|2,1:2|0:0,0:0:0:0:
208,357,100550,1,2,1:2:0:0:
208,357,100713,1,10,1:1:0:0:
328,257,101039,2,0,P|360:267|391:273,1,65,2|0,1:1|0:0,0:0:0:0:
437,282,101283,1,2,3:2:0:0:
437,282,101365,5,6,1:2:0:0:
208,357,101854,1,2,1:2:0:0:
257,121,102343,1,2,1:2:0:0:
329,258,102669,2,0,P|260:235|199:223,1,130,2|0,1:2|0:0,0:0:0:0:
130,214,103158,1,2,1:2:0:0:
130,214,103321,1,10,1:0:0:0:
257,121,103648,5,2,1:2:0:0:
208,53,103811,1,2,0:0:0:0:
208,53,103892,1,2,3:2:0:0:
208,53,103974,2,0,P|300:41|401:20,2,195,2|4|4,0:0|0:3|0:3,0:0:0:0:
208,53,106257,1,0,1:0:0:0:
400,20,106583,6,0,B|407:103|438:72|454:154,1,143.000004364014,6|0,1:2|0:0,0:0:0:0:
504,218,107072,1,2,1:2:0:0:
459,291,107235,1,8,1:0:0:0:
301,369,107561,5,2,1:2:0:0:
301,369,107724,1,2,0:0:0:0:
249,300,107887,2,0,P|178:310|106:328,1,143.000004364014,2|2,1:2|0:0,0:0:0:0:
26,350,108376,1,2,1:2:0:0:
6,266,108539,1,8,1:0:0:0:
150,171,108865,5,2,1:2:0:0:
150,171,109028,2,0,P|184:181|219:187,1,71.5000021820069,2|0,0:2|1:2,0:0:0:0:
293,229,109354,2,0,B|375:214|336:183|418:167,1,143.000004364014,2|2,3:2|0:2,0:0:0:0:
494,205,109843,1,8,1:0:0:0:
450,39,110169,2,0,P|417:53|375:60,1,71.5000021820069,2|0,1:2|0:0,0:0:0:0:
295,59,110496,1,2,1:2:0:0:
225,16,110659,2,0,P|153:15|81:4,1,143.000004364014,2|2,1:0|3:1,0:0:0:0:
73,89,111147,2,0,P|143:99|215:101,1,143.000004364014,10|2,1:1|0:1,0:0:0:0:
293,65,111637,5,2,3:2:0:0:
400,202,111963,1,2,3:2:0:0:
303,343,112289,1,2,3:2:0:0:
243,281,112452,2,0,P|326:299|412:310,1,143.000004364014,8|0,1:0|3:0,0:0:0:0:
449,359,112941,5,2,3:2:0:0:
344,224,113267,1,2,3:2:0:0:
441,83,113593,1,2,3:2:0:0:
501,145,113756,2,0,P|418:127|332:116,1,143.000004364014,8|0,1:0|3:3,0:0:0:0:
293,65,114245,5,2,3:2:0:0:
180,195,114572,1,2,3:2:0:0:
33,105,114898,1,2,3:2:0:0:
96,47,115061,2,0,P|80:135|74:201,1,143.000004364014,8|2,1:0|0:0,0:0:0:0:
12,245,115549,2,0,P|14:281|20:316,1,71.5000021820069,2|0,3:2|0:0,0:0:0:0:
87,370,115875,2,0,B|163:348|159:396|231:371,1,143.000004364014,2|2,1:1|1:1,0:0:0:0:
196,292,116365,2,0,P|202:220|216:150,1,143.000004364014,10|2,1:0|1:1,0:0:0:0:
295,213,116854,5,2,3:2:0:0:
295,213,116936,1,2,3:2:0:0:
295,213,117017,2,0,P|289:285|275:355,1,143.000004364014,6|0,1:2|0:0,0:0:0:0:
355,383,117506,1,2,1:2:0:0:
408,316,117669,1,8,1:0:0:0:
489,166,117995,5,2,1:2:0:0:
489,166,118158,1,2,0:0:0:0:
449,89,118321,2,0,B|370:76|385:129|303:115,1,143.000004364014,2|0,1:2|0:0,0:0:0:0:
230,144,118810,1,2,1:2:0:0:
190,68,118973,1,8,1:0:0:0:
46,174,119299,5,2,1:2:0:0:
46,174,119463,2,0,P|43:217|37:256,1,71.5000021820069,2|0,0:2|1:0,0:0:0:0:
13,326,119788,2,0,P|75:286|153:305,1,143.000004364014,2|2,3:2|3:2,0:0:0:0:
208,347,120277,1,8,1:0:0:0:
310,212,120604,2,0,P|356:226|392:240,1,71.5000021820069,2|0,1:2|0:0,0:0:0:0:
475,268,120930,1,2,1:2:0:0:
406,319,121093,2,0,P|391:248|383:177,1,143.000004364014,2|2,1:0|3:1,0:0:0:0:
452,126,121582,2,0,P|466:196|474:267,1,143.000004364014,10|2,1:0|0:1,0:0:0:0:
484,352,122071,5,2,3:2:0:0:
315,310,122397,1,2,3:2:0:0:
147,269,122723,1,2,3:2:0:0:
212,324,122886,2,0,P|198:252|187:179,1,143.000004364014,8|0,1:1|0:0,0:0:0:0:
118,130,123376,5,2,3:2:0:0:
286,88,123701,1,2,3:2:0:0:
454,47,124027,1,2,3:2:0:0:
380,6,124191,2,0,P|366:78|355:151,1,143.000004364014,8|0,1:1|1:1,0:0:0:0:
334,229,124679,5,2,3:2:0:0:
502,193,125006,1,2,3:2:0:0:
445,357,125333,1,2,3:2:0:0:
445,357,125495,2,0,P|431:285|420:212,1,143.000004364014,8|2,1:0|0:0,0:0:0:0:
334,229,125984,2,0,P|343:298|357:367,1,71.5000021820069,2|0,1:2|0:0,0:0:0:0:
359,376,126310,1,2,1:1:0:0:
216,313,126636,1,2,1:1:0:0:
250,244,126799,2,0,P|260:314|274:384,1,143.000004364014,10|2,1:0|1:1,0:0:0:0:
445,357,127452,1,6,1:2:0:0:
465,203,137886,5,4,1:2:0:0:
445,357,138212,1,2,0:0:0:0:
445,357,138375,1,0,1:0:0:0:
382,310,138538,2,0,P|343:316|240:320,1,130,10|2,1:2|0:0,0:0:0:0:
206,257,139028,2,0,P|216:226|224:194,1,65,2|0,3:2|0:0,0:0:0:0:
288,150,139354,1,2,0:0:0:0:
69,66,139843,6,0,P|79:97|87:129,1,65,10|0,1:2|0:0,0:0:0:0:
162,107,140169,2,0,P|153:76|143:45,1,65,2|2,1:2|2:0,0:0:0:0:
209,4,140495,2,0,B|282:-1|267:40|339:32,1,130,2|2,1:2|2:0,0:0:0:0:
389,86,140984,1,2,1:2:0:0:
464,64,141147,2,0,P|472:33|485:-5,2,65,10|0|2,1:2|0:0|1:2,0:0:0:0:
487,138,141636,2,0,P|496:204|512:265,1,130,2|2,3:2|0:0,0:0:0:0:
393,365,142288,5,2,1:2:0:0:
393,365,142451,2,0,P|361:357|329:351,1,65,10|2,1:2|0:0,0:0:0:0:
275,294,142778,2,0,P|282:262|288:230,1,65,2|2,1:2|0:0,0:0:0:0:
345,177,143104,2,0,P|340:113|276:72,1,130,2|2,1:2|0:0,0:0:0:0:
224,34,143593,1,0,1:2:0:0:
224,34,143756,2,0,P|192:41|160:47,1,65,10|2,1:2|0:0,0:0:0:0:
112,108,144082,2,0,P|118:139|122:172,1,65,2|2,1:2|0:0,0:0:0:0:
176,228,144408,2,0,P|113:211|48:204,1,130,2|2,1:2|0:0,0:0:0:0:
146,325,145060,6,0,P|177:332|209:338,1,65,8|0,1:0|0:0,0:0:0:0:
242,267,145386,2,0,P|234:298|228:330,1,65,0|0,1:0|0:0,0:0:0:0:
302,384,145712,2,0,P|332:373|362:360,1,65,0|0,1:0|0:0,0:0:0:0:
348,281,146038,2,0,P|358:311|371:341,1,65,2|2,1:0|0:0,0:0:0:0:
463,345,146365,6,0,P|482:319|499:291,1,65,10|2,1:0|0:0,0:0:0:0:
447,234,146691,2,0,P|443:202|437:170,2,65,2|2|2,1:0|0:1|1:2,0:0:0:0:
295,195,147343,1,2,3:2:0:0:
328,42,147669,1,10,1:0:0:0:
393,101,147832,1,2,1:2:0:0:
393,101,147913,1,2,1:2:0:0:
393,101,147995,1,2,1:2:0:0:
221,53,148321,6,0,B|171:32|143:87|95:72,2,130,6|2|8,1:2|0:0|1:0,0:0:0:0:
280,103,149136,1,2,0:0:0:0:
407,13,149462,1,2,0:0:0:0:
472,55,149625,2,0,P|399:57|313:66,1,130,2|2,1:2|3:2,0:0:0:0:
345,140,150115,2,0,P|409:134|474:132,1,130,2|2,1:2|0:0,0:0:0:0:
476,209,150604,2,0,P|411:211|347:217,1,130,2|2,1:2|1:2,0:0:0:0:
247,337,151256,6,0,P|215:329|183:325,1,65,2|0,0:0|1:0,0:0:0:0:
133,272,151582,1,10,1:2:0:0:
133,272,151745,1,2,3:2:0:0:
31,141,152071,1,2,0:0:0:0:
68,73,152234,2,0,P|75:145|90:230,1,130,2|2,1:2|0:0,0:0:0:0:
162,194,152724,2,0,P|151:129|145:65,1,130,2|2,1:2|0:0,0:0:0:0:
218,38,153213,1,0,1:0:0:0:
229,115,153376,1,2,0:0:0:0:
238,192,153539,1,6,3:2:0:0:
385,243,153865,6,0,P|378:307|368:371,2,130,2|8|2,1:2|1:0|1:2,0:0:0:0:
451,200,154680,1,2,0:0:0:0:
451,200,154843,2,0,P|444:135|434:71,1,130,2|2,1:2|0:0,0:0:0:0:
489,15,155332,1,0,1:0:0:0:
385,243,155821,1,2,1:0:0:0:
238,192,156147,6,0,P|208:203|178:216,1,65,2|2,1:2|0:0,0:0:0:0:
166,293,156473,2,0,P|190:313|216:332,1,65,0|2,1:0|1:2,0:0:0:0:
289,304,156799,2,0,P|294:272|298:240,1,65,8|2,1:0|0:0,0:0:0:0:
341,174,157125,1,2,1:2:0:0:
243,52,157451,2,0,P|237:83|233:115,1,65,0|2,1:0|3:2,0:0:0:0:
191,182,157777,1,2,3:2:0:0:
63,290,158104,6,0,P|81:197|93:98,1,195,10|2,1:0|1:2,0:0:0:0:
54,33,158593,1,0,3:0:0:0:
54,33,158674,1,0,3:0:0:0:
54,33,158756,1,6,0:0:0:0:
256,192,163973,5,2,0:0:0:0:
256,192,164136,12,0,166582,1:0:0:0:
502,335,169191,6,0,B|440:325|440:325|427:333|427:333|353:317,1,143.000004364014,6|0,1:2|0:0,0:0:0:0:
283,295,169680,1,2,1:2:0:0:
236,367,169843,1,8,1:0:0:0:
64,343,170169,5,2,1:2:0:0:
64,343,170332,1,2,0:0:0:0:
147,362,170495,2,0,P|137:291|122:221,1,143.000004364014,2|2,1:2|0:0,0:0:0:0:
207,237,170984,1,2,1:2:0:0:
277,294,171147,2,0,P|290:223|296:152,1,143.000004364014,10|2,1:0|1:2,0:0:0:0:
374,193,171636,6,0,P|402:228|434:255,1,71.5000021820069,2|0,0:2|1:2,0:0:0:0:
480,314,171962,2,0,B|457:243|491:250|475:171,1,143.000004364014,2|2,3:2|0:2,0:0:0:0:
506,89,172451,1,8,1:0:0:0:
374,193,172777,2,0,P|357:161|332:128,1,71.5000021820069,2|0,1:2|0:0,0:0:0:0:
277,70,173104,1,2,1:2:0:0:
330,0,173267,2,0,P|312:83|301:169,1,143.000004364014,2|2,1:0|3:1,0:0:0:0:
374,193,173756,2,0,P|392:110|403:24,1,143.000004364014,10|2,1:1|0:1,0:0:0:0:
480,23,174245,5,2,3:2:0:0:
313,70,174571,1,2,3:2:0:0:
146,117,174897,1,2,3:2:0:0:
205,54,175060,2,0,P|187:137|176:223,1,143.000004364014,8|0,1:0|3:0,0:0:0:0:
95,213,175549,5,2,3:2:0:0:
262,260,175875,1,2,3:2:0:0:
429,307,176201,1,2,3:2:0:0:
370,244,176365,2,0,P|379:285|384:328,2,71.5000021820069,8|2|2,1:0|0:0|3:1,0:0:0:0:
414,171,176853,5,2,3:2:0:0:
262,260,177180,1,2,3:2:0:0:
178,106,177506,1,2,3:2:0:0:
239,43,177669,2,0,P|225:131|221:197,1,143.000004364014,8|2,1:0|0:0,0:0:0:0:
306,192,178158,2,0,P|313:124|324:58,1,71.5000021820069,2|0,3:2|0:0,0:0:0:0:
329,42,178484,1,2,1:1:0:0:
447,151,178810,1,2,1:1:0:0:
390,210,178973,2,0,P|394:137|405:66,1,143.000004364014,10|2,1:0|1:1,0:0:0:0:
277,49,179462,1,2,3:2:0:0:
257,46,179544,1,2,3:2:0:0:
239,43,179625,6,0,B|197:14|152:72|102:45,1,143.000004364014,6|0,1:2|0:0,0:0:0:0:
23,81,180114,1,2,1:2:0:0:
37,167,180277,1,8,1:0:0:0:
186,260,180603,5,2,1:2:0:0:
186,260,180766,1,2,0:0:0:0:
150,338,180930,2,0,P|137:268|121:198,1,143.000004364014,2|0,1:2|0:0,0:0:0:0:
143,115,181418,1,2,1:2:0:0:
204,176,181582,2,0,P|219:245|232:315,1,143.000004364014,10|2,1:0|1:2,0:0:0:0:
314,293,182071,6,0,P|306:254|294:204,1,71.5000021820069,2|0,0:2|1:0,0:0:0:0:
338,147,182397,2,0,P|422:147|455:210,1,143.000004364014,2|2,3:2|3:2,0:0:0:0:
509,253,182885,1,8,1:0:0:0:
375,361,183212,2,0,P|333:334|296:315,1,71.5000021820069,2|0,1:2|0:0,0:0:0:0:
227,273,183538,1,2,1:2:0:0:
289,214,183701,2,0,P|274:283|263:353,1,143.000004364014,2|2,1:0|3:1,0:0:0:0:
178,338,184191,2,0,P|188:267|204:197,1,143.000004364014,10|2,1:0|0:1,0:0:0:0:
261,134,184679,5,2,3:2:0:0:
116,228,185007,1,2,3:2:0:0:
19,87,185331,1,2,3:2:0:0:
76,22,185495,2,0,P|65:92|49:162,1,143.000004364014,8|0,1:1|0:0,0:0:0:0:
26,245,185984,5,2,3:2:0:0:
178,338,186310,1,2,3:2:0:0:
338,279,186636,1,2,3:2:0:0:
299,361,186799,2,0,P|289:282|272:201,1,162.5,8|0,1:1|1:1,0:0:0:0:
247,120,187287,5,2,3:2:0:0:
415,156,187614,1,2,3:2:0:0:
503,8,187941,1,2,3:2:0:0:
425,43,188103,2,0,P|441:131|447:197,1,143.000004364014,8|2,1:0|0:0,0:0:0:0:
359,198,188593,2,0,P|351:128|338:64,1,71.5000021820069,2|0,1:2|0:0,0:0:0:0:
332,49,188919,1,2,1:1:0:0:
221,153,189245,1,2,1:1:0:0:
275,211,189408,2,0,P|267:139|253:69,1,143.000004364014,10|2,1:0|1:1,0:0:0:0:
80,7,190060,6,0,P|66:77|58:148,1,143.000004364014,6|0,1:2|0:0,0:0:0:0:
3,214,190549,1,2,1:2:0:0:
46,287,190712,1,8,1:0:0:0:
204,364,191038,5,2,1:2:0:0:
204,364,191201,1,2,0:0:0:0:
245,286,191364,2,0,B|298:266|330:331|381:312,1,143.000004364014,2|2,1:2|0:0,0:0:0:0:
444,255,191854,1,2,1:2:0:0:
361,232,192017,2,0,B|310:257|335:324|287:350,1,143.000004364014,10|2,1:0|1:2,0:0:0:0:
204,364,192505,6,0,L|132:345,1,71.5000021820069,2|0,0:2|1:2,0:0:0:0:
53,372,192831,2,0,L|28:226,1,143.000004364014,2|2,3:2|0:2,0:0:0:0:
74,153,193320,1,8,1:0:0:0:
226,49,193647,2,0,P|242:84|254:116,1,71.5000021820069,2|0,1:2|0:0,0:0:0:0:
278,201,193973,1,2,1:2:0:0:
195,177,194136,2,0,P|267:163|335:142,1,143.000004364014,2|2,1:0|3:1,0:0:0:0:
352,226,194625,2,0,P|283:246|213:260,1,143.000004364014,10|2,1:1|0:1,0:0:0:0:
160,322,195115,5,2,3:2:0:0:
116,163,195441,1,2,3:2:0:0:
0,279,195767,1,2,3:2:0:0:
72,326,195930,2,0,P|81:256|37:199,1,143.000004364014,8|0,1:0|3:0,0:0:0:0:
0,279,196419,5,2,3:2:0:0:
166,235,196745,1,2,3:2:0:0:
332,191,197071,1,2,3:2:0:0:
264,137,197234,2,0,P|284:212|298:290,1,143.000004364014,8|0,1:0|3:3,0:0:0:0:
365,326,197723,5,2,3:2:0:0:
409,160,198049,1,2,3:2:0:0:
453,0,198375,1,2,3:2:0:0:
507,62,198538,2,0,P|432:42|354:28,1,143.000004364014,8|2,1:0|0:0,0:0:0:0:
348,114,199028,2,0,P|416:127|483:145,1,71.5000021820069,2|0,3:2|0:0,0:0:0:0:
493,152,199354,1,2,1:1:0:0:
379,258,199680,1,2,1:1:0:0:
332,198,199843,2,0,P|402:211|471:230,1,143.000004364014,10|2,1:0|1:1,0:0:0:0:
496,101,200332,1,2,3:2:0:0:
501,81,200413,1,2,3:2:0:0:
507,62,200495,6,0,P|432:42|354:28,1,143.000004364014,6|0,1:2|0:0,0:0:0:0:
297,78,200983,1,2,1:2:0:0:
245,9,201146,1,8,1:0:0:0:
82,79,201472,5,2,1:2:0:0:
82,79,201635,1,2,0:0:0:0:
118,160,201798,2,0,P|111:234|94:324,1,143.000004364014,2|0,1:2|0:0,0:0:0:0:
42,366,202287,1,2,1:2:0:0:
7,287,202451,2,0,P|19:216|25:145,1,143.000004364014,8|2,1:0|1:2,0:0:0:0:
82,79,202940,6,0,P|115:72|169:56,1,71.5000021820069,2|0,0:2|1:0,0:0:0:0:
221,12,203267,2,0,B|296:11|288:65|353:78,1,143.000004364014,2|2,3:2|3:2,0:0:0:0:
423,48,203756,1,8,1:0:0:0:
444,213,204082,2,0,P|413:228|377:237,1,71.5000021820069,2|0,1:2|0:0,0:0:0:0:
282,220,204407,1,2,1:2:0:0:
345,162,204570,2,0,P|330:233|322:304,1,143.000004364014,2|2,1:0|3:1,0:0:0:0:
237,284,205060,2,0,P|245:212|259:143,1,143.000004364014,10|2,1:0|0:1,0:0:0:0:
321,84,205548,5,2,3:2:0:0:
162,134,205876,1,2,3:2:0:0:
4,183,206200,1,2,3:2:0:0:
61,247,206365,2,0,P|46:177|38:106,1,143.000004364014,8|0,1:1|0:0,0:0:0:0:
81,32,206854,5,2,3:2:0:0:
240,82,207180,1,2,3:2:0:0:
398,131,207506,1,2,3:2:0:0:
338,67,207669,2,0,P|352:136|360:207,1,143.000004364014,8|0,1:1|1:1,0:0:0:0:
423,263,208158,5,2,0:0:0:0:
