osu file format v14

[General]
AudioFilename: audio.mp3
AudioLeadIn: 0
PreviewTime: 910
Countdown: 0
SampleSet: Normal
StackLeniency: 0.7
Mode: 3
LetterboxInBreaks: 0
SpecialStyle: 0
WidescreenStoryboard: 1

[Editor]
DistanceSpacing: 1.5
BeatDivisor: 16
GridSize: 8
TimelineZoom: 1.5

[Metadata]
Title:Transistor (Cut Ver.)
TitleUnicode:Transistor (Cut Ver.)
Artist:Alexander David Bachell, Samuel Rupert Cole Sutton
ArtistUnicode:Alexander David Bachell, Samuel Rupert Cole Sutton
Creator:Niko_Plays
Version:Easy
Source:
Tags:dubstep electronic instrumental maxim-miau extreme cerulean veyron transcendence
BeatmapID:3673087
BeatmapSetID:1792394

[Difficulty]
HPDrainRate:7
CircleSize:4
OverallDifficulty:7
ApproachRate:5
SliderMultiplier:1.4
SliderTickRate:1

[Events]
//Background and Video events
0,0,"bg.jpg",0,0
//Break Periods
//Storyboard Layer 0 (Background)
//Storyboard Layer 1 (Fail)
//Storyboard Layer 2 (Pass)
//Storyboard Layer 3 (Foreground)
//Storyboard Layer 4 (Overlay)
//Storyboard Sound Samples

[TimingPoints]
910,600,4,1,1,50,1,0

[HitObjects]
448,192,310,5,0,0:0:0:0:
320,192,610,1,0,0:0:0:0:
192,192,910,128,0,1510:0:0:0:0:
448,192,1510,1,0,0:0:0:0:
320,192,1510,1,0,0:0:0:0:
64,192,1810,128,0,2110:0:0:0:0:
192,192,2110,1,0,0:0:0:0:
64,192,2710,1,0,0:0:0:0:
448,192,2710,1,0,0:0:0:0:
320,192,3310,128,0,3910:0:0:0:0:
192,192,3910,1,0,0:0:0:0:
64,192,3910,1,0,0:0:0:0:
448,192,4510,1,0,0:0:0:0:
320,192,5110,1,0,0:0:0:0:
64,192,5110,1,0,0:0:0:0:
192,192,5710,128,0,6310:0:0:0:0:
320,192,6310,1,0,0:0:0:0:
448,192,6310,1,0,0:0:0:0:
64,192,6610,128,0,6910:0:0:0:0:
320,192,6910,1,0,0:0:0:0:
192,192,7510,1,0,0:0:0:0:
448,192,7510,1,0,0:0:0:0:
64,192,8110,128,0,8710:0:0:0:0:
320,192,8710,1,0,0:0:0:0:
192,192,8710,1,0,0:0:0:0:
448,192,9310,1,0,0:0:0:0:
320,192,9610,128,0,9910:0:0:0:0:
64,192,9910,1,0,0:0:0:0:
448,192,9910,1,0,0:0:0:0:
192,192,10210,1,0,0:0:0:0:
448,192,10510,128,0,11110:0:0:0:0:
64,192,11110,1,0,0:0:0:0:
192,192,11110,1,0,0:0:0:0:
320,192,11410,128,0,11710:0:0:0:0:
64,192,11710,1,0,0:0:0:0:
192,192,12310,1,0,0:0:0:0:
448,192,12310,1,0,0:0:0:0:
320,192,12910,128,0,13510:0:0:0:0:
64,192,13510,1,0,0:0:0:0:
192,192,13510,1,0,0:0:0:0:
448,192,14110,1,0,0:0:0:0:
320,192,14710,1,0,0:0:0:0:
192,192,14710,1,0,0:0:0:0:
64,192,15310,128,0,15910:0:0:0:0:
320,192,15910,1,0,0:0:0:0:
448,192,15910,1,0,0:0:0:0:
192,192,16210,128,0,16510:0:0:0:0:
448,192,16510,1,0,0:0:0:0:
64,192,17110,1,0,0:0:0:0:
320,192,17110,1,0,0:0:0:0:
448,192,17710,1,0,0:0:0:0:
320,192,18310,1,0,0:0:0:0:
192,192,18910,1,0,0:0:0:0:
64,192,19510,128,0,19810:0:0:0:0:
320,192,19810,128,0,20110:0:0:0:0:
448,192,20110,1,0,0:0:0:0:
192,192,20710,1,0,0:0:0:0:
320,192,21310,1,0,0:0:0:0:
448,192,21910,128,0,22510:0:0:0:0:
64,192,22510,1,0,0:0:0:0:
320,192,23110,1,0,0:0:0:0:
192,192,23110,1,0,0:0:0:0:
64,192,23410,128,0,23710:0:0:0:0:
448,192,23710,1,0,0:0:0:0:
320,192,24310,1,0,0:0:0:0:
64,192,24310,1,0,0:0:0:0:
192,192,24910,1,0,0:0:0:0:
320,192,25510,1,0,0:0:0:0:
448,192,25510,1,0,0:0:0:0:
64,192,25810,128,0,26110:0:0:0:0:
192,192,26110,1,0,0:0:0:0:
64,192,26710,1,0,0:0:0:0:
320,192,26710,1,0,0:0:0:0:
448,192,27310,1,0,0:0:0:0:
320,192,27910,1,0,0:0:0:0:
192,192,27910,1,0,0:0:0:0:
64,192,28510,1,0,0:0:0:0:
192,192,29110,1,0,0:0:0:0:
448,192,29110,1,0,0:0:0:0:
320,192,29710,1,0,0:0:0:0:
64,192,30310,1,0,0:0:0:0:
192,192,30310,1,0,0:0:0:0:
320,192,30610,128,0,30910:0:0:0:0:
192,192,30910,1,0,0:0:0:0:
64,192,31510,1,0,0:0:0:0:
448,192,31510,1,0,0:0:0:0:
320,192,31810,1,0,0:0:0:0:
192,192,32110,1,0,0:0:0:0:
320,192,32710,5,0,0:0:0:0:
448,192,32710,1,0,0:0:0:0:
64,192,33010,128,0,33310:0:0:0:0:
192,192,33310,1,0,0:0:0:0:
64,192,33910,1,0,0:0:0:0:
448,192,33910,1,0,0:0:0:0:
320,192,34510,1,0,0:0:0:0:
64,192,35110,1,0,0:0:0:0:
192,192,35110,1,0,0:0:0:0:
448,192,35710,1,0,0:0:0:0:
320,192,36310,1,0,0:0:0:0:
64,192,36310,1,0,0:0:0:0:
448,192,36910,1,0,0:0:0:0:
192,192,37510,1,0,0:0:0:0:
64,192,37510,1,0,0:0:0:0:
320,192,37810,128,0,38110:0:0:0:0:
448,192,38110,1,0,0:0:0:0:
320,192,38710,1,0,0:0:0:0:
64,192,38710,1,0,0:0:0:0:
448,192,39310,1,0,0:0:0:0:
320,192,39910,1,0,0:0:0:0:
192,192,40510,1,0,0:0:0:0:
64,192,41110,1,0,0:0:0:0:
192,192,41410,1,0,0:0:0:0:
320,192,41710,128,0,42310:0:0:0:0:
192,192,42310,1,0,0:0:0:0:
448,192,42310,1,0,0:0:0:0:
64,192,42610,128,0,42910:0:0:0:0:
320,192,42910,1,0,0:0:0:0:
192,192,43510,1,0,0:0:0:0:
64,192,43510,1,0,0:0:0:0:
448,192,44110,128,0,44710:0:0:0:0:
64,192,44710,1,0,0:0:0:0:
320,192,44710,1,0,0:0:0:0:
192,192,45310,1,0,0:0:0:0:
448,192,45910,1,0,0:0:0:0:
320,192,45910,1,0,0:0:0:0:
64,192,46510,128,0,47110:0:0:0:0:
192,192,47110,1,0,0:0:0:0:
448,192,47110,1,0,0:0:0:0:
320,192,47410,128,0,47710:0:0:0:0:
64,192,47710,1,0,0:0:0:0:
320,192,48310,1,0,0:0:0:0:
448,192,48310,1,0,0:0:0:0:
192,192,48910,128,0,49510:0:0:0:0:
64,192,49510,1,0,0:0:0:0:
448,192,49510,1,0,0:0:0:0:
320,192,50110,1,0,0:0:0:0:
64,192,50410,128,0,50710:0:0:0:0:
320,192,50710,1,0,0:0:0:0:
448,192,50710,1,0,0:0:0:0:
192,192,51010,1,0,0:0:0:0:
320,192,51310,128,0,51910:0:0:0:0:
64,192,51910,1,0,0:0:0:0:
448,192,51910,1,0,0:0:0:0:
192,192,52210,128,0,52510:0:0:0:0:
320,192,52510,1,0,0:0:0:0:
192,192,53110,1,0,0:0:0:0:
64,192,53110,1,0,0:0:0:0:
448,192,53710,128,0,54310:0:0:0:0:
64,192,54310,1,0,0:0:0:0:
320,192,54310,1,0,0:0:0:0:
448,192,54910,1,0,0:0:0:0:
192,192,55510,1,0,0:0:0:0:
64,192,55510,1,0,0:0:0:0:
320,192,56110,128,0,56710:0:0:0:0:
448,192,56710,1,0,0:0:0:0:
192,192,56710,1,0,0:0:0:0:
64,192,57010,128,0,57310:0:0:0:0:
320,192,57310,1,0,0:0:0:0:
192,192,57910,1,0,0:0:0:0:
64,192,57910,1,0,0:0:0:0:
448,192,58510,1,0,0:0:0:0:
320,192,59110,1,0,0:0:0:0:
192,192,59710,1,0,0:0:0:0:
64,192,60310,128,0,60610:0:0:0:0:
448,192,60610,128,0,60910:0:0:0:0:
192,192,60910,1,0,0:0:0:0:
