osu file format v14

[General]
AudioFilename: audio.ogg
AudioLeadIn: 0
PreviewTime: 85818
Countdown: 0
SampleSet: Soft
StackLeniency: 0.7
Mode: 3
LetterboxInBreaks: 0
SpecialStyle: 0
WidescreenStoryboard: 0

[Editor]
Bookmarks: 21333,42666,64000,74666,85333,106666,128484,149333
DistanceSpacing: 0.8
BeatDivisor: 4
GridSize: 32
TimelineZoom: 3.599998

[Metadata]
Title:Sunset
TitleUnicode:Sunset
Artist:Alex Vourtsanis
ArtistUnicode:Alex Vourtsanis
Creator:TakJun
Version:Sunlight
Source:Deemo
Tags:Carpihat Asherz007 Nicknem_ cytus ii -reborn- reborn rayark collection vol 2 drum and bass d&b dnb violin piano classical video game instrumental
BeatmapID:4264144
BeatmapSetID:2043241

[Difficulty]
HPDrainRate:7.7
CircleSize:7
OverallDifficulty:7.2
ApproachRate:5
SliderMultiplier:1.4
SliderTickRate:1

[Events]
//Background and Video events
0,0,"bg.jpg",0,0
//Break Periods
//Storyboard Layer 0 (Background)
//Storyboard Layer 1 (Fail)
//Storyboard Layer 2 (Pass)
//Storyboard Layer 3 (Foreground)
//Storyboard Layer 4 (Overlay)
//Storyboard Sound Samples
Sample,485,0,"F5S_s.wav",66
Sample,1484,0,"F5S_s.wav",53
Sample,3151,0,"C5S.wav",51
Sample,4151,0,"C#5S_Db5S.wav",48
Sample,4151,0,"C6S.wav",51
Sample,5068,0,"C6S_s.wav",35
Sample,5818,0,"A#4S_Bb4S.wav",46
Sample,8484,0,"C5S.wav",61
Sample,9484,0,"A#4S_Bb4S.wav",62
Sample,9484,0,"C#5S_Db5S_s.wav",66
Sample,11151,0,"C#5S_Db5S.wav",68
Sample,11151,0,"F5S.wav",59
Sample,13818,0,"C5S.wav",68
Sample,13818,0,"D#5S_Eb5S.wav",70
Sample,14818,0,"C#5S_Db5S.wav",73
Sample,14818,0,"F5S_s.wav",71
Sample,16484,0,"C#5S_Db5S.wav",77
Sample,19151,0,"D#5S_Eb5S_s.wav",79
Sample,19151,0,"C6S_s.wav",81
Sample,19651,0,"D#5S_Eb5S_s.wav",74
Sample,19651,0,"C6S_s.wav",79
Sample,20151,0,"C#5S_Db5S_s.wav",78
Sample,20151,0,"F5S_s.wav",75
Sample,20151,0,"C6S_s.wav",80
Sample,20651,0,"A#5S_Bb5S_s.wav",80
Sample,20651,0,"F5S_s.wav",77
Sample,20651,0,"G#5S_Ab5S_s.wav",78
Sample,21818,0,"A#4S_Bb4S.wav",75
Sample,21818,0,"C#5S_Db5S.wav",83
Sample,23151,0,"G#5S_Ab5S_s.wav",100
Sample,23651,0,"C#5S_Db5S.wav",71
Sample,24484,0,"G#5S_Ab5S.wav",71
Sample,24484,0,"C6S_s.wav",92
Sample,25484,0,"A#4S_Bb4S.wav",69
Sample,25484,0,"D#6S_Eb6S_s.wav",96
Sample,25484,0,"A#5S_Bb5S_s.wav",69
Sample,27151,0,"C#5S_Db5S.wav",68
Sample,27984,0,"G#6S_Ab6S_s.wav",98
Sample,29151,0,"G#6S_Ab6S_s.wav",85
Sample,29651,0,"C#6S_Db6S_s.wav",87
Sample,29818,0,"D#5S_Eb5S.wav",70
Sample,29818,0,"G#6S_Ab6S_s.wav",98
Sample,30818,0,"C6S_s.wav",62
Sample,30818,0,"F5S.wav",72
Sample,30818,0,"C#5S_Db5S.wav",74
Sample,31818,0,"G#5S_Ab5S_s.wav",56
Sample,31818,0,"C6S_s.wav",81
Sample,32484,0,"C#5S_Db5S.wav",68
Sample,32484,0,"A#5S_Bb5S_s.wav",59
Sample,33818,0,"F6S.wav",49
Sample,33818,0,"G#6S_Ab6S_s.wav",88
Sample,35151,0,"C6S_s.wav",73
Sample,35151,0,"D#6S_Eb6S_s.wav",92
Sample,35651,0,"D#6S_Eb6S_s.wav",58
Sample,35651,0,"G#6S_Ab6S_s.wav",86
Sample,36151,0,"D#6S_Eb6S_s.wav",92
Sample,36651,0,"F6S_s.wav",58
Sample,36651,0,"A#6S_Bb6S_s.wav",98
Sample,37151,0,"C7S_s.wav",100
Sample,37818,0,"C#5S_Db5S.wav",68
Sample,40318,0,"C#6S_Db6S_s.wav",80
Sample,40484,0,"D#5S_Eb5S_s.wav",70
Sample,40484,0,"D#6S_Eb6S_s.wav",86
Sample,40984,0,"C5S_s.wav",68
Sample,40984,0,"D#5S_Eb5S_s.wav",70
Sample,40984,0,"G#5S_Ab5S_s.wav",86
Sample,41484,0,"G#5S_Ab5S.wav",70
Sample,41484,0,"C6S.wav",88
Sample,42484,0,"D#6S_Eb6S_s.wav",51
Sample,42568,0,"F6S_s.wav",51
Sample,42734,0,"G#6S_Ab6S_s.wav",62
Sample,42901,0,"C7S_s.wav",62
Sample,43068,0,"D#7S_Eb7S_s.wav",63
Sample,43151,0,"F6S_s.wav",97
Sample,44151,0,"F6S_s.wav",68
Sample,45651,0,"C#7S_Db7S_s.wav",72
Sample,45818,0,"C7S_s.wav",75
Sample,45818,0,"G#5S_Ab5S.wav",90
Sample,45818,0,"C6S_s.wav",89
Sample,46818,0,"G#6S_Ab6S.wav",93
Sample,46818,0,"G#7S_Ab7S.wav",78
Sample,46818,0,"F7S.wav",78
Sample,46818,0,"F6S.wav",93
Sample,47818,0,"G#6S_Ab6S_s.wav",70
Sample,47818,0,"F7S_s.wav",70
Sample,48040,0,"F#6S_Gb6S_s.wav",68
Sample,48040,0,"D#7S_Eb7S_s.wav",68
Sample,48262,0,"F6S_s.wav",69
Sample,48262,0,"C#7S_Db7S_s.wav",63
Sample,48484,0,"C#5S_Db5S.wav",87
Sample,48484,0,"F5S_s.wav",80
Sample,48484,0,"F6S_s.wav",66
Sample,49484,0,"F6S_s.wav",68
Sample,50984,0,"C#7S_Db7S_s.wav",72
Sample,51151,0,"C7S_s.wav",75
Sample,51151,0,"D#5S_Eb5S_s.wav",89
Sample,51151,0,"C6S_s.wav",89
Sample,51651,0,"C7S_s.wav",80
Sample,52151,0,"C7S.wav",78
Sample,52151,0,"G#5S_Ab5S.wav",93
Sample,52151,0,"C6S.wav",93
Sample,53151,0,"G#5S_Ab5S_s.wav",85
Sample,53151,0,"G#6S_Ab6S_s.wav",72
Sample,53373,0,"A#6S_Bb6S_s.wav",69
Sample,53596,0,"F6S_s.wav",70
Sample,53818,0,"C#5S_Db5S.wav",92
Sample,53818,0,"F5S_s.wav",100
Sample,53818,0,"F6S_s.wav",97
Sample,54818,0,"F6S_s.wav",68
Sample,56318,0,"C#7S_Db7S_s.wav",72
Sample,56484,0,"C7S_s.wav",75
Sample,56484,0,"G#5S_Ab5S.wav",90
Sample,56484,0,"C6S_s.wav",89
Sample,57484,0,"G#6S_Ab6S.wav",93
Sample,57484,0,"G#7S_Ab7S.wav",78
Sample,57484,0,"F7S.wav",78
Sample,57484,0,"F6S.wav",93
Sample,58484,0,"F7S_s.wav",70
Sample,58707,0,"F#6S_Gb6S_s.wav",68
Sample,58707,0,"D#7S_Eb7S_s.wav",68
Sample,58929,0,"F6S_s.wav",69
Sample,58929,0,"C#7S_Db7S_s.wav",63
Sample,59151,0,"F6S_s.wav",66
Sample,59151,0,"C#5S_Db5S.wav",87
Sample,59151,0,"F5S_s.wav",80
Sample,60151,0,"F6S_s.wav",68
Sample,61651,0,"C#7S_Db7S_s.wav",72
Sample,61818,0,"D#5S_Eb5S_s.wav",94
Sample,61818,0,"C6S_s.wav",94
Sample,61818,0,"C7S_s.wav",80
Sample,62318,0,"C6S_s.wav",100
Sample,62318,0,"C5S_s.wav",91
Sample,62318,0,"D#5S_Eb5S_s.wav",94
Sample,62318,0,"C7S_s.wav",85
Sample,62818,0,"C7S_s.wav",84
Sample,62818,0,"G#5S_Ab5S_s.wav",98
Sample,62818,0,"C6S_s.wav",98
Sample,63318,0,"F5S_s.wav",96
Sample,63318,0,"A#5S_Bb5S_s.wav",98
Sample,63318,0,"G#5S_Ab5S_s.wav",98
Sample,63318,0,"C#5S_Db5S_s.wav",98
Sample,63318,0,"A#6S_Bb6S_s.wav",84
Sample,63818,0,"G#6S_Ab6S_s.wav",72
Sample,64040,0,"A#6S_Bb6S_s.wav",69
Sample,64262,0,"F6S_s.wav",70
Sample,64484,0,"G#4S_Ab4S.wav",62
Sample,64484,0,"G#6S_Ab6S_s.wav",90
Sample,65596,0,"C#4S_Db4S.wav",62
Sample,65596,0,"F4S.wav",62
Sample,65596,0,"G#6S_Ab6S_s.wav",72
Sample,67151,0,"C5S.wav",62
Sample,67151,0,"D#6S_Eb6S_s.wav",84
Sample,68151,0,"C#5S_Db5S.wav",62
Sample,68151,0,"F#6S_Gb6S.wav",94
Sample,69818,0,"A#4S_Bb4S.wav",62
Sample,69818,0,"C7S_s.wav",95
Sample,70818,0,"C#5S_Db5S.wav",62
Sample,70818,0,"G#6S_Ab6S_s.wav",87
Sample,72484,0,"C5S.wav",62
Sample,72484,0,"G#6S_Ab6S_s.wav",81
Sample,73484,0,"C#5S_Db5S.wav",62
Sample,73484,0,"G#6S_Ab6S_s.wav",81
Sample,75151,0,"G#6S_Ab6S_s.wav",94
Sample,76151,0,"G#6S_Ab6S.wav",98
Sample,77818,0,"G#6S_Ab6S_s.wav",92
Sample,79443,0,"G7S_s.wav",86
Sample,80484,0,"D#7S_Eb7S_s.wav",86
Sample,83651,0,"C7S_s.wav",63
Sample,84151,0,"C7S.wav",52
Sample,85151,0,"G#4S_Ab4S_s.wav",48
Sample,85151,0,"G#5S_Ab5S_s.wav",48
Sample,85151,0,"C5S_s.wav",48
Sample,85151,0,"D#4S_Eb4S_s.wav",55
Sample,85151,0,"C6S_s.wav",70
Sample,85151,0,"D#6S_Eb6S_s.wav",47
Sample,85818,0,"F5S_s.wav",100
Sample,85818,0,"F6S_s.wav",97
Sample,86818,0,"F6S_s.wav",68
Sample,88484,0,"C7S_s.wav",75
Sample,88484,0,"G#5S_Ab5S.wav",90
Sample,88484,0,"C6S_s.wav",89
Sample,89484,0,"G#6S_Ab6S.wav",93
Sample,89484,0,"G#7S_Ab7S.wav",78
Sample,89484,0,"F7S.wav",78
Sample,89484,0,"F6S.wav",93
Sample,90484,0,"F7S_s.wav",70
Sample,90707,0,"F#6S_Gb6S_s.wav",68
Sample,90707,0,"D#7S_Eb7S_s.wav",68
Sample,90929,0,"F6S_s.wav",69
Sample,90929,0,"C#7S_Db7S_s.wav",63
Sample,91151,0,"F5S_s.wav",80
Sample,91151,0,"A#4S_Bb4S.wav",79
Sample,91151,0,"C#5S_Db5S.wav",87
Sample,91151,0,"F6S_s.wav",66
Sample,92151,0,"F6S_s.wav",68
Sample,93651,0,"C#7S_Db7S_s.wav",72
Sample,93818,0,"C7S_s.wav",75
Sample,93818,0,"D#5S_Eb5S_s.wav",89
Sample,93818,0,"C6S_s.wav",89
Sample,94318,0,"C7S_s.wav",80
Sample,94818,0,"C7S.wav",78
Sample,94818,0,"G#5S_Ab5S.wav",93
Sample,94818,0,"C6S.wav",93
Sample,95818,0,"G#6S_Ab6S_s.wav",72
Sample,96040,0,"A#6S_Bb6S_s.wav",69
Sample,96262,0,"F6S_s.wav",70
Sample,96484,0,"F5S_s.wav",100
Sample,96484,0,"A#4S_Bb4S.wav",84
Sample,96484,0,"C#5S_Db5S.wav",92
Sample,96484,0,"F6S_s.wav",97
Sample,97484,0,"F6S_s.wav",68
Sample,99151,0,"G#5S_Ab5S.wav",90
Sample,99151,0,"C6S_s.wav",89
Sample,99151,0,"C7S_s.wav",75
Sample,100151,0,"F7S.wav",78
Sample,100151,0,"F6S.wav",93
Sample,100151,0,"G#6S_Ab6S.wav",93
Sample,100151,0,"G#7S_Ab7S.wav",78
Sample,101151,0,"G#6S_Ab6S_s.wav",70
Sample,101151,0,"F7S_s.wav",70
Sample,101373,0,"F#6S_Gb6S_s.wav",68
Sample,101373,0,"D#7S_Eb7S_s.wav",68
Sample,101596,0,"F6S_s.wav",69
Sample,101596,0,"C#7S_Db7S_s.wav",63
Sample,101818,0,"F6S_s.wav",66
Sample,101818,0,"C#5S_Db5S.wav",87
Sample,101818,0,"F5S_s.wav",80
Sample,102818,0,"F6S_s.wav",68
Sample,104318,0,"C#7S_Db7S_s.wav",72
Sample,104484,0,"D#5S_Eb5S_s.wav",89
Sample,104484,0,"C6S_s.wav",89
Sample,104484,0,"C7S_s.wav",75
Sample,104984,0,"C7S_s.wav",80
Sample,105484,0,"G#5S_Ab5S.wav",93
Sample,105484,0,"C6S.wav",93
Sample,105484,0,"C7S.wav",78
Sample,106484,0,"G#5S_Ab5S_s.wav",85
Sample,106484,0,"G#6S_Ab6S_s.wav",72
Sample,106707,0,"A#6S_Bb6S_s.wav",69
Sample,106929,0,"F6S_s.wav",70
Sample,107151,0,"F5S_s.wav",100
Sample,107151,0,"F6S_s.wav",97
Sample,108151,0,"F6S_s.wav",68
Sample,109818,0,"G#5S_Ab5S.wav",90
Sample,109818,0,"C6S_s.wav",89
Sample,109818,0,"C7S_s.wav",75
Sample,110818,0,"F7S.wav",78
Sample,110818,0,"F6S.wav",93
Sample,110818,0,"G#6S_Ab6S.wav",93
Sample,110818,0,"G#7S_Ab7S.wav",78
Sample,111818,0,"F7S_s.wav",70
Sample,112040,0,"F#6S_Gb6S_s.wav",68
Sample,112040,0,"D#7S_Eb7S_s.wav",68
Sample,112262,0,"F6S_s.wav",69
Sample,112262,0,"C#7S_Db7S_s.wav",63
Sample,112484,0,"C#5S_Db5S.wav",87
Sample,112484,0,"F5S_s.wav",80
Sample,112484,0,"F6S_s.wav",66
Sample,113484,0,"F6S_s.wav",68
Sample,114984,0,"C#7S_Db7S_s.wav",72
Sample,115151,0,"C7S_s.wav",75
Sample,115151,0,"D#5S_Eb5S_s.wav",89
Sample,115151,0,"C6S_s.wav",89
Sample,115651,0,"C7S_s.wav",80
Sample,116151,0,"C7S.wav",78
Sample,116151,0,"G#5S_Ab5S.wav",93
Sample,116151,0,"C6S.wav",93
Sample,117151,0,"G#6S_Ab6S_s.wav",72
Sample,117373,0,"A#6S_Bb6S_s.wav",69
Sample,117596,0,"F6S_s.wav",70
Sample,117818,0,"F5S_s.wav",100
Sample,117818,0,"A#4S_Bb4S.wav",84
Sample,117818,0,"C#5S_Db5S.wav",92
Sample,117818,0,"F6S_s.wav",97
Sample,118818,0,"A#7S_Bb7S_s.wav",88
Sample,118818,0,"F6S_s.wav",68
Sample,118818,0,"A#6S_Bb6S_s.wav",90
Sample,118984,0,"A#6S_Bb6S_s.wav",70
Sample,120484,0,"C7S_s.wav",75
Sample,120484,0,"G#5S_Ab5S.wav",90
Sample,120484,0,"C6S_s.wav",89
Sample,121484,0,"G#6S_Ab6S.wav",93
Sample,121484,0,"G#7S_Ab7S.wav",78
Sample,121484,0,"F7S.wav",78
Sample,121484,0,"F6S.wav",93
Sample,122484,0,"G#6S_Ab6S_s.wav",70
Sample,122484,0,"F7S_s.wav",70
Sample,122707,0,"F#6S_Gb6S_s.wav",68
Sample,122707,0,"D#7S_Eb7S_s.wav",68
Sample,122929,0,"F6S_s.wav",69
Sample,122929,0,"C#7S_Db7S_s.wav",63
Sample,123151,0,"C#5S_Db5S.wav",87
Sample,123151,0,"F5S_s.wav",80
Sample,123151,0,"F6S_s.wav",66
Sample,124151,0,"A#7S_Bb7S_s.wav",90
Sample,124151,0,"F6S_s.wav",68
Sample,124151,0,"A#6S_Bb6S_s.wav",87
Sample,125484,0,"F8S_s.wav",81
Sample,125651,0,"C#7S_Db7S_s.wav",72
Sample,125818,0,"D#5S_Eb5S_s.wav",94
Sample,125818,0,"C6S_s.wav",94
Sample,125818,0,"C7S_s.wav",80
Sample,126318,0,"C6S_s.wav",100
Sample,126318,0,"C5S_s.wav",91
Sample,126318,0,"D#5S_Eb5S_s.wav",94
Sample,126318,0,"C7S_s.wav",85
Sample,126818,0,"G#5S_Ab5S_s.wav",98
Sample,126818,0,"G#8S_Ab8S_s.wav",92
Sample,126818,0,"C7S_s.wav",84
Sample,126818,0,"C6S_s.wav",98
Sample,126818,0,"G#7S_Ab7S_s.wav",92
Sample,127318,0,"F5S_s.wav",96
Sample,127318,0,"A#5S_Bb5S_s.wav",98
Sample,127318,0,"G#5S_Ab5S_s.wav",98
Sample,127318,0,"C#5S_Db5S_s.wav",98
Sample,127318,0,"A#6S_Bb6S_s.wav",84
Sample,127818,0,"F8S_s.wav",80
Sample,127818,0,"G#6S_Ab6S_s.wav",72
Sample,127818,0,"F7S_s.wav",70
Sample,128040,0,"A#6S_Bb6S_s.wav",69
Sample,128151,0,"G#8S_Ab8S_s.wav",94
Sample,128262,0,"F6S_s.wav",70
Sample,128651,0,"A#6S_Bb6S_s.wav",46
Sample,128984,0,"D#6S_Eb6S_s.wav",26
Sample,129318,0,"A#6S_Bb6S_s.wav",29
Sample,129651,0,"D#6S_Eb6S_s.wav",25
Sample,129984,0,"A#6S_Bb6S_s.wav",29
Sample,130318,0,"D#6S_Eb6S_s.wav",25
Sample,130984,0,"G#6S_Ab6S_s.wav",26
Sample,131318,0,"A#6S_Bb6S_s.wav",29
Sample,131651,0,"D#6S_Eb6S_s.wav",26
Sample,131984,0,"A#6S_Bb6S_s.wav",29
Sample,132318,0,"D#6S_Eb6S_s.wav",25
Sample,132651,0,"A#6S_Bb6S_s.wav",29
Sample,132984,0,"D#6S_Eb6S_s.wav",25
Sample,133984,0,"A#6S_Bb6S_s.wav",29
Sample,134318,0,"D#6S_Eb6S_s.wav",26
Sample,134651,0,"A#6S_Bb6S_s.wav",29
Sample,134984,0,"D#6S_Eb6S_s.wav",25
Sample,135318,0,"A#6S_Bb6S_s.wav",29
Sample,135651,0,"D#6S_Eb6S_s.wav",25
Sample,136318,0,"G#6S_Ab6S_s.wav",26
Sample,136651,0,"A#6S_Bb6S_s.wav",29
Sample,136984,0,"D#6S_Eb6S_s.wav",26
Sample,137318,0,"A#6S_Bb6S_s.wav",29
Sample,137651,0,"D#6S_Eb6S_s.wav",25
Sample,137984,0,"A#6S_Bb6S_s.wav",29
Sample,138318,0,"D#6S_Eb6S_s.wav",25
Sample,139318,0,"A#6S_Bb6S_s.wav",29
Sample,139651,0,"D#6S_Eb6S_s.wav",26
Sample,139984,0,"A#6S_Bb6S_s.wav",29
Sample,140318,0,"D#6S_Eb6S_s.wav",25
Sample,140651,0,"A#6S_Bb6S_s.wav",29
Sample,140984,0,"D#6S_Eb6S_s.wav",25
Sample,141651,0,"G#6S_Ab6S_s.wav",26
Sample,141984,0,"A#6S_Bb6S_s.wav",29
Sample,142318,0,"D#6S_Eb6S_s.wav",26
Sample,142651,0,"A#6S_Bb6S_s.wav",29
Sample,143318,0,"A#6S_Bb6S_s.wav",29
Sample,143651,0,"D#6S_Eb6S_s.wav",25
Sample,144651,0,"A#6S_Bb6S_s.wav",29
Sample,144984,0,"D#6S_Eb6S_s.wav",26
Sample,145318,0,"A#6S_Bb6S_s.wav",29
Sample,145651,0,"D#6S_Eb6S_s.wav",25
Sample,145984,0,"A#6S_Bb6S_s.wav",29
Sample,146318,0,"D#6S_Eb6S_s.wav",25
Sample,146984,0,"G#6S_Ab6S_s.wav",26
Sample,147318,0,"G#6S_Ab6S_s.wav",29
Sample,147651,0,"F6S_s.wav",26
Sample,147984,0,"G#6S_Ab6S_s.wav",29
Sample,148318,0,"F6S_s.wav",26
Sample,148484,0,"A#6S_Bb6S_s.wav",30
Sample,148651,0,"G#6S_Ab6S_s.wav",29
Sample,148984,0,"F6S_s.wav",26
Sample,149318,0,"C#8S_Db8S.wav",26

[TimingPoints]
485,333.333333333333,4,2,1,45,1,0
85818,-100,4,2,1,45,0,1
128484,-100,4,2,1,45,0,0

[HitObjects]
36,192,485,5,0,0:0:0:50:F#3S_Gb3S.wav
256,192,485,1,0,0:0:0:49:C#4S_Db4S.wav
329,192,485,1,0,0:0:0:47:F#4S_Gb4S.wav
475,192,485,1,0,0:0:0:44:A#4S_Bb4S.wav
182,192,651,1,0,0:0:0:0:
36,192,818,1,0,0:0:0:0:
182,192,984,1,0,0:0:0:0:
109,192,1151,1,0,0:0:0:48:D#5S_Eb5S_s.wav
402,192,1151,1,0,0:0:0:0:
256,192,1318,1,0,0:0:0:0:
36,192,1484,1,0,0:0:0:42:C#3S_Db3S_s.wav
329,192,1484,1,0,0:0:0:45:C#4S_Db4S_s.wav
475,192,1484,1,0,0:0:0:46:G#4S_Ab4S_s.wav
182,192,1651,1,0,0:0:0:0:
329,192,1818,1,0,0:0:0:0:
182,192,1984,1,0,0:0:0:0:
402,192,2151,1,0,0:0:0:0:
256,192,2318,1,0,0:0:0:0:
109,192,2484,1,0,0:0:0:52:A#5S_Bb5S_s.wav
402,192,2484,1,0,0:0:0:0:
256,192,2651,1,0,0:0:0:0:
36,192,2818,1,0,0:0:0:55:G#5S_Ab5S.wav
329,192,2818,1,0,0:0:0:0:
182,192,2984,1,0,0:0:0:0:
109,192,3151,1,0,0:0:0:49:G#3S_Ab3S.wav
402,192,3151,1,0,0:0:0:52:D#4S_Eb4S.wav
475,192,3151,1,0,0:0:0:53:G#4S_Ab4S.wav
256,192,3318,1,0,0:0:0:0:
109,192,3484,1,0,0:0:0:0:
256,192,3651,1,0,0:0:0:0:
36,192,3818,1,0,0:0:0:40:A#5S_Bb5S_s.wav
402,192,3818,1,0,0:0:0:0:
182,192,3984,1,0,0:0:0:0:
109,192,4151,1,0,0:0:0:46:A#3S_Bb3S.wav
329,192,4151,1,0,0:0:0:46:F4S.wav
475,192,4151,1,0,0:0:0:50:A#4S_Bb4S.wav
256,192,4318,1,0,0:0:0:0:
329,192,4484,1,0,0:0:0:0:
256,192,4651,1,0,0:0:0:0:
475,192,4818,1,0,0:0:0:0:
329,192,4984,1,0,0:0:0:40:A#5S_Bb5S_s.wav
36,192,5040,1,0,0:0:0:0:
182,192,5096,1,0,0:0:0:0:
109,192,5151,1,0,0:0:0:56:A#5S_Bb5S_s.wav
475,192,5151,1,0,0:0:0:0:
329,192,5318,1,0,0:0:0:0:
182,192,5484,1,0,0:0:0:55:F5S.wav
402,192,5484,1,0,0:0:0:0:
256,192,5651,1,0,0:0:0:0:
36,192,5818,1,0,0:0:0:51:F#3S_Gb3S.wav
109,192,5818,1,0,0:0:0:51:C#4S_Db4S.wav
475,192,5818,1,0,0:0:0:48:F#4S_Gb4S.wav
182,192,5984,1,0,0:0:0:0:
109,192,6151,1,0,0:0:0:0:
182,192,6318,1,0,0:0:0:0:
402,192,6484,1,0,0:0:0:0:
329,192,6651,1,0,0:0:0:0:
36,192,6818,1,0,0:0:0:48:C#3S_Db3S_s.wav
109,192,6818,1,0,0:0:0:53:C#4S_Db4S_s.wav
402,192,6818,1,0,0:0:0:51:G#4S_Ab4S_s.wav
329,192,6984,1,0,0:0:0:0:
182,192,7151,1,0,0:0:0:0:
256,192,7318,1,0,0:0:0:0:
36,192,7484,1,0,0:0:0:44:G#4S_Ab4S_s.wav
182,192,7484,1,0,0:0:0:0:
256,192,7651,1,0,0:0:0:0:
109,192,7818,1,0,0:0:0:67:C#6S_Db6S_s.wav
475,192,7818,1,0,0:0:0:0:
329,192,7984,1,0,0:0:0:0:
182,192,8151,1,0,0:0:0:59:C6S.wav
402,192,8151,1,0,0:0:0:0:
256,192,8318,1,0,0:0:0:0:
36,192,8484,1,0,0:0:0:59:G#3S_Ab3S_s.wav
109,192,8484,1,0,0:0:0:63:D#4S_Eb4S_s.wav
402,192,8484,1,0,0:0:0:63:G#4S_Ab4S_s.wav
329,192,8651,1,0,0:0:0:0:
109,192,8818,1,0,0:0:0:0:
36,192,8984,1,0,0:0:0:59:G#2S_Ab2S_s.wav
329,192,8984,1,0,0:0:0:0:
182,192,9151,1,0,0:0:0:0:
256,192,9318,1,0,0:0:0:0:
182,192,9484,1,0,0:0:0:57:A#2S_Bb2S.wav
402,192,9484,1,0,0:0:0:65:F4S.wav
475,192,9484,1,0,0:0:0:66:G#4S_Ab4S.wav
256,192,9651,1,0,0:0:0:0:
329,192,9818,1,0,0:0:0:0:
36,192,9984,1,0,0:0:0:54:C#5S_Db5S_s.wav
109,192,9984,1,0,0:0:0:0:
256,192,10151,1,0,0:0:0:68:C#6S_Db6S_s.wav
402,192,10151,1,0,0:0:0:0:
109,192,10318,1,0,0:0:0:0:
329,192,10484,1,0,0:0:0:61:C6S_s.wav
475,192,10484,1,0,0:0:0:0:
182,192,10651,1,0,0:0:0:0:
256,192,10818,1,0,0:0:0:55:A#5S_Bb5S.wav
329,192,10818,1,0,0:0:0:0:
182,192,10984,1,0,0:0:0:0:
36,192,11151,1,0,0:0:0:68:F#3S_Gb3S.wav
109,192,11151,1,0,0:0:0:64:F#4S_Gb4S.wav
402,192,11151,1,0,0:0:0:61:A#4S_Bb4S.wav
329,192,11318,1,0,0:0:0:0:
402,192,11484,1,0,0:0:0:0:
329,192,11651,1,0,0:0:0:0:
36,192,11818,1,0,0:0:0:0:
256,192,11984,1,0,0:0:0:0:
36,192,12151,1,0,0:0:0:64:C#3S_Db3S_s.wav
109,192,12151,1,0,0:0:0:57:G#4S_Ab4S_s.wav
475,192,12151,1,0,0:0:0:70:C#5S_Db5S_s.wav
256,192,12318,1,0,0:0:0:0:
402,192,12484,1,0,0:0:0:0:
182,192,12651,1,0,0:0:0:0:
402,192,12790,1,0,0:0:0:0:
36,192,12818,1,0,0:0:0:29:D#5S_Eb5S.wav
329,192,12818,1,0,0:0:0:68:D#6S_Eb6S_s.wav
182,192,12984,1,0,0:0:0:0:
109,192,13151,1,0,0:0:0:68:C#6S_Db6S_s.wav
475,192,13151,1,0,0:0:0:0:
256,192,13318,1,0,0:0:0:0:
36,192,13484,1,0,0:0:0:71:C6S.wav
475,192,13484,1,0,0:0:0:0:
256,192,13651,1,0,0:0:0:0:
109,192,13818,1,0,0:0:0:65:G#3S_Ab3S.wav
182,192,13818,1,0,0:0:0:70:D#4S_Eb4S.wav
402,192,13818,1,0,0:0:0:70:G#4S_Ab4S.wav
329,192,13984,1,0,0:0:0:0:
182,192,14151,1,0,0:0:0:0:
329,192,14318,1,0,0:0:0:0:
36,192,14484,1,0,0:0:0:0:
182,192,14651,1,0,0:0:0:0:
36,192,14818,1,0,0:0:0:63:A#3S_Bb3S.wav
402,192,14818,1,0,0:0:0:70:F4S.wav
475,192,14818,1,0,0:0:0:68:A#4S_Bb4S.wav
182,192,14984,1,0,0:0:0:0:
329,192,15151,1,0,0:0:0:0:
109,192,15318,1,0,0:0:0:61:F5S_s.wav
256,192,15318,1,0,0:0:0:0:
329,192,15484,1,0,0:0:0:74:F6S_s.wav
475,192,15484,1,0,0:0:0:0:
109,192,15651,1,0,0:0:0:0:
182,192,15818,1,0,0:0:0:74:D#6S_Eb6S_s.wav
402,192,15818,1,0,0:0:0:0:
36,192,15984,1,0,0:0:0:0:
182,192,16151,1,0,0:0:0:77:C#6S_Db6S.wav
329,192,16151,1,0,0:0:0:0:
36,192,16318,1,0,0:0:0:0:
109,192,16484,1,0,0:0:0:77:F#3S_Gb3S.wav
256,192,16484,1,0,0:0:0:72:F#4S_Gb4S.wav
475,192,16484,1,0,0:0:0:69:A#4S_Bb4S.wav
402,192,16651,1,0,0:0:0:0:
256,192,16818,1,0,0:0:0:0:
402,192,16984,1,0,0:0:0:0:
182,192,17151,1,0,0:0:0:0:
329,192,17318,1,0,0:0:0:0:
36,192,17484,1,0,0:0:0:73:C#3S_Db3S_s.wav
182,192,17484,1,0,0:0:0:84:G#4S_Ab4S_s.wav
475,192,17484,1,0,0:0:0:79:C#5S_Db5S_s.wav
329,192,17651,1,0,0:0:0:0:
109,192,17818,1,0,0:0:0:0:
256,192,17984,1,0,0:0:0:0:
109,192,18151,1,0,0:0:0:0:
256,192,18318,1,0,0:0:0:0:
329,192,18484,1,0,0:0:0:0:
36,192,18651,1,0,0:0:0:0:
329,192,18818,1,0,0:0:0:75:C#3S_Db3S_s.wav
475,192,18818,1,0,0:0:0:80:C6S_s.wav
36,192,18984,1,0,0:0:0:74:F3S_s.wav
109,192,18984,1,0,0:0:0:79:C#6S_Db6S_s.wav
182,192,19151,1,0,0:0:0:74:G#3S_Ab3S_s.wav
256,192,19151,1,0,0:0:0:81:G#4S_Ab4S_s.wav
402,192,19151,1,0,0:0:0:77:C5S_s.wav
109,192,19318,1,0,0:0:0:77:C#6S_Db6S_s.wav
329,192,19318,1,0,0:0:0:0:
402,192,19484,1,0,0:0:0:0:
36,192,19651,1,0,0:0:0:69:G#2S_Ab2S_s.wav
182,192,19651,1,0,0:0:0:74:G#4S_Ab4S_s.wav
329,192,19651,1,0,0:0:0:71:C5S_s.wav
475,192,19818,1,0,0:0:0:0:
109,192,19984,1,0,0:0:0:66:G#5S_Ab5S_s.wav
182,192,19984,1,0,0:0:0:0:
256,192,20151,1,0,0:0:0:68:A#2S_Bb2S_s.wav
402,192,20151,1,0,0:0:0:74:A#4S_Bb4S_s.wav
475,192,20151,1,0,0:0:0:73:G#5S_Ab5S_s.wav
109,192,20318,1,0,0:0:0:0:
329,192,20484,1,0,0:0:0:0:
36,192,20651,1,0,0:0:0:68:A#2S_Bb2S_s.wav
182,192,20651,1,0,0:0:0:74:A#4S_Bb4S_s.wav
256,192,20651,1,0,0:0:0:78:C#5S_Db5S_s.wav
329,192,20818,1,0,0:0:0:0:
36,192,20984,1,0,0:0:0:0:
256,192,21151,1,0,0:0:0:80:A#3S_Bb3S_s.wav
402,192,21151,1,0,0:0:0:81:G#5S_Ab5S_s.wav
475,192,21151,1,0,0:0:0:0:
182,192,21318,1,0,0:0:0:0:
329,192,21373,1,0,0:0:0:77:A#5S_Bb5S_s.wav
36,192,21484,1,0,0:0:0:80:G#3S_Ab3S_s.wav
109,192,21484,1,0,0:0:0:70:G#4S_Ab4S_s.wav
402,192,21596,1,0,0:0:0:78:F5S_s.wav
256,192,21651,1,0,0:0:0:0:
109,192,21818,1,0,0:0:0:84:F#2S_Gb2S.wav
182,192,21818,1,0,0:0:0:84:F#3S_Gb3S.wav
475,192,21818,1,0,0:0:0:78:F#4S_Gb4S.wav
329,192,21984,1,0,0:0:0:0:
36,192,22151,1,0,0:0:0:32:F5S_s.wav
182,192,22151,1,0,0:0:0:100:G#5S_Ab5S_s.wav
256,192,22151,1,0,0:0:0:0:
475,192,22151,1,0,0:0:0:0:
402,192,22318,1,0,0:0:0:0:
475,192,22484,1,0,0:0:0:0:
182,192,22651,1,0,0:0:0:36:D#5S_Eb5S_s.wav
256,192,22651,1,0,0:0:0:100:G#5S_Ab5S_s.wav
329,192,22651,1,0,0:0:0:0:
36,192,22818,1,0,0:0:0:65:C#3S_Db3S_s.wav
109,192,22818,1,0,0:0:0:75:G#4S_Ab4S_s.wav
182,192,22818,1,0,0:0:0:71:C#5S_Db5S_s.wav
402,192,22818,1,0,0:0:0:0:
256,192,22984,1,0,0:0:0:0:
109,192,23151,1,0,0:0:0:69:G#4S_Ab4S_s.wav
329,192,23151,1,0,0:0:0:71:C5S_s.wav
475,192,23151,1,0,0:0:0:32:F5S_s.wav
182,192,23318,1,0,0:0:0:0:
36,192,23484,1,0,0:0:0:0:
109,192,23484,1,0,0:0:0:0:
329,192,23484,1,0,0:0:0:0:
402,192,23651,1,0,0:0:0:26:F4S.wav
475,192,23651,1,0,0:0:0:38:G#4S_Ab4S.wav
109,192,23818,1,0,0:0:0:81:C6S_s.wav
256,192,23818,1,0,0:0:0:0:
329,192,23984,1,0,0:0:0:87:C#6S_Db6S_s.wav
402,192,23984,1,0,0:0:0:0:
475,192,23984,1,0,0:0:0:0:
36,192,24151,1,0,0:0:0:67:C#3S_Db3S_s.wav
109,192,24151,1,0,0:0:0:80:C6S_s.wav
182,192,24151,1,0,0:0:0:0:
329,192,24151,1,0,0:0:0:0:
256,192,24318,1,0,0:0:0:63:F3S_s.wav
402,192,24318,1,0,0:0:0:96:A#5S_Bb5S_s.wav
36,192,24484,1,0,0:0:0:66:G#3S_Ab3S_s.wav
182,192,24484,1,0,0:0:0:68:C5S.wav
475,192,24484,1,0,0:0:0:70:D#5S_Eb5S.wav
256,192,24651,1,0,0:0:0:92:C#6S_Db6S_s.wav
329,192,24651,1,0,0:0:0:0:
36,192,24818,1,0,0:0:0:0:
109,192,24818,1,0,0:0:0:0:
475,192,24818,1,0,0:0:0:0:
182,192,24984,1,0,0:0:0:58:G#2S_Ab2S_s.wav
402,192,24984,1,0,0:0:0:100:D#6S_Eb6S_s.wav
109,192,25151,1,0,0:0:0:0:
256,192,25318,1,0,0:0:0:78:C6S_s.wav
402,192,25318,1,0,0:0:0:0:
475,192,25318,1,0,0:0:0:0:
36,192,25484,1,0,0:0:0:64:A#2S_Bb2S.wav
109,192,25484,1,0,0:0:0:64:A#3S_Bb3S.wav
182,192,25484,1,0,0:0:0:74:C#5S_Db5S.wav
256,192,25484,1,0,0:0:0:72:F5S.wav
329,192,25651,1,0,0:0:0:98:C#6S_Db6S_s.wav
402,192,25651,1,0,0:0:0:0:
36,192,25818,1,0,0:0:0:0:
182,192,25818,1,0,0:0:0:0:
256,192,25984,1,0,0:0:0:62:G#5S_Ab5S_s.wav
329,192,25984,1,0,0:0:0:88:C6S_s.wav
109,192,26151,1,0,0:0:0:0:
402,192,26151,1,0,0:0:0:0:
475,192,26151,1,0,0:0:0:0:
182,192,26318,1,0,0:0:0:0:
36,192,26484,1,0,0:0:0:67:F#5S_Gb5S_s.wav
329,192,26484,1,0,0:0:0:82:A#5S_Bb5S_s.wav
109,192,26651,1,0,0:0:0:0:
182,192,26651,1,0,0:0:0:0:
36,192,26818,1,0,0:0:0:55:F5S_s.wav
182,192,26818,1,0,0:0:0:68:G#5S_Ab5S_s.wav
402,192,26818,1,0,0:0:0:0:
475,192,26818,1,0,0:0:0:0:
256,192,26984,1,0,0:0:0:0:
402,192,26984,1,0,0:0:0:0:
36,192,27151,1,0,0:0:0:69:F#3S_Gb3S.wav
256,192,27151,1,0,0:0:0:64:F#4S_Gb4S.wav
475,192,27151,1,0,0:0:0:62:A#4S_Bb4S.wav
329,192,27318,1,0,0:0:0:0:
36,192,27484,1,0,0:0:0:60:C6S_s.wav
109,192,27484,1,0,0:0:0:59:F6S_s.wav
182,192,27484,1,0,0:0:0:92:G#6S_Ab6S_s.wav
475,192,27484,1,0,0:0:0:0:
402,192,27651,1,0,0:0:0:0:
182,192,27818,1,0,0:0:0:0:
329,192,27984,1,0,0:0:0:60:C6S_s.wav
402,192,27984,1,0,0:0:0:67:D#6S_Eb6S_s.wav
475,192,27984,1,0,0:0:0:59:F6S_s.wav
36,192,28151,1,0,0:0:0:65:C#3S_Db3S_s.wav
109,192,28151,1,0,0:0:0:75:G#4S_Ab4S_s.wav
182,192,28151,1,0,0:0:0:71:C#5S_Db5S_s.wav
329,192,28151,1,0,0:0:0:0:
475,192,28318,1,0,0:0:0:0:
109,192,28484,1,0,0:0:0:67:C#6S_Db6S_s.wav
256,192,28484,1,0,0:0:0:59:F6S_s.wav
329,192,28484,1,0,0:0:0:94:G#6S_Ab6S_s.wav
402,192,28651,1,0,0:0:0:0:
36,192,28818,1,0,0:0:0:47:G#4S_Ab4S_s.wav
109,192,28818,1,0,0:0:0:47:C#5S_Db5S.wav
182,192,28818,1,0,0:0:0:47:F5S_s.wav
475,192,28818,1,0,0:0:0:50:A#5S_Bb5S.wav
256,192,28984,1,0,0:0:0:0:
402,192,29151,1,0,0:0:0:54:G#5S_Ab5S_s.wav
475,192,29151,1,0,0:0:0:54:C#6S_Db6S_s.wav
109,192,29318,1,0,0:0:0:56:F5S_s.wav
182,192,29318,1,0,0:0:0:88:F6S_s.wav
329,192,29318,1,0,0:0:0:0:
36,192,29484,1,0,0:0:0:63:C#3S_Db3S_s.wav
109,192,29484,1,0,0:0:0:50:D#5S_Eb5S_s.wav
402,192,29484,1,0,0:0:0:79:D#6S_Eb6S_s.wav
475,192,29484,1,0,0:0:0:0:
182,192,29651,1,0,0:0:0:60:F3S_s.wav
256,192,29651,1,0,0:0:0:55:C#5S_Db5S_s.wav
36,192,29818,1,0,0:0:0:66:G#3S_Ab3S_s.wav
109,192,29818,1,0,0:0:0:71:G#4S_Ab4S_s.wav
329,192,29818,1,0,0:0:0:68:C5S.wav
182,192,29984,1,0,0:0:0:88:F6S_s.wav
402,192,29984,1,0,0:0:0:0:
36,192,30151,1,0,0:0:0:77:D#6S_Eb6S_s.wav
109,192,30151,1,0,0:0:0:0:
256,192,30151,1,0,0:0:0:0:
475,192,30151,1,0,0:0:0:0:
182,192,30318,1,0,0:0:0:66:G#2S_Ab2S_s.wav
329,192,30318,1,0,0:0:0:92:C#6S_Db6S_s.wav
475,192,30484,1,0,0:0:0:0:
256,192,30651,1,0,0:0:0:88:F6S_s.wav
329,192,30651,1,0,0:0:0:0:
402,192,30651,1,0,0:0:0:0:
36,192,30818,1,0,0:0:0:98:D#6S_Eb6S_s.wav
109,192,30818,1,0,0:0:0:62:G#5S_Ab5S.wav
182,192,30818,1,0,0:0:0:64:A#2S_Bb2S.wav
329,192,30818,1,0,0:0:0:69:A#4S_Bb4S.wav
475,192,30984,1,0,0:0:0:0:
109,192,31151,1,0,0:0:0:0:
256,192,31151,1,0,0:0:0:0:
329,192,31318,1,0,0:0:0:96:C#6S_Db6S_s.wav
402,192,31318,1,0,0:0:0:0:
36,192,31484,1,0,0:0:0:0:
182,192,31484,1,0,0:0:0:0:
475,192,31484,1,0,0:0:0:0:
256,192,31651,1,0,0:0:0:0:
109,192,31818,1,0,0:0:0:75:A#3S_Bb3S_s.wav
475,192,31818,1,0,0:0:0:66:A#4S_Bb4S_s.wav
256,192,31984,1,0,0:0:0:0:
329,192,31984,1,0,0:0:0:0:
36,192,32151,1,0,0:0:0:75:G#3S_Ab3S_s.wav
109,192,32151,1,0,0:0:0:66:G#4S_Ab4S_s.wav
329,192,32151,1,0,0:0:0:55:A#5S_Bb5S_s.wav
475,192,32151,1,0,0:0:0:96:C#6S_Db6S_s.wav
182,192,32318,1,0,0:0:0:55:F5S_s.wav
256,192,32318,1,0,0:0:0:0:
36,192,32484,1,0,0:0:0:69:F#3S_Gb3S.wav
329,192,32484,1,0,0:0:0:64:F#4S_Gb4S.wav
402,192,32484,1,0,0:0:0:62:A#4S_Bb4S.wav
109,192,32651,1,0,0:0:0:75:C6S_s.wav
182,192,32651,1,0,0:0:0:0:
256,192,32818,1,0,0:0:0:81:C#6S_Db6S_s.wav
329,192,32818,1,0,0:0:0:0:
402,192,32818,1,0,0:0:0:0:
475,192,32818,1,0,0:0:0:0:
36,192,32984,1,0,0:0:0:81:F6S_s.wav
109,192,32984,1,0,0:0:0:0:
182,192,33151,1,0,0:0:0:62:F5S_s.wav
329,192,33151,1,0,0:0:0:0:
475,192,33151,1,0,0:0:0:0:
36,192,33318,1,0,0:0:0:78:A#5S_Bb5S_s.wav
109,192,33318,1,0,0:0:0:0:
256,192,33318,1,0,0:0:0:0:
256,192,33484,1,0,0:0:0:65:C#3S_Db3S_s.wav
329,192,33484,1,0,0:0:0:75:G#4S_Ab4S_s.wav
402,192,33484,1,0,0:0:0:71:C#5S_Db5S_s.wav
475,192,33484,1,0,0:0:0:74:C6S_s.wav
109,192,33651,1,0,0:0:0:80:C#6S_Db6S_s.wav
182,192,33651,1,0,0:0:0:0:
36,192,33818,1,0,0:0:0:49:F5S.wav
329,192,33818,1,0,0:0:0:57:C6S.wav
475,192,33818,1,0,0:0:0:57:C#6S_Db6S.wav
182,192,33984,1,0,0:0:0:0:
36,192,34151,1,0,0:0:0:0:
109,192,34151,1,0,0:0:0:0:
256,192,34151,1,0,0:0:0:0:
402,192,34151,1,0,0:0:0:0:
329,192,34318,1,0,0:0:0:66:A#6S_Bb6S_s.wav
475,192,34318,1,0,0:0:0:0:
109,192,34484,1,0,0:0:0:96:G#6S_Ab6S_s.wav
182,192,34484,1,0,0:0:0:0:
256,192,34651,1,0,0:0:0:76:F6S_s.wav
402,192,34651,1,0,0:0:0:0:
475,192,34651,1,0,0:0:0:0:
36,192,34818,1,0,0:0:0:67:C#3S_Db3S_s.wav
109,192,34818,1,0,0:0:0:77:D#6S_Eb6S_s.wav
182,192,34818,1,0,0:0:0:0:
256,192,34818,1,0,0:0:0:0:
329,192,34984,1,0,0:0:0:63:F3S_s.wav
402,192,34984,1,0,0:0:0:69:C#6S_Db6S_s.wav
36,192,35151,1,0,0:0:0:66:G#3S_Ab3S.wav
182,192,35151,1,0,0:0:0:75:D#5S_Eb5S_s.wav
475,192,35151,1,0,0:0:0:75:G#5S_Ab5S_s.wav
256,192,35318,1,0,0:0:0:76:F6S_s.wav
329,192,35318,1,0,0:0:0:0:
36,192,35484,1,0,0:0:0:0:
109,192,35484,1,0,0:0:0:0:
402,192,35484,1,0,0:0:0:0:
182,192,35651,1,0,0:0:0:50:F5S_s.wav
475,192,35651,1,0,0:0:0:58:C6S_s.wav
329,192,35818,1,0,0:0:0:0:
109,192,35984,1,0,0:0:0:0:
256,192,35984,1,0,0:0:0:0:
256,192,36151,1,0,0:0:0:64:A#3S_Bb3S.wav
329,192,36151,1,0,0:0:0:69:A#4S_Bb4S.wav
402,192,36151,1,0,0:0:0:74:C#5S_Db5S_s.wav
475,192,36151,1,0,0:0:0:72:F5S_s.wav
36,192,36318,1,0,0:0:0:77:F6S_s.wav
109,192,36318,1,0,0:0:0:0:
256,192,36484,1,0,0:0:0:0:
329,192,36484,1,0,0:0:0:0:
36,192,36651,1,0,0:0:0:50:A#5S_Bb5S_s.wav
182,192,36651,1,0,0:0:0:58:C#6S_Db6S_s.wav
256,192,36818,1,0,0:0:0:92:G#6S_Ab6S_s.wav
329,192,36818,1,0,0:0:0:0:
402,192,36818,1,0,0:0:0:0:
475,192,36818,1,0,0:0:0:0:
182,192,36984,1,0,0:0:0:0:
36,192,37151,1,0,0:0:0:62:C#6S_Db6S_s.wav
109,192,37151,1,0,0:0:0:70:G#6S_Ab6S_s.wav
256,192,37318,1,0,0:0:0:99:C#7S_Db7S_s.wav
329,192,37318,1,0,0:0:0:0:
402,192,37318,1,0,0:0:0:0:
36,192,37484,1,0,0:0:0:100:G#6S_Ab6S_s.wav
182,192,37484,1,0,0:0:0:0:
402,192,37484,1,0,0:0:0:0:
475,192,37484,1,0,0:0:0:0:
182,192,37651,1,0,0:0:0:84:F6S_s.wav
256,192,37651,1,0,0:0:0:0:
329,192,37651,1,0,0:0:0:0:
36,192,37818,1,0,0:0:0:69:F#3S_Gb3S.wav
256,192,37818,1,0,0:0:0:64:F#4S_Gb4S.wav
475,192,37818,1,0,0:0:0:62:A#4S_Bb4S.wav
109,192,37984,1,0,0:0:0:0:
182,192,38151,1,0,0:0:0:60:F6S_s.wav
329,192,38151,1,0,0:0:0:96:A#6S_Bb6S_s.wav
402,192,38151,1,0,0:0:0:0:
475,192,38151,1,0,0:0:0:0:
36,192,38318,1,0,0:0:0:60:C#6S_Db6S_s.wav
109,192,38318,1,0,0:0:0:90:G#6S_Ab6S_s.wav
256,192,38484,1,0,0:0:0:58:C6S_s.wav
402,192,38484,1,0,0:0:0:77:D#6S_Eb6S_s.wav
36,192,38651,1,0,0:0:0:58:C#6S_Db6S_s.wav
109,192,38651,1,0,0:0:0:85:F6S_s.wav
329,192,38651,1,0,0:0:0:0:
182,192,38818,1,0,0:0:0:65:C#3S_Db3S_s.wav
329,192,38818,1,0,0:0:0:75:G#4S_Ab4S_s.wav
402,192,38818,1,0,0:0:0:71:C#5S_Db5S_s.wav
475,192,38818,1,0,0:0:0:0:
36,192,38984,1,0,0:0:0:0:
182,192,39151,1,0,0:0:0:60:F#6S_Gb6S_s.wav
329,192,39151,1,0,0:0:0:100:A#6S_Bb6S_s.wav
475,192,39151,1,0,0:0:0:0:
109,192,39318,1,0,0:0:0:60:D#6S_Eb6S_s.wav
256,192,39318,1,0,0:0:0:81:G#6S_Ab6S_s.wav
36,192,39484,1,0,0:0:0:58:C6S_s.wav
182,192,39484,1,0,0:0:0:78:D#6S_Eb6S_s.wav
402,192,39484,1,0,0:0:0:0:
475,192,39484,1,0,0:0:0:0:
256,192,39651,1,0,0:0:0:58:C#6S_Db6S_s.wav
329,192,39651,1,0,0:0:0:80:F6S_s.wav
109,192,39818,1,0,0:0:0:0:
182,192,39984,1,0,0:0:0:69:G#5S_Ab5S_s.wav
329,192,39984,1,0,0:0:0:0:
475,192,39984,1,0,0:0:0:0:
36,192,40151,1,0,0:0:0:63:C#3S_Db3S_s.wav
109,192,40151,1,0,0:0:0:72:C6S_s.wav
256,192,40151,1,0,0:0:0:0:
475,192,40151,1,0,0:0:0:0:
329,192,40318,1,0,0:0:0:60:F3S_s.wav
36,192,40484,1,0,0:0:0:66:G#3S_Ab3S_s.wav
182,192,40484,1,0,0:0:0:71:G#4S_Ab4S_s.wav
402,192,40484,1,0,0:0:0:68:C5S_s.wav
256,192,40651,1,0,0:0:0:0:
109,192,40818,1,0,0:0:0:0:
182,192,40818,1,0,0:0:0:0:
475,192,40818,1,0,0:0:0:0:
329,192,40984,1,0,0:0:0:66:G#2S_Ab2S_s.wav
402,192,40984,1,0,0:0:0:71:G#4S_Ab4S_s.wav
475,192,41151,1,0,0:0:0:0:
36,192,41318,1,0,0:0:0:0:
182,192,41318,1,0,0:0:0:0:
182,192,41484,1,0,0:0:0:64:A#2S_Bb2S.wav
256,192,41484,1,0,0:0:0:69:A#4S_Bb4S.wav
329,192,41484,1,0,0:0:0:74:C#5S_Db5S.wav
402,192,41484,1,0,0:0:0:72:F5S.wav
36,192,41651,1,0,0:0:0:0:
182,192,41818,1,0,0:0:0:0:
402,192,41818,1,0,0:0:0:0:
256,192,41984,1,0,0:0:0:0:
109,192,42151,1,0,0:0:0:0:
182,192,42151,1,0,0:0:0:0:
475,192,42151,1,0,0:0:0:0:
329,192,42318,1,0,0:0:0:64:G#5S_Ab5S_s.wav
256,192,42401,1,0,0:0:0:63:A#5S_Bb5S_s.wav
36,192,42484,1,0,0:0:0:75:A#3S_Bb3S_s.wav
402,192,42484,1,0,0:0:0:67:D#5S_Eb5S_s.wav
109,192,42568,1,0,0:0:0:67:F5S_s.wav
182,192,42651,1,0,0:0:0:77:F#5S_Gb5S_s.wav
329,192,42651,1,0,0:0:0:59:F#6S_Gb6S_s.wav
475,192,42651,1,0,0:0:0:0:
109,192,42734,1,0,0:0:0:80:G#5S_Ab5S_s.wav
36,192,42818,1,0,0:0:0:75:G#3S_Ab3S_s.wav
256,192,42818,1,0,0:0:0:66:G#4S_Ab4S_s.wav
402,192,42818,1,0,0:0:0:80:A#5S_Bb5S_s.wav
475,192,42818,1,0,0:0:0:62:A#6S_Bb6S_s.wav
182,192,42901,1,0,0:0:0:80:C6S_s.wav
109,192,42984,1,0,0:0:0:80:C#6S_Db6S_s.wav
329,192,42984,1,0,0:0:0:62:C#7S_Db7S_s.wav
402,192,42984,1,0,0:0:0:0:
256,192,43068,1,0,0:0:0:82:D#6S_Eb6S_s.wav
36,192,43151,1,0,0:0:0:87:F#4S_Gb4S.wav
109,192,43151,1,0,0:0:0:84:A#4S_Bb4S.wav
182,192,43151,1,0,0:0:0:92:C#5S_Db5S.wav
475,192,43151,128,0,44151:0:0:0:100:F5S_s.wav
329,192,43318,1,0,0:0:0:85:A#5S_Bb5S_s.wav
402,192,43318,1,0,0:0:0:70:A#6S_Bb6S_s.wav
36,192,43484,1,0,0:0:0:81:C#6S_Db6S_s.wav
109,192,43484,1,0,0:0:0:68:C#7S_Db7S_s.wav
256,192,43484,1,0,0:0:0:0:
182,192,43651,1,0,0:0:0:92:F6S_s.wav
329,192,43651,1,0,0:0:0:77:F7S_s.wav
109,192,43818,1,0,0:0:0:0:
256,192,43984,1,0,0:0:0:0:
402,192,43984,1,0,0:0:0:0:
36,192,44151,128,0,45818:0:0:0:83:C#3S_Db3S.wav
109,192,44151,1,0,0:0:0:95:G#4S_Ab4S.wav
182,192,44151,1,0,0:0:0:90:C#5S_Db5S.wav
256,192,44151,1,0,0:0:0:81:F5S_s.wav
402,192,44318,1,0,0:0:0:84:A#5S_Bb5S_s.wav
475,192,44318,1,0,0:0:0:70:A#6S_Bb6S_s.wav
109,192,44484,1,0,0:0:0:90:C#6S_Db6S_s.wav
182,192,44484,1,0,0:0:0:75:C#7S_Db7S_s.wav
329,192,44484,1,0,0:0:0:0:
256,192,44651,1,0,0:0:0:93:F6S_s.wav
402,192,44651,1,0,0:0:0:78:F7S_s.wav
109,192,44818,1,0,0:0:0:0:
475,192,44818,1,0,0:0:0:0:
182,192,44984,1,0,0:0:0:0:
109,192,45151,1,0,0:0:0:83:D#6S_Eb6S_s.wav
475,192,45151,1,0,0:0:0:70:D#7S_Eb7S_s.wav
256,192,45318,1,0,0:0:0:89:C#6S_Db6S_s.wav
329,192,45318,1,0,0:0:0:75:C#7S_Db7S_s.wav
402,192,45318,1,0,0:0:0:0:
109,192,45484,1,0,0:0:0:85:C#3S_Db3S_s.wav
182,192,45484,1,0,0:0:0:87:C6S_s.wav
329,192,45484,1,0,0:0:0:73:C7S_s.wav
402,192,45651,1,0,0:0:0:81:F3S_s.wav
475,192,45651,1,0,0:0:0:86:C#6S_Db6S_s.wav
109,192,45818,1,0,0:0:0:84:G#3S_Ab3S.wav
182,192,45818,1,0,0:0:0:87:C5S.wav
256,192,45818,128,0,46818:0:0:0:89:D#5S_Eb5S.wav
329,192,45984,1,0,0:0:0:85:C#6S_Db6S_s.wav
402,192,45984,1,0,0:0:0:70:C#7S_Db7S_s.wav
36,192,46151,1,0,0:0:0:92:D#6S_Eb6S_s.wav
109,192,46151,1,0,0:0:0:77:D#7S_Eb7S_s.wav
475,192,46151,1,0,0:0:0:0:
182,192,46318,1,0,0:0:0:95:G#6S_Ab6S_s.wav
329,192,46318,1,0,0:0:0:80:G#7S_Ab7S_s.wav
36,192,46484,1,0,0:0:0:0:
109,192,46651,1,0,0:0:0:80:C6S_s.wav
182,192,46651,1,0,0:0:0:66:C7S_s.wav
329,192,46651,1,0,0:0:0:0:
36,192,46818,1,0,0:0:0:81:A#3S_Bb3S.wav
329,192,46818,1,0,0:0:0:88:A#4S_Bb4S.wav
402,192,46818,128,0,48484:0:0:0:93:C#5S_Db5S.wav
475,192,46818,1,0,0:0:0:92:F5S.wav
256,192,46984,1,0,0:0:0:0:
109,192,47151,1,0,0:0:0:0:
475,192,47151,1,0,0:0:0:0:
182,192,47318,1,0,0:0:0:0:
329,192,47318,1,0,0:0:0:0:
36,192,47484,1,0,0:0:0:0:
109,192,47484,1,0,0:0:0:0:
329,192,47651,1,0,0:0:0:0:
182,192,47818,1,0,0:0:0:85:G#5S_Ab5S_s.wav
475,192,47818,1,0,0:0:0:85:F6S_s.wav
36,192,47984,1,0,0:0:0:0:
109,192,47984,1,0,0:0:0:0:
256,192,48040,1,0,0:0:0:81:F#5S_Gb5S_s.wav
329,192,48040,1,0,0:0:0:81:D#6S_Eb6S_s.wav
109,192,48151,1,0,0:0:0:0:
182,192,48151,1,0,0:0:0:0:
329,192,48262,1,0,0:0:0:82:F5S_s.wav
475,192,48262,1,0,0:0:0:75:C#6S_Db6S_s.wav
256,192,48318,1,0,0:0:0:0:
36,192,48484,1,0,0:0:0:88:F#3S_Gb3S.wav
109,192,48484,1,0,0:0:0:82:F#4S_Gb4S.wav
182,192,48484,128,0,49484:0:0:0:79:A#4S_Bb4S.wav
329,192,48651,1,0,0:0:0:85:A#5S_Bb5S_s.wav
475,192,48651,1,0,0:0:0:70:A#6S_Bb6S_s.wav
36,192,48818,1,0,0:0:0:81:C#6S_Db6S_s.wav
109,192,48818,1,0,0:0:0:68:C#7S_Db7S_s.wav
256,192,48818,1,0,0:0:0:0:
402,192,48984,1,0,0:0:0:88:F6S_s.wav
475,192,48984,1,0,0:0:0:74:F7S_s.wav
329,192,49151,1,0,0:0:0:0:
256,192,49318,1,0,0:0:0:0:
402,192,49318,1,0,0:0:0:0:
36,192,49484,128,0,51151:0:0:0:83:C#3S_Db3S.wav
109,192,49484,1,0,0:0:0:95:G#4S_Ab4S.wav
256,192,49484,1,0,0:0:0:90:C#5S_Db5S.wav
475,192,49484,1,0,0:0:0:81:F5S_s.wav
182,192,49651,1,0,0:0:0:84:A#5S_Bb5S_s.wav
329,192,49651,1,0,0:0:0:70:A#6S_Bb6S_s.wav
109,192,49818,1,0,0:0:0:90:C#6S_Db6S_s.wav
402,192,49818,1,0,0:0:0:75:C#7S_Db7S_s.wav
475,192,49818,1,0,0:0:0:0:
256,192,49984,1,0,0:0:0:86:F6S_s.wav
329,192,49984,1,0,0:0:0:72:F7S_s.wav
182,192,50151,1,0,0:0:0:0:
475,192,50151,1,0,0:0:0:0:
402,192,50318,1,0,0:0:0:0:
109,192,50484,1,0,0:0:0:83:D#6S_Eb6S_s.wav
182,192,50484,1,0,0:0:0:70:D#7S_Eb7S_s.wav
256,192,50651,1,0,0:0:0:89:C#6S_Db6S_s.wav
402,192,50651,1,0,0:0:0:75:C#7S_Db7S_s.wav
475,192,50651,1,0,0:0:0:0:
109,192,50818,1,0,0:0:0:81:C#3S_Db3S_s.wav
182,192,50818,1,0,0:0:0:87:C6S_s.wav
402,192,50818,1,0,0:0:0:73:C7S_s.wav
256,192,50984,1,0,0:0:0:76:F3S_s.wav
329,192,50984,1,0,0:0:0:86:C#6S_Db6S_s.wav
109,192,51151,1,0,0:0:0:84:G#3S_Ab3S_s.wav
402,192,51151,128,0,52151:0:0:0:90:G#4S_Ab4S_s.wav
475,192,51151,1,0,0:0:0:87:C5S_s.wav
182,192,51318,1,0,0:0:0:85:C#6S_Db6S_s.wav
256,192,51318,1,0,0:0:0:70:C#7S_Db7S_s.wav
36,192,51484,1,0,0:0:0:92:D#6S_Eb6S_s.wav
329,192,51484,1,0,0:0:0:77:D#7S_Eb7S_s.wav
475,192,51484,1,0,0:0:0:0:
109,192,51651,1,0,0:0:0:84:G#2S_Ab2S_s.wav
182,192,51651,1,0,0:0:0:95:C6S_s.wav
256,192,51818,1,0,0:0:0:0:
36,192,51984,1,0,0:0:0:80:G#5S_Ab5S_s.wav
109,192,51984,1,0,0:0:0:66:G#6S_Ab6S_s.wav
329,192,51984,1,0,0:0:0:0:
109,192,52151,1,0,0:0:0:81:A#2S_Bb2S.wav
182,192,52151,128,0,53818:0:0:0:88:A#4S_Bb4S.wav
256,192,52151,1,0,0:0:0:93:C#5S_Db5S.wav
475,192,52151,1,0,0:0:0:92:F5S.wav
402,192,52318,1,0,0:0:0:0:
36,192,52484,1,0,0:0:0:0:
475,192,52484,1,0,0:0:0:0:
256,192,52651,1,0,0:0:0:0:
329,192,52651,1,0,0:0:0:0:
36,192,52818,1,0,0:0:0:0:
109,192,52818,1,0,0:0:0:0:
329,192,52984,1,0,0:0:0:0:
109,192,53151,1,0,0:0:0:96:A#3S_Bb3S_s.wav
475,192,53151,1,0,0:0:0:84:A#4S_Bb4S_s.wav
256,192,53318,1,0,0:0:0:0:
329,192,53318,1,0,0:0:0:0:
402,192,53373,1,0,0:0:0:81:A#5S_Bb5S_s.wav
36,192,53484,1,0,0:0:0:96:G#3S_Ab3S_s.wav
256,192,53484,1,0,0:0:0:84:G#4S_Ab4S_s.wav
475,192,53596,1,0,0:0:0:82:F5S_s.wav
329,192,53651,1,0,0:0:0:0:
402,192,53651,1,0,0:0:0:0:
36,192,53818,128,0,54818:0:0:0:93:F#3S_Gb3S.wav
109,192,53818,1,0,0:0:0:87:F#4S_Gb4S.wav
329,192,53818,1,0,0:0:0:84:A#4S_Bb4S.wav
182,192,53984,1,0,0:0:0:85:A#5S_Bb5S_s.wav
402,192,53984,1,0,0:0:0:70:A#6S_Bb6S_s.wav
109,192,54151,1,0,0:0:0:81:C#6S_Db6S_s.wav
256,192,54151,1,0,0:0:0:68:C#7S_Db7S_s.wav
475,192,54151,1,0,0:0:0:0:
182,192,54318,1,0,0:0:0:92:F6S_s.wav
329,192,54318,1,0,0:0:0:77:F7S_s.wav
402,192,54484,1,0,0:0:0:0:
182,192,54651,1,0,0:0:0:0:
256,192,54651,1,0,0:0:0:0:
109,192,54818,1,0,0:0:0:83:C#3S_Db3S.wav
182,192,54818,1,0,0:0:0:95:G#4S_Ab4S.wav
402,192,54818,1,0,0:0:0:90:C#5S_Db5S.wav
475,192,54818,128,0,56484:0:0:0:81:F5S_s.wav
256,192,54984,1,0,0:0:0:84:A#5S_Bb5S_s.wav
329,192,54984,1,0,0:0:0:70:A#6S_Bb6S_s.wav
36,192,55151,1,0,0:0:0:90:C#6S_Db6S_s.wav
109,192,55151,1,0,0:0:0:75:C#7S_Db7S_s.wav
402,192,55151,1,0,0:0:0:0:
182,192,55318,1,0,0:0:0:93:F6S_s.wav
256,192,55318,1,0,0:0:0:78:F7S_s.wav
36,192,55484,1,0,0:0:0:0:
329,192,55484,1,0,0:0:0:0:
109,192,55651,1,0,0:0:0:0:
256,192,55818,1,0,0:0:0:83:D#6S_Eb6S_s.wav
402,192,55818,1,0,0:0:0:70:D#7S_Eb7S_s.wav
36,192,55984,1,0,0:0:0:89:C#6S_Db6S_s.wav
109,192,55984,1,0,0:0:0:75:C#7S_Db7S_s.wav
329,192,55984,1,0,0:0:0:0:
182,192,56151,1,0,0:0:0:85:C#3S_Db3S_s.wav
329,192,56151,1,0,0:0:0:87:C6S_s.wav
402,192,56151,1,0,0:0:0:73:C7S_s.wav
36,192,56318,1,0,0:0:0:81:F3S_s.wav
109,192,56318,1,0,0:0:0:86:C#6S_Db6S_s.wav
256,192,56484,128,0,57484:0:0:0:84:G#3S_Ab3S.wav
329,192,56484,1,0,0:0:0:87:C5S.wav
402,192,56484,1,0,0:0:0:89:D#5S_Eb5S.wav
109,192,56651,1,0,0:0:0:85:C#6S_Db6S_s.wav
182,192,56651,1,0,0:0:0:70:C#7S_Db7S_s.wav
36,192,56818,1,0,0:0:0:92:D#6S_Eb6S_s.wav
402,192,56818,1,0,0:0:0:77:D#7S_Eb7S_s.wav
475,192,56818,1,0,0:0:0:0:
182,192,56984,1,0,0:0:0:95:G#6S_Ab6S_s.wav
329,192,56984,1,0,0:0:0:80:G#7S_Ab7S_s.wav
475,192,57151,1,0,0:0:0:0:
36,192,57318,1,0,0:0:0:80:C6S_s.wav
109,192,57318,1,0,0:0:0:66:C7S_s.wav
182,192,57318,1,0,0:0:0:0:
182,192,57484,1,0,0:0:0:81:A#3S_Bb3S.wav
329,192,57484,1,0,0:0:0:88:A#4S_Bb4S.wav
402,192,57484,128,0,59151:0:0:0:93:C#5S_Db5S.wav
475,192,57484,1,0,0:0:0:92:F5S.wav
36,192,57651,1,0,0:0:0:0:
109,192,57818,1,0,0:0:0:0:
256,192,57818,1,0,0:0:0:0:
36,192,57984,1,0,0:0:0:0:
182,192,58151,1,0,0:0:0:0:
475,192,58151,1,0,0:0:0:0:
256,192,58318,1,0,0:0:0:0:
36,192,58484,1,0,0:0:0:85:G#5S_Ab5S_s.wav
109,192,58484,1,0,0:0:0:85:F6S_s.wav
475,192,58484,1,0,0:0:0:70:G#6S_Ab6S_s.wav
182,192,58651,1,0,0:0:0:0:
329,192,58651,1,0,0:0:0:0:
36,192,58707,1,0,0:0:0:81:F#5S_Gb5S_s.wav
109,192,58707,1,0,0:0:0:81:D#6S_Eb6S_s.wav
329,192,58818,1,0,0:0:0:0:
475,192,58818,1,0,0:0:0:0:
182,192,58929,1,0,0:0:0:82:F5S_s.wav
256,192,58929,1,0,0:0:0:75:C#6S_Db6S_s.wav
36,192,58984,1,0,0:0:0:0:
109,192,59151,128,0,60151:0:0:0:88:F#3S_Gb3S.wav
329,192,59151,1,0,0:0:0:82:F#4S_Gb4S.wav
475,192,59151,1,0,0:0:0:79:A#4S_Bb4S.wav
256,192,59318,1,0,0:0:0:85:A#5S_Bb5S_s.wav
402,192,59318,1,0,0:0:0:70:A#6S_Bb6S_s.wav
36,192,59484,1,0,0:0:0:81:C#6S_Db6S_s.wav
182,192,59484,1,0,0:0:0:68:C#7S_Db7S_s.wav
329,192,59484,1,0,0:0:0:0:
402,192,59651,1,0,0:0:0:88:F6S_s.wav
475,192,59651,1,0,0:0:0:74:F7S_s.wav
256,192,59818,1,0,0:0:0:0:
402,192,59984,1,0,0:0:0:0:
475,192,59984,1,0,0:0:0:0:
36,192,60151,1,0,0:0:0:83:C#3S_Db3S.wav
182,192,60151,1,0,0:0:0:95:G#4S_Ab4S.wav
329,192,60151,128,0,61818:0:0:0:90:C#5S_Db5S.wav
402,192,60151,1,0,0:0:0:81:F5S_s.wav
109,192,60318,1,0,0:0:0:84:A#5S_Bb5S_s.wav
256,192,60318,1,0,0:0:0:70:A#6S_Bb6S_s.wav
182,192,60484,1,0,0:0:0:90:C#6S_Db6S_s.wav
402,192,60484,1,0,0:0:0:75:C#7S_Db7S_s.wav
475,192,60484,1,0,0:0:0:0:
36,192,60651,1,0,0:0:0:86:F6S_s.wav
109,192,60651,1,0,0:0:0:72:F7S_s.wav
256,192,60818,1,0,0:0:0:0:
475,192,60818,1,0,0:0:0:0:
182,192,60984,1,0,0:0:0:0:
36,192,61151,1,0,0:0:0:83:D#6S_Eb6S_s.wav
402,192,61151,1,0,0:0:0:70:D#7S_Eb7S_s.wav
109,192,61318,1,0,0:0:0:89:C#6S_Db6S_s.wav
182,192,61318,1,0,0:0:0:75:C#7S_Db7S_s.wav
256,192,61318,1,0,0:0:0:0:
36,192,61484,1,0,0:0:0:81:C#3S_Db3S_s.wav
109,192,61484,1,0,0:0:0:87:C6S_s.wav
475,192,61484,1,0,0:0:0:73:C7S_s.wav
256,192,61651,1,0,0:0:0:76:F3S_s.wav
402,192,61651,1,0,0:0:0:86:C#6S_Db6S_s.wav
36,192,61818,1,0,0:0:0:88:G#3S_Ab3S_s.wav
182,192,61818,128,0,62818:0:0:0:95:G#4S_Ab4S_s.wav
475,192,61818,1,0,0:0:0:91:C5S_s.wav
256,192,61984,1,0,0:0:0:88:C#6S_Db6S_s.wav
329,192,61984,1,0,0:0:0:75:C#7S_Db7S_s.wav
36,192,62151,1,0,0:0:0:0:
402,192,62151,1,0,0:0:0:0:
109,192,62318,1,0,0:0:0:88:G#2S_Ab2S_s.wav
256,192,62318,1,0,0:0:0:95:G#4S_Ab4S_s.wav
475,192,62484,1,0,0:0:0:0:
36,192,62651,1,0,0:0:0:84:G#5S_Ab5S_s.wav
329,192,62651,1,0,0:0:0:71:G#6S_Ab6S_s.wav
402,192,62651,1,0,0:0:0:0:
109,192,62818,1,0,0:0:0:85:A#2S_Bb2S_s.wav
256,192,62818,128,0,64484:0:0:0:92:A#4S_Bb4S_s.wav
402,192,62818,1,0,0:0:0:98:C#5S_Db5S_s.wav
475,192,62818,1,0,0:0:0:96:F5S_s.wav
36,192,62984,1,0,0:0:0:0:
182,192,63151,1,0,0:0:0:0:
402,192,63151,1,0,0:0:0:0:
109,192,63318,1,0,0:0:0:85:A#2S_Bb2S_s.wav
329,192,63318,1,0,0:0:0:92:A#4S_Bb4S_s.wav
36,192,63484,1,0,0:0:0:0:
475,192,63484,1,0,0:0:0:0:
402,192,63651,1,0,0:0:0:0:
36,192,63818,1,0,0:0:0:100:A#3S_Bb3S_s.wav
182,192,63818,1,0,0:0:0:85:G#5S_Ab5S_s.wav
329,192,63984,1,0,0:0:0:0:
402,192,63984,1,0,0:0:0:0:
109,192,64040,1,0,0:0:0:81:A#5S_Bb5S_s.wav
329,192,64151,1,0,0:0:0:100:G#3S_Ab3S_s.wav
475,192,64151,1,0,0:0:0:88:G#4S_Ab4S_s.wav
182,192,64262,1,0,0:0:0:82:F5S_s.wav
402,192,64318,1,0,0:0:0:0:
36,192,64484,1,0,0:0:0:62:F#3S_Gb3S.wav
109,192,64484,1,0,0:0:0:62:C#4S_Db4S.wav
256,192,64651,1,0,0:0:0:0:
475,192,64707,1,0,0:0:0:94:A#6S_Bb6S_s.wav
109,192,64818,1,0,0:0:0:0:
402,192,64929,1,0,0:0:0:83:F6S_s.wav
256,192,64984,1,0,0:0:0:0:
36,192,65151,1,0,0:0:0:62:D#6S_Eb6S_s.wav
329,192,65151,1,0,0:0:0:0:
182,192,65318,1,0,0:0:0:0:
36,192,65484,1,0,0:0:0:0:
475,192,65596,1,0,0:0:0:62:G#3S_Ab3S.wav
182,192,65651,1,0,0:0:0:0:
109,192,65818,1,0,0:0:0:71:F6S_s.wav
402,192,65818,1,0,0:0:0:0:
256,192,65984,1,0,0:0:0:0:
36,192,66040,1,0,0:0:0:86:G#6S_Ab6S_s.wav
402,192,66151,1,0,0:0:0:0:
182,192,66262,1,0,0:0:0:80:D#6S_Eb6S_s.wav
256,192,66318,1,0,0:0:0:0:
109,192,66484,1,0,0:0:0:86:C#6S_Db6S_s.wav
329,192,66484,1,0,0:0:0:0:
475,192,66651,1,0,0:0:0:0:
182,192,66818,1,0,0:0:0:80:D#6S_Eb6S_s.wav
329,192,66818,1,0,0:0:0:0:
402,192,66984,1,0,0:0:0:80:F6S_s.wav
475,192,66984,1,0,0:0:0:0:
109,192,67151,1,0,0:0:0:62:G#3S_Ab3S.wav
256,192,67151,1,0,0:0:0:62:D#4S_Eb4S.wav
329,192,67318,1,0,0:0:0:0:
109,192,67484,1,0,0:0:0:0:
329,192,67651,1,0,0:0:0:83:G#6S_Ab6S_s.wav
475,192,67651,1,0,0:0:0:0:
182,192,67818,1,0,0:0:0:0:
402,192,67984,1,0,0:0:0:0:
36,192,68151,1,0,0:0:0:62:A#3S_Bb3S.wav
182,192,68151,1,0,0:0:0:62:F4S.wav
402,192,68318,1,0,0:0:0:0:
109,192,68484,1,0,0:0:0:0:
329,192,68651,1,0,0:0:0:0:
109,192,68818,1,0,0:0:0:0:
182,192,68984,1,0,0:0:0:70:F6S_s.wav
329,192,68984,1,0,0:0:0:0:
36,192,69151,1,0,0:0:0:96:F#6S_Gb6S_s.wav
402,192,69151,1,0,0:0:0:0:
109,192,69318,1,0,0:0:0:100:G#6S_Ab6S_s.wav
256,192,69318,1,0,0:0:0:0:
36,192,69484,1,0,0:0:0:96:F#6S_Gb6S_s.wav
402,192,69484,1,0,0:0:0:0:
182,192,69651,1,0,0:0:0:74:F6S_s.wav
256,192,69651,1,0,0:0:0:0:
109,192,69818,1,0,0:0:0:62:F#3S_Gb3S.wav
475,192,69818,1,0,0:0:0:62:C#4S_Db4S.wav
329,192,69984,1,0,0:0:0:90:G#6S_Ab6S_s.wav
402,192,69984,1,0,0:0:0:0:
475,192,70151,1,0,0:0:0:0:
182,192,70318,1,0,0:0:0:81:F6S_s.wav
329,192,70318,1,0,0:0:0:0:
36,192,70484,1,0,0:0:0:0:
256,192,70651,1,0,0:0:0:0:
36,192,70818,1,0,0:0:0:62:C#4S_Db4S.wav
402,192,70818,1,0,0:0:0:62:G#4S_Ab4S.wav
109,192,70984,1,0,0:0:0:77:F6S_s.wav
256,192,70984,1,0,0:0:0:0:
475,192,71151,1,0,0:0:0:0:
182,192,71318,1,0,0:0:0:88:C#6S_Db6S_s.wav
329,192,71318,1,0,0:0:0:0:
475,192,71484,1,0,0:0:0:0:
109,192,71651,1,0,0:0:0:0:
329,192,71818,1,0,0:0:0:78:C#6S_Db6S_s.wav
402,192,71818,1,0,0:0:0:0:
36,192,71984,1,0,0:0:0:99:D#6S_Eb6S_s.wav
256,192,71984,1,0,0:0:0:0:
402,192,72151,1,0,0:0:0:0:
256,192,72318,1,0,0:0:0:0:
109,192,72484,1,0,0:0:0:62:G#3S_Ab3S.wav
475,192,72484,1,0,0:0:0:62:D#4S_Eb4S.wav
182,192,72651,1,0,0:0:0:79:F6S_s.wav
329,192,72651,1,0,0:0:0:0:
109,192,72818,1,0,0:0:0:0:
182,192,72984,1,0,0:0:0:79:C6S_s.wav
256,192,72984,1,0,0:0:0:0:
36,192,73151,1,0,0:0:0:0:
329,192,73318,1,0,0:0:0:0:
36,192,73484,1,0,0:0:0:62:A#3S_Bb3S.wav
475,192,73484,1,0,0:0:0:62:F4S.wav
182,192,73651,1,0,0:0:0:79:F6S_s.wav
329,192,73651,1,0,0:0:0:0:
402,192,73818,1,0,0:0:0:0:
109,192,73984,1,0,0:0:0:79:C#6S_Db6S.wav
256,192,73984,1,0,0:0:0:0:
402,192,74151,1,0,0:0:0:0:
256,192,74318,1,0,0:0:0:0:
182,192,74484,1,0,0:0:0:0:
329,192,74651,1,0,0:0:0:0:
182,192,74818,1,0,0:0:0:81:D#6S_Eb6S_s.wav
256,192,74818,128,0,75151:0:0:0:0:
475,192,74818,1,0,0:0:0:0:
36,192,74984,1,0,0:0:0:81:F6S_s.wav
329,192,74984,1,0,0:0:0:0:
109,192,75151,1,0,0:0:0:62:F#4S_Gb4S.wav
402,192,75151,128,0,75318:0:0:0:62:C#5S_Db5S.wav
475,192,75151,1,0,0:0:0:62:G#5S_Ab5S.wav
256,192,75318,1,0,0:0:0:0:
36,192,75484,1,0,0:0:0:0:
109,192,75484,1,0,0:0:0:0:
402,192,75484,1,0,0:0:0:0:
182,192,75651,1,0,0:0:0:90:G#6S_Ab6S_s.wav
329,192,75651,128,0,75734:0:0:0:0:
36,192,75818,1,0,0:0:0:0:
256,192,75984,1,0,0:0:0:0:
402,192,75984,1,0,0:0:0:0:
475,192,75984,128,0,76151:0:0:0:0:
36,192,76151,1,0,0:0:0:62:G#4S_Ab4S.wav
109,192,76151,128,0,76234:0:0:0:62:C#5S_Db5S.wav
182,192,76151,1,0,0:0:0:62:F5S.wav
256,192,76151,1,0,0:0:0:62:G#5S_Ab5S.wav
402,192,76318,1,0,0:0:0:0:
182,192,76484,1,0,0:0:0:0:
329,192,76484,1,0,0:0:0:0:
402,192,76651,128,0,76734:0:0:0:0:
475,192,76651,1,0,0:0:0:0:
36,192,76818,1,0,0:0:0:0:
109,192,76818,1,0,0:0:0:0:
256,192,76818,1,0,0:0:0:0:
329,192,76984,1,0,0:0:0:0:
475,192,76984,128,0,77068:0:0:0:0:
182,192,77151,1,0,0:0:0:0:
256,192,77234,1,0,0:0:0:77:C#7S_Db7S_s.wav
109,192,77318,128,0,77484:0:0:0:0:
402,192,77318,1,0,0:0:0:0:
329,192,77373,1,0,0:0:0:83:D#7S_Eb7S_s.wav
36,192,77484,128,0,77568:0:0:0:83:F7S_s.wav
182,192,77484,1,0,0:0:0:0:
256,192,77484,1,0,0:0:0:0:
475,192,77484,1,0,0:0:0:0:
402,192,77596,1,0,0:0:0:94:D#7S_Eb7S_s.wav
329,192,77707,1,0,0:0:0:92:C#7S_Db7S_s.wav
36,192,77818,128,0,77901:0:0:0:62:G#4S_Ab4S.wav
109,192,77818,1,0,0:0:0:62:D#5S_Eb5S.wav
475,192,77818,1,0,0:0:0:62:C6S.wav
182,192,77984,1,0,0:0:0:0:
36,192,78151,128,0,78234:0:0:0:0:
329,192,78151,1,0,0:0:0:0:
402,192,78151,1,0,0:0:0:0:
109,192,78318,128,0,78401:0:0:0:98:G#6S_Ab6S_s.wav
256,192,78318,1,0,0:0:0:0:
182,192,78484,128,0,78568:0:0:0:0:
402,192,78484,1,0,0:0:0:0:
475,192,78484,1,0,0:0:0:0:
36,192,78651,1,0,0:0:0:0:
109,192,78651,1,0,0:0:0:0:
329,192,78651,128,0,78734:0:0:0:0:
109,192,78818,1,0,0:0:0:62:A#4S_Bb4S.wav
256,192,78818,128,0,78984:0:0:0:62:F5S.wav
402,192,78818,1,0,0:0:0:62:C#6S_Db6S.wav
475,192,78818,1,0,0:0:0:90:G#6S_Ab6S_s.wav
182,192,78984,1,0,0:0:0:0:
36,192,79151,1,0,0:0:0:0:
329,192,79151,128,0,79234:0:0:0:0:
475,192,79151,1,0,0:0:0:0:
109,192,79318,128,0,79484:0:0:0:0:
402,192,79318,1,0,0:0:0:0:
329,192,79429,1,0,0:0:0:0:
36,192,79484,1,0,0:0:0:87:G#7S_Ab7S_s.wav
182,192,79484,1,0,0:0:0:0:
256,192,79484,1,0,0:0:0:0:
475,192,79484,1,0,0:0:0:0:
329,192,79651,1,0,0:0:0:0:
402,192,79693,128,0,79984:0:0:0:0:
256,192,79818,1,0,0:0:0:0:
182,192,79929,1,0,0:0:0:0:
36,192,79984,1,0,0:0:0:81:F7S_s.wav
329,192,79984,1,0,0:0:0:0:
475,192,79984,1,0,0:0:0:0:
109,192,80151,1,0,0:0:0:0:
256,192,80151,128,0,80318:0:0:0:0:
402,192,80151,1,0,0:0:0:0:
475,192,80151,1,0,0:0:0:0:
36,192,80318,1,0,0:0:0:0:
109,192,80318,1,0,0:0:0:0:
329,192,80318,128,0,80484:0:0:0:0:
36,192,80484,1,0,0:0:0:62:F#4S_Gb4S.wav
182,192,80484,128,0,80568:0:0:0:62:C#5S_Db5S.wav
475,192,80484,1,0,0:0:0:62:A#5S_Bb5S.wav
256,192,80651,1,0,0:0:0:0:
109,192,80818,1,0,0:0:0:0:
329,192,80818,1,0,0:0:0:0:
402,192,80818,1,0,0:0:0:0:
182,192,80984,1,0,0:0:0:79:C#7S_Db7S_s.wav
256,192,80984,128,0,81151:0:0:0:0:
402,192,81151,1,0,0:0:0:0:
36,192,81318,1,0,0:0:0:0:
109,192,81318,1,0,0:0:0:0:
109,192,81484,1,0,0:0:0:62:C#5S_Db5S.wav
182,192,81484,128,0,81568:0:0:0:62:G#5S_Ab5S.wav
329,192,81484,1,0,0:0:0:62:C#6S_Db6S.wav
475,192,81484,1,0,0:0:0:99:C7S_s.wav
256,192,81651,1,0,0:0:0:0:
36,192,81818,128,0,81901:0:0:0:0:
402,192,81818,1,0,0:0:0:0:
475,192,81818,1,0,0:0:0:0:
182,192,81984,1,0,0:0:0:0:
329,192,81984,128,0,82151:0:0:0:0:
36,192,82151,1,0,0:0:0:79:D#7S_Eb7S_s.wav
109,192,82151,1,0,0:0:0:0:
256,192,82151,1,0,0:0:0:0:
475,192,82151,1,0,0:0:0:0:
402,192,82318,1,0,0:0:0:0:
109,192,82484,1,0,0:0:0:79:C#7S_Db7S_s.wav
182,192,82484,1,0,0:0:0:0:
329,192,82484,128,0,82651:0:0:0:0:
256,192,82651,1,0,0:0:0:0:
402,192,82651,1,0,0:0:0:0:
475,192,82651,128,0,82818:0:0:0:0:
36,192,82818,1,0,0:0:0:79:G#6S_Ab6S_s.wav
109,192,82818,1,0,0:0:0:0:
182,192,82818,128,0,82984:0:0:0:0:
256,192,82818,1,0,0:0:0:0:
329,192,82984,128,0,83151:0:0:0:0:
402,192,82984,1,0,0:0:0:0:
36,192,83151,128,0,83318:0:0:0:47:F#5S_Gb5S_s.wav
182,192,83151,1,0,0:0:0:72:C#6S_Db6S_s.wav
475,192,83151,1,0,0:0:0:89:A#6S_Bb6S_s.wav
256,192,83318,128,0,83484:0:0:0:0:
329,192,83318,1,0,0:0:0:0:
36,192,83484,1,0,0:0:0:0:
109,192,83484,128,0,83568:0:0:0:0:
402,192,83484,1,0,0:0:0:0:
475,192,83484,1,0,0:0:0:0:
182,192,83651,128,0,83734:0:0:0:14:C#6S_Db6S_s.wav
256,192,83651,1,0,0:0:0:14:D#6S_Eb6S_s.wav
402,192,83818,1,0,0:0:0:0:
182,192,83901,1,0,0:0:0:0:
109,192,83984,128,0,84151:0:0:0:71:C#7S_Db7S_s.wav
329,192,83984,1,0,0:0:0:0:
475,192,83984,1,0,0:0:0:0:
36,192,84151,1,0,0:0:0:34:G#5S_Ab5S.wav
182,192,84151,1,0,0:0:0:78:C#6S_Db6S.wav
256,192,84151,1,0,0:0:0:76:D#6S_Eb6S.wav
402,192,84151,128,0,84484:0:0:0:80:G#6S_Ab6S.wav
329,192,84318,1,0,0:0:0:0:
109,192,84401,1,0,0:0:0:0:
36,192,84484,1,0,0:0:0:0:
256,192,84484,128,0,85818:0:0:0:0:
475,192,84484,128,0,84651:0:0:0:0:
182,192,84651,128,0,84818:0:0:0:0:
329,192,84651,128,0,84818:0:0:0:0:
36,192,84818,1,0,0:0:0:0:
109,192,84818,128,0,84984:0:0:0:0:
402,192,84818,128,0,84984:0:0:0:0:
475,192,84818,1,0,0:0:0:0:
182,192,84984,128,0,85151:0:0:0:0:
329,192,84984,128,0,85151:0:0:0:0:
36,192,85151,128,0,85318:0:0:0:55:G#2S_Ab2S_s.wav
475,192,85151,128,0,85318:0:0:0:55:G#3S_Ab3S_s.wav
182,192,85318,128,0,85484:0:0:0:0:
402,192,85318,128,0,85484:0:0:0:0:
36,192,85484,128,0,85568:0:0:0:0:
475,192,85484,128,0,85568:0:0:0:0:
402,192,85568,128,0,85651:0:0:0:0:
109,192,85651,128,0,85734:0:0:0:0:
329,192,85651,128,0,85734:0:0:0:0:
182,192,85734,128,0,85818:0:0:0:0:
36,192,85818,1,0,0:0:0:93:F#3S_Gb3S.wav
109,192,85818,1,0,0:0:0:87:F#4S_Gb4S.wav
402,192,85818,1,0,0:0:0:84:A#4S_Bb4S.wav
475,192,85818,1,0,0:0:0:92:C#5S_Db5S.wav
182,192,85984,1,0,0:0:0:85:A#5S_Bb5S_s.wav
329,192,85984,1,0,0:0:0:70:A#6S_Bb6S_s.wav
36,192,86151,1,0,0:0:0:81:C#6S_Db6S_s.wav
256,192,86151,1,0,0:0:0:68:C#7S_Db7S_s.wav
402,192,86151,1,0,0:0:0:0:
475,192,86151,1,0,0:0:0:0:
109,192,86318,1,0,0:0:0:92:F6S_s.wav
182,192,86318,128,0,86651:0:0:0:77:F7S_s.wav
329,192,86484,1,0,0:0:0:0:
36,192,86651,1,0,0:0:0:0:
109,192,86651,1,0,0:0:0:0:
256,192,86651,128,0,86734:0:0:0:0:
256,192,86818,128,0,87151:0:0:0:83:C#3S_Db3S.wav
329,192,86818,1,0,0:0:0:95:G#4S_Ab4S.wav
402,192,86818,1,0,0:0:0:90:C#5S_Db5S.wav
475,192,86818,1,0,0:0:0:81:F5S_s.wav
109,192,86984,1,0,0:0:0:84:A#5S_Bb5S_s.wav
182,192,86984,1,0,0:0:0:70:A#6S_Bb6S_s.wav
329,192,87068,1,0,0:0:0:0:
36,192,87151,1,0,0:0:0:90:C#6S_Db6S_s.wav
402,192,87151,128,0,87484:0:0:0:75:C#7S_Db7S_s.wav
475,192,87151,1,0,0:0:0:0:
182,192,87318,1,0,0:0:0:93:F6S_s.wav
329,192,87318,1,0,0:0:0:78:F7S_s.wav
36,192,87484,1,0,0:0:0:0:
109,192,87484,1,0,0:0:0:0:
256,192,87484,1,0,0:0:0:0:
402,192,87651,1,0,0:0:0:0:
475,192,87651,128,0,88151:0:0:0:0:
182,192,87818,1,0,0:0:0:83:D#6S_Eb6S_s.wav
329,192,87818,1,0,0:0:0:70:D#7S_Eb7S_s.wav
36,192,87984,1,0,0:0:0:89:C#6S_Db6S_s.wav
109,192,87984,1,0,0:0:0:75:C#7S_Db7S_s.wav
256,192,87984,1,0,0:0:0:0:
36,192,88151,1,0,0:0:0:85:C#3S_Db3S_s.wav
109,192,88151,1,0,0:0:0:87:C6S_s.wav
329,192,88151,128,0,88484:0:0:0:73:C7S_s.wav
402,192,88151,1,0,0:0:0:0:
182,192,88318,1,0,0:0:0:81:F3S_s.wav
402,192,88318,1,0,0:0:0:86:C#6S_Db6S_s.wav
475,192,88318,1,0,0:0:0:72:C#7S_Db7S_s.wav
36,192,88484,1,0,0:0:0:84:G#3S_Ab3S.wav
182,192,88484,1,0,0:0:0:87:C5S.wav
256,192,88484,1,0,0:0:0:89:D#5S_Eb5S.wav
402,192,88651,1,0,0:0:0:85:C#6S_Db6S_s.wav
475,192,88651,1,0,0:0:0:70:C#7S_Db7S_s.wav
36,192,88818,1,0,0:0:0:92:D#6S_Eb6S_s.wav
109,192,88818,1,0,0:0:0:77:D#7S_Eb7S_s.wav
182,192,88818,128,0,88901:0:0:0:0:
329,192,88818,1,0,0:0:0:0:
182,192,88984,128,0,89151:0:0:0:95:G#6S_Ab6S_s.wav
402,192,88984,1,0,0:0:0:80:G#7S_Ab7S_s.wav
256,192,89151,1,0,0:0:0:0:
109,192,89318,128,0,89401:0:0:0:80:C6S_s.wav
329,192,89318,1,0,0:0:0:66:C7S_s.wav
475,192,89318,1,0,0:0:0:0:
36,192,89484,1,0,0:0:0:81:A#3S_Bb3S.wav
109,192,89484,128,0,89818:0:0:0:88:A#4S_Bb4S.wav
329,192,89484,1,0,0:0:0:93:C#5S_Db5S.wav
475,192,89484,1,0,0:0:0:92:F5S.wav
256,192,89651,1,0,0:0:0:0:
475,192,89734,1,0,0:0:0:0:
36,192,89818,128,0,90151:0:0:0:0:
182,192,89818,1,0,0:0:0:0:
402,192,89818,1,0,0:0:0:0:
329,192,89984,1,0,0:0:0:0:
109,192,90068,1,0,0:0:0:0:
182,192,90068,1,0,0:0:0:0:
329,192,90151,1,0,0:0:0:0:
402,192,90151,1,0,0:0:0:0:
475,192,90151,1,0,0:0:0:0:
36,192,90318,1,0,0:0:0:0:
109,192,90318,1,0,0:0:0:0:
256,192,90318,128,0,90651:0:0:0:0:
182,192,90484,1,0,0:0:0:85:G#5S_Ab5S_s.wav
329,192,90484,1,0,0:0:0:85:F6S_s.wav
475,192,90484,1,0,0:0:0:70:G#6S_Ab6S_s.wav
36,192,90651,1,0,0:0:0:0:
109,192,90651,1,0,0:0:0:0:
329,192,90707,1,0,0:0:0:81:F#5S_Gb5S_s.wav
402,192,90707,1,0,0:0:0:81:D#6S_Eb6S_s.wav
36,192,90818,1,0,0:0:0:0:
182,192,90818,1,0,0:0:0:0:
256,192,90818,1,0,0:0:0:0:
402,192,90929,1,0,0:0:0:82:F5S_s.wav
475,192,90929,1,0,0:0:0:75:C#6S_Db6S_s.wav
182,192,90984,1,0,0:0:0:0:
329,192,90984,1,0,0:0:0:0:
109,192,91068,1,0,0:0:0:0:
36,192,91151,1,0,0:0:0:88:F#3S_Gb3S.wav
329,192,91151,1,0,0:0:0:82:F#4S_Gb4S.wav
182,192,91318,1,0,0:0:0:85:A#5S_Bb5S_s.wav
402,192,91318,1,0,0:0:0:70:A#6S_Bb6S_s.wav
36,192,91484,1,0,0:0:0:81:C#6S_Db6S_s.wav
109,192,91484,128,0,91568:0:0:0:68:C#7S_Db7S_s.wav
256,192,91484,1,0,0:0:0:0:
475,192,91484,1,0,0:0:0:0:
109,192,91651,128,0,91734:0:0:0:88:F6S_s.wav
329,192,91651,1,0,0:0:0:74:F7S_s.wav
109,192,91818,128,0,91984:0:0:0:0:
402,192,91818,1,0,0:0:0:0:
36,192,91984,128,0,92484:0:0:0:0:
256,192,91984,1,0,0:0:0:0:
329,192,91984,1,0,0:0:0:0:
256,192,92151,1,0,0:0:0:83:C#3S_Db3S.wav
329,192,92151,1,0,0:0:0:95:G#4S_Ab4S.wav
402,192,92151,1,0,0:0:0:90:C#5S_Db5S.wav
475,192,92151,1,0,0:0:0:81:F5S_s.wav
109,192,92318,1,0,0:0:0:84:A#5S_Bb5S_s.wav
182,192,92318,1,0,0:0:0:70:A#6S_Bb6S_s.wav
329,192,92401,1,0,0:0:0:0:
182,192,92484,128,0,92818:0:0:0:90:C#6S_Db6S_s.wav
402,192,92484,1,0,0:0:0:75:C#7S_Db7S_s.wav
475,192,92484,1,0,0:0:0:0:
109,192,92651,1,0,0:0:0:86:F6S_s.wav
256,192,92651,1,0,0:0:0:72:F7S_s.wav
36,192,92818,1,0,0:0:0:0:
402,192,92818,1,0,0:0:0:0:
475,192,92818,1,0,0:0:0:0:
182,192,92984,1,0,0:0:0:0:
329,192,92984,128,0,93484:0:0:0:0:
109,192,93151,1,0,0:0:0:83:D#6S_Eb6S_s.wav
256,192,93151,1,0,0:0:0:70:D#7S_Eb7S_s.wav
36,192,93318,1,0,0:0:0:89:C#6S_Db6S_s.wav
182,192,93318,1,0,0:0:0:75:C#7S_Db7S_s.wav
36,192,93484,1,0,0:0:0:81:C#3S_Db3S_s.wav
182,192,93484,1,0,0:0:0:87:C6S_s.wav
402,192,93484,128,0,93651:0:0:0:73:C7S_s.wav
475,192,93484,1,0,0:0:0:0:
256,192,93651,1,0,0:0:0:76:F3S_s.wav
329,192,93651,1,0,0:0:0:86:C#6S_Db6S_s.wav
109,192,93734,1,0,0:0:0:0:
182,192,93818,128,0,94151:0:0:0:84:G#3S_Ab3S_s.wav
329,192,93818,1,0,0:0:0:90:G#4S_Ab4S_s.wav
475,192,93818,1,0,0:0:0:87:C5S_s.wav
36,192,93984,1,0,0:0:0:85:C#6S_Db6S_s.wav
109,192,93984,1,0,0:0:0:70:C#7S_Db7S_s.wav
256,192,94151,128,0,94234:0:0:0:92:D#6S_Eb6S_s.wav
329,192,94151,1,0,0:0:0:77:D#7S_Eb7S_s.wav
402,192,94151,1,0,0:0:0:0:
475,192,94151,1,0,0:0:0:0:
36,192,94318,128,0,94401:0:0:0:84:G#2S_Ab2S_s.wav
182,192,94318,1,0,0:0:0:95:C6S_s.wav
329,192,94484,1,0,0:0:0:0:
109,192,94568,1,0,0:0:0:0:
256,192,94651,1,0,0:0:0:80:G#5S_Ab5S_s.wav
402,192,94651,1,0,0:0:0:66:G#6S_Ab6S_s.wav
475,192,94651,128,0,94734:0:0:0:0:
36,192,94818,1,0,0:0:0:81:A#2S_Bb2S.wav
182,192,94818,128,0,95484:0:0:0:88:A#4S_Bb4S.wav
256,192,94818,1,0,0:0:0:93:C#5S_Db5S.wav
402,192,94818,1,0,0:0:0:92:F5S.wav
329,192,94984,1,0,0:0:0:0:
109,192,95068,1,0,0:0:0:0:
256,192,95151,1,0,0:0:0:0:
475,192,95151,1,0,0:0:0:0:
402,192,95318,1,0,0:0:0:0:
36,192,95484,1,0,0:0:0:0:
109,192,95484,1,0,0:0:0:0:
475,192,95484,1,0,0:0:0:0:
256,192,95651,1,0,0:0:0:0:
329,192,95651,128,0,95734:0:0:0:0:
36,192,95818,1,0,0:0:0:96:A#3S_Bb3S_s.wav
109,192,95818,128,0,95984:0:0:0:84:A#4S_Bb4S_s.wav
402,192,95818,1,0,0:0:0:85:G#5S_Ab5S_s.wav
182,192,95984,1,0,0:0:0:0:
256,192,95984,1,0,0:0:0:0:
475,192,96040,1,0,0:0:0:81:A#5S_Bb5S_s.wav
36,192,96151,1,0,0:0:0:96:G#3S_Ab3S_s.wav
109,192,96151,1,0,0:0:0:84:G#4S_Ab4S_s.wav
256,192,96151,1,0,0:0:0:0:
329,192,96262,1,0,0:0:0:82:F5S_s.wav
36,192,96318,1,0,0:0:0:0:
109,192,96318,1,0,0:0:0:0:
182,192,96318,1,0,0:0:0:0:
256,192,96401,1,0,0:0:0:0:
402,192,96401,1,0,0:0:0:0:
475,192,96401,1,0,0:0:0:0:
36,192,96484,1,0,0:0:0:93:F#3S_Gb3S.wav
109,192,96484,1,0,0:0:0:87:F#4S_Gb4S.wav
182,192,96651,1,0,0:0:0:85:A#5S_Bb5S_s.wav
329,192,96651,1,0,0:0:0:70:A#6S_Bb6S_s.wav
36,192,96818,1,0,0:0:0:81:C#6S_Db6S_s.wav
256,192,96818,1,0,0:0:0:68:C#7S_Db7S_s.wav
402,192,96818,1,0,0:0:0:0:
475,192,96818,1,0,0:0:0:0:
109,192,96984,128,0,97068:0:0:0:92:F6S_s.wav
182,192,96984,1,0,0:0:0:77:F7S_s.wav
109,192,97151,128,0,97318:0:0:0:0:
329,192,97151,1,0,0:0:0:0:
36,192,97318,128,0,97818:0:0:0:0:
182,192,97318,1,0,0:0:0:0:
402,192,97318,1,0,0:0:0:0:
182,192,97484,1,0,0:0:0:83:C#3S_Db3S.wav
256,192,97484,1,0,0:0:0:95:G#4S_Ab4S.wav
402,192,97484,1,0,0:0:0:90:C#5S_Db5S.wav
475,192,97484,1,0,0:0:0:81:F5S_s.wav
109,192,97651,1,0,0:0:0:84:A#5S_Bb5S_s.wav
329,192,97651,1,0,0:0:0:70:A#6S_Bb6S_s.wav
475,192,97734,1,0,0:0:0:0:
182,192,97818,128,0,98318:0:0:0:90:C#6S_Db6S_s.wav
329,192,97818,1,0,0:0:0:75:C#7S_Db7S_s.wav
402,192,97818,1,0,0:0:0:0:
109,192,97984,1,0,0:0:0:93:F6S_s.wav
256,192,97984,1,0,0:0:0:78:F7S_s.wav
36,192,98151,1,0,0:0:0:0:
402,192,98151,1,0,0:0:0:0:
475,192,98151,1,0,0:0:0:0:
256,192,98318,128,0,98818:0:0:0:0:
329,192,98318,1,0,0:0:0:0:
36,192,98484,1,0,0:0:0:83:D#6S_Eb6S_s.wav
109,192,98484,1,0,0:0:0:70:D#7S_Eb7S_s.wav
182,192,98651,1,0,0:0:0:89:C#6S_Db6S_s.wav
329,192,98651,1,0,0:0:0:75:C#7S_Db7S_s.wav
182,192,98818,1,0,0:0:0:85:C#3S_Db3S_s.wav
329,192,98818,1,0,0:0:0:87:C6S_s.wav
402,192,98818,1,0,0:0:0:73:C7S_s.wav
475,192,98818,128,0,99151:0:0:0:0:
36,192,98984,1,0,0:0:0:81:F3S_s.wav
256,192,98984,1,0,0:0:0:86:C#6S_Db6S_s.wav
402,192,98984,1,0,0:0:0:72:C#7S_Db7S_s.wav
36,192,99151,1,0,0:0:0:84:G#3S_Ab3S.wav
182,192,99151,1,0,0:0:0:87:C5S.wav
329,192,99151,1,0,0:0:0:89:D#5S_Eb5S.wav
402,192,99318,1,0,0:0:0:85:C#6S_Db6S_s.wav
475,192,99318,1,0,0:0:0:70:C#7S_Db7S_s.wav
36,192,99484,1,0,0:0:0:92:D#6S_Eb6S_s.wav
109,192,99484,1,0,0:0:0:77:D#7S_Eb7S_s.wav
182,192,99484,1,0,0:0:0:0:
256,192,99484,128,0,99568:0:0:0:0:
256,192,99651,128,0,99984:0:0:0:95:G#6S_Ab6S_s.wav
402,192,99651,1,0,0:0:0:80:G#7S_Ab7S_s.wav
109,192,99818,1,0,0:0:0:0:
36,192,99984,128,0,100318:0:0:0:80:C6S_s.wav
182,192,99984,1,0,0:0:0:66:C7S_s.wav
329,192,99984,1,0,0:0:0:0:
182,192,100151,1,0,0:0:0:81:A#3S_Bb3S.wav
329,192,100151,1,0,0:0:0:88:A#4S_Bb4S.wav
402,192,100151,1,0,0:0:0:93:C#5S_Db5S.wav
475,192,100151,1,0,0:0:0:92:F5S.wav
109,192,100318,1,0,0:0:0:0:
256,192,100401,1,0,0:0:0:0:
36,192,100484,1,0,0:0:0:0:
182,192,100484,128,0,100984:0:0:0:0:
475,192,100484,1,0,0:0:0:0:
329,192,100651,1,0,0:0:0:0:
402,192,100734,1,0,0:0:0:0:
475,192,100734,1,0,0:0:0:0:
36,192,100818,1,0,0:0:0:0:
109,192,100818,1,0,0:0:0:0:
256,192,100818,1,0,0:0:0:0:
256,192,100984,1,0,0:0:0:0:
329,192,100984,128,0,101318:0:0:0:0:
402,192,100984,1,0,0:0:0:0:
109,192,101151,1,0,0:0:0:85:G#5S_Ab5S_s.wav
182,192,101151,1,0,0:0:0:85:F6S_s.wav
402,192,101318,1,0,0:0:0:0:
475,192,101318,1,0,0:0:0:0:
182,192,101373,1,0,0:0:0:81:F#5S_Gb5S_s.wav
256,192,101373,1,0,0:0:0:81:D#6S_Eb6S_s.wav
329,192,101484,1,0,0:0:0:0:
402,192,101484,1,0,0:0:0:0:
475,192,101484,1,0,0:0:0:0:
36,192,101596,1,0,0:0:0:82:F5S_s.wav
109,192,101596,1,0,0:0:0:75:C#6S_Db6S_s.wav
256,192,101651,1,0,0:0:0:0:
329,192,101651,1,0,0:0:0:0:
182,192,101734,1,0,0:0:0:0:
109,192,101818,1,0,0:0:0:88:F#3S_Gb3S.wav
402,192,101818,1,0,0:0:0:82:F#4S_Gb4S.wav
475,192,101818,1,0,0:0:0:79:A#4S_Bb4S.wav
36,192,101984,1,0,0:0:0:85:A#5S_Bb5S_s.wav
256,192,101984,1,0,0:0:0:70:A#6S_Bb6S_s.wav
182,192,102151,128,0,102234:0:0:0:81:C#6S_Db6S_s.wav
329,192,102151,1,0,0:0:0:68:C#7S_Db7S_s.wav
402,192,102151,1,0,0:0:0:0:
475,192,102151,1,0,0:0:0:0:
36,192,102318,1,0,0:0:0:88:F6S_s.wav
182,192,102318,128,0,102651:0:0:0:74:F7S_s.wav
256,192,102484,1,0,0:0:0:0:
109,192,102651,1,0,0:0:0:0:
329,192,102651,128,0,103151:0:0:0:0:
475,192,102651,1,0,0:0:0:0:
36,192,102818,1,0,0:0:0:83:C#3S_Db3S.wav
109,192,102818,1,0,0:0:0:95:G#4S_Ab4S.wav
256,192,102818,1,0,0:0:0:90:C#5S_Db5S.wav
475,192,102818,1,0,0:0:0:81:F5S_s.wav
182,192,102984,1,0,0:0:0:84:A#5S_Bb5S_s.wav
402,192,102984,1,0,0:0:0:70:A#6S_Bb6S_s.wav
36,192,103068,1,0,0:0:0:0:
109,192,103151,1,0,0:0:0:90:C#6S_Db6S_s.wav
182,192,103151,1,0,0:0:0:75:C#7S_Db7S_s.wav
475,192,103151,128,0,103484:0:0:0:0:
256,192,103318,1,0,0:0:0:86:F6S_s.wav
329,192,103318,1,0,0:0:0:72:F7S_s.wav
36,192,103484,1,0,0:0:0:0:
109,192,103484,1,0,0:0:0:0:
402,192,103484,1,0,0:0:0:0:
182,192,103651,1,0,0:0:0:0:
256,192,103651,128,0,104151:0:0:0:0:
36,192,103818,1,0,0:0:0:83:D#6S_Eb6S_s.wav
475,192,103818,1,0,0:0:0:70:D#7S_Eb7S_s.wav
109,192,103984,1,0,0:0:0:89:C#6S_Db6S_s.wav
182,192,103984,1,0,0:0:0:75:C#7S_Db7S_s.wav
329,192,103984,1,0,0:0:0:0:
182,192,104151,1,0,0:0:0:81:C#3S_Db3S_s.wav
329,192,104151,1,0,0:0:0:87:C6S_s.wav
402,192,104151,128,0,104484:0:0:0:73:C7S_s.wav
475,192,104151,1,0,0:0:0:0:
36,192,104318,1,0,0:0:0:76:F3S_s.wav
109,192,104318,1,0,0:0:0:86:C#6S_Db6S_s.wav
256,192,104401,1,0,0:0:0:0:
36,192,104484,1,0,0:0:0:84:G#3S_Ab3S_s.wav
182,192,104484,128,0,104818:0:0:0:90:G#4S_Ab4S_s.wav
475,192,104484,1,0,0:0:0:87:C5S_s.wav
329,192,104651,1,0,0:0:0:85:C#6S_Db6S_s.wav
402,192,104651,1,0,0:0:0:70:C#7S_Db7S_s.wav
36,192,104818,1,0,0:0:0:92:D#6S_Eb6S_s.wav
109,192,104818,1,0,0:0:0:77:D#7S_Eb7S_s.wav
256,192,104818,128,0,104901:0:0:0:0:
475,192,104818,1,0,0:0:0:0:
182,192,104984,128,0,105068:0:0:0:84:G#2S_Ab2S_s.wav
329,192,104984,1,0,0:0:0:95:C6S_s.wav
402,192,105151,1,0,0:0:0:0:
256,192,105234,1,0,0:0:0:0:
36,192,105318,1,0,0:0:0:80:G#5S_Ab5S_s.wav
109,192,105318,1,0,0:0:0:66:G#6S_Ab6S_s.wav
475,192,105318,128,0,105401:0:0:0:0:
36,192,105484,1,0,0:0:0:81:A#2S_Bb2S.wav
109,192,105484,1,0,0:0:0:88:A#4S_Bb4S.wav
256,192,105484,128,0,107151:0:0:0:93:C#5S_Db5S.wav
329,192,105484,1,0,0:0:0:92:F5S.wav
475,192,105651,1,0,0:0:0:0:
182,192,105734,1,0,0:0:0:0:
36,192,105818,1,0,0:0:0:0:
402,192,105818,1,0,0:0:0:0:
109,192,105984,1,0,0:0:0:0:
182,192,106151,1,0,0:0:0:0:
402,192,106151,1,0,0:0:0:0:
475,192,106151,1,0,0:0:0:0:
329,192,106318,1,0,0:0:0:0:
36,192,106484,1,0,0:0:0:96:A#3S_Bb3S_s.wav
109,192,106484,1,0,0:0:0:84:A#4S_Bb4S_s.wav
182,192,106651,1,0,0:0:0:0:
329,192,106651,1,0,0:0:0:0:
475,192,106707,1,0,0:0:0:81:A#5S_Bb5S_s.wav
36,192,106818,1,0,0:0:0:96:G#3S_Ab3S_s.wav
109,192,106818,1,0,0:0:0:84:G#4S_Ab4S_s.wav
402,192,106818,1,0,0:0:0:0:
182,192,106929,1,0,0:0:0:82:F5S_s.wav
329,192,106984,1,0,0:0:0:0:
402,192,106984,1,0,0:0:0:0:
475,192,106984,1,0,0:0:0:0:
36,192,107068,1,0,0:0:0:0:
109,192,107068,1,0,0:0:0:0:
182,192,107151,1,0,0:0:0:93:F#3S_Gb3S.wav
329,192,107151,1,0,0:0:0:87:F#4S_Gb4S.wav
402,192,107151,1,0,0:0:0:84:A#4S_Bb4S.wav
475,192,107151,1,0,0:0:0:92:C#5S_Db5S.wav
109,192,107318,1,0,0:0:0:85:A#5S_Bb5S_s.wav
256,192,107318,1,0,0:0:0:70:A#6S_Bb6S_s.wav
36,192,107484,1,0,0:0:0:81:C#6S_Db6S_s.wav
182,192,107484,128,0,107568:0:0:0:68:C#7S_Db7S_s.wav
402,192,107484,1,0,0:0:0:0:
475,192,107484,1,0,0:0:0:0:
182,192,107651,128,0,107984:0:0:0:92:F6S_s.wav
329,192,107651,1,0,0:0:0:77:F7S_s.wav
475,192,107818,1,0,0:0:0:0:
36,192,107984,1,0,0:0:0:0:
109,192,107984,1,0,0:0:0:0:
256,192,107984,128,0,108068:0:0:0:0:
256,192,108151,128,0,108484:0:0:0:83:C#3S_Db3S.wav
329,192,108151,1,0,0:0:0:95:G#4S_Ab4S.wav
402,192,108151,1,0,0:0:0:90:C#5S_Db5S.wav
475,192,108151,1,0,0:0:0:81:F5S_s.wav
36,192,108318,1,0,0:0:0:84:A#5S_Bb5S_s.wav
109,192,108318,1,0,0:0:0:70:A#6S_Bb6S_s.wav
329,192,108401,1,0,0:0:0:0:
109,192,108484,1,0,0:0:0:90:C#6S_Db6S_s.wav
182,192,108484,128,0,108984:0:0:0:75:C#7S_Db7S_s.wav
475,192,108484,1,0,0:0:0:0:
256,192,108651,1,0,0:0:0:93:F6S_s.wav
402,192,108651,1,0,0:0:0:78:F7S_s.wav
36,192,108818,1,0,0:0:0:0:
109,192,108818,1,0,0:0:0:0:
475,192,108818,1,0,0:0:0:0:
256,192,108984,1,0,0:0:0:0:
329,192,108984,128,0,109484:0:0:0:0:
182,192,109151,1,0,0:0:0:83:D#6S_Eb6S_s.wav
475,192,109151,1,0,0:0:0:70:D#7S_Eb7S_s.wav
36,192,109318,1,0,0:0:0:89:C#6S_Db6S_s.wav
109,192,109318,1,0,0:0:0:75:C#7S_Db7S_s.wav
402,192,109318,1,0,0:0:0:0:
36,192,109484,1,0,0:0:0:85:C#3S_Db3S_s.wav
109,192,109484,1,0,0:0:0:87:C6S_s.wav
256,192,109484,1,0,0:0:0:73:C7S_s.wav
475,192,109484,128,0,109818:0:0:0:0:
182,192,109651,1,0,0:0:0:81:F3S_s.wav
256,192,109651,1,0,0:0:0:86:C#6S_Db6S_s.wav
329,192,109651,1,0,0:0:0:72:C#7S_Db7S_s.wav
36,192,109818,1,0,0:0:0:84:G#3S_Ab3S.wav
109,192,109818,1,0,0:0:0:87:C5S.wav
329,192,109818,1,0,0:0:0:89:D#5S_Eb5S.wav
182,192,109984,1,0,0:0:0:85:C#6S_Db6S_s.wav
402,192,109984,1,0,0:0:0:70:C#7S_Db7S_s.wav
36,192,110151,1,0,0:0:0:92:D#6S_Eb6S_s.wav
109,192,110151,1,0,0:0:0:77:D#7S_Eb7S_s.wav
256,192,110151,128,0,110234:0:0:0:0:
475,192,110151,1,0,0:0:0:0:
256,192,110318,128,0,110651:0:0:0:95:G#6S_Ab6S_s.wav
329,192,110318,1,0,0:0:0:80:G#7S_Ab7S_s.wav
109,192,110484,1,0,0:0:0:0:
182,192,110651,1,0,0:0:0:80:C6S_s.wav
402,192,110651,1,0,0:0:0:66:C7S_s.wav
475,192,110651,1,0,0:0:0:0:
36,192,110818,1,0,0:0:0:81:A#3S_Bb3S.wav
109,192,110818,128,0,111151:0:0:0:88:A#4S_Bb4S.wav
402,192,110818,1,0,0:0:0:93:C#5S_Db5S.wav
475,192,110818,1,0,0:0:0:92:F5S.wav
256,192,110984,1,0,0:0:0:0:
329,192,111068,1,0,0:0:0:0:
36,192,111151,128,0,111484:0:0:0:0:
182,192,111151,1,0,0:0:0:0:
475,192,111151,1,0,0:0:0:0:
402,192,111318,1,0,0:0:0:0:
109,192,111401,1,0,0:0:0:0:
182,192,111401,1,0,0:0:0:0:
329,192,111484,1,0,0:0:0:0:
402,192,111484,1,0,0:0:0:0:
475,192,111484,1,0,0:0:0:0:
36,192,111651,1,0,0:0:0:0:
109,192,111651,1,0,0:0:0:0:
256,192,111651,128,0,111984:0:0:0:0:
182,192,111818,1,0,0:0:0:85:G#5S_Ab5S_s.wav
329,192,111818,1,0,0:0:0:85:F6S_s.wav
475,192,111818,1,0,0:0:0:70:G#6S_Ab6S_s.wav
36,192,111984,1,0,0:0:0:0:
109,192,111984,1,0,0:0:0:0:
402,192,112040,1,0,0:0:0:81:F#5S_Gb5S_s.wav
475,192,112040,1,0,0:0:0:81:D#6S_Eb6S_s.wav
36,192,112151,1,0,0:0:0:0:
182,192,112151,1,0,0:0:0:0:
256,192,112151,1,0,0:0:0:0:
329,192,112262,1,0,0:0:0:82:F5S_s.wav
402,192,112262,1,0,0:0:0:75:C#6S_Db6S_s.wav
109,192,112318,1,0,0:0:0:0:
182,192,112318,1,0,0:0:0:0:
256,192,112401,1,0,0:0:0:0:
36,192,112484,1,0,0:0:0:88:F#3S_Gb3S.wav
329,192,112484,1,0,0:0:0:82:F#4S_Gb4S.wav
475,192,112484,1,0,0:0:0:79:A#4S_Bb4S.wav
109,192,112651,1,0,0:0:0:85:A#5S_Bb5S_s.wav
182,192,112651,1,0,0:0:0:70:A#6S_Bb6S_s.wav
36,192,112818,1,0,0:0:0:81:C#6S_Db6S_s.wav
329,192,112818,128,0,112901:0:0:0:68:C#7S_Db7S_s.wav
402,192,112818,1,0,0:0:0:0:
475,192,112818,1,0,0:0:0:0:
256,192,112984,1,0,0:0:0:88:F6S_s.wav
329,192,112984,128,0,113068:0:0:0:74:F7S_s.wav
182,192,113151,1,0,0:0:0:0:
329,192,113151,128,0,113318:0:0:0:0:
36,192,113318,1,0,0:0:0:0:
109,192,113318,1,0,0:0:0:0:
256,192,113318,128,0,113818:0:0:0:0:
36,192,113484,1,0,0:0:0:83:C#3S_Db3S.wav
109,192,113484,1,0,0:0:0:95:G#4S_Ab4S.wav
402,192,113484,1,0,0:0:0:90:C#5S_Db5S.wav
475,192,113484,1,0,0:0:0:81:F5S_s.wav
182,192,113651,1,0,0:0:0:84:A#5S_Bb5S_s.wav
329,192,113651,1,0,0:0:0:70:A#6S_Bb6S_s.wav
475,192,113734,1,0,0:0:0:0:
36,192,113818,1,0,0:0:0:90:C#6S_Db6S_s.wav
182,192,113818,1,0,0:0:0:75:C#7S_Db7S_s.wav
402,192,113818,128,0,114151:0:0:0:0:
256,192,113984,1,0,0:0:0:86:F6S_s.wav
329,192,113984,1,0,0:0:0:72:F7S_s.wav
36,192,114151,1,0,0:0:0:0:
109,192,114151,1,0,0:0:0:0:
475,192,114151,1,0,0:0:0:0:
182,192,114318,128,0,114818:0:0:0:0:
329,192,114318,1,0,0:0:0:0:
109,192,114484,1,0,0:0:0:83:D#6S_Eb6S_s.wav
402,192,114484,1,0,0:0:0:70:D#7S_Eb7S_s.wav
256,192,114651,1,0,0:0:0:89:C#6S_Db6S_s.wav
329,192,114651,1,0,0:0:0:75:C#7S_Db7S_s.wav
36,192,114818,1,0,0:0:0:81:C#3S_Db3S_s.wav
256,192,114818,1,0,0:0:0:87:C6S_s.wav
329,192,114818,1,0,0:0:0:73:C7S_s.wav
475,192,114818,128,0,114984:0:0:0:0:
109,192,114984,1,0,0:0:0:76:F3S_s.wav
182,192,114984,1,0,0:0:0:86:C#6S_Db6S_s.wav
256,192,115068,1,0,0:0:0:0:
36,192,115151,1,0,0:0:0:84:G#3S_Ab3S_s.wav
329,192,115151,128,0,115484:0:0:0:90:G#4S_Ab4S_s.wav
475,192,115151,1,0,0:0:0:87:C5S_s.wav
256,192,115318,1,0,0:0:0:85:C#6S_Db6S_s.wav
402,192,115318,1,0,0:0:0:70:C#7S_Db7S_s.wav
36,192,115484,1,0,0:0:0:92:D#6S_Eb6S_s.wav
109,192,115484,1,0,0:0:0:77:D#7S_Eb7S_s.wav
182,192,115484,128,0,115568:0:0:0:0:
475,192,115484,1,0,0:0:0:0:
256,192,115651,128,0,115734:0:0:0:84:G#2S_Ab2S_s.wav
329,192,115651,1,0,0:0:0:95:C6S_s.wav
36,192,115818,1,0,0:0:0:0:
182,192,115901,1,0,0:0:0:0:
109,192,115984,1,0,0:0:0:80:G#5S_Ab5S_s.wav
329,192,115984,1,0,0:0:0:66:G#6S_Ab6S_s.wav
475,192,115984,128,0,116068:0:0:0:0:
36,192,116151,1,0,0:0:0:81:A#2S_Bb2S.wav
182,192,116151,128,0,116984:0:0:0:88:A#4S_Bb4S.wav
256,192,116151,1,0,0:0:0:93:C#5S_Db5S.wav
402,192,116151,1,0,0:0:0:92:F5S.wav
329,192,116318,1,0,0:0:0:0:
109,192,116401,1,0,0:0:0:0:
256,192,116484,1,0,0:0:0:0:
475,192,116484,1,0,0:0:0:0:
402,192,116651,1,0,0:0:0:0:
36,192,116818,1,0,0:0:0:0:
109,192,116818,1,0,0:0:0:0:
475,192,116818,1,0,0:0:0:0:
256,192,116984,1,0,0:0:0:0:
329,192,116984,128,0,117068:0:0:0:0:
109,192,117151,128,0,117318:0:0:0:96:A#3S_Bb3S_s.wav
402,192,117151,1,0,0:0:0:84:A#4S_Bb4S_s.wav
475,192,117151,1,0,0:0:0:85:G#5S_Ab5S_s.wav
182,192,117318,1,0,0:0:0:0:
329,192,117318,1,0,0:0:0:0:
36,192,117373,1,0,0:0:0:81:A#5S_Bb5S_s.wav
256,192,117484,1,0,0:0:0:96:G#3S_Ab3S_s.wav
402,192,117484,1,0,0:0:0:84:G#4S_Ab4S_s.wav
475,192,117484,1,0,0:0:0:0:
182,192,117596,1,0,0:0:0:82:F5S_s.wav
329,192,117651,1,0,0:0:0:0:
402,192,117651,1,0,0:0:0:0:
475,192,117651,1,0,0:0:0:0:
36,192,117734,1,0,0:0:0:0:
109,192,117734,1,0,0:0:0:0:
256,192,117734,1,0,0:0:0:0:
402,192,117818,1,0,0:0:0:93:F#3S_Gb3S.wav
475,192,117818,1,0,0:0:0:87:F#4S_Gb4S.wav
109,192,117984,1,0,0:0:0:85:A#5S_Bb5S_s.wav
182,192,117984,1,0,0:0:0:70:A#6S_Bb6S_s.wav
36,192,118151,1,0,0:0:0:81:C#6S_Db6S_s.wav
256,192,118151,1,0,0:0:0:72:C#7S_Db7S.wav
329,192,118151,128,0,118234:0:0:0:68:C#7S_Db7S_s.wav
475,192,118151,1,0,0:0:0:86:C#8S_Db8S_s.wav
109,192,118318,1,0,0:0:0:92:F6S_s.wav
329,192,118318,128,0,118401:0:0:0:77:F7S_s.wav
182,192,118484,1,0,0:0:0:81:C7S_s.wav
329,192,118484,128,0,118651:0:0:0:77:C8S_s.wav
36,192,118651,128,0,119151:0:0:0:0:
402,192,118651,1,0,0:0:0:0:
475,192,118651,1,0,0:0:0:0:
109,192,118818,1,0,0:0:0:83:C#3S_Db3S.wav
256,192,118818,1,0,0:0:0:95:G#4S_Ab4S.wav
402,192,118818,1,0,0:0:0:90:C#5S_Db5S.wav
475,192,118818,1,0,0:0:0:81:F5S_s.wav
182,192,118984,1,0,0:0:0:84:A#5S_Bb5S_s.wav
329,192,119068,1,0,0:0:0:0:
109,192,119151,128,0,119651:0:0:0:90:C#6S_Db6S_s.wav
402,192,119151,1,0,0:0:0:75:C#7S_Db7S_s.wav
475,192,119151,1,0,0:0:0:0:
182,192,119318,1,0,0:0:0:93:F6S_s.wav
256,192,119318,1,0,0:0:0:78:F7S_s.wav
36,192,119484,1,0,0:0:0:80:G#6S_Ab6S.wav
329,192,119484,1,0,0:0:0:81:G#7S_Ab7S.wav
402,192,119484,1,0,0:0:0:0:
475,192,119484,1,0,0:0:0:0:
182,192,119651,1,0,0:0:0:0:
256,192,119651,128,0,120151:0:0:0:0:
36,192,119818,1,0,0:0:0:83:D#6S_Eb6S_s.wav
402,192,119818,1,0,0:0:0:70:D#7S_Eb7S_s.wav
109,192,119984,1,0,0:0:0:89:C#6S_Db6S_s.wav
182,192,119984,1,0,0:0:0:75:C#7S_Db7S_s.wav
109,192,120151,1,0,0:0:0:85:C#3S_Db3S_s.wav
182,192,120151,1,0,0:0:0:87:C6S_s.wav
402,192,120151,1,0,0:0:0:73:C7S_s.wav
475,192,120151,128,0,120484:0:0:0:0:
36,192,120318,1,0,0:0:0:81:F3S_s.wav
256,192,120318,1,0,0:0:0:86:C#6S_Db6S_s.wav
402,192,120318,1,0,0:0:0:72:C#7S_Db7S_s.wav
36,192,120484,1,0,0:0:0:84:G#3S_Ab3S.wav
109,192,120484,1,0,0:0:0:87:C5S.wav
329,192,120484,1,0,0:0:0:89:D#5S_Eb5S.wav
182,192,120651,1,0,0:0:0:85:C#6S_Db6S_s.wav
475,192,120651,1,0,0:0:0:70:C#7S_Db7S_s.wav
36,192,120818,1,0,0:0:0:92:D#6S_Eb6S_s.wav
256,192,120818,1,0,0:0:0:72:A#6S_Bb6S_s.wav
329,192,120818,1,0,0:0:0:77:D#7S_Eb7S_s.wav
402,192,120818,128,0,120901:0:0:0:94:A#7S_Bb7S_s.wav
109,192,120984,1,0,0:0:0:95:G#6S_Ab6S_s.wav
402,192,120984,128,0,121318:0:0:0:80:G#7S_Ab7S_s.wav
256,192,121151,1,0,0:0:0:77:C7S_s.wav
475,192,121151,1,0,0:0:0:83:C8S.wav
36,192,121318,128,0,121651:0:0:0:80:C6S_s.wav
182,192,121318,1,0,0:0:0:66:C7S.wav
329,192,121318,1,0,0:0:0:0:
182,192,121484,1,0,0:0:0:81:A#3S_Bb3S.wav
329,192,121484,1,0,0:0:0:88:A#4S_Bb4S.wav
402,192,121484,1,0,0:0:0:93:C#5S_Db5S.wav
475,192,121484,1,0,0:0:0:92:F5S.wav
256,192,121651,1,0,0:0:0:0:
402,192,121734,1,0,0:0:0:0:
36,192,121818,1,0,0:0:0:0:
182,192,121818,128,0,122318:0:0:0:0:
329,192,121818,1,0,0:0:0:0:
475,192,121984,1,0,0:0:0:0:
256,192,122068,1,0,0:0:0:0:
329,192,122068,1,0,0:0:0:0:
36,192,122151,1,0,0:0:0:87:A#6S_Bb6S.wav
109,192,122151,1,0,0:0:0:90:A#7S_Bb7S.wav
402,192,122151,1,0,0:0:0:0:
475,192,122151,1,0,0:0:0:0:
109,192,122318,1,0,0:0:0:0:
256,192,122318,1,0,0:0:0:0:
329,192,122318,128,0,122651:0:0:0:0:
36,192,122484,1,0,0:0:0:85:G#5S_Ab5S_s.wav
182,192,122484,1,0,0:0:0:85:F6S_s.wav
402,192,122651,1,0,0:0:0:0:
475,192,122651,1,0,0:0:0:0:
182,192,122707,1,0,0:0:0:81:F#5S_Gb5S_s.wav
256,192,122707,1,0,0:0:0:81:D#6S_Eb6S_s.wav
329,192,122818,1,0,0:0:0:0:
402,192,122818,1,0,0:0:0:0:
475,192,122818,1,0,0:0:0:0:
36,192,122929,1,0,0:0:0:82:F5S_s.wav
109,192,122929,1,0,0:0:0:75:C#6S_Db6S_s.wav
256,192,122984,1,0,0:0:0:0:
329,192,122984,1,0,0:0:0:0:
182,192,123068,1,0,0:0:0:0:
109,192,123151,1,0,0:0:0:88:F#3S_Gb3S.wav
402,192,123151,1,0,0:0:0:82:F#4S_Gb4S.wav
475,192,123151,1,0,0:0:0:79:A#4S_Bb4S.wav
36,192,123318,1,0,0:0:0:85:A#5S_Bb5S_s.wav
256,192,123318,1,0,0:0:0:70:A#6S_Bb6S_s.wav
182,192,123484,128,0,123568:0:0:0:81:C#6S_Db6S_s.wav
329,192,123484,1,0,0:0:0:68:C#7S_Db7S_s.wav
402,192,123484,1,0,0:0:0:81:C#8S_Db8S_s.wav
475,192,123484,1,0,0:0:0:0:
109,192,123651,1,0,0:0:0:88:F6S_s.wav
182,192,123651,128,0,123984:0:0:0:74:F7S_s.wav
256,192,123818,1,0,0:0:0:75:C7S_s.wav
402,192,123818,1,0,0:0:0:73:C8S_s.wav
36,192,123984,1,0,0:0:0:0:
109,192,123984,1,0,0:0:0:0:
329,192,123984,128,0,124484:0:0:0:0:
36,192,124151,1,0,0:0:0:83:C#3S_Db3S.wav
109,192,124151,1,0,0:0:0:95:G#4S_Ab4S.wav
402,192,124151,1,0,0:0:0:90:C#5S_Db5S.wav
475,192,124151,1,0,0:0:0:81:F5S_s.wav
182,192,124318,1,0,0:0:0:84:A#5S_Bb5S_s.wav
256,192,124318,1,0,0:0:0:70:A#6S_Bb6S_s.wav
475,192,124401,1,0,0:0:0:0:
36,192,124484,1,0,0:0:0:90:C#6S_Db6S_s.wav
182,192,124484,1,0,0:0:0:75:C#7S_Db7S_s.wav
402,192,124484,128,0,124818:0:0:0:0:
256,192,124651,1,0,0:0:0:86:F6S_s.wav
329,192,124651,1,0,0:0:0:72:F7S_s.wav
36,192,124818,1,0,0:0:0:80:G#6S_Ab6S_s.wav
109,192,124818,1,0,0:0:0:86:G#7S_Ab7S_s.wav
182,192,124818,1,0,0:0:0:0:
475,192,124818,1,0,0:0:0:0:
256,192,124984,128,0,125484:0:0:0:0:
402,192,124984,1,0,0:0:0:0:
36,192,125151,1,0,0:0:0:83:D#6S_Eb6S_s.wav
475,192,125151,1,0,0:0:0:70:D#7S_Eb7S_s.wav
109,192,125318,1,0,0:0:0:89:C#6S_Db6S_s.wav
182,192,125318,1,0,0:0:0:75:C#7S_Db7S_s.wav
329,192,125318,1,0,0:0:0:0:
109,192,125484,1,0,0:0:0:81:C#3S_Db3S_s.wav
182,192,125484,1,0,0:0:0:87:C6S_s.wav
402,192,125484,1,0,0:0:0:73:C7S_s.wav
475,192,125484,128,0,125818:0:0:0:88:F7S_s.wav
36,192,125651,1,0,0:0:0:76:F3S_s.wav
256,192,125651,1,0,0:0:0:86:C#6S_Db6S_s.wav
329,192,125734,1,0,0:0:0:0:
109,192,125818,128,0,126151:0:0:0:88:G#3S_Ab3S_s.wav
182,192,125818,1,0,0:0:0:95:G#4S_Ab4S_s.wav
402,192,125818,1,0,0:0:0:91:C5S_s.wav
256,192,125984,1,0,0:0:0:88:C#6S_Db6S_s.wav
329,192,125984,1,0,0:0:0:75:C#7S_Db7S_s.wav
36,192,126151,1,0,0:0:0:73:D#7S_Eb7S_s.wav
182,192,126151,1,0,0:0:0:88:D#8S_Eb8S_s.wav
402,192,126151,128,0,126234:0:0:0:0:
475,192,126151,1,0,0:0:0:0:
109,192,126318,128,0,126401:0:0:0:88:G#2S_Ab2S_s.wav
256,192,126318,1,0,0:0:0:95:G#4S_Ab4S_s.wav
402,192,126484,1,0,0:0:0:74:F7S_s.wav
475,192,126484,1,0,0:0:0:83:F8S_s.wav
36,192,126651,1,0,0:0:0:84:G#5S_Ab5S_s.wav
109,192,126651,1,0,0:0:0:71:G#6S_Ab6S_s.wav
329,192,126651,128,0,126734:0:0:0:0:
36,192,126818,1,0,0:0:0:85:A#2S_Bb2S_s.wav
109,192,126818,1,0,0:0:0:92:A#4S_Bb4S_s.wav
256,192,126818,128,0,128484:0:0:0:98:C#5S_Db5S_s.wav
402,192,126818,1,0,0:0:0:96:F5S_s.wav
182,192,126984,1,0,0:0:0:0:
329,192,127068,1,0,0:0:0:0:
109,192,127151,1,0,0:0:0:0:
475,192,127151,1,0,0:0:0:0:
182,192,127318,1,0,0:0:0:85:A#2S_Bb2S_s.wav
329,192,127318,1,0,0:0:0:92:A#4S_Bb4S_s.wav
36,192,127484,1,0,0:0:0:79:D#7S_Eb7S_s.wav
109,192,127484,1,0,0:0:0:87:D#8S_Eb8S_s.wav
402,192,127484,1,0,0:0:0:0:
475,192,127484,1,0,0:0:0:0:
182,192,127651,1,0,0:0:0:0:
36,192,127818,1,0,0:0:0:100:A#3S_Bb3S_s.wav
402,192,127818,1,0,0:0:0:85:G#5S_Ab5S_s.wav
182,192,127984,1,0,0:0:0:0:
329,192,127984,1,0,0:0:0:0:
475,192,128040,1,0,0:0:0:81:A#5S_Bb5S_s.wav
36,192,128151,1,0,0:0:0:100:G#3S_Ab3S_s.wav
109,192,128151,1,0,0:0:0:88:G#4S_Ab4S_s.wav
402,192,128151,1,0,0:0:0:94:G#7S_Ab7S_s.wav
182,192,128262,1,0,0:0:0:82:F5S_s.wav
329,192,128318,1,0,0:0:0:0:
402,192,128318,1,0,0:0:0:0:
475,192,128318,1,0,0:0:0:0:
36,192,128401,1,0,0:0:0:0:
109,192,128401,1,0,0:0:0:0:
182,192,128484,1,0,0:0:0:45:A#4S_Bb4S_s.wav
329,192,128484,1,0,0:0:0:45:F5S_s.wav
475,192,128484,1,0,0:0:0:55:G#6S_Ab6S_s.wav
256,192,128651,1,0,0:0:0:29:C#6S_Db6S_s.wav
109,192,128818,1,0,0:0:0:23:C6S_s.wav
475,192,128818,1,0,0:0:0:26:F6S_s.wav
329,192,128984,1,0,0:0:0:22:G#5S_Ab5S_s.wav
36,192,129151,1,0,0:0:0:29:F5S_s.wav
182,192,129151,1,0,0:0:0:28:G#6S_Ab6S_s.wav
402,192,129318,1,0,0:0:0:24:C#6S_Db6S_s.wav
109,192,129484,1,0,0:0:0:24:C6S_s.wav
256,192,129484,1,0,0:0:0:27:F6S_s.wav
329,192,129651,1,0,0:0:0:22:G#5S_Ab5S_s.wav
36,192,129818,1,0,0:0:0:29:F5S_s.wav
475,192,129818,1,0,0:0:0:29:G#6S_Ab6S_s.wav
182,192,129984,1,0,0:0:0:11:C#6S_Db6S_s.wav
109,192,130151,1,0,0:0:0:20:C6S_s.wav
402,192,130151,1,0,0:0:0:26:F6S_s.wav
256,192,130318,1,0,0:0:0:22:G#5S_Ab5S_s.wav
36,192,130484,1,0,0:0:0:19:F5S_s.wav
256,192,130651,1,0,0:0:0:11:D#5S_Eb5S_s.wav
475,192,130651,1,0,0:0:0:26:C#7S_Db7S_s.wav
182,192,130818,1,0,0:0:0:11:D#6S_Eb6S_s.wav
402,192,130818,1,0,0:0:0:26:C7S_s.wav
109,192,130984,1,0,0:0:0:11:A#5S_Bb5S_s.wav
109,192,131151,1,0,0:0:0:30:F5S_s.wav
256,192,131151,1,0,0:0:0:37:G#6S_Ab6S_s.wav
475,192,131318,1,0,0:0:0:19:C#6S_Db6S_s.wav
36,192,131484,1,0,0:0:0:23:C6S_s.wav
182,192,131484,1,0,0:0:0:26:F6S_s.wav
329,192,131651,1,0,0:0:0:22:G#5S_Ab5S_s.wav
109,192,131818,1,0,0:0:0:29:F5S_s.wav
402,192,131818,1,0,0:0:0:28:G#6S_Ab6S_s.wav
182,192,131984,1,0,0:0:0:24:C#6S_Db6S_s.wav
36,192,132151,1,0,0:0:0:24:C6S_s.wav
329,192,132151,1,0,0:0:0:27:F6S_s.wav
256,192,132318,1,0,0:0:0:22:G#5S_Ab5S_s.wav
182,192,132484,1,0,0:0:0:29:F5S_s.wav
402,192,132484,1,0,0:0:0:29:G#6S_Ab6S_s.wav
329,192,132651,1,0,0:0:0:11:C#6S_Db6S_s.wav
109,192,132818,1,0,0:0:0:20:C6S_s.wav
475,192,132818,1,0,0:0:0:26:F6S_s.wav
182,192,132984,1,0,0:0:0:22:G#5S_Ab5S_s.wav
329,192,133151,1,0,0:0:0:19:F5S_s.wav
36,192,133318,1,0,0:0:0:19:C#6S_Db6S_s.wav
475,192,133318,1,0,0:0:0:26:F7S_s.wav
109,192,133484,1,0,0:0:0:70:G#5S_Ab5S.wav
402,192,133484,1,0,0:0:0:0:
256,192,133651,1,0,0:0:0:19:F#5S_Gb5S_s.wav
36,192,133818,1,0,0:0:0:25:F5S_s.wav
329,192,133818,1,0,0:0:0:30:G#6S_Ab6S_s.wav
182,192,133984,1,0,0:0:0:19:C#6S_Db6S_s.wav
109,192,134151,1,0,0:0:0:23:C6S_s.wav
475,192,134151,1,0,0:0:0:26:F6S_s.wav
402,192,134318,1,0,0:0:0:22:G#5S_Ab5S_s.wav
182,192,134484,1,0,0:0:0:25:F5S_s.wav
329,192,134484,1,0,0:0:0:22:G#6S_Ab6S_s.wav
475,192,134651,1,0,0:0:0:24:C#6S_Db6S_s.wav
109,192,134818,1,0,0:0:0:24:C6S_s.wav
256,192,134818,1,0,0:0:0:27:F6S_s.wav
402,192,134984,1,0,0:0:0:22:G#5S_Ab5S_s.wav
182,192,135151,1,0,0:0:0:23:F5S_s.wav
475,192,135151,1,0,0:0:0:24:G#6S_Ab6S_s.wav
256,192,135318,1,0,0:0:0:11:C#6S_Db6S_s.wav
109,192,135484,1,0,0:0:0:20:C6S_s.wav
329,192,135484,1,0,0:0:0:26:F6S_s.wav
182,192,135651,1,0,0:0:0:22:G#5S_Ab5S_s.wav
36,192,135818,1,0,0:0:0:19:F5S_s.wav
182,192,135984,1,0,0:0:0:11:D#5S_Eb5S_s.wav
402,192,135984,1,0,0:0:0:26:C#7S_Db7S_s.wav
109,192,136151,1,0,0:0:0:11:D#6S_Eb6S_s.wav
329,192,136151,1,0,0:0:0:26:C7S_s.wav
256,192,136318,1,0,0:0:0:11:A#5S_Bb5S_s.wav
36,192,136484,1,0,0:0:0:25:F#5S_Gb5S_s.wav
256,192,136484,1,0,0:0:0:30:G#6S_Ab6S_s.wav
402,192,136651,1,0,0:0:0:19:C#6S_Db6S_s.wav
109,192,136818,1,0,0:0:0:23:C6S_s.wav
182,192,136818,1,0,0:0:0:26:F6S_s.wav
329,192,136984,1,0,0:0:0:22:G#5S_Ab5S_s.wav
36,192,137151,1,0,0:0:0:25:F#5S_Gb5S_s.wav
256,192,137151,1,0,0:0:0:22:G#6S_Ab6S_s.wav
475,192,137318,1,0,0:0:0:24:C#6S_Db6S_s.wav
109,192,137484,1,0,0:0:0:24:C6S_s.wav
402,192,137484,1,0,0:0:0:27:F6S_s.wav
182,192,137651,1,0,0:0:0:22:G#5S_Ab5S_s.wav
36,192,137818,1,0,0:0:0:23:F#5S_Gb5S_s.wav
256,192,137818,1,0,0:0:0:24:G#6S_Ab6S_s.wav
402,192,137984,1,0,0:0:0:11:C#6S_Db6S_s.wav
109,192,138151,1,0,0:0:0:20:C6S_s.wav
329,192,138151,1,0,0:0:0:26:F6S_s.wav
182,192,138318,1,0,0:0:0:22:G#5S_Ab5S_s.wav
36,192,138484,1,0,0:0:0:19:F#5S_Gb5S_s.wav
329,192,138651,1,0,0:0:0:19:C#6S_Db6S_s.wav
475,192,138651,1,0,0:0:0:26:G#7S_Ab7S_s.wav
36,192,138818,1,0,0:0:0:19:A#5S_Bb5S_s.wav
256,192,138818,1,0,0:0:0:0:
402,192,138984,1,0,0:0:0:19:F#5S_Gb5S_s.wav
109,192,139151,1,0,0:0:0:25:F5S_s.wav
329,192,139151,1,0,0:0:0:30:G#6S_Ab6S_s.wav
475,192,139318,1,0,0:0:0:19:C#6S_Db6S_s.wav
36,192,139484,1,0,0:0:0:23:C6S_s.wav
182,192,139484,1,0,0:0:0:26:F6S_s.wav
402,192,139651,1,0,0:0:0:22:G#5S_Ab5S_s.wav
109,192,139818,1,0,0:0:0:25:F5S_s.wav
329,192,139818,1,0,0:0:0:22:G#6S_Ab6S_s.wav
182,192,139984,1,0,0:0:0:24:C#6S_Db6S_s.wav
36,192,140151,1,0,0:0:0:24:C6S_s.wav
402,192,140151,1,0,0:0:0:27:F6S_s.wav
256,192,140318,1,0,0:0:0:22:G#5S_Ab5S_s.wav
109,192,140484,1,0,0:0:0:23:F5S_s.wav
402,192,140484,1,0,0:0:0:24:G#6S_Ab6S_s.wav
475,192,140651,1,0,0:0:0:11:C#6S_Db6S_s.wav
36,192,140818,1,0,0:0:0:20:C6S_s.wav
329,192,140818,1,0,0:0:0:26:F6S_s.wav
256,192,140984,1,0,0:0:0:22:G#5S_Ab5S_s.wav
109,192,141151,1,0,0:0:0:19:F5S_s.wav
36,192,141318,1,0,0:0:0:11:D#5S_Eb5S_s.wav
475,192,141318,1,0,0:0:0:26:C#7S_Db7S_s.wav
182,192,141484,1,0,0:0:0:11:D#6S_Eb6S_s.wav
329,192,141484,1,0,0:0:0:26:C7S_s.wav
402,192,141651,1,0,0:0:0:11:A#5S_Bb5S_s.wav
109,192,141818,1,0,0:0:0:25:F5S_s.wav
402,192,141818,1,0,0:0:0:30:G#6S_Ab6S_s.wav
256,192,141984,1,0,0:0:0:19:C#6S_Db6S_s.wav
329,192,142151,1,0,0:0:0:23:C6S_s.wav
475,192,142151,1,0,0:0:0:26:F6S_s.wav
109,192,142318,1,0,0:0:0:22:G#5S_Ab5S_s.wav
182,192,142484,1,0,0:0:0:25:F5S_s.wav
402,192,142484,1,0,0:0:0:22:G#6S_Ab6S_s.wav
256,192,142651,1,0,0:0:0:24:C#6S_Db6S_s.wav
36,192,142818,1,0,0:0:0:24:C6S_s.wav
182,192,142818,1,0,0:0:0:27:F6S_s.wav
329,192,142984,1,0,0:0:0:22:G#5S_Ab5S_s.wav
402,192,142984,1,0,0:0:0:25:D#6S_Eb6S_s.wav
109,192,143151,1,0,0:0:0:23:F5S_s.wav
256,192,143151,1,0,0:0:0:24:G#6S_Ab6S_s.wav
475,192,143318,1,0,0:0:0:11:C#6S_Db6S_s.wav
36,192,143484,1,0,0:0:0:20:C6S_s.wav
329,192,143484,1,0,0:0:0:26:F6S_s.wav
109,192,143651,1,0,0:0:0:22:G#5S_Ab5S_s.wav
256,192,143818,1,0,0:0:0:19:F5S_s.wav
182,192,143984,1,0,0:0:0:19:C#6S_Db6S_s.wav
475,192,143984,1,0,0:0:0:26:F7S_s.wav
36,192,144151,1,0,0:0:0:70:G#5S_Ab5S.wav
329,192,144151,1,0,0:0:0:0:
256,192,144318,1,0,0:0:0:19:F#5S_Gb5S_s.wav
109,192,144484,1,0,0:0:0:25:F5S_s.wav
182,192,144484,1,0,0:0:0:30:G#6S_Ab6S_s.wav
329,192,144651,1,0,0:0:0:19:C#6S_Db6S_s.wav
109,192,144818,1,0,0:0:0:23:C6S_s.wav
475,192,144818,1,0,0:0:0:26:F6S_s.wav
182,192,144984,1,0,0:0:0:22:G#5S_Ab5S_s.wav
36,192,145151,1,0,0:0:0:25:F5S_s.wav
256,192,145151,1,0,0:0:0:22:G#6S_Ab6S_s.wav
402,192,145318,1,0,0:0:0:24:C#6S_Db6S_s.wav
109,192,145484,1,0,0:0:0:24:C6S_s.wav
256,192,145484,1,0,0:0:0:27:F6S_s.wav
329,192,145651,1,0,0:0:0:22:G#5S_Ab5S_s.wav
36,192,145818,1,0,0:0:0:23:F5S_s.wav
182,192,145818,1,0,0:0:0:24:G#6S_Ab6S_s.wav
402,192,145984,1,0,0:0:0:11:C#6S_Db6S_s.wav
109,192,146151,1,0,0:0:0:20:C6S_s.wav
329,192,146151,1,0,0:0:0:26:F6S_s.wav
182,192,146318,1,0,0:0:0:22:G#5S_Ab5S_s.wav
36,192,146484,1,0,0:0:0:19:F5S_s.wav
402,192,146484,1,0,0:0:0:0:
109,192,146651,1,0,0:0:0:11:D#5S_Eb5S_s.wav
329,192,146651,1,0,0:0:0:26:C#7S_Db7S_s.wav
182,192,146818,1,0,0:0:0:11:D#6S_Eb6S_s.wav
402,192,146818,1,0,0:0:0:26:C7S_s.wav
256,192,146984,1,0,0:0:0:11:A#5S_Bb5S_s.wav
36,192,147151,1,0,0:0:0:25:F#5S_Gb5S_s.wav
475,192,147151,1,0,0:0:0:30:A#6S_Bb6S_s.wav
182,192,147318,1,0,0:0:0:19:C#6S_Db6S_s.wav
109,192,147484,1,0,0:0:0:23:C6S_s.wav
402,192,147484,1,0,0:0:0:26:D#6S_Eb6S_s.wav
256,192,147651,1,0,0:0:0:22:G#5S_Ab5S_s.wav
182,192,147818,1,0,0:0:0:25:F#5S_Gb5S_s.wav
475,192,147818,1,0,0:0:0:30:A#6S_Bb6S_s.wav
329,192,147984,1,0,0:0:0:24:C#6S_Db6S_s.wav
36,192,148151,1,0,0:0:0:24:C6S_s.wav
402,192,148151,1,0,0:0:0:0:
182,192,148318,1,0,0:0:0:22:G#5S_Ab5S_s.wav
109,192,148443,1,0,0:0:0:0:
256,192,148484,1,0,0:0:0:23:F#5S_Gb5S_s.wav
402,192,148526,1,0,0:0:0:0:
475,192,148526,1,0,0:0:0:0:
329,192,148651,1,0,0:0:0:11:C#6S_Db6S_s.wav
182,192,148818,1,0,0:0:0:20:C6S_s.wav
256,192,148984,1,0,0:0:0:22:G#5S_Ab5S_s.wav
402,192,148984,1,0,0:0:0:25:D#6S_Eb6S_s.wav
36,192,149151,1,0,0:0:0:19:F#5S_Gb5S_s.wav
475,192,149318,1,0,0:0:0:19:C#6S_Db6S_s.wav
256,192,149484,1,0,0:0:0:19:A#5S_Bb5S_s.wav
109,192,149651,1,0,0:0:0:19:F#5S_Gb5S.wav
36,192,152484,1,0,0:0:0:46:C#6S_Db6S.wav
182,192,152484,1,0,0:0:0:46:G#6S_Ab6S.wav
329,192,152484,1,0,0:0:0:46:F7S.wav
475,192,152484,1,0,0:0:0:0:
