osu file format v14

[General]
AudioFilename: audio.mp3
AudioLeadIn: 0
PreviewTime: 47199
Countdown: 0
SampleSet: Soft
StackLeniency: 0.7
Mode: 0
LetterboxInBreaks: 0
WidescreenStoryboard: 0

[Editor]
DistanceSpacing: 1
BeatDivisor: 4
GridSize: 4
TimelineZoom: 1

[Metadata]
Title:Last Christmas
TitleUnicode:Last Christmas
Artist:ALEX TERRIBLE
ArtistUnicode:ALEX TERRIBLE
Creator:Blitzifyyy
Version:Serdtse
Source:
Tags:WashedUp Player Kudosu soop so0p Slaughter to Prevail Cover Parody Deathcore Metal Pop Wham! English Aleksandr Shikolai Александр Шиколай
BeatmapID:2742325
BeatmapSetID:1323906

[Difficulty]
HPDrainRate:7
CircleSize:5
OverallDifficulty:8
ApproachRate:8.8
SliderMultiplier:3
SliderTickRate:1

[Events]
//Background and Video events
0,0,"shamone.jpg",0,0
Video,0,"Alex Terrible Last Christmas.mp4"
//Break Periods
2,83374,93507
//Storyboard Layer 0 (Background)
//Storyboard Layer 1 (Fail)
//Storyboard Layer 2 (Pass)
//Storyboard Layer 3 (Foreground)
//Storyboard Layer 4 (Overlay)
//Storyboard Sound Samples

[TimingPoints]
119,600,4,2,1,65,1,0
19244,600,4,2,1,65,1,0
24044,-200,4,2,1,65,0,0
26744,-200,4,2,1,5,0,0
26894,-200,4,2,1,65,0,0
28844,-200,4,2,1,5,0,0
29499,562.060889929742,4,2,1,75,1,0
29499,-100,4,2,1,75,0,0
29920,-100,4,2,1,5,0,0
30062,-100,4,2,1,75,0,0
31045,-100,4,2,1,5,0,0
31186,-100,4,2,1,75,0,0
34417,-100,4,2,1,5,0,0
34558,-100,4,2,1,75,0,0
35541,-100,4,2,1,5,0,0
35682,-100,4,2,1,75,0,0
40038,-100,4,2,1,5,0,0
40179,-100,4,2,1,75,0,0
42005,-100,4,2,1,5,0,0
42146,-100,4,2,1,75,0,0
42848,-100,4,2,1,5,0,0
42988,-100,4,2,1,75,0,0
43409,-100,4,2,1,5,0,0
43550,-100,4,2,1,75,0,0
44533,-100,4,2,1,5,0,0
44674,-100,4,2,1,75,0,0
47484,-90.9090909090909,4,2,1,85,0,1
59990,-90.9090909090909,4,2,1,5,0,1
60131,-90.9090909090909,4,2,1,85,0,1
65330,-90.9090909090909,4,2,1,85,0,0
65470,-90.9090909090909,4,2,1,85,0,1
77976,-90.9090909090909,4,2,1,5,0,1
78117,-90.9090909090909,4,2,1,85,0,1
82520,-124.223602484472,4,2,1,75,0,0
83175,-133.333333333333,4,2,1,5,0,0
94136,-133.333333333333,4,2,1,20,0,0
96946,-133.333333333333,4,2,1,5,0,0

[Colours]
Combo1 : 192,192,192
Combo2 : 237,220,3
Combo3 : 238,17,17
Combo4 : 0,64,128

[HitObjects]
76,153,24044,6,0,P|66:117|81:76,2,75,2|2|2,0:0|0:0|0:0,0:0:0:0:
144,230,25244,6,0,P|154:266|139:307,2,75,2|2|2,0:0|0:0|0:0,0:0:0:0:
135,127,26444,6,0,L|218:126,1,75,2|0,0:0|2:0,0:0:0:0:
283,166,26894,1,2,0:0:0:0:
283,166,27044,2,0,L|371:165,2,75,2|2|2,0:0|0:0|0:0,0:0:0:0:
256,192,27719,12,0,28844,2:0:0:0:
147,38,29499,6,0,B|120:23|124:-11|151:-25|181:-11|200:14|206:53|148:149,1,225,6|0,1:2|2:0,0:0:0:0:
96,181,30062,6,0,L|22:173,1,75,10|0,0:0|0:0,0:0:0:0:
132,259,30343,2,0,L|58:251,1,75,2|2,0:0|0:1,0:0:0:0:
273,356,30624,6,0,B|242:388|242:388|246:316|246:316|242:307|242:307|248:300|248:300|254:201,1,225,2|0,1:2|2:0,0:0:0:0:
300,129,31186,6,0,B|258:136|258:136|218:125,1,75,10|0,0:0|0:0,0:0:0:0:
327,50,31467,2,0,B|285:57|285:57|245:46,1,75,2|2,0:0|0:1,0:0:0:0:
476,26,31748,6,0,L|465:112,1,75,2|0,1:2|0:0,0:0:0:0:
374,180,32029,2,0,L|385:266,1,75,2|2,0:0|0:1,0:0:0:0:
493,16,32310,6,0,L|482:102,1,75,10|0,0:0|0:0,0:0:0:0:
368,268,32591,2,0,B|302:262|302:262|283:268|283:268|203:261,1,150,2|2,0:0|1:0,0:0:0:0:
97,78,33153,6,0,P|115:112|109:163,1,75,2|0,0:0|0:0,0:0:0:0:
13,291,33434,2,0,P|31:265|56:366,1,225,10|2,0:0|0:1,0:0:0:0:
212,261,33996,6,0,B|269:226|323:262|323:262|376:295|435:275,1,225,6|0,1:2|2:0,0:0:0:0:
510,155,34557,6,0,L|503:230,1,75,14|0,0:0|0:0,0:0:0:0:
436,87,34839,2,0,L|428:161,1,75,2|2,0:0|0:1,0:0:0:0:
300,371,35120,6,0,B|373:374|404:336|404:336|426:374|510:379,1,225,2|0,1:2|2:0,0:0:0:0:
324,183,35682,6,0,B|335:219|335:219|333:264,1,75,10|0,0:0|0:0,0:0:0:0:
240,165,35963,2,0,B|251:201|251:201|249:246,1,75,2|2,0:0|0:1,0:0:0:0:
170,368,36244,6,0,L|268:363,1,75,2|2,1:2|0:1,0:0:0:0:
10,271,36525,2,0,L|108:276,1,75,2|2,0:0|0:1,0:0:0:0:
188,379,36806,6,0,L|286:374,1,75,10|0,0:0|0:0,0:0:0:0:
423,256,37087,2,0,B|389:282|350:271|329:236|355:190|355:190|377:157|352:103,1,225,2|2,0:0|0:1,0:0:0:0:
285,75,37649,6,0,L|195:79,1,75,10|0,0:0|0:0,0:0:0:0:
341,0,37930,2,0,L|251:4,1,75,10|2,0:0|0:1,0:0:0:0:
111,106,38211,1,10,0:0:0:0:
79,143,38352,1,8,0:0:0:0:
102,186,38492,6,0,B|130:224|122:251|122:251|118:259|118:259|122:266|122:266|131:309|96:356|47:350|19:304,1,225,10|2,0:0|0:1,0:0:0:0:
119,259,39054,6,0,L|222:261,1,75,14|0,0:0|0:0,0:0:0:0:
71,330,39336,2,0,L|174:332,1,75,2|2,0:0|0:1,0:0:0:0:
336,326,39617,6,0,B|316:336|305:369|305:369|300:188,1,225,2|0,1:2|2:0,0:0:0:0:
242,147,40179,6,0,L|151:141,1,75,10|0,0:0|0:0,0:0:0:0:
292,77,40460,2,0,L|201:71,1,75,2|2,0:0|0:1,0:0:0:0:
398,132,40741,6,0,P|410:90|403:32,1,75,2|2,1:2|0:1,0:0:0:0:
484,304,41022,2,0,P|472:262|479:204,1,75,2|0,0:0|0:0,0:0:0:0:
386,118,41303,6,0,P|398:76|391:18,1,75,10|0,0:0|0:0,0:0:0:0:
493,325,41584,2,0,B|358:320|358:320|303:299|260:323,1,225,2|0,0:0|2:0,0:0:0:0:
201,367,42146,6,0,L|193:276,1,75,2|2,0:0|0:1,0:0:0:0:
60,169,42427,2,0,B|134:162|134:162|148:165|148:165|168:154|196:158|196:158|205:150|205:150|286:138,1,225,10|0,0:0|2:0,0:0:0:0:
449,63,42988,6,0,B|411:33|363:56|361:112|419:133|419:133|464:164|447:228,1,225,6|0,1:2|2:0,0:0:0:0:
425,253,43550,6,0,L|332:242,1,75,14|0,0:0|0:0,0:0:0:0:
467,334,43831,2,0,L|374:323,1,75,2|2,0:0|0:1,0:0:0:0:
157,285,44112,6,0,B|207:273|238:224|238:224|223:291|241:357,1,225,2|0,1:2|2:0,0:0:0:0:
76,338,44674,6,0,P|64:300|67:240,1,75,10|0,0:0|0:0,0:0:0:0:
172,98,44955,2,0,P|160:135|163:196,1,75,2|2,0:0|0:1,0:0:0:0:
16,21,45236,6,0,L|97:12,1,75,2|2,1:2|0:1,0:0:0:0:
198,99,45517,2,0,L|279:108,1,75,14|0,0:0|0:0,0:0:0:0:
450,179,45798,1,2,1:2:0:0:
426,159,45939,2,0,B|402:91|402:91|434:7,1,150,12|2,0:0|0:1,0:0:0:0:
506,259,46360,6,0,B|422:255|422:255|406:259|406:259|326:255,1,150,12|2,0:0|0:0,0:0:0:0:
194,175,46782,1,8,0:0:0:0:
186,191,46922,2,0,L|194:283,1,75,10|2,1:2|0:1,0:0:0:0:
370,99,47203,1,10,0:0:0:0:
326,119,47344,1,8,0:0:0:0:
282,99,47484,6,0,B|252:87|252:87|229:91|229:91|211:87|211:87|192:99|192:99|177:116|177:116|154:126|154:126|142:150|142:150|120:159|120:159|99:169|99:169|79:167|79:167|60:163|60:163|30:162|30:162|8:147|8:147|-17:134|-17:134|-20:109,1,330.000010070801,6|12,1:2|0:0,0:0:0:0:
247,326,48328,6,0,B|254:298|254:298|245:280|245:280|252:259|252:259|245:245|245:245|252:226|252:226|243:208|243:208|248:186|248:186|241:170,1,165.000005035401,2|2,0:0|1:0,0:0:0:0:
342,384,48890,2,0,B|349:356|349:356|340:338|340:338|347:317|347:317|340:303|340:303|347:284|347:284|338:266|338:266|343:244|343:244|336:228,1,165.000005035401,2|8,0:0|0:0,0:0:0:0:
79,57,49452,2,0,B|66:74|66:74|63:90|63:90|69:116|69:116|86:130,1,82.5000025177003,2|2,0:0|0:1,0:0:0:0:
196,188,49733,6,0,B|221:186|221:186|238:178|238:178|257:186|257:186|279:188,1,82.5000025177003,2|0,1:2|0:0,0:0:0:0:
358,44,50014,2,0,B|346:66|346:66|345:85|345:85|329:97|329:97|316:115,1,82.5000025177003,2|2,0:0|0:1,0:0:0:0:
401,256,50295,2,0,B|386:234|386:234|371:224|371:224|368:204|368:204|359:184,1,82.5000025177003,10|0,0:0|0:0,0:0:0:0:
152,336,50576,6,0,B|190:325|190:325|239:338|239:338|326:337,1,165.000005035401,2|2,0:0|1:0,0:0:0:0:
77,191,51138,2,0,L|88:282,1,82.5000025177003,8|0,0:0|0:0,0:0:0:0:
19,41,51419,2,0,B|12:75|12:75|18:91|18:91|8:132,1,82.5000025177003,10|2,0:0|0:1,0:0:0:0:
112,283,51700,2,0,B|105:249|105:249|111:233|111:233|101:192,1,82.5000025177003,2|2,0:0|0:1,0:0:0:0:
23,21,51981,6,0,B|44:24|44:24|55:21|55:21|78:23|78:23|82:20|82:20|109:22,1,82.5000025177003,6|2,1:2|0:1,0:0:0:0:
214,103,52262,2,0,B|235:100|235:100|246:103|246:103|269:101|269:101|273:104|273:104|300:102,1,82.5000025177003,2|0,0:0|0:0,0:0:0:0:
485,63,52543,2,0,B|485:37|485:37|457:19|457:19|460:105|460:105|457:112|457:112|459:118|459:118|460:238,1,247.500007553101,14|2,0:0|0:1,0:0:0:0:
424,338,53105,6,0,B|452:337|452:337|467:319|467:319|464:294|464:294|433:287|433:287|404:306|404:306|374:308|374:308|353:327|353:327|319:322|319:322|291:327|291:327|273:322|273:322|237:331|237:331|193:322,1,330.000010070801,2|8,1:2|0:0,0:0:0:0:
454,125,53948,2,0,B|451:154|451:154|456:164|456:164|455:195|455:195|461:209,1,82.5000025177003,2|2,0:0|0:1,0:0:0:0:
291,48,54229,6,0,B|349:42|349:42|381:55,1,82.5000025177003,2|2,1:2|0:1,0:0:0:0:
216,143,54510,2,0,B|181:95|181:95|177:61,1,82.5000025177003,2|2,0:0|0:1,0:0:0:0:
335,160,54791,2,0,B|311:213|311:213|283:234,1,82.5000025177003,10|0,0:0|0:0,0:0:0:0:
131,337,55072,6,0,B|85:327|85:327|166:320|166:320|172:324|172:324|224:322|224:322|232:325|232:325|291:322,1,247.500007553101,2|2,0:0|0:1,0:0:0:0:
378,308,55634,2,0,P|390:343|370:389,1,82.5000025177003,8|0,0:0|0:0,0:0:0:0:
445,229,55915,1,0,1:0:0:0:
431,211,56056,2,0,P|419:176|516:148,1,165.000005035401,8|8,0:0|0:0,0:0:0:0:
319,232,56477,6,0,B|287:221|287:221|278:227|278:227|266:223|266:223|258:227|258:227|247:224|247:224|239:229|239:229|231:223|231:223|220:229|220:229|212:222|212:222|200:227|200:227|191:221|191:221|181:227|181:227|172:220|172:220|163:226|163:226|150:219|150:219|141:224|141:224|137:218|137:218|129:224|129:224|119:219|119:219|115:225|115:225|106:220|106:220|102:227|102:227|92:221|92:221|88:229|88:229|76:224|76:224|76:231|76:231|65:227|65:227|67:235|67:235|54:233|54:233,1,330.000010070801,10|12,0:0|0:0,0:0:0:0:
20,88,57321,6,0,B|51:77|51:77|60:83|60:83|72:79|72:79|80:83|80:83|91:80|91:80|99:85|99:85|107:79|107:79|118:85|118:85|126:78|126:78|138:83|138:83|147:77|147:77|157:83|157:83|166:76|166:76|175:82|175:82|188:75|188:75|197:80|197:80|201:74|201:74|209:80|209:80|219:75|219:75|223:81|223:81|232:76|232:76|236:83|236:83|246:77|246:77|250:85|250:85|262:80|262:80|262:87|262:87|273:83|273:83|271:91|271:91|284:89|284:89,1,330.000010070801,2|2,0:0|0:1,0:0:0:0:
438,259,58164,2,0,L|439:167,1,82.5000025177003,8|0,0:0|0:0,0:0:0:0:
351,324,58445,2,0,B|348:286|348:286|352:272|352:272|348:216,1,82.5000025177003,2|2,0:0|0:1,0:0:0:0:
203,160,58726,6,0,B|228:161|228:161|287:146,1,82.5000025177003,2|2,1:2|0:1,0:0:0:0:
130,93,59007,2,0,B|115:113|115:113|99:172,1,82.5000025177003,2|0,0:0|0:0,0:0:0:0:
224,63,59288,2,0,B|212:40|212:40|170:-3,1,82.5000025177003,10|0,0:0|0:0,0:0:0:0:
20,144,59569,6,0,B|35:160|35:160|34:182|34:182|24:201|24:201|19:218|19:218|22:232|22:232|37:244|37:244|47:264|47:264|46:284|46:284|31:303|31:303|30:329|30:329|40:357|40:357|56:365,1,247.500007553101,2|0,0:0|2:0,0:0:0:0:
135,362,60131,2,0,L|222:360,1,82.5000025177003,8|2,0:0|0:1,0:0:0:0:
313,304,60412,2,0,L|400:306,1,82.5000025177003,8|2,0:0|0:1,0:0:0:0:
213,382,60693,2,0,B|162:383|162:383|154:385|154:385|100:383,1,82.5000025177003,2|0,0:0|0:0,0:0:0:0:
38,308,60974,6,0,B|29:244|29:244|37:226|37:226|16:140,2,165.000005035401,2|2|14,1:2|0:0|0:0,0:0:0:0:
148,208,61817,6,0,B|203:192|203:192|231:202|231:202|252:187|252:187|334:201,1,165.000005035401,2|2,0:0|1:0,0:0:0:0:
447,364,62379,2,0,B|406:294|406:294|434:202,1,165.000005035401,2|10,0:0|0:0,0:0:0:0:
468,68,62941,6,0,B|427:74|427:74|407:68|407:68|362:81|362:81|337:73|337:73|291:82,1,165.000005035401,2|2,0:0|1:0,0:0:0:0:
200,168,63503,2,0,B|155:178|155:178|113:166,1,82.5000025177003,14|0,0:0|0:0,0:0:0:0:
11,88,63784,1,2,1:0:0:0:
0,110,63925,2,0,L|12:279,1,165.000005035401,12|2,0:0|0:1,0:0:0:0:
41,356,64346,6,0,B|81:330|123:353|123:353|165:376|212:361,1,165.000005035401,12|2,0:0|0:1,0:0:0:0:
282,315,64768,1,8,0:0:0:0:
299,294,64908,2,0,L|292:202,1,82.5000025177003,8|2,1:2|0:1,0:0:0:0:
411,72,65189,2,0,B|406:102|406:102|410:119|410:119|403:133|403:133|404:164,1,82.5000025177003,10|8,0:0|0:0,0:0:0:0:
279,285,65470,6,0,B|249:297|249:297|226:293|226:293|208:297|208:297|189:285|189:285|176:267|176:267|146:261|146:261|139:239|139:239|113:222|113:222|120:194|120:194|110:172|110:172|131:151|131:151|135:126|135:126|168:121|168:121,1,330.000010070801,6|8,1:2|0:0,0:0:0:0:
433,290,66314,6,0,B|405:297|405:297|387:288|387:288|366:295|366:295|352:288|352:288|333:295|333:295|315:286|315:286|293:291|293:291|277:284,1,165.000005035401,2|2,0:0|1:0,0:0:0:0:
512,380,66876,2,0,B|484:387|484:387|466:378|466:378|445:385|445:385|431:378|431:378|412:385|412:385|394:376|394:376|372:381|372:381|356:374,1,165.000005035401,2|8,0:0|0:0,0:0:0:0:
79,327,67438,2,0,B|66:310|66:310|64:281|64:281|86:254,1,82.5000025177003,2|2,0:0|0:1,0:0:0:0:
196,196,67719,6,0,B|227:192|227:192|247:200|247:200|279:196,1,82.5000025177003,2|0,1:2|0:0,0:0:0:0:
358,340,68000,2,0,B|339:315|339:315|335:293|335:293|316:268,1,82.5000025177003,2|2,0:0|0:1,0:0:0:0:
401,127,68281,2,0,B|388:155|388:155|371:170|371:170|359:199,1,82.5000025177003,10|0,0:0|0:0,0:0:0:0:
152,48,68562,6,0,B|190:59|190:59|230:47|230:47|268:58|268:58|326:47,1,165.000005035401,2|2,0:0|1:0,0:0:0:0:
486,122,69124,2,0,L|477:204,1,82.5000025177003,2|0,0:1|0:0,0:0:0:0:
401,300,69405,2,0,B|408:329|408:329|402:345|402:345|409:379,1,82.5000025177003,10|2,0:0|0:1,0:0:0:0:
503,191,69686,2,0,B|511:162|511:162|505:146|505:146|512:112,1,82.5000025177003,2|2,0:0|0:1,0:0:0:0:
428,21,69967,6,0,B|407:24|407:24|396:21|396:21|373:23|373:23|369:20|369:20|342:22,1,82.5000025177003,6|2,1:2|0:1,0:0:0:0:
245,106,70248,2,0,B|224:103|224:103|213:106|213:106|190:104|190:104|186:107|186:107|159:105,1,82.5000025177003,2|0,0:0|0:0,0:0:0:0:
0,57,70529,2,0,B|28:13|28:13|25:99|25:99|20:111|20:111|20:227,1,247.500007553101,14|2,0:0|0:1,0:0:0:0:
64,325,71091,6,0,B|30:347|30:347|12:321|12:321|27:292|27:292|63:290|63:290|97:323|97:323|151:321|151:321|159:324|159:324|206:323|206:323|212:326|212:326|254:324,1,330.000010070801,2|8,1:2|0:0,0:0:0:0:
474,143,71934,2,0,B|471:172|471:172|476:182|476:182|474:197|474:197|469:203|469:203|470:230,1,82.5000025177003,2|2,0:0|0:1,0:0:0:0:
392,350,72215,6,0,B|359:355|359:355|334:356|334:356|302:343,1,82.5000025177003,2|2,1:2|0:1,0:0:0:0:
467,255,72496,2,0,B|484:275|484:275|502:303|502:303|506:337,1,82.5000025177003,2|2,0:0|0:1,0:0:0:0:
348,238,72777,2,0,B|353:214|353:214|372:185|372:185|400:164,1,82.5000025177003,10|0,0:0|0:0,0:0:0:0:
454,14,73058,6,0,B|504:46|504:46|396:47|396:47|364:33|364:33|335:46|335:46|219:44,1,330.000010070801,2|8,0:0|0:0,0:0:0:0:
21,128,73901,2,0,P|31:85|19:44,1,82.5000025177003,12|2,0:0|0:1,0:0:0:0:
120,187,74182,1,8,0:0:0:0:
89,226,74323,1,8,0:0:0:0:
115,268,74463,6,0,B|146:278|146:278|155:272|155:272|167:276|167:276|175:272|175:272|186:275|186:275|194:270|194:270|202:276|202:276|213:270|213:270|221:277|221:277|233:272|233:272|242:278|242:278|252:272|252:272|261:279|261:279|270:273|270:273|283:280|283:280|292:275|292:275|296:281|296:281|304:275|304:275|314:280|314:280|318:274|318:274|327:279|327:279|331:272|331:272|341:278|341:278|345:270|345:270|357:275|357:275|357:268|357:268|368:272|368:272|366:264|366:264|379:266|379:266,1,330.000010070801,10|12,0:0|0:0,0:0:0:0:
512,69,75306,6,0,B|480:58|480:58|471:64|471:64|459:60|459:60|451:64|451:64|440:61|440:61|432:66|432:66|424:60|424:60|413:66|413:66|405:59|405:59|393:64|393:64|384:58|384:58|374:64|374:64|365:57|365:57|356:63|356:63|343:56|343:56|334:61|334:61|330:55|330:55|322:61|322:61|312:56|312:56|308:62|308:62|299:57|299:57|295:64|295:64|285:58|285:58|281:66|281:66|269:61|269:61|269:68|269:68|258:64|258:64|260:72|260:72|247:70|247:70,1,330.000010070801,2|2,0:0|0:1,0:0:0:0:
88,264,76150,2,0,L|89:172,1,82.5000025177003,8|0,0:0|0:0,0:0:0:0:
14,349,76431,2,0,B|17:326|17:326|11:311|11:311|15:297|15:297|4:276|4:276|11:241,1,82.5000025177003,2|2,0:0|0:1,0:0:0:0:
161,114,76712,6,0,B|186:113|186:113|210:124|210:124|245:128,1,82.5000025177003,2|2,1:2|0:1,0:0:0:0:
88,181,76993,2,0,B|73:161|73:161|72:127|72:127|57:102,1,82.5000025177003,2|0,0:0|0:0,0:0:0:0:
182,211,77274,2,0,B|170:234|170:234|142:252|142:252|128:277,1,82.5000025177003,10|0,0:0|0:0,0:0:0:0:
5,379,77555,6,0,B|19:361|19:361|38:370|38:370|60:367|60:367|75:379|75:379|90:371|90:371|111:367|111:367|121:352|121:352|140:336|140:336|164:344|164:344|185:338|185:338|199:360|199:360|220:360|220:360|224:376,1,247.500007553101,2|0,0:0|2:0,0:0:0:0:
299,384,78117,2,0,L|297:297,1,82.5000025177003,8|2,0:0|0:1,0:0:0:0:
224,195,78398,2,0,L|226:108,1,82.5000025177003,8|2,0:0|0:1,0:0:0:0:
322,382,78679,2,0,B|316:352|316:352|325:333|325:333|317:313|317:313|321:269,1,82.5000025177003,2|0,0:0|0:0,0:0:0:0:
209,197,78960,6,0,B|164:194|164:194|153:200|153:200|142:194|142:194|96:192|96:192|88:187|88:187|78:192|78:192|42:191,2,165.000005035401,6|2|14,1:2|0:0|0:0,0:0:0:0:
451,275,79803,6,0,B|445:238|445:238|450:220|450:220|435:178|435:178|423:168|423:168|407:102,1,165.000005035401,2|2,0:0|1:0,0:0:0:0:
215,52,80365,2,0,B|255:34|255:34|285:11|285:11|317:28|317:28|377:39,1,165.000005035401,2|10,0:0|0:0,0:0:0:0:
78,222,80927,6,0,B|84:181|84:181|78:161|78:161|91:116|91:116|83:91|83:91|92:45,1,165.000005035401,2|2,0:0|1:0,0:0:0:0:
284,174,81489,2,0,B|294:219|294:219|286:231|286:231|282:261,1,82.5000025177003,2|0,0:0|0:0,0:0:0:0:
239,339,81770,2,0,B|180:331|180:331|153:340|153:340|74:335,1,165.000005035401,8|2,0:0|0:1,0:0:0:0:
12,244,82192,1,2,0:1:0:0:
0,200,82332,1,8,0:0:0:0:
36,144,82520,6,0,B|44:123|34:96|34:96|41:99|41:99|47:96|47:96|53:99|53:99|59:96|59:96|65:99|65:99|71:96|71:96|77:99|77:99|83:96|83:96|90:99|90:99|96:96|96:96|102:99|102:99|109:96|109:96|115:99|115:99|121:96|121:96|127:99|127:99|133:96|133:96|139:99|139:99|145:96|145:96|152:99|152:99|158:96|158:96|164:99|164:99|170:95|170:95|177:99|177:99|183:96|183:96|190:99|190:99|196:96|196:96|201:99|201:99|208:96|208:96|214:99|214:99|220:96|220:96|226:99|226:99|232:95|232:95|239:98|239:98|245:96,1,281.250010728836,2|0,0:0|2:0,0:0:0:0:
256,192,94136,12,0,96946,2:0:0:0:
