osu file format v14

[General]
AudioFilename: audio.mp3
AudioLeadIn: 0
PreviewTime: 47199
Countdown: 0
SampleSet: Soft
StackLeniency: 0.7
Mode: 0
LetterboxInBreaks: 0
WidescreenStoryboard: 1

[Editor]
DistanceSpacing: 1
BeatDivisor: 4
GridSize: 4
TimelineZoom: 1

[Metadata]
Title:Last Christmas
TitleUnicode:Last Christmas
Artist:ALEX TERRIBLE
ArtistUnicode:ALEX TERRIBLE
Creator:Blitzifyyy
Version:Kudosu's Insane
Source:
Tags:WashedUp Player Kudosu soop so0p Slaughter to Prevail Cover Parody Deathcore Metal Pop Wham! English Aleksandr Shikolai Александр Шиколай
BeatmapID:2743215
BeatmapSetID:1323906

[Difficulty]
HPDrainRate:6
CircleSize:4.5
OverallDifficulty:7
ApproachRate:8
SliderMultiplier:2.6
SliderTickRate:1

[Events]
//Background and Video events
0,0,"shamone.jpg",0,0
Video,0,"Alex Terrible Last Christmas.mp4"
//Break Periods
2,83375,93386
//Storyboard Layer 0 (Background)
//Storyboard Layer 1 (Fail)
//Storyboard Layer 2 (Pass)
//Storyboard Layer 3 (Foreground)
//Storyboard Layer 4 (Overlay)
//Storyboard Sound Samples

[TimingPoints]
119,600,4,2,1,65,1,0
19244,600,4,2,1,65,1,0
24044,-200,4,2,1,65,0,0
26744,-200,4,2,1,5,0,0
26894,-200,4,2,1,65,0,0
29369,-200,4,2,1,5,0,0
29499,562.060889929742,4,2,1,75,1,0
29499,-100,4,2,1,75,0,0
29920,-100,4,2,1,5,0,0
30062,-100,4,2,1,75,0,0
31045,-100,4,2,1,5,0,0
31186,-100,4,2,1,75,0,0
35541,-100,4,2,1,5,0,0
35682,-100,4,2,1,75,0,0
38491,-285.714285714286,4,2,1,75,0,0
39054,-80,4,2,1,75,0,0
39616,-100,4,2,1,75,0,0
40038,-100,4,2,1,5,0,0
40179,-100,4,2,1,75,0,0
42005,-100,4,2,1,5,0,0
42146,-100,4,2,1,75,0,0
42848,-100,4,2,1,5,0,0
42988,-100,4,2,1,75,0,0
43409,-100,4,2,1,5,0,0
43550,-100,4,2,1,75,0,0
44533,-100,4,2,1,5,0,0
44674,-100,4,2,1,75,0,0
47484,-74.0740740740741,4,2,1,85,0,1
47905,-74.0740740740741,4,2,1,5,0,1
48047,-74.0740740740741,4,2,1,85,0,1
51138,-95.2380952380952,4,2,1,85,0,1
51981,-74.0740740740741,4,2,1,85,0,1
52402,-74.0740740740741,4,2,1,5,0,1
52543,-285.714285714286,4,2,1,85,0,1
53105,-74.0740740740741,4,2,1,85,0,1
59990,-74.0740740740741,4,2,1,5,0,1
60131,-95.2380952380952,4,2,1,85,0,1
60693,-74.0740740740741,4,2,1,85,0,1
65330,-74.0740740740741,4,2,1,85,0,0
65470,-74.0740740740741,4,2,1,85,0,1
66313,-74.0740740740741,4,2,1,85,0,1
69124,-95.2380952380952,4,2,1,85,0,1
69686,-74.0740740740741,4,2,1,85,0,1
70388,-74.0740740740741,4,2,1,5,0,1
70529,-74.0740740740741,4,2,1,85,0,1
73620,-95.2380952380952,4,2,1,85,0,1
74182,-74.0740740740741,4,2,1,85,0,1
77976,-74.0740740740741,4,2,1,5,0,1
78117,-95.2380952380952,4,2,1,85,0,1
78679,-74.0740740740741,4,2,1,85,0,1
79381,-74.0740740740741,4,2,1,5,0,1
79522,-74.0740740740741,4,2,1,85,0,1
82332,-1000,4,2,1,75,0,0
83175,-1000,4,2,1,5,0,0
83315,-133.333333333333,4,2,1,5,0,0
94136,-133.333333333333,4,2,1,20,0,0
96946,-133.333333333333,4,2,1,5,0,0

[Colours]
Combo1 : 192,192,192
Combo2 : 237,220,3
Combo3 : 238,17,17
Combo4 : 0,64,128

[HitObjects]
416,48,24044,6,0,L|495:35,2,65,2|2|2,0:0|0:0|0:0,0:0:0:0:
320,98,25244,6,0,L|255:87,2,65,2|2|2,0:0|0:0|0:0,0:0:0:0:
411,156,26444,6,0,L|394:257,1,97.5,2|2,0:0|0:0,0:0:0:0:
410,268,27044,1,2,0:0:0:0:
491,316,27344,2,0,P|504:287|499:255,1,65,2|2,0:0|0:0,0:0:0:0:
20,38,29499,6,0,L|99:50,1,65,6|2,1:2|0:1,0:0:0:0:
165,103,29780,2,0,L|229:92,1,65,2|0,0:1|0:0,0:0:0:0:
367,43,30061,2,0,B|336:37|317:12|317:12|339:157,1,195,10|2,0:0|0:1,0:0:0:0:
426,177,30623,6,0,P|434:136|417:103,1,65,2|2,1:2|0:1,0:0:0:0:
311,220,30904,2,0,P|302:179|320:146,1,65,2|0,0:1|0:0,0:0:0:0:
403,283,31185,2,0,P|320:236|226:260,1,195,10|2,0:0|0:1,0:0:0:0:
137,215,31747,6,0,L|147:151,1,65,2|0,1:2|0:0,0:0:0:0:
47,300,32028,2,0,L|36:235,1,65,2|2,0:0|0:1,0:0:0:0:
162,339,32309,2,0,P|195:346|225:332,1,65,10|0,0:0|0:0,0:0:0:0:
308,232,32590,6,0,B|291:288|349:301|331:356,2,130,2|2|2,0:0|1:0|0:0,0:0:0:0:
388,73,33433,1,10,0:0:0:0:
375,92,33573,1,2,0:1:0:0:
371,113,33714,1,2,0:1:0:0:
375,131,33854,1,2,0:1:0:0:
385,144,33995,6,0,P|330:111|269:129,1,130,6|2,1:2|0:1,0:0:0:0:
185,107,34417,1,0,0:0:0:0:
176,103,34557,2,0,P|167:62|185:29,1,65,14|0,0:0|0:0,0:0:0:0:
281,206,34838,2,0,P|289:165|272:132,1,65,2|2,0:0|0:1,0:0:0:0:
148,278,35119,6,0,B|192:250|192:250|235:319|314:297,1,195,2|0,1:2|2:0,0:0:0:0:
405,267,35681,2,0,P|413:298|404:328,1,65,10|0,0:0|0:0,0:0:0:0:
491,181,35962,2,0,P|482:212|491:242,1,65,2|2,0:0|0:1,0:0:0:0:
363,129,36243,6,0,B|328:98|328:98|276:119|270:185|301:224,1,195,2|2,1:2|0:1,0:0:0:0:
389,326,36805,2,0,L|399:262,1,65,10|0,0:0|0:0,0:0:0:0:
261,384,37086,2,0,L|250:320,1,65,2|2,0:0|0:1,0:0:0:0:
137,231,37367,6,0,B|193:248|206:190|260:207,2,130,2|10|10,1:0|0:0|0:0,0:0:0:0:
41,280,38210,1,10,0:0:0:0:
39,272,38351,1,8,0:0:0:0:
38,263,38491,6,0,L|27:199,1,45.4999986114502,10|2,0:0|1:0,0:0:0:0:
0,360,39054,6,0,P|51:302|126:321,1,162.5,14|2,0:0|0:0,0:0:0:0:
213,364,39476,1,2,0:1:0:0:
222,360,39616,2,0,P|231:319|213:286,1,65,2|2,1:2|0:1,0:0:0:0:
161,228,39897,2,0,P|153:187|170:154,1,65,2|0,0:1|0:0,0:0:0:0:
307,253,40178,6,0,B|339:206|396:209|396:209|425:253|476:230,1,195,10|2,0:0|0:1,0:0:0:0:
343,111,40740,2,0,L|353:175,1,65,2|2,1:2|0:1,0:0:0:0:
479,75,41021,2,0,L|418:51,1,65,2|0,0:0|0:0,0:0:0:0:
442,210,41302,2,0,L|492:169,1,65,10|0,0:0|0:0,0:0:0:0:
421,131,41583,1,2,0:0:0:0:
203,168,41864,6,0,B|147:151|134:209|79:191,2,130,2|2|10,1:0|0:0|0:0,0:0:0:0:
203,168,42707,1,2,0:1:0:0:
131,382,42988,6,0,P|88:336|103:276,1,130,6|2,1:2|0:1,0:0:0:0:
259,120,43550,2,0,L|235:266,1,130,14|2,0:0|0:0,0:0:0:0:
326,281,43972,1,2,0:1:0:0:
335,281,44112,2,0,L|399:270,1,65,2|2,1:2|0:1,0:0:0:0:
412,362,44393,2,0,L|347:372,1,65,2|0,0:1|0:0,0:0:0:0:
475,303,44674,2,0,P|432:257|447:197,1,130,10|2,0:0|0:0,0:0:0:0:
247,137,45236,5,2,1:2:0:0:
249,145,45377,1,2,0:1:0:0:
250,155,45517,2,0,L|261:224,1,65,14|0,0:0|0:0,0:0:0:0:
363,90,45798,1,2,1:2:0:0:
362,100,45938,2,0,L|351:163,1,65,12|2,0:0|0:0,0:0:0:0:
468,304,46360,2,0,L|547:295,1,65,12|2,0:0|0:1,0:0:0:0:
288,335,46782,1,8,0:0:0:0:
278,334,46922,2,0,L|214:323,1,65,10|2,1:2|0:1,0:0:0:0:
46,384,47203,5,10,0:0:0:0:
37,380,47344,1,8,0:0:0:0:
28,374,47484,2,0,B|-26:305|7:245|40:184|123:228|101:284,1,263.250001004219,6|0,1:2|2:0,0:0:0:0:
97,290,48047,1,12,0:0:0:0:
0,142,48328,2,0,B|47:126|89:151|60:185|104:214|150:198,1,175.500000669479,2|2,0:0|1:0,0:0:0:0:
226,146,48749,1,2,0:1:0:0:
234,141,48890,2,0,P|255:104|243:63,1,87.7500003347397,2|0,0:0|0:0,0:0:0:0:
315,186,49171,2,0,P|384:137|465:162,1,175.500000669479,8|2,0:0|0:0,0:0:0:0:
352,384,49733,6,0,B|316:322|236:288|163:320|163:320|189:320|206:336,1,263.250001004219,2|2,1:2|0:1,0:0:0:0:
205,335,50295,1,10,0:0:0:0:
102,342,50576,2,0,B|115:255|115:255|122:254|122:254|138:159,1,175.500000669479,2|2,0:0|1:0,0:0:0:0:
124,333,51138,2,0,L|145:198,1,136.499995834351,8|10,0:0|0:0,0:0:0:0:
169,13,51700,5,2,0:0:0:0:
178,17,51841,1,2,0:1:0:0:
187,23,51981,2,0,B|241:91|207:151|174:212|91:168|113:112,1,263.250001004219,6|0,1:2|2:0,0:0:0:0:
269,176,52543,6,0,L|340:164,1,68.2499979171754,14|2,0:0|0:1,0:0:0:0:
446,103,53105,6,0,B|432:183|432:183|426:184|426:184|412:270,2,175.500000669479,2|2|8,1:2|0:1|0:0,0:0:0:0:
501,329,53948,2,0,P|518:289|507:248,1,87.7500003347397,2|2,0:0|0:1,0:0:0:0:
412,375,54229,6,0,P|342:326|261:351,1,175.500000669479,2|2,1:2|0:0,0:0:0:0:
185,384,54651,1,2,0:1:0:0:
179,380,54791,2,0,P|167:338|185:299,1,87.7500003347397,10|0,0:0|0:0,0:0:0:0:
149,213,55072,2,0,B|102:197|60:222|89:256|45:285|-1:269,2,175.500000669479,2|2|8,0:0|1:0|0:0,0:0:0:0:
223,150,55915,2,0,P|241:108|220:67,1,87.7500003347397,0|8,1:0|0:0,0:0:0:0:
219,60,56196,1,2,0:1:0:0:
448,235,56477,6,0,B|357:221|357:221|294:275|294:275|300:287|300:287|243:335|243:335|156:320,1,351.000001338959,10|12,0:0|0:0,0:0:0:0:
40,112,57321,5,2,0:0:0:0:
50,111,57461,1,2,0:1:0:0:
62,109,57602,2,0,B|152:95|152:95|215:149|215:149|209:161|209:161|266:209|266:209|353:194,1,351.000001338959,2|8,1:0|0:0,0:0:0:0:
328,384,58445,2,0,L|343:287,1,87.7500003347397,2|2,0:0|0:1,0:0:0:0:
261,239,58726,6,0,B|214:223|172:248|201:282|157:311|111:295,2,175.500000669479,2|2|10,1:2|0:0|0:0,0:0:0:0:
484,152,59569,2,0,B|471:239|471:239|464:240|464:240|448:335,1,175.500000669479,2|2,0:0|1:0,0:0:0:0:
462,161,60131,2,0,L|441:296,1,136.499995834351,8|8,0:0|0:0,0:0:0:0:
360,175,60693,2,0,P|354:132|380:98,1,87.7500003347397,2|0,0:0|0:0,0:0:0:0:
265,208,60974,6,0,P|195:159|114:184,1,175.500000669479,2|2,1:2|0:0,0:0:0:0:
38,217,61396,1,0,0:0:0:0:
32,213,61536,2,0,P|20:171|38:132,1,87.7500003347397,14|0,0:0|0:0,0:0:0:0:
134,199,61817,2,0,B|121:286|121:286|114:287|114:287|98:382,1,175.500000669479,2|2,0:0|1:0,0:0:0:0:
196,384,62239,1,2,0:1:0:0:
198,375,62379,2,0,B|211:288|211:288|218:287|218:287|231:207,1,175.500000669479,2|10,0:0|0:0,0:0:0:0:
430,179,62941,6,0,B|394:117|314:83|241:115|241:115|267:115|284:131,1,263.250001004219,2|2,0:0|0:1,0:0:0:0:
282,129,63503,1,14,0:0:0:0:
132,78,63784,2,0,P|115:122|136:160,1,87.7500003347397,2|12,1:0|0:0,0:0:0:0:
243,23,64346,1,12,0:0:0:0:
121,87,64768,2,0,P|104:131|125:169,1,87.7500003347397,8|8,0:0|1:2,0:0:0:0:
32,251,65189,5,10,0:0:0:0:
36,242,65330,1,8,0:0:0:0:
42,233,65470,2,0,B|133:161|213:205|294:248|235:359|161:329,1,351.000001338959,6|8,1:2|2:0,0:0:0:0:
411,182,66313,2,0,B|364:166|322:191|351:225|307:254|261:238,1,175.500000669479,2|2,0:0|1:0,0:0:0:0:
118,92,66876,2,0,B|165:76|207:101|178:135|222:164|268:148,1,175.500000669479,2|8,0:0|0:0,0:0:0:0:
401,259,67438,2,0,P|424:221|401:165,1,87.7500003347397,2|2,0:0|0:1,0:0:0:0:
465,340,67719,6,0,P|395:291|314:316,2,175.500000669479,2|2|10,1:2|0:0|0:0,0:0:0:0:
264,378,68562,2,0,B|277:291|277:291|284:290|284:290|300:195,1,175.500000669479,2|2,0:0|1:0,0:0:0:0:
253,361,69124,2,0,L|274:226,1,136.499995834351,2|10,0:1|0:0,0:0:0:0:
479,212,69686,5,2,0:0:0:0:
478,203,69826,1,2,0:1:0:0:
474,195,69967,2,0,B|438:133|358:99|285:131|285:131|311:131|328:147,1,263.250001004219,6|0,1:2|2:0,0:0:0:0:
329,151,70529,1,14,0:0:0:0:
190,244,71091,2,0,B|177:157|177:157|170:156|170:156|154:61,2,175.500000669479,2|2|8,1:2|0:1|0:0,0:0:0:0:
75,124,71934,2,0,P|55:78|76:28,1,87.7500003347397,2|2,0:0|0:1,0:0:0:0:
157,83,72215,6,0,P|227:34|308:59,1,175.500000669479,2|2,1:2|0:0,0:0:0:0:
373,120,72637,1,2,0:1:0:0:
380,116,72777,2,0,P|399:52|379:21,1,87.7500003347397,10|0,0:0|0:0,0:0:0:0:
280,159,73058,2,0,B|293:246|293:246|300:247|300:247|316:342,1,175.500000669479,2|2,0:0|1:0,0:0:0:0:
269,176,73620,2,0,L|290:311,1,136.499995834351,8|12,0:0|0:0,0:0:0:0:
125,117,74182,5,8,0:0:0:0:
117,111,74323,1,8,0:0:0:0:
110,105,74463,2,0,B|15:45|15:45|131:31|131:31|135:36|135:36|251:22,1,351.000001338959,10|12,0:0|0:0,0:0:0:0:
141,308,75306,5,2,0:0:0:0:
149,302,75447,1,2,0:1:0:0:
156,296,75587,2,0,B|250:236|250:236|134:222|134:222|130:227|130:227|14:213,1,351.000001338959,2|8,1:0|0:0,0:0:0:0:
279,48,76431,2,0,L|264:145,1,87.7500003347397,2|2,0:0|0:1,0:0:0:0:
346,193,76712,6,0,B|393:209|435:184|406:150|450:121|496:137,2,175.500000669479,2|2|10,1:2|0:0|0:0,0:0:0:0:
123,280,77555,2,0,B|136:193|136:193|143:192|143:192|159:97,1,175.500000669479,2|2,0:0|1:0,0:0:0:0:
145,271,78117,2,0,L|166:136,1,136.499995834351,8|8,0:0|0:0,0:0:0:0:
54,316,78679,2,0,P|37:276|51:236,1,87.7500003347397,2|0,0:0|0:0,0:0:0:0:
191,378,78960,6,0,B|137:310|171:250|204:189|287:233|265:289,1,263.250001004219,6|0,1:2|2:0,0:0:0:0:
259,293,79522,1,14,0:0:0:0:
360,245,79803,2,0,B|407:229|449:254|420:288|464:317|510:301,1,175.500000669479,2|2,0:0|1:0,0:0:0:0:
271,174,80365,2,0,B|224:158|182:183|211:217|167:246|121:230,1,175.500000669479,2|10,0:0|0:0,0:0:0:0:
38,355,80927,6,0,B|24:275|24:275|17:274|17:274|4:187,1,175.500000669479,2|2,0:0|1:0,0:0:0:0:
156,53,81489,2,0,B|143:140|143:140|136:141|136:141|122:220,1,175.500000669479,2|8,0:0|0:0,0:0:0:0:
221,295,82051,2,0,P|291:246|372:271,1,175.500000669479,2|8,0:1|0:0,0:0:0:0:
370,270,82520,6,0,L|365:301,1,30.3333333333333,2|0,0:0|2:0,0:0:0:0:
256,192,94136,12,0,96946,2:0:0:0:
