osu file format v14

[General]
AudioFilename: audio.mp3
AudioLeadIn: 0
PreviewTime: 50245
Countdown: 1
SampleSet: None
StackLeniency: 0.7
Mode: 2
LetterboxInBreaks: 0
WidescreenStoryboard: 0

[Editor]
Bookmarks: 21609,30336
DistanceSpacing: 1
BeatDivisor: 4
GridSize: 8
TimelineZoom: 1

[Metadata]
Title:Maximizer
TitleUnicode:Maximizer
Artist:Alex S.
ArtistUnicode:Alex S.
Creator:Negri_sk
Version:Cool CS7 map attempt or something.
Source:Life As We Know It EP
Tags:Dubstep
BeatmapID:1349754
BeatmapSetID:636066

[Difficulty]
HPDrainRate:6
CircleSize:7
OverallDifficulty:8.9
ApproachRate:8.9
SliderMultiplier:2.49999990463257
SliderTickRate:1

[Events]
//Background and Video events
//Break Periods
2,113581,130494
2,146581,156675
//Storyboard Layer 0 (Background)
//Storyboard Layer 1 (Fail)
//Storyboard Layer 2 (Pass)
//Storyboard Layer 3 (Foreground)
//Storyboard Sound Samples

[TimingPoints]
200,545.454545454546,4,1,0,69,1,0
52563,-100,4,1,0,80,0,1
87472,-100,4,1,0,69,0,0
166018,-100,4,1,0,80,0,1
200927,-100,4,1,0,69,0,0

[HitObjects]
328,304,200,6,0,P|368:272|416:184,1,124.999995231628
232,80,1018,2,0,P|144:128|112:176,1,124.999995231628
312,272,1836,2,0,P|400:240|440:192,1,124.999995231628
100,200,2381,2,0,P|147:124|200:96,1,124.999995231628
392,80,3200,6,0,P|432:168|440:208,1,124.999995231629
336,296,4018,2,0,P|369:231|337:166,1,124.999995231628
16,128,4563,2,0,L|184:104,1,124.999995231628
272,72,5381,2,0,P|320:136|320:216,1,124.999995231628
144,256,6200,2,0,P|72:208|48:144,1,124.999995231628
392,48,6745,2,0,B|472:80|472:80|416:128,1,124.999995231628
256,128,7563,2,0,P|320:192|392:232,1,124.999995231628
256,192,8381,12,0,8927,0:0:0:0:
144,256,9063,5,0,0:0:0:0:
104,232,9200,1,0,0:0:0:0:
104,184,9336,1,0,0:0:0:0:
152,168,9472,1,0,0:0:0:0:
392,192,9609,2,0,L|440:128,1,62.4999976158142
192,128,9881,2,0,L|160:56,1,62.4999976158142
352,160,10154,6,0,L|400:104,1,62.4999976158143
144,144,10427,2,0,L|112:80,1,62.4999976158143
352,304,10700,1,0,0:0:0:0:
408,304,10836,1,0,0:0:0:0:
464,304,10972,1,0,0:0:0:0:
408,264,11109,1,0,0:0:0:0:
128,232,11245,5,0,0:0:0:0:
72,216,11381,1,0,0:0:0:0:
24,176,11518,1,0,0:0:0:0:
72,136,11654,1,0,0:0:0:0:
128,112,11790,1,0,0:0:0:0:
376,168,11927,2,0,L|432:120,1,62.4999976158143
168,40,12200,5,0,0:0:0:0:
112,40,12336,1,0,0:0:0:0:
168,40,12472,1,0,0:0:0:0:
112,40,12609,1,0,0:0:0:0:
224,40,12745,1,0,0:0:0:0:
280,40,12881,1,0,0:0:0:0:
224,40,13018,1,0,0:0:0:0:
280,40,13154,1,0,0:0:0:0:
40,208,13290,6,0,L|8:144,1,62.4999976158143
328,240,13563,1,0,0:0:0:0:
376,208,13700,1,0,0:0:0:0:
376,160,13836,1,0,0:0:0:0:
328,136,13972,1,0,0:0:0:0:
40,128,14109,2,0,L|8:56,1,62.4999976158143
240,128,14381,2,0,L|288:72,1,62.4999976158143
88,112,14654,6,0,L|16:88,1,62.4999976158143
280,144,14927,2,0,L|344:96,1,62.4999976158143
504,56,15200,2,0,L|440:72,1,62.4999976158143
272,80,15472,2,0,L|336:120,1,62.4999976158143
504,112,15745,2,0,L|456:160,1,62.4999976158143
232,112,16018,2,0,L|288:152,1,62.4999976158143
88,136,16290,5,0,0:0:0:0:
32,112,16427,1,0,0:0:0:0:
88,96,16563,1,0,0:0:0:0:
144,88,16700,1,0,0:0:0:0:
88,56,16836,1,0,0:0:0:0:
32,32,16972,1,0,0:0:0:0:
368,120,17109,6,0,L|464:200,2,124.999995231629
128,80,17790,2,0,L|56:80,2,62.4999976158143
376,256,18200,2,0,L|432:208,1,62.4999976158143
176,240,18472,2,0,L|256:240,2,62.4999976158143
368,128,18881,2,0,L|408:80,1,62.4999976158143
192,128,19154,2,0,L|136:96,1,62.4999976158143
408,192,19427,2,0,L|336:192,2,62.4999976158143
128,280,19836,6,0,L|208:280,2,62.4999976158143
376,120,20245,2,0,L|432:72,1,62.4999976158143
184,128,20518,2,0,L|128:80,1,62.4999976158143
368,264,20790,2,0,L|296:264,3,62.4999976158143
88,224,21336,2,0,L|56:160,1,62.4999976158143
312,192,21609,1,0,0:0:0:0:
352,168,21677,1,0,0:0:0:0:
312,152,21745,1,0,0:0:0:0:
128,120,21881,6,0,L|200:80,1,62.4999976158143
408,112,22154,2,0,L|352:64,1,62.4999976158143
184,48,22427,2,0,L|264:48,2,62.4999976158143
416,224,22836,2,0,L|352:224,2,62.4999976158143
112,200,23245,2,0,L|80:136,1,62.4999976158143
288,80,23518,2,0,L|376:80,1,62.4999976158143
32,80,23790,2,0,L|104:80,2,62.4999976158143
320,288,24200,6,0,L|376:232,1,62.4999976158143
168,248,24472,2,0,L|240:224,1,62.4999976158143
48,192,24745,2,0,L|136:192,1,62.4999976158143
400,128,25018,2,0,L|312:128,2,62.4999976158143
176,96,25427,2,0,L|248:96,2,62.4999976158143
352,240,25836,2,0,L|432:240,1,62.4999976158143
160,240,26109,2,0,L|80:240,1,62.4999976158143
336,160,26381,6,0,L|256:160,1,62.4999976158143
72,136,26654,2,0,L|136:136,2,62.4999976158143
416,72,27063,2,0,L|344:72,3,62.4999976158143
152,64,27609,2,0,L|88:64,2,62.4999976158143
392,280,28018,2,0,L|456:256,1,62.4999976158143
128,160,28290,2,0,L|72:192,1,62.4999976158143
336,176,28563,2,0,L|416:176,2,62.4999976158143
120,96,28972,6,0,L|192:96,2,62.4999976158143
352,96,29381,2,0,L|288:96,2,62.4999976158143
112,176,29790,2,0,L|40:200,1,62.4999976158143
0,264,30063,2,0,L|64:288,1,62.4999976158143
352,256,30336,1,0,0:0:0:0:
384,216,30404,1,0,0:0:0:0:
400,168,30472,1,0,0:0:0:0:
128,96,30609,6,0,L|208:96,1,62.4999976158143
400,88,30881,2,0,L|336:88,2,62.4999976158143
216,160,31290,2,0,L|288:160,2,62.4999976158143
40,112,31700,2,0,L|8:48,1,62.4999976158143
224,120,31972,2,0,L|264:72,1,62.4999976158143
72,88,32245,2,0,L|40:32,1,62.4999976158143
256,136,32518,2,0,L|304:96,1,62.4999976158143
96,240,32790,6,0,L|184:240,1,62.4999976158143
400,240,33063,2,0,L|328:240,2,62.4999976158143
176,96,33472,2,0,L|112:96,3,62.4999976158143
371,86,34018,2,0,L|424:120,1,62.4999976158143
224,88,34290,2,0,L|296:88,2,62.4999976158143
424,40,34700,2,0,L|360:40,2,62.4999976158143
176,128,35109,5,0,0:0:0:0:
416,128,35245,1,0,0:0:0:0:
440,208,35654,1,0,0:0:0:0:
224,240,35790,1,0,0:0:0:0:
280,120,36063,1,0,0:0:0:0:
312,240,36336,1,0,0:0:0:0:
136,224,36472,1,0,0:0:0:0:
312,288,36609,1,0,0:0:0:0:
64,112,36745,6,0,L|32:48,1,62.4999976158143
384,128,37018,1,0,0:0:0:0:
176,176,37154,1,0,0:0:0:0:
296,240,37290,1,0,0:0:0:0:
176,224,37426,1,0,0:0:0:0:
296,288,37563,1,0,0:0:0:0:
384,240,37836,2,0,P|416:232|456:160,2,62.4999976158143
152,144,38245,5,0,0:0:0:0:
288,144,38518,1,0,0:0:0:0:
80,144,38654,1,0,0:0:0:0:
184,144,38790,1,0,0:0:0:0:
0,144,38927,1,0,0:0:0:0:
344,88,39200,5,0,0:0:0:0:
208,80,39336,1,0,0:0:0:0:
344,88,39472,1,0,0:0:0:0:
208,80,39609,1,0,0:0:0:0:
272,80,39745,1,0,0:0:0:0:
72,184,40018,2,0,L|32:112,1,62.4999976158143
184,104,40427,1,0,0:0:0:0:
232,224,40700,5,0,0:0:0:0:
288,208,40836,1,0,0:0:0:0:
176,248,40972,1,0,0:0:0:0:
96,200,41109,1,0,0:0:0:0:
232,160,41245,1,0,0:0:0:0:
64,120,41381,1,0,0:0:0:0:
264,88,41518,1,0,0:0:0:0:
56,48,41654,2,0,L|8:8,1,62.4999976158143
368,88,41927,2,0,L|408:40,1,62.4999976158143
160,72,42200,6,0,L|80:72,2,62.4999976158143
376,256,42608,2,0,L|424:200,1,62.4999976158143
176,224,42881,2,0,L|136:144,1,62.4999976158143
392,128,43153,2,0,L|432:80,1,62.4999976158143
104,80,43426,2,0,L|32:40,1,62.4999976158143
296,144,43699,2,0,L|352:88,1,62.4999976158143
112,192,43972,2,0,L|48:144,2,62.4999976158143
320,272,44381,6,0,L|376:224,2,62.4999976158143
128,104,44790,2,0,L|168:152,1,62.4999976158143
376,296,45063,2,0,L|432:256,1,62.4999976158143
224,224,45336,2,0,L|144:256,1,62.4999976158143
456,192,45609,2,0,L|488:120,1,62.4999976158143
128,176,45881,2,0,L|96:232,1,62.4999976158143
366,272,46154,2,0,L|304:272,3,62.4999976158143
72,120,46700,6,0,L|16:80,2,62.4999976158143
360,224,47109,2,0,L|392:168,1,62.4999976158143
176,232,47381,2,0,L|128:168,1,62.4999976158143
392,240,47654,2,0,L|432:192,1,62.4999976158143
216,216,47927,2,0,L|176:160,1,62.4999976158143
384,136,48200,5,0,0:0:0:0:
440,120,48336,1,0,0:0:0:0:
496,96,48472,1,0,0:0:0:0:
440,72,48609,1,0,0:0:0:0:
120,88,48745,2,0,L|184:64,1,62.4999976158143
400,224,49018,1,0,0:0:0:0:
440,192,49154,1,0,0:0:0:0:
400,168,49290,1,0,0:0:0:0:
104,288,49427,5,0,0:0:0:0:
64,272,49563,1,0,0:0:0:0:
104,256,49700,1,0,0:0:0:0:
352,272,49836,2,0,L|416:232,1,62.4999976158143
88,136,50109,1,0,0:0:0:0:
400,104,50245,1,0,0:0:0:0:
256,192,50381,12,0,52018,0:0:0:0:
144,136,52563,6,0,L|48:56,1,124.999995231629
368,120,53109,2,0,L|416:64,1,62.4999976158143
160,232,53381,2,0,L|128:160,1,62.4999976158143
368,296,53654,2,0,L|408:240,1,62.4999976158143
200,224,53927,2,0,L|168:144,1,62.4999976158143
416,320,54200,2,0,L|448:264,1,62.4999976158143
272,80,54472,5,0,0:0:0:0:
168,80,54609,1,0,0:0:0:0:
64,80,54745,1,0,0:0:0:0:
272,80,54881,1,0,0:0:0:0:
56,264,55018,2,0,P|40:200|64:144,1,124.999995231629
328,160,55427,2,0,L|384:112,1,62.4999976158143
144,56,55700,2,0,L|80:96,1,62.4999976158143
176,176,56381,5,0,0:0:0:0:
312,256,56927,6,0,L|400:160,1,124.999995231629
184,72,57472,2,0,L|112:112,1,62.4999976158143
304,264,57745,2,0,L|376:264,1,62.4999976158143
152,216,58018,2,0,L|72:216,1,62.4999976158143
400,96,58290,2,0,L|336:96,3,62.4999976158143
112,152,58836,2,0,L|72:96,1,62.4999976158143
288,104,59109,6,0,L|352:96,1,62.4999976158143
144,72,59381,2,0,L|72:40,1,62.4999976158143
416,200,59654,2,0,L|344:200,3,62.4999976158143
104,104,60200,1,0,0:0:0:0:
288,104,60336,1,0,0:0:0:0:
112,144,60472,5,0,0:0:0:0:
296,144,60609,1,0,0:0:0:0:
120,184,60745,1,0,0:0:0:0:
304,184,60881,1,0,0:0:0:0:
128,224,61018,1,0,0:0:0:0:
312,224,61154,1,0,0:0:0:0:
136,264,61290,2,0,P|72:240|40:192,1,124.999995231629
424,120,61836,6,0,L|480:88,1,62.4999976158143
152,128,62109,2,0,L|96:96,1,62.4999976158143
344,64,62381,2,0,L|264:64,2,62.4999976158143
88,200,62790,2,0,L|184:144,1,62.4999976158143
344,72,63063,2,0,L|424:56,2,62.4999976158143
168,48,63472,1,0,0:0:0:0:
256,48,63609,1,0,0:0:0:0:
336,48,63745,1,0,0:0:0:0:
104,240,63881,6,0,L|64:184,1,62.4999976158143
432,144,64154,2,0,L|472:200,1,62.4999976158143
128,128,64427,1,0,0:0:0:0:
336,296,64563,2,0,P|416:288|456:232,1,124.999995231629
104,160,65109,2,0,L|64:112,1,62.4999976158143
312,168,65381,2,0,L|352:120,1,62.4999976158143
32,56,65654,2,0,P|112:48|168:56,1,124.999995231629
264,80,66200,6,0,L|336:64,2,62.4999976158143
40,120,66609,2,0,L|112:104,2,62.4999976158143
312,248,67018,2,0,L|376:224,1,62.4999976158143
152,176,67290,2,0,L|96:136,1,62.4999976158143
288,120,67563,1,0,0:0:0:0:
352,104,67700,1,0,0:0:0:0:
48,96,67836,2,0,P|112:64|176:64,1,124.999995231629
416,112,68245,1,0,0:0:0:0:
184,280,68381,6,0,P|120:240|88:168,1,124.999995231629
440,72,68790,1,0,0:0:0:0:
184,280,68927,2,0,P|120:256|88:208,1,124.999995231629
416,136,69336,1,0,0:0:0:0:
176,104,69472,2,0,L|312:88,1,124.999995231629
56,120,69881,1,0,0:0:0:0:
472,72,70018,6,0,P|408:48|352:32,1,124.999995231629
232,40,70563,2,0,L|184:96,1,62.4999976158143
392,184,70836,2,0,L|472:184,1,62.4999976158143
128,176,71109,2,0,L|200:176,2,62.4999976158143
344,112,71518,2,0,L|272:112,2,62.4999976158143
64,112,71927,2,0,L|136:112,3,62.4999976158143
352,224,72472,6,0,L|400:184,1,62.4999976158143
176,128,72745,2,0,L|136:72,1,62.4999976158143
408,88,73018,2,0,L|472:56,1,62.4999976158143
200,48,73290,2,0,P|136:128|144:168,1,124.999995231629
336,256,73700,1,0,0:0:0:0:
104,248,73836,2,0,P|56:200|72:128,1,124.999995231629
392,224,74381,6,0,L|488:136,1,124.999995231629
120,80,74927,2,0,L|200:80,1,62.4999976158143
424,96,75200,2,0,L|352:96,1,62.4999976158143
168,136,75472,2,0,L|240:136,2,62.4999976158143
408,240,75881,2,0,L|464:192,1,62.4999976158143
96,184,76154,2,0,L|16:184,2,62.4999976158143
352,176,76563,6,0,L|400:136,1,62.4999976158143
176,80,76836,2,0,L|128:40,1,62.4999976158143
400,96,77109,2,0,L|320:64,1,62.4999976158143
16,240,77381,2,0,L|96:192,1,62.4999976158143
392,88,77654,1,0,0:0:0:0:
352,96,77790,1,0,0:0:0:0:
312,112,77927,1,0,0:0:0:0:
352,136,78063,5,0,0:0:0:0:
392,128,78200,1,0,0:0:0:0:
432,112,78336,1,0,0:0:0:0:
400,168,78472,1,0,0:0:0:0:
360,176,78609,1,0,0:0:0:0:
80,192,78745,2,0,L|152:192,1,62.4999976158143
376,80,79018,2,0,L|296:80,1,62.4999976158143
32,80,79290,6,0,L|96:80,2,62.4999976158143
296,184,79700,2,0,L|376:184,1,62.4999976158143
112,128,79972,2,0,L|32:128,2,62.4999976158143
376,120,80381,2,0,L|296:112,1,62.4999976158143
88,64,80654,2,0,L|160:56,1,62.4999976158143
432,56,80927,1,0,0:0:0:0:
368,56,81063,1,0,0:0:0:0:
304,56,81200,1,0,0:0:0:0:
32,168,81336,6,0,L|104:168,2,62.4999976158143
336,256,81745,2,0,L|432:256,1,62.4999976158143
168,160,82018,2,0,P|104:104|96:56,1,124.999995231629
440,80,82427,1,0,0:0:0:0:
264,296,82563,2,0,P|168:288|120:248,2,124.999995231629
72,112,83245,2,0,L|32:64,1,62.4999976158143
320,64,83518,2,0,L|384:64,1,62.4999976158143
128,56,83790,6,0,L|56:56,2,62.4999976158143
376,200,84200,2,0,L|304:200,2,62.4999976158143
80,288,84609,2,0,L|160:288,1,62.4999976158143
392,288,84881,2,0,L|320:288,1,62.4999976158143
120,120,85154,1,0,0:0:0:0:
368,184,85290,2,0,P|432:144|448:96,1,124.999995231629
192,80,85700,1,0,0:0:0:0:
8,152,85836,6,0,P|40:216|112:248,1,124.999995231629
368,272,86245,1,0,0:0:0:0:
160,184,86381,2,0,P|152:112|224:80,1,124.999995231629
424,128,86790,1,0,0:0:0:0:
208,304,86927,2,0,P|120:296|64:248,1,124.999995231629
376,248,87336,1,0,0:0:0:0:
0,144,87472,1,0,0:0:0:0:
320,128,87745,6,0,L|392:128,2,62.4999976158143
224,120,88154,2,0,L|296:120,1,62.4999976158143
416,112,88427,2,0,L|344:112,1,62.4999976158143
256,160,88700,2,0,L|320:160,1,62.4999976158143
440,152,88972,2,0,L|376:152,1,62.4999976158143
272,192,89245,2,0,L|336:192,1,62.4999976158143
432,192,89518,2,0,L|368:192,1,62.4999976158143
104,48,89790,5,0,0:0:0:0:
80,80,89927,1,0,0:0:0:0:
72,120,90063,1,0,0:0:0:0:
96,160,90200,1,0,0:0:0:0:
128,192,90336,1,0,0:0:0:0:
160,224,90472,1,0,0:0:0:0:
168,264,90609,5,0,0:0:0:0:
152,296,90745,1,0,0:0:0:0:
128,320,90881,1,0,0:0:0:0:
96,336,91018,1,0,0:0:0:0:
64,328,91154,1,0,0:0:0:0:
48,296,91290,1,0,0:0:0:0:
56,256,91427,1,0,0:0:0:0:
88,232,91563,1,0,0:0:0:0:
400,136,91700,6,0,L|336:136,1,62.4999976158143
264,136,91972,2,0,L|344:136,1,62.4999976158143
368,168,92245,2,0,L|296:168,1,62.4999976158143
280,168,92518,2,0,L|360:168,1,62.4999976158143
342,168,92790,2,0,L|280:168,1,62.4999976158143
305,168,93063,2,0,L|368:168,1,62.4999976158143
326,136,93336,2,0,L|264:136,1,62.4999976158143
337,136,93608,2,0,L|400:136,1,62.4999976158143
312,136,93881,2,0,L|384:136,1,62.4999976158143
424,112,94154,5,0,0:0:0:0:
456,144,94290,1,0,0:0:0:0:
488,176,94427,1,0,0:0:0:0:
456,208,94563,1,0,0:0:0:0:
416,232,94700,1,0,0:0:0:0:
376,256,94836,1,0,0:0:0:0:
416,280,94972,1,0,0:0:0:0:
256,192,95109,12,0,96472,0:0:0:0:
184,104,96745,6,0,L|256:104,1,62.4999976158143
320,112,97018,2,0,L|256:112,1,62.4999976158143
224,136,97290,2,0,L|288:136,1,62.4999976158143
296,152,97563,2,0,L|224:152,1,62.4999976158143
280,184,97836,2,0,L|352:184,1,62.4999976158143
256,192,98109,2,0,L|192:192,1,62.4999976158143
312,232,98381,2,0,L|240:232,1,62.4999976158143
192,240,98654,2,0,L|280:240,1,62.4999976158143
400,160,98927,5,0,0:0:0:0:
440,136,99063,1,0,0:0:0:0:
480,112,99200,1,0,0:0:0:0:
440,88,99336,1,0,0:0:0:0:
400,72,99472,1,0,0:0:0:0:
440,48,99609,1,0,0:0:0:0:
480,32,99745,1,0,0:0:0:0:
256,32,99881,6,0,L|320:32,1,62.4999976158143
400,40,100154,2,0,L|336:40,1,62.4999976158143
288,64,100427,2,0,L|360:64,1,62.4999976158143
376,72,100700,2,0,L|304:72,1,62.4999976158143
248,104,100972,2,0,L|312:104,2,62.4999976158143
360,120,101381,2,0,L|296:120,2,62.4999976158143
224,104,101790,2,0,L|288:104,2,62.4999976158143
384,120,102200,2,0,L|320:120,2,62.4999976158143
184,272,102609,5,0,0:0:0:0:
152,232,102745,1,0,0:0:0:0:
128,184,102881,1,0,0:0:0:0:
360,280,103018,1,0,0:0:0:0:
384,240,103154,1,0,0:0:0:0:
400,192,103290,1,0,0:0:0:0:
112,136,103427,5,0,0:0:0:0:
64,136,103563,1,0,0:0:0:0:
112,136,103700,1,0,0:0:0:0:
400,136,103836,1,0,0:0:0:0:
448,136,103972,1,0,0:0:0:0:
400,136,104109,1,0,0:0:0:0:
120,80,104245,2,0,L|48:80,1,62.4999976158143
392,80,104518,2,0,L|464:80,1,62.4999976158143
224,184,104790,2,0,L|152:184,2,62.4999976158143
416,144,105200,2,0,L|480:144,2,62.4999976158143
168,144,105609,2,0,L|240:144,1,62.4999976158143
432,144,105881,2,0,L|368:144,1,62.4999976158143
104,112,106154,2,0,L|184:112,1,62.4999976158143
392,96,106427,2,0,L|320:96,1,62.4999976158143
152,72,106700,2,0,L|224:72,2,62.4999976158143
384,208,107109,2,0,L|448:160,1,62.4999976158143
176,184,107381,2,0,L|112:152,1,62.4999976158143
304,152,107654,2,0,L|360:96,1,62.4999976158143
80,248,107927,2,0,L|32:200,1,62.4999976158143
360,208,108200,2,0,L|424:208,2,62.4999976158143
160,224,108609,2,0,L|120:160,1,62.4999976158143
368,144,108881,2,0,L|432:120,1,62.4999976158143
136,120,109154,2,0,L|80:64,1,62.4999976158143
256,56,109836,1,0,0:0:0:0:
256,56,110381,1,0,0:0:0:0:
256,56,110927,1,0,0:0:0:0:
256,56,111472,1,0,0:0:0:0:
256,56,112018,1,0,0:0:0:0:
256,56,112563,1,0,0:0:0:0:
256,56,112836,1,0,0:0:0:0:
256,56,112972,1,0,0:0:0:0:
256,56,113381,1,0,0:0:0:0:
328,304,131109,6,0,P|376:232|176:104,1,374.999985694885
80,192,132745,2,0,P|160:264|312:280,1,249.999990463257
360,120,134109,2,0,P|264:96|64:264,1,374.999985694885
184,304,135472,2,0,P|264:312|448:96,1,374.999985694885
320,88,137109,2,0,P|248:96|144:240,1,249.999990463257
272,288,138472,2,0,P|352:256|416:-8,1,374.999985694885
272,56,139836,2,0,P|176:72|96:320,1,374.999985694885
280,312,141472,2,0,P|320:264|296:80,1,249.999990463257
128,72,142836,2,0,P|56:152|184:360,1,374.999985694885
272,296,144200,2,0,P|312:200|112:80,1,374.999985694885
64,208,145836,2,0,P|128:248|304:280,1,249.999990463257
96,128,157290,5,0,0:0:0:0:
96,128,157427,1,0,0:0:0:0:
96,128,157563,1,0,0:0:0:0:
360,120,157836,1,0,0:0:0:0:
384,120,157972,1,0,0:0:0:0:
360,120,158109,1,0,0:0:0:0:
64,248,158381,1,0,0:0:0:0:
24,248,158518,1,0,0:0:0:0:
64,248,158654,1,0,0:0:0:0:
432,248,158927,1,0,0:0:0:0:
368,248,159063,1,0,0:0:0:0:
432,248,159200,1,0,0:0:0:0:
48,112,159472,1,0,0:0:0:0:
128,112,159609,1,0,0:0:0:0:
48,112,159745,1,0,0:0:0:0:
424,80,160018,1,0,0:0:0:0:
328,80,160154,1,0,0:0:0:0:
424,80,160290,1,0,0:0:0:0:
40,216,160563,1,0,0:0:0:0:
168,216,160700,1,0,0:0:0:0:
40,216,160836,1,0,0:0:0:0:
512,192,161109,1,0,0:0:0:0:
256,192,161245,1,0,0:0:0:0:
512,192,161381,1,0,0:0:0:0:
104,192,161654,5,0,0:0:0:0:
408,192,161790,1,0,0:0:0:0:
104,192,161927,1,0,0:0:0:0:
408,192,162063,1,0,0:0:0:0:
104,192,162200,1,0,0:0:0:0:
408,192,162336,1,0,0:0:0:0:
104,192,162472,1,0,0:0:0:0:
408,192,162609,1,0,0:0:0:0:
104,192,162745,1,0,0:0:0:0:
408,192,162881,1,0,0:0:0:0:
104,192,163018,1,0,0:0:0:0:
408,192,163154,1,0,0:0:0:0:
104,192,163290,1,0,0:0:0:0:
408,192,163427,1,0,0:0:0:0:
104,192,163563,1,0,0:0:0:0:
408,192,163700,1,0,0:0:0:0:
104,192,163836,2,0,L|32:192,2,62.4999976158143
344,104,164381,2,0,L|416:104,1,62.4999976158143
144,128,164654,2,0,L|72:128,1,62.4999976158143
336,216,164927,2,0,L|272:216,1,62.4999976158143
88,200,165200,2,0,L|152:200,2,62.4999976158143
392,144,165609,1,0,0:0:0:0:
0,88,165745,1,0,0:0:0:0:
