osu file format v14

[General]
AudioFilename: spicetrousle.mp3
AudioLeadIn: 0
PreviewTime: 31929
Countdown: 0
SampleSet: Normal
StackLeniency: 0.7
Mode: 1
LetterboxInBreaks: 0
WidescreenStoryboard: 0

[Editor]
DistanceSpacing: 1.2
BeatDivisor: 4
GridSize: 32
TimelineZoom: 1.1

[Metadata]
Title:SPICETALE
TitleUnicode:SPICETALE
Artist:Alex Mercer
ArtistUnicode:Alex Mercer
Creator:Midnaait
Version:Futsuu
Source:UNDERTALE
Tags:RedScreen Papyrus Terry Crews Old Spice Odor Blocker Bodywash Mashups Toby Radiation Fox Bonetrousle SpiceTrousle
BeatmapID:821724
BeatmapSetID:375161

[Difficulty]
HPDrainRate:8
CircleSize:5
OverallDifficulty:5
ApproachRate:5
SliderMultiplier:1.4
SliderTickRate:1

[Events]
//Background and Video events
0,0,"BG.png",0,200
Video,-50,"vidyers.avi"
//Break Periods
//Storyboard Layer 0 (Background)
//Storyboard Layer 1 (Fail)
//Storyboard Layer 2 (Pass)
//Storyboard Layer 3 (Foreground)
//Storyboard Sound Samples

[TimingPoints]
29.6734693877551,400,4,1,0,100,1,0
32029,-100,4,1,0,100,0,1
51229,-100,4,1,0,100,0,0

[HitObjects]
256,192,29,5,0,0:0:0:0:
256,192,429,1,8,0:0:0:0:
256,192,1229,1,8,0:0:0:0:
256,192,2029,1,8,0:0:0:0:
256,192,2429,1,0,0:0:0:0:
256,192,2829,1,8,0:0:0:0:
256,192,3229,1,0,0:0:0:0:
256,192,3629,1,8,0:0:0:0:
256,192,4429,1,8,0:0:0:0:
256,192,5229,1,8,0:0:0:0:
256,192,5629,1,0,0:0:0:0:
256,192,6029,1,8,0:0:0:0:
256,192,6429,1,0,0:0:0:0:
256,192,6829,1,8,0:0:0:0:
256,192,7029,1,8,0:0:0:0:
256,192,7229,1,8,0:0:0:0:
256,192,7629,1,8,0:0:0:0:
256,192,8029,1,0,0:0:0:0:
256,192,8429,1,8,0:0:0:0:
256,192,8829,1,8,0:0:0:0:
256,192,9029,1,8,0:0:0:0:
256,192,9229,1,0,0:0:0:0:
256,192,9629,1,0,0:0:0:0:
256,192,10429,1,8,0:0:0:0:
256,192,10629,1,8,0:0:0:0:
256,192,10829,1,0,0:0:0:0:
256,192,11229,1,0,0:0:0:0:
256,192,11629,1,8,0:0:0:0:
256,192,12029,1,0,0:0:0:0:
256,192,12829,1,0,0:0:0:0:
256,192,13229,1,8,0:0:0:0:
256,192,13429,1,8,0:0:0:0:
256,192,13629,1,8,0:0:0:0:
256,192,14029,1,8,0:0:0:0:
256,192,14429,1,0,0:0:0:0:
256,192,14829,1,8,0:0:0:0:
256,192,15229,1,8,0:0:0:0:
256,192,16029,1,0,0:0:0:0:
256,192,16229,1,0,0:0:0:0:
256,192,16429,1,8,0:0:0:0:
256,192,16829,1,8,0:0:0:0:
256,192,17229,1,0,0:0:0:0:
256,192,17629,1,8,0:0:0:0:
256,192,17829,1,0,0:0:0:0:
256,192,18029,1,8,0:0:0:0:
256,192,18429,1,8,0:0:0:0:
256,192,19229,1,0,0:0:0:0:
256,192,19629,1,0,0:0:0:0:
256,192,19829,1,0,0:0:0:0:
256,192,20029,1,8,0:0:0:0:
256,192,20429,1,8,0:0:0:0:
256,192,20829,1,0,0:0:0:0:
256,192,21229,1,8,0:0:0:0:
256,192,21629,1,8,0:0:0:0:
256,192,21829,1,8,0:0:0:0:
256,192,22029,1,0,0:0:0:0:
256,192,22429,1,8,0:0:0:0:
256,192,23229,1,8,0:0:0:0:
256,192,23429,1,8,0:0:0:0:
256,192,23629,1,0,0:0:0:0:
256,192,24029,1,0,0:0:0:0:
256,192,24429,1,8,0:0:0:0:
256,192,24829,1,0,0:0:0:0:
256,192,25629,1,0,0:0:0:0:
256,192,26029,1,0,0:0:0:0:
256,192,26229,1,8,0:0:0:0:
256,192,26429,1,8,0:0:0:0:
256,192,26829,1,8,0:0:0:0:
256,192,27229,1,0,0:0:0:0:
256,192,27629,1,8,0:0:0:0:
256,192,28029,1,8,0:0:0:0:
256,192,28229,1,8,0:0:0:0:
256,192,28429,1,0,0:0:0:0:
256,192,28829,1,0,0:0:0:0:
256,192,29629,1,8,0:0:0:0:
256,192,30029,1,0,0:0:0:0:
256,192,30429,1,8,0:0:0:0:
256,192,30629,1,0,0:0:0:0:
256,192,30829,1,8,0:0:0:0:
256,192,31229,1,8,0:0:0:0:
256,192,32029,1,4,0:0:0:0:
256,192,32429,1,8,0:0:0:0:
256,192,32629,1,0,0:0:0:0:
256,192,32829,1,8,0:0:0:0:
256,192,33229,1,0,0:0:0:0:
256,192,33629,1,0,0:0:0:0:
256,192,33829,1,0,0:0:0:0:
256,192,34029,1,8,0:0:0:0:
256,192,34429,1,0,0:0:0:0:
256,192,34829,1,8,0:0:0:0:
256,192,35229,1,8,0:0:0:0:
256,192,35629,1,0,0:0:0:0:
256,192,35829,1,0,0:0:0:0:
256,192,36029,1,8,0:0:0:0:
256,192,36829,1,8,0:0:0:0:
256,192,37229,1,0,0:0:0:0:
256,192,37429,1,8,0:0:0:0:
256,192,37629,1,0,0:0:0:0:
256,192,38429,1,0,0:0:0:0:
256,192,38829,1,8,0:0:0:0:
256,192,39029,1,0,0:0:0:0:
256,192,39229,1,8,0:0:0:0:
256,192,39629,1,0,0:0:0:0:
256,192,40029,1,0,0:0:0:0:
256,192,40229,1,0,0:0:0:0:
256,192,40429,1,8,0:0:0:0:
256,192,40829,1,0,0:0:0:0:
256,192,41229,1,8,0:0:0:0:
256,192,41629,1,8,0:0:0:0:
256,192,42029,1,0,0:0:0:0:
256,192,42229,1,0,0:0:0:0:
256,192,42429,1,8,0:0:0:0:
256,192,43229,1,8,0:0:0:0:
256,192,43429,1,8,0:0:0:0:
256,192,43629,1,0,0:0:0:0:
256,192,43829,1,8,0:0:0:0:
256,192,44029,1,0,0:0:0:0:
256,192,44829,1,4,0:0:0:0:
256,192,45229,1,8,0:0:0:0:
256,192,45429,1,0,0:0:0:0:
256,192,45629,1,8,0:0:0:0:
256,192,46029,1,0,0:0:0:0:
256,192,46429,1,0,0:0:0:0:
256,184,46629,1,0,0:0:0:0:
256,192,46829,1,8,0:0:0:0:
256,192,47229,1,0,0:0:0:0:
256,192,47629,1,8,0:0:0:0:
256,192,48029,1,8,0:0:0:0:
256,192,48429,1,0,0:0:0:0:
256,192,48629,1,0,0:0:0:0:
256,192,48829,1,8,0:0:0:0:
256,192,49629,1,8,0:0:0:0:
256,192,50029,1,0,0:0:0:0:
256,192,50229,1,8,0:0:0:0:
256,192,50429,1,0,0:0:0:0:
256,192,51429,1,0,0:0:0:0:
256,192,51629,1,8,0:0:0:0:
256,192,52029,1,8,0:0:0:0:
256,192,52429,1,8,0:0:0:0:
256,192,52829,1,8,0:0:0:0:
256,192,53029,1,0,0:0:0:0:
256,192,53229,1,8,0:0:0:0:
256,192,53629,1,0,0:0:0:0:
256,192,54029,1,8,0:0:0:0:
256,192,54429,1,0,0:0:0:0:
256,192,55229,1,8,0:0:0:0:
256,192,55629,1,8,0:0:0:0:
256,192,56029,1,0,0:0:0:0:
256,192,56229,1,0,0:0:0:0:
256,192,56429,1,8,0:0:0:0:
256,192,56829,1,0,0:0:0:0:
256,192,57229,1,12,0:0:0:0:
