osu file format v14

[General]
AudioFilename: audio.mp3
AudioLeadIn: 0
PreviewTime: 75729
Countdown: 0
SampleSet: Normal
StackLeniency: 0.7
Mode: 0
LetterboxInBreaks: 0
WidescreenStoryboard: 0

[Editor]
DistanceSpacing: 1.8
BeatDivisor: 4
GridSize: 8
TimelineZoom: 1.9

[Metadata]
Title:Too Close
TitleUnicode:Too Close
Artist:Alex Clare
ArtistUnicode:Alex Clare
Creator:semaphore
Version:Normal
Source:
Tags:vass_bass reiji-rj La Cataline lc pandahero collaboration english electronic pop rock dubstep Lateness of the Hour
BeatmapID:3213165
BeatmapSetID:1573697

[Difficulty]
HPDrainRate:4
CircleSize:3
OverallDifficulty:4
ApproachRate:5
SliderMultiplier:1.4
SliderTickRate:1

[Events]
//Background and Video events
0,0,"darova riffy.jpg",0,0
//Break Periods
2,106882,120718
2,152397,155004
2,183074,191194
//Storyboard Layer 0 (Background)
//Storyboard Layer 1 (Fail)
//Storyboard Layer 2 (Pass)
//Storyboard Layer 3 (Foreground)
//Storyboard Layer 4 (Overlay)
//Storyboard Sound Samples

[TimingPoints]
15252,476.190476190476,4,1,1,60,1,0
15252,-133.333333333333,4,1,1,60,0,0
76204,-100,4,1,0,70,0,1
76918,-100,4,1,2,70,0,1
83823,-100,4,1,0,70,0,1
84537,-100,4,1,2,70,0,1
90966,-100,4,1,0,70,0,1
92156,-100,4,1,2,70,0,1
98585,-100,4,1,0,70,0,1
99775,-100,4,1,2,70,0,1
106680,-100,4,1,1,60,0,0
121918,-133.333333333333,4,1,1,60,0,0
156204,-100,4,1,2,70,0,1
160013,-100,4,1,0,70,0,1
160728,-100,4,1,2,70,0,1
167156,-100,4,1,0,70,0,1
168347,-100,4,1,2,70,0,1
174775,-100,4,1,0,70,0,1
175966,-100,4,1,2,70,0,1
182871,-100,4,1,2,60,0,0
198109,-100,4,1,0,75,0,1
198823,-100,4,1,2,75,0,1
205728,-100,4,1,0,75,0,1
206442,-100,4,1,2,75,0,1
212870,-100,4,1,0,75,0,1
214061,-100,4,1,2,75,0,1
220489,-100,4,1,0,75,0,1
221680,-100,4,1,2,75,0,1
228585,-133.333333333333,4,1,1,60,0,0

[Colours]
Combo1 : 240,205,147
Combo2 : 204,219,227
Combo3 : 39,62,71
Combo4 : 217,147,147

[HitObjects]
488,240,15252,6,0,P|504:192|504:144,1,78.7500000000002,0|0,1:0|1:0,1:0:0:0:
504,112,15728,1,2,1:0:0:0:
432,40,15966,2,0,L|312:48,1,105,0|2,1:0|1:0,1:0:0:0:
136,88,16918,1,0,1:0:0:0:
224,128,17156,2,0,P|232:176|232:240,1,105,0|2,1:0|1:0,1:0:0:0:
152,288,17871,2,0,P|144:240|144:168,1,105,0|2,1:0|1:0,1:0:0:0:
344,160,18823,1,0,1:0:0:0:
408,240,19061,6,0,P|416:280|416:336,1,78.7500000000002,0|0,1:0|1:0,1:0:0:0:
408,368,19537,1,2,1:0:0:0:
312,376,19775,2,0,L|192:384,1,105,0|2,1:0|1:0,1:0:0:0:
104,376,20490,1,0,1:0:0:0:
8,360,20728,1,0,1:0:0:0:
16,264,20966,2,0,P|8:216|6:166,1,78.7500000000002,0|0,1:0|1:0,1:0:0:0:
0,133,21442,1,2,1:0:0:0:
100,104,21680,2,0,P|108:152|108:224,1,105,0|2,1:0|1:0,1:0:0:0:
296,224,22632,1,2,1:0:0:0:
376,176,22871,6,0,L|416:176,2,26.2500000000001,0|0|0,1:0|1:0|1:0,1:0:0:0:
376,80,23347,1,2,1:0:0:0:
288,40,23585,2,0,P|280:88|280:168,1,105,0|2,1:0|1:0,1:0:0:0:
368,312,24537,1,0,1:0:0:0:
296,376,24775,2,0,L|184:384,1,105,0|2,1:0|1:0,1:0:0:0:
112,320,25490,2,0,P|104:256|104:200,1,105,0|2,1:0|1:0,1:0:0:0:
200,40,26442,1,0,1:0:0:0:
272,104,26680,6,0,P|280:152|272:200,1,78.7500000000002,0|0,1:0|1:0,1:0:0:0:
264,232,27156,1,2,1:0:0:0:
168,264,27394,2,0,L|48:272,1,105,0|2,1:0|1:0,1:0:0:0:
48,176,28109,1,2,1:0:0:0:
40,80,28347,1,2,1:0:0:0:
128,32,28585,2,0,P|168:32|248:40,1,105,0|2,1:0|1:0,1:0:0:0:
264,128,29299,2,0,P|192:128|144:120,1,105,0|2,1:0|1:0,1:0:0:0:
40,320,30490,6,0,L|160:312,1,105,0|8,1:0|1:0,1:0:0:0:
216,272,31204,2,0,L|288:280,1,52.5000000000001,0|0,1:0|1:0,1:0:0:0:
328,336,31680,1,8,1:0:0:0:
400,296,31918,2,0,P|407:244|408:191,1,105,0|0,1:0|1:0,1:0:0:0:
216,160,32871,1,8,1:0:0:0:
144,120,33109,2,0,P|136:160|136:240,1,105,0|8,1:0|1:0,1:0:0:0:
176,296,33823,2,0,L|304:288,1,105,0|0,1:0|1:0,1:0:0:0:
432,368,34775,5,8,1:0:0:0:
480,296,35013,2,0,P|488:232|488:176,1,105,0|8,1:0|1:0,1:0:0:0:
424,136,35728,2,0,L|368:144,1,52.5000000000001,2|2,1:0|1:0,1:0:0:0:
312,88,36204,2,0,L|200:80,1,105,0|8,1:0|1:0,1:0:0:0:
136,120,36918,1,0,1:0:0:0:
40,264,37394,2,0,L|48:328,2,52.5000000000001,8|2|10,1:0|1:0|1:0,1:0:0:0:
96,200,38109,6,0,P|88:144|88:88,1,105,0|8,1:0|1:0,1:0:0:0:
152,40,38823,2,0,L|208:56,1,52.5000000000001,0|0,1:0|1:0,1:0:0:0:
280,16,39299,1,8,1:0:0:0:
343,71,39537,2,0,P|343:124|337:176,1,105,0|0,1:0|1:0,1:0:0:0:
248,320,40490,1,8,1:0:0:0:
200,248,40728,2,0,P|192:192|200:136,1,105,0|8,1:0|1:0,1:0:0:0:
272,112,41442,2,0,L|336:120,1,52.5000000000001,2|2,1:0|1:0,1:0:0:0:
384,176,41918,6,0,L|504:168,1,105,0|8,1:0|1:0,1:0:0:0:
504,248,42632,2,0,P|504:296|488:360,1,105,0|8,1:0|1:0,1:0:0:0:
328,328,43585,1,0,1:0:0:0:
256,368,43823,2,0,L|144:376,1,105,0|8,1:0|1:0,1:0:0:0:
80,336,44537,2,0,P|72:280|72:216,1,105,0|8,1:0|1:0,1:0:0:0:
112,160,45251,1,2,1:0:0:0:
304,16,45728,6,0,P|312:72|304:136,1,105,4|8,1:2|1:0,1:0:0:0:
296,200,46442,2,0,L|240:208,1,52.5000000000001,0|0,1:0|1:0,1:0:0:0:
192,144,46918,1,8,1:0:0:0:
112,160,47156,2,0,P|104:208|112:280,1,105,0|0,1:0|1:0,1:0:0:0:
240,368,48109,1,8,1:0:0:0:
312,328,48347,2,0,L|432:344,1,105,0|8,1:0|1:0,1:0:0:0:
496,328,49061,2,0,P|504:272|504:208,1,105,0|0,1:0|1:0,1:0:0:0:
488,56,50013,5,8,1:0:0:0:
408,24,50251,2,0,P|400:80|400:152,1,105,0|8,1:0|1:0,1:0:0:0:
408,208,50966,2,0,L|344:216,1,52.5000000000001,2|0,1:0|1:0,1:0:0:0:
280,176,51442,2,0,L|168:168,1,105,0|8,1:0|1:0,1:0:0:0:
96,200,52156,1,0,1:0:0:0:
8,56,52632,2,0,L|0:0,2,52.5000000000001,8|2|10,1:0|1:0|1:0,1:0:0:0:
56,128,53347,6,0,P|64:192|56:256,1,105,4|8,1:2|1:0,1:0:0:0:
48,312,54061,2,0,L|104:320,1,52.5000000000001,0|0,1:0|1:0,1:0:0:0:
176,288,54537,1,8,1:0:0:0:
256,320,54775,2,0,P|264:264|256:200,1,105,0|0,1:0|1:0,1:0:0:0:
176,72,55728,1,8,1:0:0:0:
240,16,55966,2,0,L|352:24,1,105,0|8,1:0|1:0,1:0:0:0:
424,40,56680,2,0,L|432:96,1,52.5000000000001,0|2,1:0|1:0,1:0:0:0:
376,152,57156,6,0,P|368:200|368:272,1,105,0|8,1:0|1:0,1:0:0:0:
400,336,57871,2,0,L|512:328,1,105,0|8,1:0|1:0,1:0:0:0:
464,168,58823,1,0,1:0:0:0:
392,208,59061,2,0,L|280:216,1,105,0|8,1:0|1:0,1:0:0:0:
232,152,59775,1,0,1:0:0:0:
192,80,60013,2,0,P|184:24|184:8,1,52.5000000000001,2|10,1:0|1:0,1:0:0:0:
264,16,60490,2,0,L|304:16,2,26.2500000000001,2|2|2,1:0|1:0|1:0,1:0:0:0:
184,28,60966,6,0,P|144:36|72:36,1,105,4|8,1:2|1:0,1:0:0:0:
0,64,61680,2,0,L|8:176,1,105,0|8,1:0|1:0,1:0:0:0:
160,368,62871,2,0,P|224:360|272:360,1,105,0|8,1:0|1:0,1:0:0:0:
328,304,63585,2,0,L|320:192,1,105,0|8,1:0|1:0,1:0:0:0:
496,16,64775,6,0,P|504:72|504:136,1,105,0|8,1:0|1:0,1:0:0:0:
448,184,65490,2,0,L|344:176,1,105,0|8,1:0|1:0,1:0:0:0:
304,104,66204,2,0,L|296:40,1,52.5000000000001,0|0,1:0|1:0,1:0:0:0:
224,16,66680,2,0,P|216:64|216:136,1,105,0|8,1:0|1:0,1:0:0:0:
168,184,67394,1,0,1:0:0:0:
224,248,67632,2,0,P|232:304|232:360,2,105,0|8|4,1:0|1:0|1:2,1:0:0:0:
168,184,68823,5,0,1:0:0:0:
88,176,69061,1,8,1:0:0:0:
24,232,69299,2,0,P|16:288|16:352,1,105,0|8,1:0|1:0,1:0:0:0:
88,376,70013,2,0,L|160:368,1,52.5000000000001,2|2,1:0|1:0,1:0:0:0:
208,320,70490,2,0,L|320:328,1,105,0|8,1:0|1:0,1:0:0:0:
384,368,71204,2,0,P|400:312|392:248,1,105,0|8,1:0|1:0,1:0:0:0:
464,112,72156,1,0,1:0:0:0:
408,48,72394,6,0,L|304:56,1,105,0|8,1:0|1:0,1:0:0:0:
248,120,73109,2,0,P|248:176|256:240,1,105,0|8,1:0|1:0,1:0:0:0:
296,296,73823,2,0,L|288:368,1,52.5000000000001,2|2,1:0|1:0,1:0:0:0:
208,344,74299,6,0,P|160:352|80:352,1,105,0|8,1:0|1:0,1:0:0:0:
136,272,75013,2,0,P|192:264|248:264,2,105,2|2|2,1:0|1:0|1:0,1:0:0:0:
68,205,76204,6,0,P|60:157|60:53,1,140,4|0,1:0|1:0,1:0:0:0:
136,16,76918,1,4,1:0:0:0:
216,64,77156,2,2,L|360:72,1,140,8|4,1:0|1:2,1:0:0:0:
504,208,78109,6,0,P|504:272|488:360,1,140,4|0,1:0|1:0,1:0:0:0:
400,376,78823,2,0,L|320:384,1,70,4|8,1:0|1:0,1:0:0:0:
248,328,79299,1,2,1:2:0:0:
320,264,79537,2,2,L|480:248,1,140,4|4,1:2|1:0,1:0:0:0:
512,64,80490,6,0,L|432:72,1,70,0|4,1:0|1:0,1:0:0:0:
352,24,80966,2,2,P|336:88|344:168,1,140,8|4,1:0|1:2,1:0:0:0:
416,224,81680,1,2,1:2:0:0:
464,312,81918,2,0,L|304:320,1,140,4|0,1:0|1:0,1:0:0:0:
240,376,82632,1,4,1:2:0:0:
144,376,82871,2,2,P|136:296|144:224,1,140,8|4,1:0|1:2,1:0:0:0:
304,64,83823,6,0,P|312:128|296:216,1,140,4|0,1:0|1:0,1:0:0:0:
240,280,84537,1,4,1:0:0:0:
152,240,84775,2,2,L|0:248,1,140,8|4,1:0|1:2,1:0:0:0:
72,64,85728,6,0,L|224:56,1,140,4|0,1:0|1:0,1:0:0:0:
280,128,86442,2,0,P|280:176|272:216,1,70,4|10,1:0|1:0,1:0:0:0:
240,288,86918,1,2,1:2:0:0:
168,224,87156,2,2,P|168:160|184:72,1,140,4|4,1:2|1:0,1:0:0:0:
368,16,88109,6,0,P|376:72|368:112,1,70,0|4,1:0|1:0,1:0:0:0:
336,176,88585,2,2,P|328:240|336:336,1,140,8|4,1:0|1:2,1:0:0:0:
424,344,89299,1,2,1:2:0:0:
456,256,89537,2,0,P|464:176|456:104,1,140,4|0,1:0|1:0,1:0:0:0:
384,56,90251,1,4,1:0:0:0:
296,96,90490,2,2,L|144:88,2,140,8|4|4,1:0|1:0|1:0,1:0:0:0:
352,176,91680,5,2,1:0:0:0:
368,272,91918,1,2,1:2:0:0:
336,368,92156,2,0,L|248:360,1,70,4|8,1:0|1:0,1:0:0:0:
168,352,92632,2,0,L|176:272,1,70,2|4,1:2|1:2,1:0:0:0:
192,184,93109,1,2,1:0:0:0:
272,232,93347,6,0,P|320:240|432:240,1,140,4|0,1:0|1:0,1:0:0:0:
480,176,94061,1,4,1:0:0:0:
488,80,94299,1,8,1:0:0:0:
416,16,94537,2,2,P|360:8|248:8,1,140,4|4,1:2|1:2,1:0:0:0:
200,64,95251,6,0,L|192:136,1,70,4|2,1:0|1:0,1:0:0:0:
176,232,95728,2,0,L|248:240,1,70,2|4,1:2|1:0,1:0:0:0:
344,256,96204,2,0,L|352:184,1,70,8|0,1:0|1:0,1:0:0:0:
368,88,96680,2,0,L|296:80,1,70,4|0,1:2|1:0,1:0:0:0:
216,32,97156,2,0,P|160:32|64:48,1,140,4|0,1:0|1:0,1:0:0:0:
16,120,97871,1,4,1:0:0:0:
48,216,98109,2,2,L|56:368,2,140,8|4|4,1:0|1:0|1:0,1:0:0:0:
240,160,99537,6,0,L|232:240,1,70,0|4,1:0|1:0,1:0:0:0:
208,320,100013,2,2,P|264:312|360:320,1,140,8|4,1:0|1:2,1:0:0:0:
496,192,100966,6,0,P|512:128|504:48,1,140,4|0,1:0|1:0,1:0:0:0:
424,0,101680,2,0,L|352:8,1,70,4|8,1:0|1:0,1:0:0:0:
272,64,102156,1,2,1:2:0:0:
264,160,102394,2,2,P|248:248|256:312,1,140,4|4,1:2|1:0,1:0:0:0:
432,376,103347,6,0,P|440:336|432:280,1,70,0|4,1:0|1:0,1:0:0:0:
360,248,103823,2,2,P|344:296|344:392,1,140,8|4,1:0|1:2,1:0:0:0:
146,375,104775,2,0,L|18:383,2,105,4|0|4,1:0|1:0|1:0,1:0:0:0:
208,296,105728,2,2,P|232:224|216:72,1,210,8|2,1:0|1:2,1:0:0:0:
112,48,106680,5,4,1:0:0:0:
512,8,121918,6,0,P|472:0|392:8,1,105,0|8,1:0|1:0,1:0:0:0:
344,56,122632,2,0,L|352:168,1,105,0|8,1:0|1:0,1:0:0:0:
504,360,123823,2,0,P|512:304|512:240,1,105,0|8,1:0|1:0,1:0:0:0:
464,192,124537,2,0,L|336:200,1,105,0|8,1:0|1:0,1:0:0:0:
288,240,125251,2,0,L|216:232,1,52.5000000000001,2|2,1:0|1:0,1:0:0:0:
176,176,125728,6,0,P|184:120|184:64,1,105,0|8,1:0|1:0,1:0:0:0:
128,16,126442,2,0,L|24:24,1,105,0|8,1:0|1:0,1:0:0:0:
0,272,127632,2,0,L|8:376,1,105,0|8,1:0|1:0,1:0:0:0:
88,376,128347,2,0,P|128:376|208:384,1,105,0|8,1:0|1:0,1:0:0:0:
360,352,129299,1,0,1:0:0:0:
296,304,129537,6,0,P|288:248|296:192,1,105,0|8,1:0|1:0,1:0:0:0:
368,160,130251,2,0,L|488:168,1,105,0|8,1:0|1:0,1:0:0:0:
512,96,130966,2,0,L|504:32,1,52.5000000000001,2|2,1:0|1:0,1:0:0:0:
432,8,131442,2,0,L|312:0,1,105,0|8,1:0|1:0,1:0:0:0:
248,32,132156,2,0,P|248:72|240:144,2,105,0|8|8,1:0|1:0|1:0,1:0:0:0:
176,0,133347,6,0,L|64:8,1,105,0|8,1:0|1:0,1:0:0:0:
8,64,134061,2,0,P|0:120|0:184,1,105,0|8,1:0|1:0,1:0:0:0:
208,312,135251,2,0,P|216:256|216:208,1,105,0|8,1:0|1:0,1:0:0:0:
160,144,135966,2,0,L|32:152,1,105,0|8,1:0|1:0,1:0:0:0:
16,224,136680,1,0,1:0:0:0:
16,312,136918,1,0,1:0:0:0:
80,368,137156,6,0,L|184:360,1,105,4|8,1:2|1:0,1:0:0:0:
256,320,137871,2,0,L|320:328,1,52.5000000000001,0|0,1:0|1:0,1:0:0:0:
376,376,138347,1,8,1:0:0:0:
440,320,138585,2,0,P|448:264|448:208,1,105,0|0,1:0|1:0,1:0:0:0:
360,72,139537,1,8,1:0:0:0:
296,120,139775,2,0,P|288:160|288:224,1,105,0|8,1:0|1:0,1:0:0:0:
304,304,140490,2,0,L|192:296,1,105,2|4,1:0|1:2,1:0:0:0:
48,224,141442,5,8,1:0:0:0:
8,152,141680,2,0,P|0:88|8:40,1,105,0|8,1:0|1:0,1:0:0:0:
80,16,142394,2,0,L|136:24,1,52.5000000000001,2|2,1:0|1:0,1:0:0:0:
216,0,142871,2,0,P|216:56|208:128,1,105,0|8,1:0|1:0,1:0:0:0:
136,144,143585,1,0,1:0:0:0:
192,208,143823,2,0,L|304:200,2,105,0|8|4,1:0|1:0|1:2,1:0:0:0:
136,144,145013,5,0,1:0:0:0:
144,64,145251,1,8,1:0:0:0:
216,24,145490,2,0,L|336:32,1,105,0|8,1:0|1:0,1:0:0:0:
400,8,146204,2,0,L|472:0,1,52.5000000000001,2|2,1:0|1:0,1:0:0:0:
504,64,146680,2,0,P|512:120|504:184,1,105,0|8,1:0|1:0,1:0:0:0:
448,224,147394,2,0,L|344:216,1,105,0|8,1:0|1:0,1:0:0:0:
176,192,148347,1,0,1:0:0:0:
96,200,148585,6,0,P|88:256|96:320,1,105,0|8,1:0|1:0,1:0:0:0:
144,368,149299,2,0,L|264:360,1,105,0|8,1:0|1:0,1:0:0:0:
328,344,150013,2,0,L|392:352,1,52.5000000000001,2|2,1:0|1:0,1:0:0:0:
456,320,150490,2,0,P|472:272|464:208,1,105,0|8,1:0|1:0,1:0:0:0:
392,184,151204,2,0,L|272:192,1,105,0|10,1:0|1:0,1:0:0:0:
48,72,156204,6,0,P|40:128|56:216,1,140,4|0,1:0|1:0,1:0:0:0:
128,272,156918,1,4,1:0:0:0:
224,248,157156,2,2,L|368:256,2,140,8|4|4,1:0|1:2|1:0,1:0:0:0:
136,72,158585,1,2,1:2:0:0:
224,32,158823,1,4,1:0:0:0:
312,80,159061,2,2,P|360:88|472:88,1,140,8|4,1:0|1:2,1:0:0:0:
504,280,160013,6,0,P|448:280|344:288,1,140,4|0,1:0|1:0,1:0:0:0:
280,336,160728,1,4,1:0:0:0:
184,312,160966,2,2,P|168:248|176:160,1,140,8|4,1:0|1:2,1:0:0:0:
328,56,161918,6,0,P|344:120|336:200,1,140,4|0,1:0|1:0,1:0:0:0:
248,224,162632,2,0,L|168:216,1,70,4|8,1:0|1:0,1:0:0:0:
88,176,163109,1,2,1:2:0:0:
0,224,163347,2,2,P|-8:280|8:376,1,140,4|4,1:2|1:0,1:0:0:0:
200,376,164299,6,0,L|208:288,1,70,2|4,1:2|1:0,1:0:0:0:
168,216,164775,2,0,P|160:152|168:72,1,140,8|4,1:0|1:2,1:0:0:0:
248,16,165490,1,2,1:2:0:0:
320,80,165728,2,0,P|328:144|320:240,1,140,4|0,1:0|1:0,1:0:0:0:
288,312,166442,1,4,1:0:0:0:
360,384,166680,2,2,L|512:376,2,140,8|4|4,1:0|1:0|1:0,1:0:0:0:
288,312,167871,5,2,1:0:0:0:
192,344,168109,1,2,1:2:0:0:
104,304,168347,2,0,L|16:312,1,70,4|8,1:0|1:0,1:0:0:0:
16,216,168823,2,0,P|0:168|0:136,1,70,2|4,1:2|1:2,1:0:0:0:
24,56,169299,1,2,1:0:0:0:
120,72,169537,6,0,P|128:128|136:224,1,140,4|0,1:0|1:0,1:0:0:0:
112,304,170251,1,4,1:0:0:0:
184,368,170490,1,8,1:0:0:0:
272,320,170728,2,2,P|280:256|280:176,1,140,4|4,1:2|1:2,1:0:0:0:
271,82,171442,6,0,L|351:74,1,70,4|2,1:0|1:0,1:0:0:0:
439,66,171918,2,0,L|447:146,1,70,2|4,1:2|1:0,1:0:0:0:
455,234,172394,2,0,L|375:242,1,70,8|2,1:0|1:2,1:0:0:0:
287,250,172871,2,0,L|279:170,1,70,4|0,1:2|1:0,1:0:0:0:
192,136,173347,6,0,P|136:136|24:120,1,140,4|0,1:0|1:0,1:0:0:0:
0,40,174061,1,4,1:0:0:0:
88,0,174299,2,2,P|144:0|240:16,2,140,8|4|4,1:0|1:0|1:0,1:0:0:0:
24,184,175728,6,0,L|96:192,1,70,2|4,1:2|1:0,1:0:0:0:
192,184,176204,2,2,P|184:256|208:328,1,140,8|4,1:0|1:2,1:0:0:0:
296,352,176918,1,2,1:2:0:0:
392,328,177156,1,4,1:0:0:0:
488,344,177394,2,0,P|504:272|496:200,1,140,4|4,1:2|1:0,1:0:0:0:
432,136,178109,1,8,1:0:0:0:
352,192,178347,2,2,P|344:248|352:336,1,140,4|4,1:2|1:2,1:0:0:0:
256,352,179061,6,0,L|112:360,1,140,4|0,1:0|1:0,1:0:0:0:
32,312,179775,1,4,1:0:0:0:
24,216,180013,2,0,P|24:200|32:136,1,70,8|0,1:0|1:0,1:0:0:0:
128,120,180490,2,0,P|128:136|120:200,1,70,4|0,1:2|1:0,1:0:0:0:
208,232,180966,6,0,L|312:240,2,105,4|0|4,1:0|1:0|1:0,1:0:0:0:
120,272,181918,2,2,P|112:184|160:64,1,210,8|2,1:0|1:2,1:0:0:0:
263,15,182871,5,4,2:0:0:0:
256,192,192394,12,4,197632,2:0:0:0:
464,336,198109,6,0,P|480:288|472:192,1,140,4|0,1:0|1:0,1:0:0:0:
384,152,198823,1,4,1:0:0:0:
312,216,199061,2,0,L|232:224,1,70,8|0,1:0|1:0,1:0:0:0:
144,232,199537,2,2,L|136:160,1,70,4|0,1:2|1:0,1:0:0:0:
128,64,200013,6,0,L|272:48,2,140,4|4|8,1:0|1:2|1:0,1:0:0:0:
48,120,201204,1,2,1:2:0:0:
56,216,201442,1,4,1:2:0:0:
144,256,201680,1,2,1:0:0:0:
224,192,201918,6,0,P|296:184|376:184,1,140,4|0,1:0|1:0,1:0:0:0:
448,232,202632,1,4,1:0:0:0:
432,328,202871,2,2,P|384:336|288:344,1,140,8|4,1:0|1:2,1:0:0:0:
208,288,203585,1,0,1:0:0:0:
128,352,203823,6,0,P|80:344|16:344,2,105,4|0|4,1:0|1:0|1:0,1:0:0:0:
208,288,204775,1,8,1:0:0:0:
232,192,205013,2,2,P|240:128|240:32,1,140,4|4,1:2|1:2,1:0:0:0:
152,8,205728,6,0,L|0:16,1,140,4|0,1:0|1:0,1:0:0:0:
0,112,206442,1,4,1:0:0:0:
96,120,206680,2,2,L|176:128,2,70,8|0|4,1:0|1:0|1:2,1:0:0:0:
0,112,207394,6,0,P|0:160|16:208,1,70,2|4,1:2|1:0,1:0:0:0:
88,232,207871,2,0,L|168:224,1,70,2|0,1:2|1:0,1:0:0:0:
248,256,208347,2,0,P|264:304|264:352,1,70,4|8,1:0|1:0,1:0:0:0:
184,376,208823,1,2,1:0:0:0:
96,328,209061,1,4,1:2:0:0:
120,232,209299,1,2,1:0:0:0:
216,208,209537,6,0,P|216:144|224:48,1,140,4|0,1:0|1:0,1:0:0:0:
296,0,210251,1,4,1:0:0:0:
384,40,210490,1,8,1:0:0:0:
368,136,210728,2,2,P|360:208|360:224,1,70,2|4,1:2|1:2,1:0:0:0:
400,296,211204,1,2,1:0:0:0:
496,272,211442,6,0,P|504:208|504:120,1,140,4|0,1:0|1:0,1:0:0:0:
440,56,212156,1,4,1:0:0:0:
352,88,212394,2,2,L|200:96,2,140,8|4|4,1:0|1:0|1:0,1:0:0:0:
440,56,213585,5,2,1:0:0:0:
448,152,213823,1,2,1:2:0:0:
456,248,214061,2,0,L|360:256,1,70,4|8,1:0|1:0,1:0:0:0:
288,272,214537,2,2,P|280:224|280:184,2,70,2|4|2,1:2|1:2|1:2,1:0:0:0:
312,368,215251,6,0,L|152:360,1,140,4|0,1:0|1:0,1:0:0:0:
72,384,215966,1,4,1:0:0:0:
16,304,216204,1,8,1:0:0:0:
64,224,216442,2,2,L|224:232,1,140,4|4,1:2|1:2,1:0:0:0:
304,240,217156,6,0,P|312:184|312:144,1,70,4|2,1:0|1:0,1:0:0:0:
328,72,217632,2,0,P|272:64|232:64,1,70,2|4,1:2|1:0,1:0:0:0:
160,56,218109,2,0,P|152:112|152:152,1,70,8|2,1:0|1:2,1:0:0:0:
134,222,218585,2,0,P|190:230|230:230,1,70,4|2,1:2|1:0,1:0:0:0:
280,296,219061,6,0,P|344:288|424:288,1,140,4|0,1:0|1:0,1:0:0:0:
496,224,219775,1,4,1:0:0:0:
448,144,220013,2,2,L|456:0,2,140,8|4|4,1:0|1:0|1:0,1:0:0:0:
304,272,221442,6,0,L|312:184,1,70,2|4,1:2|1:0,1:0:0:0:
336,104,221918,2,2,P|280:112|184:112,1,140,8|4,1:0|1:2,1:0:0:0:
104,72,222632,1,2,1:2:0:0:
40,144,222871,1,4,1:0:0:0:
88,224,223109,2,0,P|152:216|240:216,1,140,4|4,1:2|1:0,1:0:0:0:
296,280,223823,1,8,1:0:0:0:
256,368,224061,2,2,P|200:376|112:376,1,140,4|4,1:2|1:2,1:0:0:0:
32,320,224775,6,0,L|24:176,1,140,4|0,1:0|1:0,1:0:0:0:
72,96,225490,1,4,1:0:0:0:
160,136,225728,2,2,L|168:280,2,140,8|4|4,1:0|1:2|1:0,1:0:0:0:
72,96,226918,6,0,P|32:96|0:88,2,70,2|0|4,1:2|1:0|1:0,1:0:0:0:
152,40,227632,2,2,P|208:16|352:40,1,210,8|2,1:0|1:2,1:0:0:0:
472,64,228585,6,0,P|472:112|464:160,1,78.7500000000002,4|0,1:0|1:0,1:0:0:0:
456,184,229061,1,2,1:0:0:0:
360,200,229299,2,0,L|240:192,1,105,0|2,1:0|1:0,1:0:0:0:
104,312,230251,1,0,1:0:0:0:
176,376,230490,2,0,L|296:384,1,105,0|2,1:0|1:0,1:0:0:0:
352,320,231204,2,0,P|360:256|360:192,1,105,0|2,1:0|1:0,1:0:0:0:
328,32,232156,1,0,1:0:0:0:
256,96,232394,6,0,P|208:104|168:104,1,78.7500000000002,0|2,1:0|1:0,1:0:0:0:
128,96,232871,1,0,1:0:0:0:
48,48,233109,2,0,L|40:160,2,105,0|2|0,1:0|1:0|1:0,1:0:0:0:
136,8,234299,6,0,P|208:0|256:0,1,105,0|2,1:0|1:0,1:0:0:0:
328,32,235013,1,0,1:0:0:0:
296,120,235251,2,0,P|288:168|288:192,1,52.5000000000001,0|2,1:0|1:0,1:0:0:0:
368,224,235728,2,0,L|488:232,1,105,0|0,1:0|1:0,1:0:0:0:
504,320,236442,5,0,1:0:0:0:
432,384,236680,1,2,1:0:0:0:
344,344,236918,2,0,L|232:336,1,105,0|2,1:0|1:0,1:0:0:0:
152,376,237632,2,0,L|80:384,1,52.5000000000001,0|0,1:0|1:0,1:0:0:0:
32,320,238109,2,0,P|24:272|24:224,1,78.7500000000002,0|0,1:0|1:0,1:0:0:0:
32,192,238585,1,2,1:0:0:0:
120,152,238823,2,0,P|128:216|128:280,1,105,0|2,1:0|1:0,1:0:0:0:
296,352,239775,1,0,1:0:0:0:
384,320,240013,6,0,L|496:328,1,105,0|2,1:0|1:0,1:0:0:0:
504,232,240728,2,0,P|512:168|512:120,1,105,0|2,1:0|1:0,1:0:0:0:
456,48,241442,1,0,1:0:0:0:
360,64,241680,1,0,1:0:0:0:
352,160,241918,2,0,P|352:208|360:248,1,78.7500000000002,0|0,1:0|1:0,1:0:0:0:
376,280,242394,1,2,1:0:0:0:
304,336,242632,1,0,1:0:0:0:
224,280,242871,2,0,L|128:288,2,78.7500000000002,0|2|2,1:0|1:0|1:0,1:0:0:0:
256,192,243823,5,4,1:0:0:0:
