osu file format v14

[General]
AudioFilename: audio.mp3
AudioLeadIn: 0
PreviewTime: 75729
Countdown: 0
SampleSet: Soft
StackLeniency: 0.7
Mode: 0
LetterboxInBreaks: 0
WidescreenStoryboard: 0

[Editor]
DistanceSpacing: 2.6
BeatDivisor: 4
GridSize: 8
TimelineZoom: 2.2

[Metadata]
Title:Too Close
TitleUnicode:Too Close
Artist:Alex Clare
ArtistUnicode:Alex Clare
Creator:semaphore
Version:La Pandaline's Hard
Source:
Tags:vass_bass reiji-rj La Cataline lc pandahero collaboration english electronic pop rock dubstep Lateness of the Hour
BeatmapID:3213164
BeatmapSetID:1573697

[Difficulty]
HPDrainRate:5
CircleSize:4
OverallDifficulty:6
ApproachRate:8
SliderMultiplier:1.6
SliderTickRate:1

[Events]
//Background and Video events
0,0,"darova riffy.jpg",0,0
//Break Periods
2,106880,121168
2,183788,191644
//Storyboard Layer 0 (Background)
//Storyboard Layer 1 (Fail)
//Storyboard Layer 2 (Pass)
//Storyboard Layer 3 (Foreground)
//Storyboard Layer 4 (Overlay)
//Storyboard Sound Samples

[TimingPoints]
15252,476.190476190476,4,1,1,50,1,0
18823,-100,4,1,1,30,0,0
19061,-100,4,1,1,50,0,0
20490,-100,4,1,1,20,0,0
20966,-100,4,1,1,40,0,0
24299,-100,4,1,1,20,0,0
24775,-100,4,1,1,40,0,0
25966,-100,4,1,1,30,0,0
26680,-100,4,1,1,50,0,0
28109,-100,4,1,1,20,0,0
28585,-100,4,1,1,50,0,0
30490,-100,4,1,1,35,0,0
44775,-100,4,1,1,20,0,0
45728,-100,4,1,1,40,0,0
46680,-100,4,1,1,30,0,0
46918,-100,4,1,1,40,0,0
47156,-100,4,1,1,30,0,0
47632,-100,4,1,1,40,0,0
47870,-100,4,1,1,30,0,0
48109,-100,4,1,1,40,0,0
48585,-100,4,1,1,30,0,0
48823,-100,4,1,1,40,0,0
49299,-100,4,1,1,30,0,0
49537,-100,4,1,1,40,0,0
49894,-100,4,1,1,30,0,0
50013,-100,4,1,1,40,0,0
50489,-100,4,1,1,30,0,0
50609,-100,4,1,1,40,0,0
51204,-100,4,1,1,30,0,0
51442,-100,4,1,1,40,0,0
51799,-100,4,1,1,30,0,0
51918,-100,4,1,1,40,0,0
52394,-100,4,1,1,30,0,0
52632,-100,4,1,1,40,0,0
53109,-100,4,1,1,30,0,0
53347,-100,4,1,1,40,0,0
61086,-100,4,1,1,50,0,0
64537,-100,4,1,1,30,0,0
64775,-100,4,1,1,50,0,0
72156,-100,4,1,1,40,0,0
72394,-100,4,1,1,50,0,0
76204,-83.3333333333333,4,1,0,70,0,1
76324,-83.3333333333333,4,1,2,70,0,1
76680,-83.3333333333333,4,1,2,50,0,1
76918,-83.3333333333333,4,1,2,70,0,1
79537,-83.3333333333333,4,1,2,40,0,1
79775,-83.3333333333333,4,1,2,50,0,1
80013,-133.333333333333,4,1,2,70,0,1
84180,-83.3333333333333,4,1,2,70,0,1
87275,-83.3333333333333,4,1,2,50,0,1
87513,-83.3333333333333,4,1,2,70,0,1
87632,-133.333333333333,4,1,2,70,0,1
91442,-83.3333333333333,4,1,0,70,0,1
91563,-83.3333333333333,4,1,2,70,0,1
91918,-83.3333333333333,4,1,1,70,0,1
92156,-83.3333333333333,4,1,2,70,0,1
92632,-83.3333333333333,4,1,2,80,0,1
92871,-83.3333333333333,4,1,2,70,0,1
93823,-83.3333333333333,4,1,1,70,0,1
94061,-83.3333333333333,4,1,2,70,0,1
95489,-83.3333333333333,4,1,2,41,0,1
95966,-83.3333333333333,4,1,2,70,0,1
96204,-83.3333333333333,4,1,2,50,0,1
96442,-83.3333333333333,4,1,2,70,0,1
96680,-83.3333333333333,4,1,2,60,0,1
96799,-83.3333333333333,4,1,2,70,0,1
97156,-133.333333333333,4,2,2,70,0,1
97168,-133.333333333333,4,1,2,70,0,1
99061,-133.333333333333,4,1,0,70,0,1
99299,-133.333333333333,4,1,0,50,0,1
99775,-133.333333333333,4,1,1,70,0,1
100013,-133.333333333333,4,1,1,50,0,1
100490,-133.333333333333,4,1,1,60,0,1
100966,-83.3333333333333,4,1,0,70,0,1
101442,-83.3333333333333,4,1,0,60,0,1
101680,-83.3333333333333,4,1,2,70,0,1
102394,-83.3333333333333,4,1,2,60,0,1
102632,-83.3333333333333,4,1,2,70,0,1
102871,-133.333333333333,4,1,2,70,0,1
104775,-83.3333333333333,4,1,2,60,0,1
105728,-83.3333333333333,4,1,2,50,0,1
106206,-83.3333333333333,4,1,2,40,0,1
106680,-83.3333333333333,4,1,2,40,0,0
121918,-83.3333333333333,4,1,1,50,0,0
122156,-83.3333333333333,4,1,1,40,0,0
122394,-100,4,1,1,40,0,0
129299,-100,4,1,1,30,0,0
129418,-100,4,1,1,40,0,0
152394,-200,4,1,1,20,0,0
152407,-200,4,2,1,5,0,0
154298,-200,4,2,1,20,0,0
155611,-200,4,1,1,40,0,0
156204,-133.333333333333,4,1,0,70,0,1
156561,-133.333333333333,4,1,2,70,0,1
160013,-100,4,1,2,70,0,1
160966,-83.3333333333333,4,1,2,50,0,1
161442,-83.3333333333333,4,1,2,70,0,1
163823,-133.333333333333,4,1,2,70,0,1
167632,-133.333333333333,4,1,0,70,0,1
167871,-83.3333333333333,4,1,2,70,0,1
168823,-83.3333333333333,4,1,2,60,0,1
169061,-83.3333333333333,4,1,2,70,0,1
170013,-83.3333333333333,4,1,2,50,0,1
170251,-83.3333333333333,4,1,2,70,0,1
170728,-83.3333333333333,4,1,2,60,0,1
170966,-83.3333333333333,4,1,2,70,0,1
171442,-83.3333333333333,4,1,0,70,0,1
171680,-83.3333333333333,4,1,2,70,0,1
171802,-83.3333333333333,4,2,2,50,0,1
172156,-83.3333333333333,4,2,2,70,0,1
173347,-133.333333333333,4,2,2,70,0,1
175251,-133.333333333333,4,2,0,70,0,1
175489,-133.333333333333,4,2,2,70,0,1
177394,-83.3333333333333,4,2,2,70,0,1
179061,-133.333333333333,4,2,2,70,0,1
180966,-83.3333333333333,4,2,2,70,0,1
182871,-83.3333333333333,4,2,2,70,0,0
198109,-83.3333333333333,4,1,0,70,0,1
198231,-83.3333333333333,4,1,2,70,0,1
198588,-83.3333333333333,4,2,2,50,0,1
198707,-83.3333333333333,4,1,2,70,0,1
199537,-133.333333333333,4,1,2,70,0,1
200371,-83.3333333333333,4,1,2,70,0,1
201323,-83.3333333333333,4,1,2,40,0,1
201680,-83.3333333333333,4,1,2,50,0,1
201918,-83.3333333333333,4,1,2,70,0,1
203823,-133.333333333333,4,1,2,70,0,1
207632,-83.3333333333333,4,1,2,70,0,1
209299,-83.3333333333333,4,1,2,50,0,1
209537,-83.3333333333333,4,1,2,70,0,1
211442,-133.333333333333,4,1,2,70,0,1
213823,-133.333333333333,4,1,1,70,0,1
214061,-133.333333333333,4,1,2,70,0,1
214299,-83.3333333333333,4,1,2,70,0,1
214422,-83.3333333333333,4,2,1,80,0,1
214775,-83.3333333333333,4,2,2,70,0,1
215728,-83.3333333333333,4,2,1,70,0,1
215851,-83.3333333333333,4,1,2,70,0,1
216327,-83.3333333333333,4,2,2,70,0,1
217394,-83.3333333333333,4,2,2,41,0,1
217871,-83.3333333333333,4,2,2,70,0,1
218109,-83.3333333333333,4,2,2,50,0,1
218232,-83.3333333333333,4,1,2,70,0,1
218585,-83.3333333333333,4,2,2,60,0,1
218648,-83.3333333333333,4,1,2,70,0,1
219061,-133.333333333333,4,1,2,70,0,1
220847,-133.333333333333,4,1,0,70,0,1
220966,-133.333333333333,4,1,2,70,0,1
221204,-133.333333333333,4,1,2,50,0,1
221680,-133.333333333333,4,1,1,70,0,1
221918,-133.333333333333,4,1,1,50,0,1
222275,-133.333333333333,4,1,1,60,0,1
222871,-133.333333333333,4,1,0,70,0,1
223347,-133.333333333333,4,1,0,60,0,1
223585,-133.333333333333,4,1,2,70,0,1
224061,-83.3333333333333,4,1,2,70,0,1
224184,-83.3333333333333,4,2,2,60,0,1
224418,-83.3333333333333,4,2,2,70,0,1
226680,-83.3333333333333,4,2,2,60,0,1
227632,-83.3333333333333,4,2,2,50,0,1
228109,-83.3333333333333,4,2,2,40,0,1
228585,-100,4,2,1,50,0,0
232156,-100,4,2,1,30,0,0
232394,-100,4,2,1,50,0,0
234299,-100,4,2,1,40,0,0
237632,-100,4,2,1,20,0,0
238109,-100,4,2,1,40,0,0
239299,-100,4,2,1,30,0,0
240013,-100,4,2,1,50,0,0
241442,-100,4,2,1,20,0,0
241918,-100,4,2,1,50,0,0
243585,-200,4,2,2,50,0,0
243827,-200,4,1,1,50,0,0

[Colours]
Combo1 : 240,205,147
Combo2 : 204,219,227
Combo3 : 39,62,71
Combo4 : 217,147,147

[HitObjects]
88,104,15252,6,0,B|144:144|208:112,1,120,4|0,1:0|1:0,1:0:0:0:
201,115,15728,2,0,B|288:128,1,80,2|4,1:0|1:0,1:0:0:0:
432,248,16323,1,0,1:0:0:0:
416,256,16442,2,0,B|333:240|232:224,1,160,2|0,1:0|1:0,1:0:0:0:
136,200,17156,6,0,B|138:239|146:279,1,80,4|0,1:0|1:0,1:0:0:0:
157,313,17513,1,0,1:0:0:0:
178,342,17632,1,2,1:0:0:0:
328,136,17871,2,0,B|340:215|344:296,1,160,4|2,1:0|1:0,1:0:0:0:
328,136,18823,1,2,2:0:0:0:
256,320,19061,5,4,1:0:0:0:
408,256,19299,1,0,1:0:0:0:
424,232,19418,1,0,1:0:0:0:
440,200,19537,1,2,1:0:0:0:
192,232,19775,2,0,B|136:224|56:232,1,120,4|0,1:0|1:0,1:0:0:0:
72,230,20251,1,2,1:0:0:0:
112,328,20490,1,8,1:0:0:0:
160,136,20728,1,10,1:0:0:0:
139,49,20966,5,4,1:0:0:0:
296,240,21323,1,0,1:0:0:0:
331,239,21442,1,2,1:0:0:0:
312,139,21680,2,0,B|352:144|392:152,1,80,4|0,1:0|1:0,1:0:0:0:
480,104,22156,1,2,1:0:0:0:
331,239,22394,2,0,B|291:244|252:252,1,80,0|2,1:0|1:0,1:0:0:0:
160,360,22871,5,4,1:0:0:0:
196,353,22990,1,0,1:0:0:0:
232,351,23109,1,0,1:0:0:0:
268,353,23228,1,0,1:0:0:0:
304,358,23347,1,2,1:0:0:0:
88,280,23585,2,0,B|91:212|51:140,1,120,4|0,1:0|1:0,1:0:0:0:
48,144,24061,1,2,1:0:0:0:
192,168,24299,1,4,1:0:0:0:
280,64,24537,1,6,1:0:0:0:
160,40,24775,5,4,1:0:0:0:
384,224,25132,1,0,1:0:0:0:
384,240,25251,2,0,B|391:192|392:128,1,80,2|4,1:0|1:0,1:0:0:0:
272,272,25728,2,0,B|279:319|280:384,1,80,0|6,1:0|1:0,1:0:0:0:
279,351,26442,1,2,2:0:0:0:
72,240,26680,5,4,1:0:0:0:
104,225,26799,1,0,1:0:0:0:
139,218,26918,1,0,1:0:0:0:
174,215,27037,1,0,1:0:0:0:
209,217,27156,1,2,1:0:0:0:
288,112,27394,2,0,B|240:112|152:104,1,120,4|0,1:0|1:0,1:0:0:0:
144,96,27871,1,2,1:0:0:0:
304,216,28109,2,8,B|352:216|392:216,1,80,2|2,1:0|1:0,1:0:0:0:
496,312,28585,6,0,B|520:248|504:168,1,120,4|0,1:0|1:0,1:0:0:0:
488,96,29061,1,2,1:0:0:0:
304,216,29299,2,0,B|240:240|160:224,1,120,4|0,1:0|1:0,1:0:0:0:
56,256,29775,1,6,1:0:0:0:
56,256,30251,1,2,1:0:0:0:
32,112,30490,5,4,1:0:0:0:
248,88,30966,2,0,B|144:80,1,80,8|0,1:0|1:0,1:0:0:0:
32,112,31442,1,0,1:0:0:0:
56,256,31680,1,8,1:0:0:0:
176,224,31918,1,0,1:0:0:0:
352,184,32156,2,0,B|448:200,1,80,0|0,1:0|1:0,1:0:0:0:
288,328,32751,1,0,1:0:0:0:
288,328,32871,5,8,1:0:0:0:
176,224,33109,1,0,1:0:0:0:
320,240,33347,1,0,1:0:0:0:
256,168,33585,1,8,1:0:0:0:
192,312,33823,2,0,B|112:288|16:328,1,160,0|0,1:0|1:0,1:0:0:0:
64,96,34537,1,0,1:0:0:0:
40,96,34656,1,0,1:0:0:0:
24,96,34775,6,0,B|56:128|64:192,1,80,8|0,1:0|1:0,1:0:0:0:
256,168,35251,2,0,B|368:184,1,80,0|10,1:0|1:0,1:0:0:0:
456,96,35728,1,10,1:0:0:0:
456,248,35966,1,0,1:0:0:0:
456,96,36204,1,0,1:0:0:0:
160,136,36561,1,0,1:0:0:0:
160,120,36680,6,0,B|163:163|168:200,1,80,8|0,1:0|1:0,1:0:0:0:
256,80,37156,1,0,1:0:0:0:
64,176,37394,2,0,B|56:240|56:288,1,80,2|0,1:0|1:0,1:0:0:0:
392,264,38109,5,0,1:0:0:0:
356,258,38228,1,0,1:0:0:0:
320,258,38347,1,0,1:0:0:0:
287,273,38466,1,0,1:0:0:0:
256,296,38585,1,8,1:0:0:0:
176,120,38823,2,0,B|240:144|320:112,1,133.333333333333,0|0,1:0|1:0,1:0:0:0:
384,88,39299,1,8,1:0:0:0:
392,264,39537,1,0,1:0:0:0:
464,104,39775,1,0,1:0:0:0:
384,256,40013,6,0,B|448:224|512:272,1,120,0|0,1:0|1:0,1:0:0:0:
436,346,40490,1,8,1:0:0:0:
224,312,40728,1,0,1:0:0:0:
256,192,40966,2,0,B|298:190|368:184,1,80,0|8,1:0|1:0,1:0:0:0:
376,112,41442,1,0,1:0:0:0:
184,120,41680,1,0,2:0:0:0:
96,168,41918,6,0,B|88:232|96:296,1,120,0|0,1:0|1:0,1:0:0:0:
104,376,42394,1,8,1:0:0:0:
224,312,42632,1,0,1:0:0:0:
216,192,42871,2,0,B|240:192|256:192,2,40,0|0|8,1:0|1:0|1:0,1:0:0:0:
96,168,43347,1,10,1:0:0:0:
256,72,43585,1,0,1:0:0:0:
256,72,43823,6,0,B|264:136|256:208,1,120,4|0,1:0|1:0,1:0:0:0:
232,288,44299,1,8,1:0:0:0:
96,168,44537,1,4,1:0:0:0:
256,192,44775,2,0,B|352:184,1,80,0|2,1:0|1:0,1:0:0:0:
335,185,45490,1,0,1:0:0:0:
440,336,45728,5,4,1:0:0:0:
440,104,45966,2,0,B|432:200,1,80,2|8,2:0|1:0,2:0:0:0:
320,24,46442,2,0,B|328:120,1,80,4|0,1:0|2:0,1:0:0:0:
328,120,46799,1,0,2:0:0:0:
328,136,46918,1,8,1:0:0:0:
336,280,47156,1,4,2:0:0:0:
192,296,47394,1,0,2:0:0:0:
176,144,47632,6,0,B|88:152,1,80,4|2,1:0|2:0,1:0:0:0:
80,144,47990,1,0,2:0:0:0:
64,136,48109,1,8,1:0:0:0:
48,272,48347,2,0,B|48:312|64:352,1,80,4|2,1:0|2:0,1:0:0:0:
200,344,48823,1,8,1:0:0:0:
200,344,49299,1,0,2:0:0:0:
256,224,49537,6,0,B|280:160|264:104,1,120,4|2,1:0|2:0,1:0:0:0:
168,120,50013,1,8,1:0:0:0:
336,280,50251,2,0,B|335:312|342:359,1,80,4|2,1:0|2:0,1:0:0:0:
360,368,50609,1,0,1:0:0:0:
376,376,50728,1,8,1:0:0:0:
352,136,50966,1,10,1:0:0:0:
176,200,51204,1,2,2:0:0:0:
424,200,51442,6,0,B|464:136|424:80,1,120,4|2,1:0|2:0,1:0:0:0:
352,136,51918,1,8,1:0:0:0:
256,224,52156,2,0,B|256:272|280:320,1,80,4|0,1:0|2:0,1:0:0:0:
112,288,52632,1,8,1:0:0:0:
112,288,53109,1,2,2:0:0:0:
99,275,53228,1,0,2:0:0:0:
84,260,53347,6,0,B|36:228|52:172,1,80,4|0,1:0|1:0,1:0:0:0:
48,176,53704,1,0,1:0:0:0:
48,160,53823,1,8,1:0:0:0:
152,152,54061,1,0,1:0:0:0:
264,168,54299,1,0,1:0:0:0:
376,168,54537,1,8,1:0:0:0:
376,168,55013,1,8,1:0:0:0:
456,216,55251,6,0,B|456:262|448:312,1,80,0|0,1:0|1:0,1:0:0:0:
446,315,55609,1,0,1:0:0:0:
442,333,55728,1,8,1:0:0:0:
328,88,55966,2,0,B|320:168|320:248,1,160,0|8,1:0|1:0,1:0:0:0:
319,247,56918,1,0,2:0:0:0:
88,104,57156,6,0,B|136:88|184:88,1,80,4|0,1:0|1:0,1:0:0:0:
158,71,57513,1,0,1:0:0:0:
151,51,57632,1,8,1:0:0:0:
352,104,57871,1,4,1:0:0:0:
136,184,58109,1,0,1:0:0:0:
120,192,58228,1,0,1:0:0:0:
104,200,58347,1,8,1:0:0:0:
296,120,58585,1,2,1:0:0:0:
208,272,58823,1,0,1:0:0:0:
320,232,59061,6,0,B|360:232|416:240,1,80,4|0,1:0|1:0,1:0:0:0:
417,235,59418,1,0,1:0:0:0:
434,231,59537,1,8,1:0:0:0:
464,352,59775,1,0,1:0:0:0:
232,304,60013,1,4,1:0:0:0:
232,304,60251,1,4,1:0:0:0:
8,272,60490,1,4,1:0:0:0:
16,240,60609,1,4,1:0:0:0:
24,208,60728,1,4,1:0:0:0:
144,208,60966,6,0,B|192:160|160:88,1,120,4|0,1:0|1:0,1:0:0:0:
80,96,61442,1,8,1:0:0:0:
344,72,61680,2,0,B|256:80,1,80,4|0,1:0|1:0,1:0:0:0:
272,112,62037,1,0,1:0:0:0:
272,144,62156,2,0,B|368:152,1,80,10|4,1:0|1:0,1:0:0:0:
480,160,62632,1,4,1:0:0:0:
496,304,62871,5,4,1:0:0:0:
415,346,63109,2,0,B|399:314|407:282,1,40,0|0,1:0|1:0,1:0:0:0:
405,308,63347,2,0,B|304:304,1,80,8|4,1:0|1:0,1:0:0:0:
325,304,64061,1,10,1:0:0:0:
325,304,64537,1,4,1:0:0:0:
176,272,64775,5,4,1:0:0:0:
200,120,65013,2,0,B|232:136|256:144,1,40,0|0,1:0|1:0,1:0:0:0:
352,160,65251,1,8,1:0:0:0:
120,56,65490,2,0,B|107:116|112:192,1,120,4|0,1:0|1:0,1:0:0:0:
120,280,65966,1,10,1:0:0:0:
280,248,66204,1,2,1:0:0:0:
432,232,66442,6,0,B|448:192|448:136,1,80,0|4,1:0|1:0,1:0:0:0:
320,24,66918,2,0,B|304:64|304:120,1,80,0|8,1:0|1:0,1:0:0:0:
184,360,67394,2,0,B|200:320|199:281,1,80,4|0,1:0|1:0,1:0:0:0:
176,80,67871,1,12,1:0:0:0:
24,280,68109,2,0,B|102:251|182:267,1,160,2|4,1:0|1:0,1:0:0:0:
200,262,68704,1,0,1:0:0:0:
216,250,68823,1,0,1:0:0:0:
232,240,68942,1,0,1:0:0:0:
248,232,69061,1,8,1:0:0:0:
304,336,69299,1,4,1:0:0:0:
360,240,69537,2,0,B|376:200|360:136,1,80,0|8,1:0|1:0,1:0:0:0:
296,16,70013,2,0,B|232:83|272:171,1,160,4|4,1:0|1:0,1:0:0:0:
344,360,70847,5,0,1:0:0:0:
344,360,70966,1,8,1:0:0:0:
248,280,71204,2,0,B|208:272|136:288,1,80,4|0,1:0|1:0,1:0:0:0:
32,344,71680,2,0,B|-24:280|8:168,1,160,10|4,1:0|2:0,1:0:0:0:
104,160,72394,6,0,B|240:144,1,120,4|0,1:0|1:0,1:0:0:0:
288,88,72871,1,8,1:0:0:0:
432,232,73109,1,4,1:0:0:0:
392,32,73347,1,0,1:0:0:0:
408,48,73466,1,0,1:0:0:0:
424,64,73585,1,10,1:0:0:0:
312,208,73823,2,0,B|296:240|280:296,1,80,0|10,1:0|1:0,1:0:0:0:
432,232,74299,5,2,1:0:0:0:
256,192,74418,12,4,75728,1:0:0:0:
192,320,76204,6,0,B|392:304,1,192,4|4,1:0|2:0,1:0:0:0:
144,160,76918,1,4,1:0:0:0:
224,208,77156,2,2,B|248:160|216:104,1,96,12|0,2:0|2:0,2:0:0:0:
64,296,77632,1,4,2:0:0:0:
224,232,77871,1,0,1:0:0:0:
48,64,78109,6,0,B|6:135|58:198,1,144,0|0,1:0|1:0,1:0:0:0:
144,160,78585,1,8,1:0:0:0:
168,320,78823,1,4,1:0:0:0:
296,248,79061,2,0,B|392:248,1,96,8|0,1:0|2:0,1:0:0:0:
416,136,79537,1,2,1:0:0:0:
144,160,79775,1,2,1:0:0:0:
416,128,80013,6,2,B|463:133|520:128,2,90.0000000000002,4|2|6,1:0|1:0|1:0,1:0:0:0:
248,160,80966,2,2,B|248:128|256:96,1,60.0000000000001,8|2,1:0|1:0,1:0:0:0:
344,256,81442,2,2,B|352:304|328:352,1,90.0000000000002,2|2,1:0|1:0,1:0:0:0:
160,328,81918,6,0,B|71:323,1,90.0000000000002,6|2,1:0|1:0,1:0:0:0:
344,256,82632,1,2,1:0:0:0:
200,176,82871,2,2,B|176:112|202:56,1,120,8|2,1:0|1:0,1:0:0:0:
328,224,83704,1,2,1:0:0:0:
344,256,83823,6,0,B|336:328,1,60.0000000000002,4|0,1:0|2:0,1:0:0:0:
232,288,84180,2,0,B|152:328|80:272,1,144,0|4,1:0|1:0,1:0:0:0:
64,144,84775,1,8,1:0:0:0:
144,72,85013,2,0,B|176:112|168:176,1,96,2|4,2:0|2:0,2:0:0:0:
40,360,85490,2,2,B|16:320|25:265,1,96,0|4,1:0|1:0,1:0:0:0:
368,152,85966,6,0,B|320:140|264:136,1,96,0|0,1:0|1:0,1:0:0:0:
64,144,86442,1,4,1:0:0:0:
264,248,86680,2,0,B|360:304|464:232,1,192,8|2,1:0|1:0,1:0:0:0:
448,216,87275,1,2,1:0:0:0:
448,192,87394,1,0,1:0:0:0:
448,168,87513,1,0,1:0:0:0:
448,144,87632,6,2,B|448:96|448:96|440:48,2,90.0000000000002,6|2|6,1:0|1:0|1:0,1:0:0:0:
264,288,88585,2,2,B|248:224|248:224|248:160,1,120,8|2,1:0|1:0,1:0:0:0:
256,144,89180,1,0,1:0:0:0:
480,296,89418,1,2,1:0:0:0:
440,312,89537,6,2,B|408:336|368:328,1,60.0000000000001,6|0,1:0|1:0,1:0:0:0:
288,336,89894,2,2,B|232:320|176:336,1,90.0000000000002,2|6,1:0|1:0,1:0:0:0:
32,360,90490,1,8,1:0:0:0:
32,360,90609,1,2,1:0:0:0:
176,240,90847,2,8,B|197:200|176:152,1,90.0000000000002,2|10,1:0|1:0,1:0:0:0:
112,48,91442,6,0,B|184:88|272:40,1,144,4|0,1:0|2:0,1:0:0:0:
280,64,91918,1,8,1:0:0:0:
448,120,92156,1,4,1:0:0:0:
328,248,92394,1,8,1:0:0:0:
280,64,92632,1,4,2:0:0:0:
448,120,92871,2,2,B|456:232,1,96,0|0,1:0|1:0,1:0:0:0:
184,72,93347,5,4,1:0:0:0:
64,120,93585,2,2,B|56:232,1,96,2|8,1:0|1:0,1:0:0:0:
176,328,94061,2,2,B|170:232,1,96,4|8,1:0|1:0,1:0:0:0:
352,80,94537,1,4,2:0:0:0:
272,104,94775,2,2,B|272:176|288:248,1,144,0|0,1:0|1:0,1:0:0:0:
336,240,95251,6,2,B|392:224|440:232,1,96,4|2,1:0|2:0,1:0:0:0:
440,368,95728,2,2,B|384:384|336:376,1,96,4|4,2:0|1:0,2:0:0:0:
192,320,96204,1,4,2:0:0:0:
136,200,96442,1,2,1:0:0:0:
264,104,96680,1,4,2:0:0:0:
264,104,96799,1,2,1:0:0:0:
136,200,97037,1,0,1:0:0:0:
136,200,97156,6,2,B|112:152|120:88,2,90.0000000000002,4|2|6,2:0|1:0|1:0,0:0:0:0:
256,288,98109,1,0,1:0:0:0:
256,288,98228,2,2,B|352:296,1,90.0000000000002,0|2,1:0|1:0,1:0:0:0:
488,336,98823,1,2,1:0:0:0:
344,296,99061,6,2,B|344:256|336:224,1,60.0000000000001,4|0,1:0|2:0,1:0:0:0:
168,120,99537,2,2,B|208:120|248:128,1,60.0000000000001,12|4,2:0|1:0,2:0:0:0:
376,24,100013,2,0,B|370:43|363:83,1,60.0000000000001,12|0,2:0|2:0,2:0:0:0:
168,312,100490,2,2,B|216:336|256:314,1,90.0000000000002,4|0,2:0|2:0,2:0:0:0:
264,280,100966,6,2,B|282:117,1,144,0|2,1:0|1:0,1:0:0:0:
120,128,101442,2,0,B|120:175|112:223,1,96,4|6,2:0|1:0,2:0:0:0:
400,192,101918,2,2,B|399:144|407:96,1,96,8|0,1:0|1:0,1:0:0:0:
176,40,102394,1,4,2:0:0:0:
88,104,102632,1,2,1:0:0:0:
200,160,102871,6,2,B|248:160|248:160|296:152,2,90.0000000000002,6|2|6,1:0|1:0|1:0,1:0:0:0:
80,280,103823,2,2,B|152:272|152:272|208:272,1,120,8|2,1:0|1:0,1:0:0:0:
232,272,104418,1,0,1:0:0:0:
464,272,104656,1,0,1:0:0:0:
440,296,104775,6,2,B|352:272|288:320,1,144,6|0,1:0|1:0,1:0:0:0:
176,344,105251,2,2,B|144:304|160:232,1,96,2|4,1:0|1:0,1:0:0:0:
120,120,105728,1,8,1:0:0:0:
248,72,105966,2,10,B|335:40|359:96|440:64,1,192,10|4,1:0|2:0,1:0:0:0:
436,65,106680,5,4,1:0:0:0:
440,336,121918,5,12,1:0:0:0:
448,168,122156,1,0,1:0:0:0:
456,152,122275,1,2,1:0:0:0:
464,136,122394,2,0,B|472:40,1,80,2|12,1:0|1:0,1:0:0:0:
184,144,122871,1,0,1:0:0:0:
328,136,123109,1,2,1:0:0:0:
336,280,123347,1,4,1:0:0:0:
192,296,123585,1,4,1:0:0:0:
176,128,123823,6,0,B|272:112,1,80,12|0,1:0|1:0,1:0:0:0:
264,88,124180,1,2,1:0:0:0:
272,56,124299,1,2,1:0:0:0:
32,112,124537,2,0,B|32:152|48:192,1,80,12|0,1:0|1:0,1:0:0:0:
88,328,125013,1,2,1:0:0:0:
88,328,125490,1,4,1:0:0:0:
123,320,125609,1,4,1:0:0:0:
158,313,125728,6,4,B|182:249|141:190,1,120,12|0,1:0|1:0,1:0:0:0:
32,112,126204,1,0,1:0:0:0:
256,200,126442,2,0,B|288:199|335:206,1,80,12|0,1:0|1:0,1:0:0:0:
344,224,126799,1,0,1:0:0:0:
352,240,126918,1,8,1:0:0:0:
456,200,127156,1,6,1:0:0:0:
272,104,127394,1,4,1:0:0:0:
472,176,127632,6,0,B|512:112|472:56,1,120,4|0,1:0|1:0,1:0:0:0:
400,56,128109,1,8,1:0:0:0:
272,104,128347,1,4,1:0:0:0:
456,200,128585,2,0,B|456:248|480:296,1,80,0|8,1:0|1:0,1:0:0:0:
312,280,129061,1,0,1:0:0:0:
280,272,129180,1,0,1:0:0:0:
248,272,129299,1,2,2:0:0:0:
216,264,129418,1,0,1:0:0:0:
184,264,129537,6,0,B|144:256|104:264,1,80,4|0,1:0|1:0,1:0:0:0:
104,263,129894,1,0,1:0:0:0:
104,263,130013,1,8,1:0:0:0:
56,144,130251,1,4,1:0:0:0:
160,120,130490,1,0,1:0:0:0:
152,360,130728,1,8,1:0:0:0:
152,360,131204,1,4,1:0:0:0:
288,176,131442,6,0,B|334:176|384:184,1,80,4|0,1:0|1:0,1:0:0:0:
388,188,131799,1,0,1:0:0:0:
406,193,131918,1,8,1:0:0:0:
192,112,132156,2,0,B|184:192|184:272,1,160,4|8,1:0|1:0,1:0:0:0:
183,271,133109,1,4,1:0:0:0:
0,200,133347,6,0,B|48:216|96:216,1,80,4|0,1:0|1:0,1:0:0:0:
93,224,133704,1,0,1:0:0:0:
108,230,133823,1,8,1:0:0:0:
280,328,134061,1,4,1:0:0:0:
296,152,134299,1,0,1:0:0:0:
288,136,134418,1,0,1:0:0:0:
280,120,134537,1,8,1:0:0:0:
160,88,134775,1,2,1:0:0:0:
184,272,135013,1,4,1:0:0:0:
280,328,135251,6,0,B|360:288|456:312,1,160,4|8,1:0|1:0,1:0:0:0:
512,224,135966,1,4,1:0:0:0:
440,88,136204,1,0,1:0:0:0:
343,264,136442,1,10,1:0:0:0:
64,192,136918,5,0,2:0:0:0:
99,200,137037,1,0,2:0:0:0:
134,208,137156,2,0,B|182:256|254:224,1,120,4|0,1:0|1:0,1:0:0:0:
200,144,137632,1,8,1:0:0:0:
248,336,137871,2,0,B|327:328,1,80,4|2,1:0|2:0,1:0:0:0:
335,296,138228,1,0,2:0:0:0:
343,264,138347,2,0,B|439:272,1,80,10|0,1:0|2:0,1:0:0:0:
512,368,138823,1,0,2:0:0:0:
512,192,139061,5,4,1:0:0:0:
208,224,139418,1,0,1:0:0:0:
208,224,139537,1,8,1:0:0:0:
88,256,139775,1,4,1:0:0:0:
48,120,140013,1,2,2:0:0:0:
168,80,140251,1,14,1:0:0:0:
168,80,140728,1,0,2:0:0:0:
376,152,140966,5,4,1:0:0:0:
424,248,141204,2,0,B|456:264|480:272,1,40,0|0,2:0|1:0,2:0:0:0:
344,304,141442,1,8,1:0:0:0:
288,216,141680,2,0,B|228:203|152:208,1,120,4|0,1:0|1:0,1:0:0:0:
80,248,142156,1,8,1:0:0:0:
216,352,142394,1,10,1:0:0:0:
232,184,142632,6,2,B|248:144|248:88,1,80,0|4,2:0|1:0,2:0:0:0:
96,168,143109,2,2,B|80:208|80:264,1,80,0|8,2:0|1:0,2:0:0:0:
352,280,143585,2,0,B|368:240|367:201,1,80,4|2,1:0|2:0,1:0:0:0:
352,64,144061,1,8,1:0:0:0:
166,52,144299,1,0,1:0:0:0:
156,84,144418,1,0,1:0:0:0:
155,116,144537,1,2,2:0:0:0:
145,148,144656,1,0,2:0:0:0:
144,180,144775,6,0,B|134:219|140:259,1,80,4|0,1:0|1:0,1:0:0:0:
145,279,145132,1,0,1:0:0:0:
150,298,145251,1,8,1:0:0:0:
24,328,145490,1,4,1:0:0:0:
264,280,145728,2,0,B|304:264|368:280,1,80,0|8,1:0|1:0,1:0:0:0:
448,320,146204,1,2,1:0:0:0:
384,32,146442,1,2,1:0:0:0:
384,32,146680,6,0,B|336:96|368:168,1,120,4|0,1:0|1:0,1:0:0:0:
408,232,147156,1,8,1:0:0:0:
248,192,147394,2,0,B|256:152|240:80,1,80,4|0,1:0|1:0,1:0:0:0:
88,176,147871,2,0,B|63:264|111:344,1,160,8|4,1:0|1:0,1:0:0:0:
96,152,148585,6,0,B|232:136,1,120,4|0,1:0|1:0,1:0:0:0:
288,88,149061,1,8,1:0:0:0:
240,288,149299,1,4,1:0:0:0:
360,168,149537,1,0,1:0:0:0:
344,184,149656,1,0,1:0:0:0:
328,200,149775,1,8,1:0:0:0:
448,344,150013,2,0,B|464:312|480:256,1,80,10|4,1:0|1:0,1:0:0:0:
240,288,150490,6,0,B|304:304|368:280,1,120,4|0,1:0|1:0,1:0:0:0:
424,224,150966,1,8,1:0:0:0:
184,128,151204,2,0,B|169:188|160:272,1,120,4|0,1:0|1:0,1:0:0:0:
152,352,151680,1,2,1:0:0:0:
152,352,152394,6,4,B|280:304|328:384|472:336,1,320,0|0,2:0|2:0,2:0:0:0:
467,337,154775,1,4,2:0:0:0:
467,337,155251,2,0,B|464:292|464:248,1,80,0|0,2:0|1:0,0:0:0:0:
360,232,155966,1,2,1:0:0:0:
254,209,156204,6,2,B|256:168|256:120,2,90.0000000000002,4|2|6,1:0|1:0|1:0,1:0:0:0:
144,160,157156,1,0,1:0:0:0:
120,176,157275,2,2,B|56:184,1,60.0000000000002,2|0,1:0|1:0,1:0:0:0:
352,216,157632,2,2,B|441:224,1,90.0000000000002,2|2,1:0|1:0,1:0:0:0:
440,224,158109,6,2,B|464:184|456:120,2,90.0000000000002,4|2|6,1:0|1:0|1:0,1:0:0:0:
304,304,159061,1,8,1:0:0:0:
336,320,159180,2,2,B|400:328,1,60.0000000000002,2|0,1:0|1:0,1:0:0:0:
200,240,159537,2,2,B|112:256,1,90.0000000000002,0|0,1:0|1:0,1:0:0:0:
24,176,160013,6,0,B|-8:128|8:56,1,120,6|0,1:0|1:0,1:0:0:0:
7,60,160490,1,2,1:0:0:0:
128,152,160728,1,2,1:0:0:0:
200,240,160966,2,0,B|216:344,1,96,4|2,2:0|2:0,2:0:0:0:
304,104,161442,1,4,1:0:0:0:
392,192,161680,2,2,B|344:224|297:207,1,96,2|4,1:0|1:0,1:0:0:0:
128,152,162156,2,2,B|176:120|223:137,1,96,2|4,1:0|1:0,1:0:0:0:
432,344,162632,1,6,1:0:0:0:
296,304,162871,2,2,B|200:256|96:320,1,192,10|2,1:0|1:0,1:0:0:0:
69,299,163466,1,2,1:0:0:0:
48,260,163585,1,0,1:0:0:0:
62,219,163704,1,0,1:0:0:0:
101,200,163823,6,2,B|101:152|101:152|104:96,2,90.0000000000002,6|2|6,1:0|1:0|1:0,1:0:0:0:
240,192,164775,2,2,B|312:184,1,60.0000000000002,8|2,1:0|1:0,1:0:0:0:
472,88,165251,1,2,1:0:0:0:
448,80,165371,2,2,B|368:88,1,60.0000000000002,0|2,1:0|1:0,1:0:0:0:
160,160,165728,6,2,B|152:200|168:240,1,60.0000000000002,6|0,1:0|1:0,1:0:0:0:
176,328,166085,2,2,B|226:310|280:320,1,90.0000000000002,2|6,1:0|1:0,1:0:0:0:
400,336,166680,1,8,1:0:0:0:
400,336,166799,1,2,1:0:0:0:
408,208,167037,2,2,B|415:160|399:120,1,90.0000000000002,2|2,1:0|1:0,1:0:0:0:
48,144,167632,5,4,1:0:0:0:
120,264,167871,2,2,B|80:288|16:280,1,96,2|4,1:0|2:0,1:0:0:0:
184,64,168347,1,4,1:0:0:0:
296,240,168585,1,8,1:0:0:0:
360,96,168823,1,4,2:0:0:0:
453,241,169061,2,2,B|472:288|456:336,1,96,2|2,1:0|1:0,1:0:0:0:
200,168,169537,5,4,1:0:0:0:
360,96,169775,2,2,B|472:104,1,96,0|4,1:0|2:0,1:0:0:0:
200,168,170251,2,2,B|304:160,1,96,4|10,1:0|1:0,1:0:0:0:
48,128,170728,1,4,2:0:0:0:
16,272,170966,1,0,1:0:0:0:
184,176,171204,2,2,B|191:222|192:288,1,96,0|4,1:0|1:0,1:0:0:0:
32,87,171680,6,2,B|82:87|128:80,1,96,8|4,1:0|2:0,0:0:0:0:
24,368,172156,2,2,B|23:318|16:272,1,96,4|8,1:0|1:0,1:0:0:0:
184,176,172632,1,4,2:0:0:0:
328,272,172871,1,0,1:0:0:0:
328,272,172990,1,2,1:0:0:0:
472,184,173228,1,0,1:0:0:0:
472,184,173347,6,2,B|471:134|464:80,2,90.0000000000002,6|2|6,1:0|1:0|1:0,1:0:0:0:
136,344,174299,1,8,1:0:0:0:
160,344,174418,2,2,B|240:336,1,60.0000000000002,0|0,1:0|1:0,1:0:0:0:
344,296,174775,1,2,1:0:0:0:
456,336,175013,1,2,1:0:0:0:
344,296,175251,6,2,B|344:256|336:224,1,60.0000000000001,4|0,1:0|1:0,1:0:0:0:
232,88,175728,2,2,B|232:128|224:168,1,60.0000000000001,8|0,1:0|1:0,1:0:0:0:
75,283,176204,2,0,B|82:243|88:224,1,60.0000000000001,4|0,2:0|1:0,2:0:0:0:
200,240,176680,1,2,1:0:0:0:
200,384,176918,1,0,1:0:0:0:
80,304,177156,1,2,1:0:0:0:
344,288,177394,6,2,B|464:296,1,96,2|0,1:0|1:0,1:0:0:0:
296,72,177871,2,0,B|288:120|289:168,1,96,2|10,1:0|1:0,1:0:0:0:
344,288,178347,1,0,1:0:0:0:
208,264,178585,2,2,B|160:264|104:272,1,96,2|0,1:0|1:0,1:0:0:0:
88,80,179061,6,2,B|88:128|88:128|96:176,2,90.0000000000002,6|2|6,1:0|1:0|1:0,1:0:0:0:
312,216,180013,2,2,B|320:248|320:248|320:288,1,60.0000000000002,8|2,1:0|1:0,1:0:0:0:
208,264,180490,1,2,1:0:0:0:
208,264,180609,1,0,1:0:0:0:
464,272,180847,1,0,1:0:0:0:
472,240,180966,6,2,B|496:152|448:88,1,144,6|0,1:0|1:0,1:0:0:0:
240,120,181442,2,2,B|192:144|128:136,1,96,2|4,1:0|1:0,1:0:0:0:
72,248,181918,1,8,1:0:0:0:
208,264,182156,2,10,B|295:232|319:288|400:256,1,192,10|4,1:0|2:0,1:0:0:0:
456,176,182871,5,4,1:0:0:0:
456,176,183585,1,4,1:0:0:0:
256,192,192394,12,0,196918,1:0:0:0:
48,288,197394,5,4,2:0:0:0:
136,264,197632,1,8,2:0:0:0:
208,216,197871,1,0,2:0:0:0:
280,160,198109,6,0,B|337:156|456:144,2,144,4|0|4,1:0|1:0|1:0,0:0:0:0:
136,168,199061,1,12,2:0:0:0:
144,144,199180,2,0,B|139:97|136:40,1,96,4|0,2:0|1:0,2:0:0:0:
224,296,199537,2,2,B|254:302|294:302|294:302,1,60.0000000000002,2|0,1:0|1:0,1:0:0:0:
448,280,200013,5,4,1:0:0:0:
375,197,200251,1,0,1:0:0:0:
346,178,200371,2,0,P|286:194|220:219,1,96,0|0,1:0|1:0,1:0:0:0:
176,233,200728,1,4,1:0:0:0:
95,87,200966,1,8,1:0:0:0:
95,87,201085,1,0,1:0:0:0:
199,32,201323,1,0,1:0:0:0:
199,32,201442,1,2,1:0:0:0:
186,128,201680,1,2,1:0:0:0:
65,169,201918,6,2,P|55:226|39:327,1,144,4|2,1:0|1:0,1:0:0:0:
98,369,202394,1,0,1:0:0:0:
228,285,202632,1,6,1:0:0:0:
179,218,202871,1,8,1:0:0:0:
179,218,202990,2,0,P|183:160|191:110,1,96,0|0,1:0|1:0,1:0:0:0:
321,203,203347,2,2,P|316:260|309:311,1,96,2|0,1:0|1:0,1:0:0:0:
466,140,203823,6,0,L|368:114,2,90.0000000000002,6|2|2,1:0|1:0|1:0,1:0:0:0:
366,24,204775,1,8,1:0:0:0:
345,30,204894,1,0,1:0:0:0:
325,36,205013,1,0,1:0:0:0:
305,43,205132,1,0,1:0:0:0:
286,53,205251,2,0,L|270:121,1,60.0000000000002,2|0,1:0|1:0,1:0:0:0:
268,198,205728,5,4,1:0:0:0:
353,265,205966,1,0,2:0:0:0:
353,265,206085,1,0,1:0:0:0:
267,315,206323,1,0,1:0:0:0:
267,315,206442,1,4,1:0:0:0:
181,246,206680,5,8,1:0:0:0:
373,352,206918,1,2,2:0:0:0:
356,164,207156,1,4,2:0:0:0:
298,250,207394,5,0,1:0:0:0:
464,282,207632,2,0,P|452:191|437:122,1,144,4|0,1:0|1:0,1:0:0:0:
392,78,208109,1,0,1:0:0:0:
169,148,208347,1,4,1:0:0:0:
268,171,208585,1,8,1:0:0:0:
268,171,209061,1,2,1:0:0:0:
98,52,209299,1,0,1:0:0:0:
26,168,209537,5,6,1:0:0:0:
106,232,209775,1,0,1:0:0:0:
106,232,209894,1,2,1:0:0:0:
106,232,210013,1,0,1:0:0:0:
165,165,210251,1,6,1:0:0:0:
93,95,210490,1,8,1:0:0:0:
106,232,210728,5,0,1:0:0:0:
183,350,210966,1,2,1:0:0:0:
301,285,211204,1,0,1:0:0:0:
289,127,211442,6,2,L|263:15,2,90.0000000000002,6|2|6,1:0|1:0|1:0,1:0:0:0:
399,150,212394,1,8,1:0:0:0:
400,168,212513,2,0,L|377:82,1,90.0000000000002,2|0,1:0|1:0,1:0:0:0:
342,240,213109,1,10,1:0:0:0:
416,350,213347,5,4,1:0:0:0:
465,240,213585,1,0,1:0:0:0:
303,169,213823,1,8,1:0:0:0:
261,286,214061,1,4,1:0:0:0:
365,269,214299,2,0,P|382:218|397:162,1,96,8|4,1:0|2:0,0:0:0:0:
230,97,214775,2,2,P|212:147|198:204,1,96,0|0,1:0|1:0,1:0:0:0:
326,51,215251,5,4,1:0:0:0:
120,88,215490,2,2,P|73:102|6:115,2,96,2|8|4,1:0|1:0|1:0,1:0:0:0:
281,161,216204,2,0,P|206:180|119:211,1,144,8|0,1:0|1:0,0:0:0:0:
63,252,216680,1,0,1:0:0:0:
197,342,216918,1,0,1:0:0:0:
274,212,217156,1,4,1:0:0:0:
186,155,217394,5,2,2:0:0:0:
348,144,217632,1,4,2:0:0:0:
393,281,217871,1,4,1:0:0:0:
226,254,218109,2,0,L|344:235,1,96,4|2,2:0|1:0,0:0:0:0:
472,361,218585,2,0,L|348:357,1,96,4|0,2:0|1:0,0:0:0:0:
458,185,219061,6,2,P|459:124|463:78,1,90.0000000000002,4|2,1:0|1:0,1:0:0:0:
414,31,219537,1,0,1:0:0:0:
377,224,219775,2,2,P|386:262|395:324,1,90.0000000000002,6|0,1:0|1:0,1:0:0:0:
333,364,220251,1,0,1:0:0:0:
293,200,220490,2,0,P|298:151|311:106,1,90.0000000000002,2|0,1:0|1:0,1:0:0:0:
254,31,220966,5,4,1:0:0:0:
49,100,221204,1,0,2:0:0:0:
49,100,221323,1,0,2:0:0:0:
49,100,221442,1,12,2:0:0:0:
132,166,221680,1,4,1:0:0:0:
158,75,221918,5,12,2:0:0:0:
158,75,222037,1,0,2:0:0:0:
224,201,222275,1,0,2:0:0:0:
224,201,222394,1,4,2:0:0:0:
121,273,222632,1,0,2:0:0:0:
26,204,222871,1,0,1:0:0:0:
236,169,223109,5,0,1:0:0:0:
256,195,223228,1,2,1:0:0:0:
270,225,223347,1,4,2:0:0:0:
277,257,223466,1,0,2:0:0:0:
274,290,223585,1,6,1:0:0:0:
194,351,223823,1,8,1:0:0:0:
156,180,224061,2,0,B|131:135|147:59|199:37,1,144,0|0,1:0|1:0,0:0:0:0:
272,20,224537,1,2,1:0:0:0:
366,71,224775,5,6,1:0:0:0:
366,71,225132,1,2,1:0:0:0:
366,71,225251,1,0,1:0:0:0:
306,197,225490,2,0,P|284:253|274:341,1,144,6|0,1:0|1:0,1:0:0:0:
348,362,225966,1,0,1:0:0:0:
472,287,226204,1,2,1:0:0:0:
421,184,226442,1,0,1:0:0:0:
255,211,226680,6,2,B|204:240|164:244|85:235,1,144,6|0,1:0|1:0,1:0:0:0:
51,189,227156,1,2,1:0:0:0:
177,42,227394,1,4,1:0:0:0:
311,91,227632,1,8,1:0:0:0:
285,112,227751,1,0,1:0:0:0:
255,128,227871,1,10,1:0:0:0:
224,141,227990,1,0,1:0:0:0:
190,146,228109,1,0,1:0:0:0:
376,25,228347,1,4,2:0:0:0:
465,97,228585,6,0,P|442:186|432:268,1,160,4|2,1:0|1:0,1:0:0:0:
339,302,229299,2,0,P|341:253|339:205,1,80,4|0,1:0|1:0,1:0:0:0:
265,169,229775,1,2,1:0:0:0:
265,169,230251,1,0,1:0:0:0:
265,169,230490,2,0,P|201:201|126:203,1,120,4|0,1:0|1:0,1:0:0:0:
153,206,230966,2,0,P|104:201|61:198,1,80,2|4,1:0|1:0,1:0:0:0:
19,256,231680,1,2,1:0:0:0:
19,256,232156,1,2,2:0:0:0:
89,154,232394,6,0,P|98:75|93:18,1,120,4|0,1:0|1:0,1:0:0:0:
95,34,232871,1,2,1:0:0:0:
184,188,233109,1,4,1:0:0:0:
255,228,233347,2,0,P|315:224|363:212,1,80,0|2,1:0|1:0,1:0:0:0:
334,220,234299,5,4,1:0:0:0:
428,272,234537,1,0,1:0:0:0:
428,272,234656,1,0,1:0:0:0:
428,272,234775,1,2,1:0:0:0:
376,349,235013,1,4,1:0:0:0:
281,309,235251,2,0,L|310:226,1,80,0|2,1:0|1:0,1:0:0:0:
374,48,235966,1,2,1:0:0:0:
256,99,236204,5,4,1:0:0:0:
222,111,236323,1,0,1:0:0:0:
186,117,236442,1,0,1:0:0:0:
150,114,236561,1,0,1:0:0:0:
115,105,236680,1,2,1:0:0:0:
34,36,236918,1,4,1:0:0:0:
5,136,237156,5,0,1:0:0:0:
5,136,237275,1,0,1:0:0:0:
5,136,237394,1,2,1:0:0:0:
83,193,237632,1,4,1:0:0:0:
16,262,237871,1,6,1:0:0:0:
132,284,238109,6,0,P|221:286|283:315,1,120,4|0,1:0|1:0,1:0:0:0:
249,295,238585,2,0,P|243:335|246:382,1,80,2|4,1:0|1:0,1:0:0:0:
326,203,239061,2,0,P|337:252|334:307,1,80,0|6,1:0|1:0,1:0:0:0:
337,284,239775,1,2,2:0:0:0:
247,145,240013,6,0,B|229:78|301:22|374:65,1,160,4|2,1:0|1:0,1:0:0:0:
428,97,240728,1,4,1:0:0:0:
374,230,240966,1,0,1:0:0:0:
338,226,241085,1,0,1:0:0:0:
302,222,241204,1,2,1:0:0:0:
212,297,241442,1,2,1:0:0:0:
308,352,241680,1,2,1:0:0:0:
428,303,241918,6,0,B|392:279|380:219|399:171,1,120,4|0,1:0|1:0,1:0:0:0:
399,167,242394,1,2,1:0:0:0:
465,113,242632,1,4,1:0:0:0:
465,113,243109,2,0,P|399:127|359:144,1,80,6|0,1:0|1:0,1:0:0:0:
153,209,243585,6,2,P|236:251|394:252,1,240,2|0,1:0|1:0,1:0:0:0:
