osu file format v14

[General]
AudioFilename: audio.mp3
AudioLeadIn: 0
PreviewTime: 75729
Countdown: 0
SampleSet: Normal
StackLeniency: 0.7
Mode: 0
LetterboxInBreaks: 0
WidescreenStoryboard: 1

[Editor]
DistanceSpacing: 1
BeatDivisor: 4
GridSize: 8
TimelineZoom: 2.699999

[Metadata]
Title:Too Close
TitleUnicode:Too Close
Artist:Alex Clare
ArtistUnicode:Alex Clare
Creator:semaphore
Version:Easy
Source:
Tags:vass_bass reiji-rj La Cataline lc pandahero collaboration english electronic pop rock dubstep Lateness of the Hour
BeatmapID:3213163
BeatmapSetID:1573697

[Difficulty]
HPDrainRate:2
CircleSize:3
OverallDifficulty:2
ApproachRate:3
SliderMultiplier:1.2
SliderTickRate:1

[Events]
//Background and Video events
0,0,"darova riffy.jpg",0,0
//Break Periods
2,106880,120478
2,152397,154764
2,183071,190954
//Storyboard Layer 0 (Background)
//Storyboard Layer 1 (Fail)
//Storyboard Layer 2 (Pass)
//Storyboard Layer 3 (Foreground)
//Storyboard Layer 4 (Overlay)
//Storyboard Sound Samples

[TimingPoints]
15252,476.190476190476,4,1,1,60,1,0
76204,-100,4,1,0,70,0,1
76918,-100,4,1,2,70,0,1
83823,-100,4,1,0,70,0,1
84775,-100,4,1,2,70,0,1
90966,-100,4,1,0,70,0,1
92394,-100,4,1,2,70,0,1
98585,-100,4,1,0,70,0,1
99775,-100,4,1,2,70,0,1
106680,-100,4,1,1,60,0,0
156204,-100,4,1,2,70,0,1
160013,-100,4,1,0,70,0,1
160966,-100,4,1,2,70,0,1
167156,-100,4,1,0,70,0,1
168585,-100,4,1,2,70,0,1
174775,-100,4,1,0,70,0,1
175966,-100,4,1,2,70,0,1
182871,-100,4,1,2,60,0,0
198109,-100,4,1,0,75,0,1
198823,-100,4,1,2,75,0,1
205728,-100,4,1,0,75,0,1
206680,-100,4,1,2,75,0,1
212870,-100,4,1,0,75,0,1
214299,-100,4,1,2,75,0,1
220489,-100,4,1,0,75,0,1
221680,-100,4,1,2,75,0,1
228585,-100,4,1,1,60,0,0

[Colours]
Combo1 : 240,205,147
Combo2 : 204,219,227
Combo3 : 39,62,71
Combo4 : 217,147,147

[HitObjects]
48,344,15252,6,0,P|32:296|32:216,1,120,0|2,1:0|1:0,1:0:0:0:
40,192,15966,1,0,1:0:0:0:
144,136,16442,1,2,1:0:0:0:
192,312,17156,2,0,L|320:320,1,120,0|2,1:0|1:0,1:0:0:0:
344,320,17871,2,0,P|360:272|360:192,1,120,0|2,1:0|1:0,1:0:0:0:
456,48,19061,6,0,L|328:40,1,120,0|2,1:0|1:0,1:0:0:0:
304,40,19775,1,0,1:0:0:0:
216,128,20251,1,2,1:0:0:0:
344,248,20966,2,0,P|384:248|480:264,1,120,0|2,1:0|1:0,1:0:0:0:
496,264,21680,2,0,P|480:320|472:384,1,120,0|2,1:0|1:0,1:0:0:0:
296,368,22871,6,0,L|168:376,1,120,0|2,1:0|1:0,1:0:0:0:
144,376,23585,1,0,1:0:0:0:
32,328,24061,1,2,1:0:0:0:
184,232,24775,2,0,P|200:168|184:104,1,120,0|2,1:0|1:0,1:0:0:0:
176,80,25490,2,0,L|56:72,1,120,0|2,1:0|1:0,1:0:0:0:
16,248,26680,6,0,P|8:288|16:368,1,120,0|2,1:0|1:0,1:0:0:0:
48,384,27394,1,0,1:0:0:0:
144,312,27871,1,2,1:0:0:0:
312,384,28585,2,0,P|328:328|320:264,1,120,0|2,1:0|1:0,1:0:0:0:
304,248,29299,2,0,L|432:240,1,120,0|2,1:0|1:0,1:0:0:0:
248,120,30490,6,0,L|432:112,1,180,0|8,1:0|1:0,1:0:0:0:
465,111,31442,1,0,1:0:0:0:
512,224,31918,1,8,1:0:0:0:
472,336,32394,2,0,B|384:336|384:336|280:352,1,180,0|8,1:0|1:0,1:0:0:0:
200,272,33585,1,8,1:0:0:0:
192,240,33823,1,0,1:0:0:0:
312,216,34299,6,0,P|328:160|320:80,1,120,0|8,1:0|1:0,1:0:0:0:
312,64,35013,2,0,L|120:80,1,180,0|10,1:0|1:0,1:0:0:0:
32,152,36204,2,0,P|8:232|48:328,1,180,0|8,1:0|1:0,1:0:0:0:
192,224,37632,1,10,1:0:0:0:
256,320,38109,6,0,P|344:312|440:344,1,180,0|8,1:0|1:0,1:0:0:0:
464,360,39061,1,0,1:0:0:0:
512,248,39537,1,8,1:0:0:0:
424,168,40013,2,0,B|416:120|416:120|440:32,1,120,0|8,1:0|1:0,1:0:0:0:
456,16,40728,1,0,1:0:0:0:
456,16,40966,2,0,B|393:-1|337:23,1,120,0|10,1:0|1:0,1:0:0:0:
280,128,41918,6,0,P|296:224|264:312,1,180,0|8,1:0|1:0,1:0:0:0:
256,328,42871,2,0,L|128:336,1,120,0|8,1:0|1:0,1:0:0:0:
24,368,43823,2,0,B|0:304|0:304|16:176,1,180,0|8,1:0|1:0,1:0:0:0:
24,160,44775,1,2,1:0:0:0:
144,176,45251,1,2,1:0:0:0:
144,176,45728,6,0,B|200:168|200:168|264:176|264:176|336:168,1,180,4|8,1:2|1:0,1:0:0:0:
360,168,46680,1,0,1:0:0:0:
456,96,47156,1,8,1:0:0:0:
376,8,47632,2,0,L|184:0,1,180,0|8,1:0|1:0,1:0:0:0:
64,16,48823,1,8,1:0:0:0:
80,40,49061,1,2,1:0:0:0:
48,152,49537,6,0,P|32:208|40:280,1,120,0|8,1:0|1:0,1:0:0:0:
48,312,50251,2,0,B|144:304|144:304|240:304,1,180,0|10,1:0|1:0,1:0:0:0:
336,360,51442,2,0,P|360:296|344:176,1,180,0|8,1:0|1:0,1:0:0:0:
408,16,52871,1,10,1:0:0:0:
488,104,53347,6,0,B|512:176|512:176|488:288,1,180,4|8,1:2|1:0,1:0:0:0:
496,312,54299,1,0,1:0:0:0:
384,264,54775,1,8,1:0:0:0:
280,328,55251,2,0,P|224:328|152:336,1,120,0|8,1:0|1:0,1:0:0:0:
128,352,55966,1,0,1:0:0:0:
128,352,56204,2,0,B|120:304|120:304|128:224,1,120,0|8,1:0|1:0,1:0:0:0:
64,128,57156,6,0,P|120:136|256:112,1,180,0|8,1:0|1:0,1:0:0:0:
272,96,58109,2,0,L|280:224,1,120,0|8,1:0|1:0,1:0:0:0:
264,336,59061,2,0,P|344:328|456:352,1,180,2|8,1:0|1:0,1:0:0:0:
480,360,60013,1,2,1:0:0:0:
496,240,60490,1,2,1:0:0:0:
512,120,60966,6,0,L|320:112,1,180,4|8,1:2|1:0,1:0:0:0:
184,8,62394,1,8,1:0:0:0:
72,56,62871,2,0,P|48:112|56:232,1,180,0|8,1:0|1:0,1:0:0:0:
96,344,64061,1,8,1:0:0:0:
176,184,64775,6,0,L|376:208,1,180,0|8,1:0|1:0,1:0:0:0:
392,200,65728,2,0,B|400:256|400:256|384:336,1,120,0|8,1:0|1:0,1:0:0:0:
280,376,66680,2,0,P|216:352|104:360,1,180,0|8,1:0|1:0,1:0:0:0:
8,208,68109,1,8,1:0:0:0:
72,104,68585,6,0,L|256:120,1,180,4|8,1:2|1:0,1:0:0:0:
288,136,69537,2,0,B|304:72|304:72|296:0,1,120,0|10,1:0|1:0,1:0:0:0:
440,0,70490,2,0,P|448:56|440:192,1,180,0|8,1:0|1:0,1:0:0:0:
432,216,71442,1,0,1:0:0:0:
312,240,71918,1,8,1:0:0:0:
256,192,72394,12,0,75013,1:0:0:0:
40,208,76204,6,0,P|24:160|32:72,1,120,4|0,1:0|1:0,1:0:0:0:
80,32,76918,1,4,1:0:0:0:
80,32,77156,2,2,L|208:24,2,120,8|4|4,1:0|1:2|1:0,1:0:0:0:
120,144,78585,1,0,1:0:0:0:
240,128,79061,2,2,P|336:112|424:120,1,180,8|0,1:0|1:0,1:0:0:0:
500,111,80013,6,0,L|516:-1,2,90,4|0|4,1:0|1:0|1:0,1:0:0:0:
512,192,80966,1,8,1:0:0:0:
448,312,81442,1,4,1:2:0:0:
320,296,81918,2,0,B|256:288|256:288|128:304,1,180,4|4,1:0|1:2,1:0:0:0:
64,328,82871,2,2,P|40:272|56:200,1,120,8|4,1:0|1:2,1:0:0:0:
8,88,83823,6,0,L|128:96,1,120,4|0,1:0|1:0,1:0:0:0:
256,88,84775,1,8,1:0:0:0:
272,216,85251,1,4,1:2:0:0:
144,232,85728,2,0,P|136:288|136:368,1,120,4|0,1:0|1:0,1:0:0:0:
224,368,86442,1,4,1:0:0:0:
224,368,86680,2,2,L|352:384,1,120,10|4,1:0|1:2,1:0:0:0:
472,336,87632,6,0,P|504:280|488:152,1,180,4|4,1:0|1:0,1:0:0:0:
456,96,88585,1,8,1:0:0:0:
208,8,89537,2,0,P|176:64|192:192,1,180,4|4,1:0|1:0,1:0:0:0:
264,192,90490,2,2,B|320:184|320:184|400:184,2,120,8|4|4,1:0|1:0|1:0,1:0:0:0:
176,288,91918,5,2,1:2:0:0:
48,272,92394,2,2,P|32:208|40:136,1,120,8|4,1:0|1:2,1:0:0:0:
104,40,93347,2,0,L|288:48,1,180,4|4,1:0|1:0,1:0:0:0:
368,32,94299,2,2,L|376:160,1,120,8|0,1:0|1:0,1:0:0:0:
248,168,95251,5,4,1:0:0:0:
264,296,95728,1,2,1:2:0:0:
392,280,96204,1,8,1:0:0:0:
375,151,96680,1,4,1:2:0:0:
248,168,97156,2,0,P|200:168|56:184,1,180,4|4,1:0|1:0,1:0:0:0:
0,232,98109,2,2,B|0:288|0:288|8:352,1,120,8|4,1:0|1:0,1:0:0:0:
152,344,99061,6,0,P|208:344|288:352,1,120,4|0,1:0|1:0,1:0:0:0:
352,384,99775,1,4,1:0:0:0:
352,384,100013,2,2,B|360:328|360:328|360:248,2,120,8|4|4,1:0|1:2|1:0,1:0:0:0:
472,336,101442,1,0,1:0:0:0:
456,208,101918,2,2,P|480:136|456:24,1,180,8|0,1:0|1:0,1:0:0:0:
384,80,102871,6,0,L|368:176,2,90,4|0|4,1:0|1:0|1:0,1:0:0:0:
344,8,103823,1,8,1:0:0:0:
224,72,104299,1,4,1:2:0:0:
104,24,104775,2,0,B|80:96|80:96|96:216,1,180,4|4,1:0|1:0,1:0:0:0:
160,248,105728,2,2,P|224:248|304:264,1,120,8|0,1:0|1:0,1:0:0:0:
408,224,106680,5,4,1:0:0:0:
488,0,121918,6,0,P|512:88|496:184,1,180,0|8,1:0|1:0,1:0:0:0:
488,216,122871,1,0,1:0:0:0:
384,152,123347,1,8,1:0:0:0:
288,224,123823,2,0,B|200:224|200:224|96:240,1,180,0|8,1:0|1:0,1:0:0:0:
16,304,125013,1,8,1:0:0:0:
32,336,125251,1,2,1:0:0:0:
128,384,125728,6,0,L|264:376,1,120,0|8,1:0|1:0,1:0:0:0:
288,384,126442,2,0,L|272:192,1,180,0|8,1:0|1:0,1:0:0:0:
200,112,127632,2,0,B|112:96|112:96|0:96,1,180,0|8,1:0|1:0,1:0:0:0:
16,272,129061,1,8,1:0:0:0:
136,280,129537,6,0,P|224:272|320:296,1,180,0|8,1:0|1:0,1:0:0:0:
344,304,130490,1,0,1:0:0:0:
440,384,130966,1,10,1:0:0:0:
512,288,131442,2,0,B|512:232|512:232|504:152,1,120,0|8,1:0|1:0,1:0:0:0:
504,136,132156,1,0,1:0:0:0:
504,136,132394,2,0,B|385:143,1,120,0|8,1:0|1:0,1:0:0:0:
288,216,133347,6,0,P|262:130|279:43,1,180,0|8,1:0|1:0,1:0:0:0:
304,8,134299,2,0,L|176:16,1,120,0|8,1:0|1:0,1:0:0:0:
64,0,135251,2,0,B|40:64|40:64|56:192,1,180,0|8,1:0|1:0,1:0:0:0:
64,216,136204,1,0,1:0:0:0:
40,336,136680,1,8,1:0:0:0:
40,336,137156,6,0,B|104:336|104:336|152:344|152:344|224:344,1,180,4|8,1:2|1:0,1:0:0:0:
256,344,138109,1,0,1:0:0:0:
336,256,138585,1,8,1:0:0:0:
224,216,139061,2,0,L|216:24,1,180,0|8,1:0|1:0,1:0:0:0:
328,0,140251,1,8,1:0:0:0:
320,32,140490,1,2,1:0:0:0:
400,104,140966,6,0,P|416:160|408:232,1,120,4|8,1:2|1:0,1:0:0:0:
392,256,141680,2,0,B|296:248|296:248|200:248,1,180,0|10,1:0|1:0,1:0:0:0:
96,288,142871,2,0,P|72:224|88:104,1,180,0|8,1:0|1:0,1:0:0:0:
240,24,144299,1,8,1:0:0:0:
320,112,144775,6,0,B|392:96|392:96|504:120,1,180,4|8,1:2|1:0,1:0:0:0:
512,152,145728,1,0,1:0:0:0:
504,272,146204,1,10,1:0:0:0:
384,264,146680,2,0,P|328:264|256:272,1,120,0|8,1:0|1:0,1:0:0:0:
232,288,147394,1,0,1:0:0:0:
232,288,147632,2,0,B|224:240|224:240|232:160,1,120,0|8,1:0|1:0,1:0:0:0:
264,56,148585,6,0,P|208:64|72:40,1,180,0|8,1:0|1:0,1:0:0:0:
48,32,149537,2,0,L|56:160,1,120,0|10,1:0|1:0,1:0:0:0:
24,272,150490,2,0,P|104:264|216:288,1,180,0|8,1:0|1:0,1:0:0:0:
240,296,151442,1,2,1:0:0:0:
360,280,151918,1,10,1:0:0:0:
488,328,156204,6,0,L|496:216,2,90,4|0|4,1:0|1:0|1:0,1:0:0:0:
416,368,157156,1,8,1:0:0:0:
296,312,157632,1,4,1:2:0:0:
176,360,158109,2,0,P|160:304|168:184,1,180,4|4,1:0|1:0,1:0:0:0:
248,152,159061,2,2,L|392:168,1,120,8|4,1:0|1:2,1:0:0:0:
496,176,160013,6,0,L|512:32,1,120,4|0,1:0|1:0,1:0:0:0:
376,40,160966,1,8,1:0:0:0:
360,168,161442,1,4,1:2:0:0:
488,184,161918,2,0,P|488:216|480:312,1,120,4|0,1:0|1:0,1:0:0:0:
424,368,162632,1,4,1:0:0:0:
424,368,162871,2,2,B|360:360|360:360|304:360,1,120,8|4,1:0|1:2,1:0:0:0:
232,248,163823,6,0,P|192:280|64:288,1,180,4|4,1:0|1:0,1:0:0:0:
0,240,164775,1,8,1:0:0:0:
152,24,165728,2,0,P|200:0|328:8,1,180,4|4,1:0|1:0,1:0:0:0:
376,72,166680,2,2,B|384:128|384:128|368:192,2,120,8|4|4,1:0|1:0|1:0,1:0:0:0:
272,152,168109,5,2,1:2:0:0:
288,280,168585,2,2,P|344:280|408:296,1,120,8|4,1:0|1:2,1:0:0:0:
496,200,169537,2,0,P|520:136|512:24,1,180,4|4,1:0|1:0,1:0:0:0:
432,0,170490,2,2,L|304:8,1,120,8|0,1:0|1:0,1:0:0:0:
328,136,171442,5,4,1:0:0:0:
200,152,171918,1,2,1:2:0:0:
184,24,172394,1,8,1:0:0:0:
312,7,172871,1,4,1:2:0:0:
328,136,173347,2,0,B|336:208|336:208|320:320,1,180,4|4,1:0|1:0,1:0:0:0:
256,368,174299,2,2,P|216:360|136:360,1,120,8|4,1:0|1:0,1:0:0:0:
16,312,175251,6,0,L|8:192,1,120,4|2,1:0|1:2,1:0:0:0:
0,112,175966,1,4,1:0:0:0:
0,112,176204,2,2,B|48:96|48:96|128:104,1,120,8|4,1:0|1:2,1:0:0:0:
184,216,177156,2,0,P|232:200|368:216,1,180,4|4,1:0|1:0,1:0:0:0:
432,256,178109,2,2,L|416:384,1,120,8|0,1:0|1:0,1:0:0:0:
288,368,179061,6,0,L|184:376,2,90,4|0|4,1:0|1:0|1:0,1:0:0:0:
336,296,180013,1,8,1:0:0:0:
264,184,180490,1,4,1:2:0:0:
144,232,180966,2,0,P|120:168|136:40,1,180,4|4,1:0|1:0,1:0:0:0:
200,16,181918,2,2,L|320:24,1,120,8|0,1:0|1:0,1:0:0:0:
448,8,182871,5,4,2:0:0:0:
256,192,192394,12,0,196918,2:0:0:0:
472,16,198109,6,0,B|480:80|480:80|472:144,1,120,4|0,1:0|1:0,1:0:0:0:
408,192,198823,1,4,1:0:0:0:
408,192,199061,2,2,L|288:200,2,120,8|4|4,1:0|1:2|1:0,1:0:0:0:
376,64,200490,1,4,1:2:0:0:
248,96,200966,2,2,P|175:101|63:113,1,180,8|0,1:0|0:0,1:0:0:0:
16,184,201918,6,0,L|0:280,2,90,4|0|4,1:0|1:0|1:0,1:0:0:0:
96,192,202871,1,8,1:0:0:0:
112,320,203347,1,4,1:2:0:0:
240,352,203823,2,0,B|296:344|296:344|424:360,1,180,4|4,1:0|1:0,1:0:0:0:
488,312,204775,2,2,P|504:264|504:184,1,120,8|0,1:0|1:0,1:0:0:0:
384,144,205728,6,0,L|256:128,1,120,4|0,1:0|1:0,1:0:0:0:
224,0,206680,1,8,1:0:0:0:
96,32,207156,1,4,1:2:0:0:
136,160,207632,2,0,P|128:224|128:288,1,120,4|0,1:0|1:0,1:0:0:0:
152,368,208347,1,4,1:0:0:0:
152,368,208585,2,2,B|96:360|96:360|16:360,1,120,8|4,1:0|1:2,1:0:0:0:
24,232,209537,6,0,P|8:168|40:56,1,180,4|4,1:0|1:0,1:0:0:0:
104,16,210490,1,8,1:0:0:0:
216,88,210966,1,4,1:2:0:0:
176,216,211442,2,0,B|232:208|232:208|360:224,1,180,4|4,1:0|1:0,1:0:0:0:
440,208,212394,2,2,B|448:272|432:328,2,120,8|4|4,1:0|1:0|1:0,1:0:0:0:
488,88,213823,5,2,1:2:0:0:
360,56,214299,2,2,P|240:48|176:48,1,180,8|2,1:0|1:2,1:0:0:0:
99,60,215251,1,4,1:0:0:0:
107,188,215728,1,0,1:0:0:0:
235,180,216204,2,2,B|251:236|251:236|243:324,1,120,8|0,1:0|1:0,1:0:0:0:
360,368,217156,5,4,1:0:0:0:
488,352,217632,1,2,1:2:0:0:
472,224,218109,1,8,1:0:0:0:
344,240,218585,1,4,1:2:0:0:
360,368,219061,2,0,P|240:360|176:360,1,180,4|4,1:0|1:0,1:0:0:0:
104,384,220013,2,2,B|88:328|88:328|96:240,1,120,8|4,1:0|1:0,1:0:0:0:
200,192,220966,6,0,L|344:200,1,120,4|2,1:0|1:2,1:0:0:0:
392,160,221680,1,4,1:0:0:0:
392,160,221918,2,2,B|424:104|408:24,1,120,8|4,1:0|1:2,1:0:0:0:
296,104,222871,2,0,P|272:176|288:280,1,180,4|4,1:0|1:0,1:0:0:0:
328,352,223823,2,2,B|388:346|388:346|456:352,1,120,8|0,1:0|1:0,1:0:0:0:
512,216,224775,6,0,L|313:201,1,180,4|4,1:0|1:0,1:0:0:0:
256,176,225728,1,8,1:0:0:0:
128,216,226204,1,4,1:2:0:0:
0,176,226680,2,0,P|0:120|8:72,2,90,4|0|4,1:0|1:0|1:0,1:0:0:0:
40,248,227632,1,8,1:0:0:0:
264,384,228585,6,0,P|280:320|272:248,1,120,4|2,1:0|1:0,1:0:0:0:
264,232,229299,1,0,1:0:0:0:
192,136,229775,1,2,1:0:0:0:
328,24,230490,2,0,L|448:32,1,120,0|2,1:0|1:0,1:0:0:0:
480,32,231204,2,0,P|488:96|464:168,1,120,0|2,1:0|1:0,1:0:0:0:
336,264,232394,6,0,B|272:256|272:256|192:256,1,120,0|0,1:0|1:0,1:0:0:0:
184,272,233109,1,0,1:0:0:0:
88,344,233585,1,2,1:0:0:0:
0,184,234299,2,0,P|-8:144|8:48,1,120,0|2,1:0|1:0,1:0:0:0:
24,40,235013,2,0,L|152:56,1,120,0|2,1:0|1:0,1:0:0:0:
312,0,236204,6,0,B|320:64|320:64|304:136,1,120,0|2,1:0|1:0,1:0:0:0:
280,144,236918,1,0,1:0:0:0:
392,184,237394,1,2,1:0:0:0:
360,360,238109,2,0,P|304:352|224:352,1,120,0|2,1:0|1:0,1:0:0:0:
208,360,238823,2,0,B|200:296|200:296|216:224,1,120,0|2,1:0|1:0,1:0:0:0:
72,128,240013,6,0,L|44:271,1,120,0|2,1:0|1:0,1:0:0:0:
64,280,240728,1,0,1:0:0:0:
176,232,241204,1,2,1:0:0:0:
288,368,241918,2,0,B|344:352|344:352|472:368,1,180,0|0,1:0|1:0,1:0:0:0:
488,344,242871,2,0,P|512:288|488:112,1,240,0|4,1:0|1:0,1:0:0:0:
