osu file format v14

[General]
AudioFilename: audio.mp3
AudioLeadIn: 0
PreviewTime: 56435
Countdown: 0
SampleSet: Normal
StackLeniency: 0.5
Mode: 1
LetterboxInBreaks: 0
WidescreenStoryboard: 1

[Editor]
Bookmarks: 3035,166235
DistanceSpacing: 1.2
BeatDivisor: 4
GridSize: 32
TimelineZoom: 2.5

[Metadata]
Title:Angel Of Darkness (Video Mix) (Nightcore Mix)
TitleUnicode:Angel Of Darkness (Video Mix) (Nightcore Mix)
Artist:Alex C. feat. Yasmin K.
ArtistUnicode:Alex C. feat. Yasmin K.
Creator:Gero
Version:Kantan
Source:
Tags:Tomb Raider: The Angel of Darkness English Electronic Techno Hard Trance Microsoft Windows Lara Croft PlayStation 2 Mac OS Classic プレイステーション2
BeatmapID:2567987
BeatmapSetID:1235310

[Difficulty]
HPDrainRate:7
CircleSize:4
OverallDifficulty:3
ApproachRate:10
SliderMultiplier:1.4
SliderTickRate:1

[Events]
//Background and Video events
0,0,"BG.jpg",0,50
//Break Periods
//Storyboard Layer 0 (Background)
//Storyboard Layer 1 (Fail)
//Storyboard Layer 2 (Pass)
//Storyboard Layer 3 (Foreground)
//Storyboard Layer 4 (Overlay)
//Storyboard Sound Samples

[TimingPoints]
-1079,342.857142857143,4,1,0,40,1,0
292,-100,4,1,0,40,0,0
14006,-100,4,1,0,50,0,0
26349,-100,4,1,0,60,0,0
37321,-100,4,1,0,40,0,0
42806,-100,4,1,0,50,0,0
56521,-100,4,1,0,80,0,1
78463,-100,4,1,0,80,0,0
100406,-100,4,1,0,60,0,0
101778,-100,4,1,0,40,0,0
118235,-100,4,1,0,50,0,0
133321,-100,4,1,0,80,0,1
155263,-100,4,1,0,80,0,0
163492,-100,4,1,0,50,0,0
164869,-100,4,1,0,40,0,0
166241,-100,4,1,0,30,0,0

[Colours]
Combo1 : 131,165,67
Combo2 : 244,114,70
Combo3 : 230,192,66

[HitObjects]
256,192,3035,5,0,0:0:0:0:
256,192,3721,1,8,0:0:0:0:
256,192,4406,1,0,0:0:0:0:
256,192,5092,1,8,0:0:0:0:
256,192,5778,1,0,0:0:0:0:
256,192,6463,1,8,0:0:0:0:
256,192,7149,1,0,0:0:0:0:
256,192,7835,1,8,0:0:0:0:
256,192,8521,1,8,0:0:0:0:
256,192,9035,1,8,0:0:0:0:
256,192,9378,1,0,0:0:0:0:
256,192,9721,1,8,0:0:0:0:
256,192,11263,1,8,0:0:0:0:
256,192,11778,1,8,0:0:0:0:
256,192,12463,1,0,0:0:0:0:
256,192,13149,1,8,0:0:0:0:
256,192,14006,1,0,0:0:0:0:
256,192,14349,1,8,0:0:0:0:
256,192,14692,1,0,0:0:0:0:
256,192,15378,1,0,0:0:0:0:
256,192,16063,1,8,0:0:0:0:
256,192,16749,1,0,0:0:0:0:
256,192,17092,1,8,0:0:0:0:
256,192,17435,1,0,0:0:0:0:
256,192,18121,1,0,0:0:0:0:
256,192,18806,1,8,0:0:0:0:
256,192,19492,1,0,0:0:0:0:
256,192,20006,1,0,0:0:0:0:
256,192,20349,1,0,0:0:0:0:
256,192,20692,1,8,0:0:0:0:
256,192,21892,1,0,0:0:0:0:
256,192,22235,1,8,0:0:0:0:
256,192,22749,1,8,0:0:0:0:
256,192,23092,1,8,0:0:0:0:
256,192,23435,1,0,0:0:0:0:
256,192,24121,1,0,0:0:0:0:
256,192,26349,1,0,0:0:0:0:
256,192,27721,1,8,0:0:0:0:
256,192,28063,1,8,0:0:0:0:
256,192,28406,1,0,0:0:0:0:
256,192,28749,1,0,0:0:0:0:
256,192,29092,1,8,0:0:0:0:
256,192,30463,1,0,0:0:0:0:
256,192,30806,1,0,0:0:0:0:
256,192,31149,1,8,0:0:0:0:
256,192,31492,1,8,0:0:0:0:
256,192,31835,1,0,0:0:0:0:
256,192,33206,1,8,0:0:0:0:
256,192,33549,1,8,0:0:0:0:
256,192,33892,1,0,0:0:0:0:
256,192,34235,1,8,0:0:0:0:
256,192,34578,1,0,0:0:0:0:
256,192,35263,1,8,0:0:0:0:
256,192,35949,1,0,0:0:0:0:
256,192,36635,1,8,0:0:0:0:
256,192,37321,1,0,0:0:0:0:
256,192,38692,1,8,0:0:0:0:
256,192,40063,1,0,0:0:0:0:
256,192,40749,1,8,0:0:0:0:
256,192,41435,1,0,0:0:0:0:
256,192,42121,1,8,0:0:0:0:
256,192,42806,1,4,0:0:0:0:
256,192,43492,1,8,0:0:0:0:
256,192,43835,1,8,0:0:0:0:
256,192,44178,1,0,0:0:0:0:
256,192,44863,1,8,0:0:0:0:
256,192,45206,1,8,0:0:0:0:
256,192,45549,1,0,0:0:0:0:
256,192,46235,1,8,0:0:0:0:
256,192,46921,1,0,0:0:0:0:
256,192,47606,1,8,0:0:0:0:
256,192,48292,1,0,0:0:0:0:
256,192,48635,1,8,0:0:0:0:
256,192,49663,1,0,0:0:0:0:
256,192,50006,1,8,0:0:0:0:
256,192,50349,1,0,0:0:0:0:
256,192,51035,1,0,0:0:0:0:
256,192,51720,1,8,0:0:0:0:
256,192,52063,1,8,0:0:0:0:
256,192,52406,1,0,0:0:0:0:
256,192,53093,1,8,0:0:0:0:
256,192,53435,1,8,0:0:0:0:
256,192,53778,1,0,0:0:0:0:
256,192,54806,1,8,0:0:0:0:
256,192,55149,1,0,0:0:0:0:
256,192,55835,1,8,0:0:0:0:
256,192,56178,1,8,0:0:0:0:
256,192,56521,1,4,0:0:0:0:
256,192,57206,1,8,0:0:0:0:
256,192,57892,1,0,0:0:0:0:
256,192,58235,1,0,0:0:0:0:
256,192,58578,1,8,0:0:0:0:
256,192,58921,1,8,0:0:0:0:
256,192,59263,1,0,0:0:0:0:
256,192,59949,1,8,0:0:0:0:
256,192,60635,1,0,0:0:0:0:
256,192,60978,1,8,0:0:0:0:
256,192,61321,1,0,0:0:0:0:
256,192,61663,1,8,0:0:0:0:
256,192,62006,1,0,0:0:0:0:
256,192,63035,1,0,0:0:0:0:
256,192,63378,1,8,0:0:0:0:
256,192,64063,1,8,0:0:0:0:
256,192,64749,1,0,0:0:0:0:
256,192,65092,1,8,0:0:0:0:
256,192,66121,1,0,0:0:0:0:
256,192,66463,1,8,0:0:0:0:
256,192,66806,1,0,0:0:0:0:
256,192,67492,1,4,0:0:0:0:
256,192,68178,1,8,0:0:0:0:
256,192,68863,1,0,0:0:0:0:
256,192,69206,1,0,0:0:0:0:
256,192,69549,1,8,0:0:0:0:
256,192,70235,1,0,0:0:0:0:
256,192,70921,1,8,0:0:0:0:
256,192,71606,1,0,0:0:0:0:
256,192,71949,1,8,0:0:0:0:
256,192,72292,1,0,0:0:0:0:
256,192,72635,1,8,0:0:0:0:
256,192,72978,1,0,0:0:0:0:
256,192,74006,1,0,0:0:0:0:
256,192,74349,1,8,0:0:0:0:
256,192,75035,1,8,0:0:0:0:
256,192,75721,1,4,0:0:0:0:
256,192,76406,1,4,0:0:0:0:
256,192,77092,1,4,0:0:0:0:
256,192,77778,1,8,0:0:0:0:
256,192,78463,1,0,0:0:0:0:
256,192,79835,1,4,0:0:0:0:
256,192,81206,1,8,0:0:0:0:
256,192,81549,1,8,0:0:0:0:
256,192,81892,1,0,0:0:0:0:
256,192,82235,1,8,0:0:0:0:
256,192,82578,1,0,0:0:0:0:
256,192,83263,1,0,0:0:0:0:
256,192,83949,1,8,0:0:0:0:
256,192,84292,1,8,0:0:0:0:
256,192,84635,1,0,0:0:0:0:
256,192,84978,1,8,0:0:0:0:
256,192,85321,1,0,0:0:0:0:
256,192,86692,1,8,0:0:0:0:
256,192,87035,1,8,0:0:0:0:
256,192,87378,1,0,0:0:0:0:
256,192,87721,1,8,0:0:0:0:
256,192,88063,1,0,0:0:0:0:
256,192,88749,1,8,0:0:0:0:
256,192,89092,1,8,0:0:0:0:
256,192,89435,1,0,0:0:0:0:
256,192,90121,1,8,0:0:0:0:
256,192,90806,1,4,0:0:0:0:
256,192,92178,1,8,0:0:0:0:
256,192,92521,1,8,0:0:0:0:
256,192,92863,1,0,0:0:0:0:
256,192,93206,1,8,0:0:0:0:
256,192,93549,1,0,0:0:0:0:
256,192,94235,1,0,0:0:0:0:
256,192,94921,1,8,0:0:0:0:
256,192,95263,1,8,0:0:0:0:
256,192,95606,1,0,0:0:0:0:
256,192,95949,1,8,0:0:0:0:
256,192,96292,1,0,0:0:0:0:
256,192,97663,1,8,0:0:0:0:
256,192,98006,1,8,0:0:0:0:
256,192,98349,1,0,0:0:0:0:
256,192,98692,1,8,0:0:0:0:
256,192,99035,1,0,0:0:0:0:
256,192,99721,1,8,0:0:0:0:
256,192,100064,1,8,0:0:0:0:
256,192,100407,1,0,0:0:0:0:
256,192,101435,1,8,0:0:0:0:
256,192,101778,1,4,0:0:0:0:
256,192,102463,1,8,0:0:0:0:
256,192,103149,1,0,0:0:0:0:
256,192,103492,1,0,0:0:0:0:
256,192,103835,1,8,0:0:0:0:
256,192,104521,1,0,0:0:0:0:
256,192,105206,1,8,0:0:0:0:
256,192,105892,1,0,0:0:0:0:
256,192,106235,1,0,0:0:0:0:
256,192,106578,1,8,0:0:0:0:
256,192,107263,1,0,0:0:0:0:
256,192,108635,1,0,0:0:0:0:
256,192,108978,1,0,0:0:0:0:
256,192,109321,1,8,0:0:0:0:
256,192,110006,1,0,0:0:0:0:
256,192,110692,1,0,0:0:0:0:
256,192,111378,1,0,0:0:0:0:
256,192,111721,1,8,0:0:0:0:
256,192,112063,1,0,0:0:0:0:
256,192,112406,1,0,0:0:0:0:
256,192,115492,1,0,0:0:0:0:
256,192,116178,1,8,0:0:0:0:
256,192,116863,1,0,0:0:0:0:
256,192,117549,1,8,0:0:0:0:
256,192,118235,1,4,0:0:0:0:
256,192,118921,1,8,0:0:0:0:
256,192,119263,1,8,0:0:0:0:
256,192,119606,1,0,0:0:0:0:
256,192,120292,1,8,0:0:0:0:
256,192,120635,1,8,0:0:0:0:
256,192,120978,1,0,0:0:0:0:
256,192,121663,1,8,0:0:0:0:
256,192,122349,1,0,0:0:0:0:
256,192,123035,1,8,0:0:0:0:
256,192,123721,1,0,0:0:0:0:
256,192,124063,1,8,0:0:0:0:
256,192,125092,1,0,0:0:0:0:
256,192,125435,1,8,0:0:0:0:
256,192,125778,1,0,0:0:0:0:
256,192,126463,1,0,0:0:0:0:
256,192,127150,1,8,0:0:0:0:
256,192,127493,1,8,0:0:0:0:
256,192,127835,1,0,0:0:0:0:
256,192,128521,1,8,0:0:0:0:
256,192,128863,1,8,0:0:0:0:
256,192,129206,1,0,0:0:0:0:
256,192,130235,1,8,0:0:0:0:
256,192,130578,1,0,0:0:0:0:
256,192,131263,1,8,0:0:0:0:
256,192,131949,1,0,0:0:0:0:
256,192,132978,1,8,0:0:0:0:
256,192,133321,1,4,0:0:0:0:
256,192,134006,1,8,0:0:0:0:
256,192,134692,1,0,0:0:0:0:
256,192,135035,1,0,0:0:0:0:
256,192,135378,1,8,0:0:0:0:
256,192,135721,1,8,0:0:0:0:
256,192,136063,1,0,0:0:0:0:
256,192,136749,1,8,0:0:0:0:
256,192,137435,1,0,0:0:0:0:
256,192,137778,1,8,0:0:0:0:
256,192,138121,1,0,0:0:0:0:
256,192,138463,1,8,0:0:0:0:
256,192,138806,1,0,0:0:0:0:
256,192,139835,1,0,0:0:0:0:
256,192,140178,1,8,0:0:0:0:
256,192,140863,1,8,0:0:0:0:
256,192,141549,1,0,0:0:0:0:
256,192,141892,1,8,0:0:0:0:
256,192,142921,1,0,0:0:0:0:
256,192,143263,1,8,0:0:0:0:
256,192,143606,1,0,0:0:0:0:
256,192,144292,1,4,0:0:0:0:
256,192,144978,1,8,0:0:0:0:
256,192,145663,1,0,0:0:0:0:
256,192,146006,1,0,0:0:0:0:
256,192,146349,1,8,0:0:0:0:
256,192,147035,1,0,0:0:0:0:
256,192,147721,1,8,0:0:0:0:
256,192,148406,1,0,0:0:0:0:
256,192,148749,1,8,0:0:0:0:
256,192,149092,1,0,0:0:0:0:
256,192,149435,1,8,0:0:0:0:
256,192,149778,1,0,0:0:0:0:
256,192,150806,1,0,0:0:0:0:
256,192,151149,1,8,0:0:0:0:
256,192,151835,1,8,0:0:0:0:
256,192,152521,1,4,0:0:0:0:
256,192,153206,1,4,0:0:0:0:
256,192,153892,1,4,0:0:0:0:
256,192,154235,1,4,0:0:0:0:
256,192,154578,1,8,0:0:0:0:
256,192,155263,1,4,0:0:0:0:
256,192,156635,1,8,0:0:0:0:
256,192,156978,1,8,0:0:0:0:
256,192,157321,1,0,0:0:0:0:
256,192,157663,1,8,0:0:0:0:
256,192,158006,1,0,0:0:0:0:
256,192,158692,1,0,0:0:0:0:
256,192,159378,1,8,0:0:0:0:
256,192,159721,1,8,0:0:0:0:
256,192,160063,1,0,0:0:0:0:
256,192,160406,1,8,0:0:0:0:
256,192,160749,1,0,0:0:0:0:
256,192,162121,1,8,0:0:0:0:
256,192,162463,1,8,0:0:0:0:
256,192,162806,1,0,0:0:0:0:
256,192,163149,1,8,0:0:0:0:
256,192,163492,1,0,0:0:0:0:
256,192,164863,1,0,0:0:0:0:
256,192,166235,1,0,0:0:0:0:
