osu file format v14

[General]
AudioFilename: audio.mp3
AudioLeadIn: 0
PreviewTime: 56435
Countdown: 0
SampleSet: Normal
StackLeniency: 0.5
Mode: 1
LetterboxInBreaks: 0
WidescreenStoryboard: 1

[Editor]
Bookmarks: 3035,166235
DistanceSpacing: 1.2
BeatDivisor: 4
GridSize: 32
TimelineZoom: 2.5

[Metadata]
Title:Angel Of Darkness (Video Mix) (Nightcore Mix)
TitleUnicode:Angel Of Darkness (Video Mix) (Nightcore Mix)
Artist:Alex C. feat. Yasmin K.
ArtistUnicode:Alex C. feat. Yasmin K.
Creator:Gero
Version:Inner Oni
Source:
Tags:Tomb Raider: The Angel of Darkness English Electronic Techno Hard Trance Microsoft Windows Lara Croft PlayStation 2 Mac OS Classic プレイステーション2
BeatmapID:2567986
BeatmapSetID:1235310

[Difficulty]
HPDrainRate:5
CircleSize:4
OverallDifficulty:6
ApproachRate:10
SliderMultiplier:1.4
SliderTickRate:1

[Events]
//Background and Video events
0,0,"BG.jpg",0,50
//Break Periods
//Storyboard Layer 0 (Background)
//Storyboard Layer 1 (Fail)
//Storyboard Layer 2 (Pass)
//Storyboard Layer 3 (Foreground)
//Storyboard Layer 4 (Overlay)
//Storyboard Sound Samples

[TimingPoints]
-1079,342.857142857143,4,1,0,40,1,0
292,-250,4,1,0,40,0,0
14006,-166.666666666667,4,1,0,50,0,0
23092,-166.666666666667,4,1,0,50,0,0
23435,-155.737768744987,4,1,0,50,0,0
23778,-146.153744970484,4,1,0,50,0,0
24121,-137.681119512719,4,1,0,50,0,0
24463,-130.136995214863,4,1,0,50,0,0
24635,-126.66661600002,4,1,0,50,0,0
24978,-120.253156946003,4,1,0,50,0,0
25149,-117.283892699312,4,1,0,50,0,0
25321,-114.457858905508,4,1,0,50,0,0
25492,-111.764686159173,4,1,0,50,0,0
25749,-107.954520919427,4,1,0,50,0,0
26006,-104.395575715501,4,1,0,50,0,0
26178,-102.150576078174,4,1,0,50,0,0
26349,-100,4,1,0,60,0,0
35606,-100,4,1,0,60,0,0
35949,-104.166666666667,4,1,0,60,0,0
36035,-105.263157894737,4,1,0,60,0,0
36121,-106.382978723404,4,1,0,60,0,0
36292,-108.695652173913,4,1,0,60,0,0
36463,-111.111111111111,4,1,0,60,0,0
36549,-112.359550561798,4,1,0,60,0,0
36721,-114.942528735632,4,1,0,60,0,0
36806,-116.279069767442,4,1,0,60,0,0
36978,-119.047619047619,4,1,0,60,0,0
37063,-120.481927710843,4,1,0,60,0,0
37149,-121.951219512195,4,1,0,60,0,0
37321,-125,4,1,0,40,0,0
40063,-125,4,1,0,40,0,0
40406,-123.081770605119,4,1,0,40,0,0
40749,-121.221672010522,4,1,0,40,0,0
41092,-119.416816037201,4,1,0,40,0,0
41435,-117.665054655418,4,1,0,40,0,0
41778,-115.963810014171,4,1,0,40,0,0
42121,-114.31118935077,4,1,0,40,0,0
42463,-112.704883389892,4,1,0,40,0,0
42806,-111.1432191522,4,1,0,50,0,0
54121,-108.702150672051,4,1,0,50,0,0
54292,-106.395542452353,4,1,0,50,0,0
54378,-105.278561810623,4,1,0,50,0,0
54549,-103.113406186392,4,1,0,50,0,0
54635,-102.063936932652,4,1,0,50,0,0
54806,-100.027707675026,4,1,0,50,0,0
55149,-96.1897323232129,4,1,0,50,0,0
55406,-93.4991010061438,4,1,0,50,0,0
55663,-90.9548991037304,4,1,0,50,0,0
55835,-89.3342898057962,4,1,0,50,0,0
55921,-88.5454898026587,4,1,0,50,0,0
56006,-87.7704977026072,4,1,0,50,0,0
56178,-86.2604375129391,4,1,0,50,0,0
56235,-85.7685894840848,4,1,0,50,0,0
56292,-85.2823185874519,4,1,0,50,0,0
56349,-84.8015304980224,4,1,0,50,0,0
56521,-83.3910816573811,4,1,0,80,0,1
75035,-83.3333333333333,4,1,0,80,0,1
75121,-84.0336134453782,4,1,0,80,0,1
75206,-84.7457627118644,4,1,0,80,0,1
75378,-86.2068965517241,4,1,0,80,0,1
75463,-86.9565217391304,4,1,0,80,0,1
75549,-87.719298245614,4,1,0,80,0,1
75721,-89.2857142857143,4,1,0,80,0,1
75978,-91.743119266055,4,1,0,80,0,1
76063,-92.5925925925926,4,1,0,80,0,1
76235,-94.3396226415094,4,1,0,80,0,1
76406,-96.1538461538461,4,1,0,80,0,1
76578,-98.0392156862745,4,1,0,80,0,1
76749,-100,4,1,0,80,0,1
77092,-104.166666666667,4,1,0,80,0,1
77263,-106.382978723404,4,1,0,80,0,1
77349,-107.52688172043,4,1,0,80,0,1
77435,-108.695652173913,4,1,0,80,0,1
77606,-111.111111111111,4,1,0,80,0,1
77692,-112.359550561798,4,1,0,80,0,1
77863,-114.942528735632,4,1,0,80,0,1
77949,-116.279069767442,4,1,0,80,0,1
78121,-119.047619047619,4,1,0,80,0,1
78206,-120.481927710843,4,1,0,80,0,1
78292,-121.951219512195,4,1,0,80,0,1
78378,-123.456790123457,4,1,0,80,0,1
78463,-125,4,1,0,80,0,0
79321,-109.89010989011,4,1,0,80,0,0
79378,-108.695652173913,4,1,0,80,0,0
79435,-107.52688172043,4,1,0,80,0,0
79492,-106.382978723404,4,1,0,80,0,0
79835,-100,4,1,0,80,0,0
100063,-100,4,1,0,80,0,0
100235,-102.040816326531,4,1,0,80,0,0
100406,-104.166666666667,4,1,0,60,0,0
100578,-106.382978723404,4,1,0,60,0,0
100663,-107.52688172043,4,1,0,60,0,0
100749,-108.695652173913,4,1,0,60,0,0
100920,-111.111111111111,4,1,0,60,0,0
101006,-112.359550561798,4,1,0,60,0,0
101178,-114.942528735632,4,1,0,60,0,0
101263,-116.279069767442,4,1,0,60,0,0
101435,-119.047619047619,4,1,0,60,0,0
101778,-125,4,1,0,40,0,0
117549,-121.951219512195,4,1,0,40,0,0
117892,-116.279069767442,4,1,0,40,0,0
118235,-111.111111111111,4,1,0,50,0,0
129206,-100,4,1,0,50,0,0
129292,-99.4827889800925,4,1,0,50,0,0
129378,-98.970802623518,4,1,0,50,0,0
129549,-97.9626703448384,4,1,0,50,0,0
129721,-96.9747749215474,4,1,0,50,0,0
129806,-96.4883080292746,4,1,0,50,0,0
129892,-96.0066974272125,4,1,0,50,0,0
129978,-95.529779498163,4,1,0,50,0,0
130063,-95.0576667335239,4,1,0,50,0,0
130235,-94.1272148133646,4,1,0,50,0,0
130406,-93.2148882819564,4,1,0,50,0,0
130578,-92.3199921712647,4,1,0,50,0,0
130663,-91.8789990334329,4,1,0,50,0,0
130749,-91.4421153121651,4,1,0,50,0,0
130921,-90.5808588152386,4,1,0,50,0,0
131092,-89.7355940720667,4,1,0,50,0,0
131178,-89.3188898733816,4,1,0,50,0,0
131263,-88.9060378757502,4,1,0,50,0,0
131349,-88.4969065906301,4,1,0,50,0,0
131435,-88.0916011705612,4,1,0,50,0,0
131606,-87.2919505473642,4,1,0,50,0,0
131663,-87.0286419963674,4,1,0,50,0,0
131721,-86.7669171627565,4,1,0,50,0,0
131778,-86.5067618010362,4,1,0,50,0,0
131949,-85.7354991263553,4,1,0,50,0,0
132035,-85.3550385506032,4,1,0,50,0,0
132206,-84.6040867158047,4,1,0,50,0,0
132292,-84.233579716554,4,1,0,50,0,0
132463,-83.5021468401953,4,1,0,50,0,0
132549,-83.1412078588395,4,1,0,50,0,0
132721,-82.4285426963366,4,1,0,50,0,0
132806,-82.0768058333627,4,1,0,50,0,0
132978,-81.3822614340043,4,1,0,50,0,0
133035,-81.1532855719197,4,1,0,50,0,0
133092,-80.9256600701464,4,1,0,50,0,0
133149,-80.6993079227353,4,1,0,50,0,0
133321,-80.0277216027632,4,1,0,80,0,1
151149,-80,4,1,0,80,0,1
151235,-81.0073425055247,4,1,0,80,0,1
151321,-82.0403769919403,4,1,0,80,0,1
151492,-84.1875564056628,4,1,0,80,0,1
151578,-85.3038523219709,4,1,0,80,0,1
151663,-86.4501493858581,4,1,0,80,0,1
151835,-88.8377183631117,4,1,0,80,0,1
151921,-90.0816500075669,4,1,0,80,0,1
152006,-91.3609121473469,4,1,0,80,0,1
152178,-94.0316247160245,4,1,0,80,0,1
152263,-95.426494402759,4,1,0,80,0,1
152349,-96.8632765165641,4,1,0,80,0,1
152435,-100,4,1,0,80,0,1
152778,-97.7098759279995,4,1,0,80,0,1
152863,-96.969696969697,4,1,0,80,0,1
153035,-95.5223880597015,4,1,0,80,0,1
153206,-94.1176470588235,4,1,0,80,0,1
153378,-92.7536231884058,4,1,0,80,0,1
153721,-90.1408450704225,4,1,0,80,0,1
153892,-88.8888888888889,4,1,0,80,0,1
154063,-87.6712328767123,4,1,0,80,0,1
154235,-86.4864864864865,4,1,0,80,0,1
154406,-85.3333333333333,4,1,0,80,0,1
154492,-84.7681759922963,4,1,0,80,0,1
154663,-83.6601657140562,4,1,0,80,0,1
154749,-83.1168831168831,4,1,0,80,0,1
154921,-82.0512820512821,4,1,0,80,0,1
155006,-81.5286956550097,4,1,0,80,0,1
155092,-81.0126582278481,4,1,0,80,0,1
155263,-80,4,1,0,80,0,0
163489,-83.3333333333333,4,1,0,50,0,0
164006,-91.9293394325386,4,1,0,50,0,0
164092,-93.5374070121253,4,1,0,50,0,0
164263,-96.9285287800188,4,1,0,50,0,0
164349,-98.7179499835635,4,1,0,50,0,0
164521,-102.50270607144,4,1,0,50,0,0
165378,-126.811663122281,4,1,0,40,0,0
165463,-129.892059698391,4,1,0,40,0,0
165635,-136.524735551587,4,1,0,40,0,0
165721,-140.101938170213,4,1,0,40,0,0
165892,-147.849382876676,4,1,0,40,0,0
166235,-166.235009757995,4,1,0,30,0,0

[Colours]
Combo1 : 131,165,67
Combo2 : 244,114,70
Combo3 : 230,192,66

[HitObjects]
256,192,3035,5,0,0:0:0:0:
256,192,3721,1,8,0:0:0:0:
256,192,4063,1,8,0:0:0:0:
256,192,4406,1,0,0:0:0:0:
256,192,5092,1,8,0:0:0:0:
256,192,5778,1,0,0:0:0:0:
256,192,6463,1,8,0:0:0:0:
256,192,6806,1,8,0:0:0:0:
256,192,7149,1,0,0:0:0:0:
256,192,7835,1,8,0:0:0:0:
256,192,8349,1,0,0:0:0:0:
256,192,8521,1,8,0:0:0:0:
256,192,8863,1,0,0:0:0:0:
256,192,9035,1,8,0:0:0:0:
256,192,9378,1,0,0:0:0:0:
256,192,9721,1,8,0:0:0:0:
256,192,11092,1,0,0:0:0:0:
256,192,11263,1,8,0:0:0:0:
256,192,11606,1,0,0:0:0:0:
256,192,11778,1,8,0:0:0:0:
256,192,12121,1,8,0:0:0:0:
256,192,12463,1,0,0:0:0:0:
256,192,12806,1,0,0:0:0:0:
256,192,13149,1,8,0:0:0:0:
256,192,14006,1,0,0:0:0:0:
256,192,14349,1,8,0:0:0:0:
256,192,14521,1,8,0:0:0:0:
256,192,14692,1,0,0:0:0:0:
256,192,15035,1,8,0:0:0:0:
256,192,15378,1,0,0:0:0:0:
256,192,15549,1,0,0:0:0:0:
256,192,15721,1,8,0:0:0:0:
256,192,16063,1,0,0:0:0:0:
256,192,16406,1,8,0:0:0:0:
256,192,16749,1,0,0:0:0:0:
256,192,17092,1,8,0:0:0:0:
256,192,17263,1,8,0:0:0:0:
256,192,17435,1,0,0:0:0:0:
256,192,17778,1,8,0:0:0:0:
256,192,18121,1,0,0:0:0:0:
256,192,18292,1,0,0:0:0:0:
256,192,18463,1,8,0:0:0:0:
256,192,18806,1,0,0:0:0:0:
256,192,19149,1,8,0:0:0:0:
256,192,19321,1,0,0:0:0:0:
256,192,19492,1,0,0:0:0:0:
256,192,19835,1,8,0:0:0:0:
256,192,20006,1,0,0:0:0:0:
256,192,20349,1,8,0:0:0:0:
256,192,20692,1,8,0:0:0:0:
256,192,20863,1,0,0:0:0:0:
256,192,21206,1,8,0:0:0:0:
256,192,21549,1,0,0:0:0:0:
256,192,21721,1,0,0:0:0:0:
256,192,21892,1,8,0:0:0:0:
256,192,22063,1,8,0:0:0:0:
256,192,22235,1,0,0:0:0:0:
256,192,22578,1,8,0:0:0:0:
256,192,22749,1,0,0:0:0:0:
256,192,23092,1,8,0:0:0:0:
256,192,23435,1,0,0:0:0:0:
256,192,23778,1,8,0:0:0:0:
256,192,24121,1,0,0:0:0:0:
256,192,24463,1,8,0:0:0:0:
256,192,24635,1,0,0:0:0:0:
256,192,24978,1,0,0:0:0:0:
256,192,25149,1,0,0:0:0:0:
256,192,25321,1,8,0:0:0:0:
256,192,25492,1,0,0:0:0:0:
256,192,25749,1,0,0:0:0:0:
256,192,26006,1,8,0:0:0:0:
256,192,26178,1,8,0:0:0:0:
256,192,26349,1,0,0:0:0:0:
256,192,26521,1,8,0:0:0:0:
256,192,26606,1,8,0:0:0:0:
256,192,26692,1,0,0:0:0:0:
256,192,26863,1,8,0:0:0:0:
256,192,26949,1,0,0:0:0:0:
256,192,27121,1,0,0:0:0:0:
256,192,27206,1,8,0:0:0:0:
256,192,27378,1,0,0:0:0:0:
256,192,27721,1,0,0:0:0:0:
256,192,27806,1,0,0:0:0:0:
256,192,27892,1,8,0:0:0:0:
256,192,28063,1,0,0:0:0:0:
256,192,28149,1,0,0:0:0:0:
256,192,28235,1,8,0:0:0:0:
256,192,28406,1,8,0:0:0:0:
256,192,28492,1,8,0:0:0:0:
256,192,28578,1,0,0:0:0:0:
256,192,28749,1,8,0:0:0:0:
256,192,29092,1,0,0:0:0:0:
256,192,29263,1,8,0:0:0:0:
256,192,29349,1,8,0:0:0:0:
256,192,29435,1,0,0:0:0:0:
256,192,29606,1,8,0:0:0:0:
256,192,29692,1,0,0:0:0:0:
256,192,29863,1,0,0:0:0:0:
256,192,29949,1,8,0:0:0:0:
256,192,30121,1,0,0:0:0:0:
256,192,30463,1,0,0:0:0:0:
256,192,30549,1,0,0:0:0:0:
256,192,30635,1,8,0:0:0:0:
256,192,30806,1,0,0:0:0:0:
256,192,30892,1,0,0:0:0:0:
256,192,30978,1,8,0:0:0:0:
256,192,31149,1,8,0:0:0:0:
256,192,31235,1,8,0:0:0:0:
256,192,31321,1,0,0:0:0:0:
256,192,31492,1,8,0:0:0:0:
256,192,31835,1,0,0:0:0:0:
256,192,32006,1,8,0:0:0:0:
256,192,32092,1,8,0:0:0:0:
256,192,32178,1,0,0:0:0:0:
256,192,32349,1,8,0:0:0:0:
256,192,32435,1,0,0:0:0:0:
256,192,32606,1,0,0:0:0:0:
256,192,32692,1,8,0:0:0:0:
256,192,32863,1,0,0:0:0:0:
256,192,33206,1,0,0:0:0:0:
256,192,33292,1,0,0:0:0:0:
256,192,33378,1,8,0:0:0:0:
256,192,33549,1,0,0:0:0:0:
256,192,33635,1,0,0:0:0:0:
256,192,33721,1,8,0:0:0:0:
256,192,33892,1,8,0:0:0:0:
256,192,33978,1,8,0:0:0:0:
256,192,34063,1,0,0:0:0:0:
256,192,34235,1,8,0:0:0:0:
256,192,34578,1,0,0:0:0:0:
256,192,34749,1,8,0:0:0:0:
256,192,34835,1,8,0:0:0:0:
256,192,34921,1,0,0:0:0:0:
256,192,35092,1,8,0:0:0:0:
256,192,35178,1,0,0:0:0:0:
256,192,35349,1,0,0:0:0:0:
256,192,35435,1,8,0:0:0:0:
256,192,35606,1,0,0:0:0:0:
256,192,35949,1,0,0:0:0:0:
256,192,36035,1,0,0:0:0:0:
256,192,36121,1,8,0:0:0:0:
256,192,36292,1,0,0:0:0:0:
256,192,36463,1,8,0:0:0:0:
256,192,36549,1,0,0:0:0:0:
256,192,36721,1,0,0:0:0:0:
256,192,36806,1,8,0:0:0:0:
256,192,36978,1,0,0:0:0:0:
256,192,37063,1,0,0:0:0:0:
256,192,37149,1,8,0:0:0:0:
256,192,37321,1,0,0:0:0:0:
256,192,37663,1,8,0:0:0:0:
256,192,37835,1,8,0:0:0:0:
256,192,38006,1,0,0:0:0:0:
256,192,38349,1,8,0:0:0:0:
256,192,38692,1,0,0:0:0:0:
256,192,39035,1,8,0:0:0:0:
256,192,39206,1,8,0:0:0:0:
256,192,39378,1,0,0:0:0:0:
256,192,39721,1,8,0:0:0:0:
256,192,40063,1,0,0:0:0:0:
256,192,40406,1,8,0:0:0:0:
256,192,40749,1,0,0:0:0:0:
256,192,41092,1,8,0:0:0:0:
256,192,41435,1,0,0:0:0:0:
256,192,41778,1,8,0:0:0:0:
256,192,42121,1,0,0:0:0:0:
256,192,42463,1,8,0:0:0:0:
256,192,42806,1,4,0:0:0:0:
256,192,43149,1,8,0:0:0:0:
256,192,43321,1,8,0:0:0:0:
256,192,43406,1,8,0:0:0:0:
256,192,43492,1,0,0:0:0:0:
256,192,43663,1,0,0:0:0:0:
256,192,43835,1,8,0:0:0:0:
256,192,44006,1,8,0:0:0:0:
256,192,44178,1,0,0:0:0:0:
256,192,44521,1,8,0:0:0:0:
256,192,44692,1,8,0:0:0:0:
256,192,44778,1,8,0:0:0:0:
256,192,44863,1,0,0:0:0:0:
256,192,45035,1,0,0:0:0:0:
256,192,45206,1,8,0:0:0:0:
256,192,45378,1,8,0:0:0:0:
256,192,45549,1,0,0:0:0:0:
256,192,45892,1,8,0:0:0:0:
256,192,46063,1,8,0:0:0:0:
256,192,46149,1,8,0:0:0:0:
256,192,46235,1,0,0:0:0:0:
256,192,46406,1,0,0:0:0:0:
256,192,46578,1,8,0:0:0:0:
256,192,46749,1,0,0:0:0:0:
256,192,47092,1,0,0:0:0:0:
256,192,47263,1,8,0:0:0:0:
256,192,47435,1,0,0:0:0:0:
256,192,47778,1,0,0:0:0:0:
256,192,47949,1,8,0:0:0:0:
256,192,48121,1,8,0:0:0:0:
256,192,48206,1,8,0:0:0:0:
256,192,48292,1,0,0:0:0:0:
256,192,48635,1,8,0:0:0:0:
256,192,48806,1,8,0:0:0:0:
256,192,48892,1,8,0:0:0:0:
256,192,48978,1,0,0:0:0:0:
256,192,49149,1,0,0:0:0:0:
256,192,49321,1,8,0:0:0:0:
256,192,49492,1,8,0:0:0:0:
256,192,49663,1,0,0:0:0:0:
256,192,50006,1,8,0:0:0:0:
256,192,50178,1,8,0:0:0:0:
256,192,50263,1,8,0:0:0:0:
256,192,50349,1,0,0:0:0:0:
256,192,50521,1,0,0:0:0:0:
256,192,50692,1,8,0:0:0:0:
256,192,50863,1,8,0:0:0:0:
256,192,51035,1,0,0:0:0:0:
256,192,51378,1,0,0:0:0:0:
256,192,51549,1,8,0:0:0:0:
256,192,51892,1,8,0:0:0:0:
256,192,52063,1,0,0:0:0:0:
256,192,52235,1,8,0:0:0:0:
256,192,52578,1,8,0:0:0:0:
256,192,52749,1,0,0:0:0:0:
256,192,52921,1,8,0:0:0:0:
256,192,53263,1,8,0:0:0:0:
256,192,53435,1,0,0:0:0:0:
256,192,53606,1,8,0:0:0:0:
256,192,53692,1,8,0:0:0:0:
256,192,53778,1,0,0:0:0:0:
256,192,53949,1,8,0:0:0:0:
256,192,54121,1,0,0:0:0:0:
256,192,54292,1,8,0:0:0:0:
256,192,54378,1,0,0:0:0:0:
256,192,54549,1,0,0:0:0:0:
256,192,54635,1,8,0:0:0:0:
256,192,54806,1,0,0:0:0:0:
256,192,55149,1,0,0:0:0:0:
256,192,55406,1,8,0:0:0:0:
256,192,55663,1,8,0:0:0:0:
256,192,55835,1,8,0:0:0:0:
256,192,55921,1,8,0:0:0:0:
256,192,56006,1,0,0:0:0:0:
256,192,56092,1,0,0:0:0:0:
256,192,56178,1,8,0:0:0:0:
256,192,56235,1,8,0:0:0:0:
256,192,56292,1,8,0:0:0:0:
256,192,56349,1,8,0:0:0:0:
256,192,56521,1,4,0:0:0:0:
256,192,56692,1,8,0:0:0:0:
256,192,56778,1,8,0:0:0:0:
256,192,56863,1,0,0:0:0:0:
256,192,57035,1,0,0:0:0:0:
256,192,57121,1,8,0:0:0:0:
256,192,57292,1,0,0:0:0:0:
256,192,57378,1,8,0:0:0:0:
256,192,57549,1,0,0:0:0:0:
256,192,57892,1,0,0:0:0:0:
256,192,57978,1,0,0:0:0:0:
256,192,58063,1,8,0:0:0:0:
256,192,58235,1,0,0:0:0:0:
256,192,58321,1,0,0:0:0:0:
256,192,58406,1,8,0:0:0:0:
256,192,58578,1,8,0:0:0:0:
256,192,58663,1,8,0:0:0:0:
256,192,58749,1,0,0:0:0:0:
256,192,58921,1,8,0:0:0:0:
256,192,59263,1,0,0:0:0:0:
256,192,59435,1,8,0:0:0:0:
256,192,59521,1,8,0:0:0:0:
256,192,59606,1,0,0:0:0:0:
256,192,59778,1,0,0:0:0:0:
256,192,59863,1,8,0:0:0:0:
256,192,59949,1,0,0:0:0:0:
256,192,60035,1,0,0:0:0:0:
256,192,60121,1,8,0:0:0:0:
256,192,60292,1,0,0:0:0:0:
256,192,60635,1,0,0:0:0:0:
256,192,60721,1,0,0:0:0:0:
256,192,60806,1,8,0:0:0:0:
256,192,60978,1,0,0:0:0:0:
256,192,61063,1,0,0:0:0:0:
256,192,61149,1,8,0:0:0:0:
256,192,61321,1,8,0:0:0:0:
256,192,61406,1,8,0:0:0:0:
256,192,61492,1,0,0:0:0:0:
256,192,61663,1,8,0:0:0:0:
256,192,61749,1,8,0:0:0:0:
256,192,61835,1,0,0:0:0:0:
256,192,62006,1,8,0:0:0:0:
256,192,62263,1,8,0:0:0:0:
256,192,62349,1,0,0:0:0:0:
256,192,62521,1,0,0:0:0:0:
256,192,62606,1,8,0:0:0:0:
256,192,62692,1,0,0:0:0:0:
256,192,62778,1,8,0:0:0:0:
256,192,62863,1,0,0:0:0:0:
256,192,63035,1,8,0:0:0:0:
256,192,63378,1,8,0:0:0:0:
256,192,63463,1,8,0:0:0:0:
256,192,63549,1,0,0:0:0:0:
256,192,63721,1,8,0:0:0:0:
256,192,63806,1,8,0:0:0:0:
256,192,63892,1,0,0:0:0:0:
256,192,64063,1,0,0:0:0:0:
256,192,64149,1,0,0:0:0:0:
256,192,64235,1,8,0:0:0:0:
256,192,64406,1,0,0:0:0:0:
256,192,64492,1,0,0:0:0:0:
256,192,64578,1,8,0:0:0:0:
256,192,64749,1,0,0:0:0:0:
256,192,65006,1,8,0:0:0:0:
256,192,65092,1,0,0:0:0:0:
256,192,65263,1,8,0:0:0:0:
256,192,65349,1,8,0:0:0:0:
256,192,65435,1,0,0:0:0:0:
256,192,65521,1,8,0:0:0:0:
256,192,65606,1,0,0:0:0:0:
256,192,65778,1,0,0:0:0:0:
256,192,65863,1,0,0:0:0:0:
256,192,65949,1,8,0:0:0:0:
256,192,66121,1,0,0:0:0:0:
256,192,66292,1,8,0:0:0:0:
256,192,66378,1,8,0:0:0:0:
256,192,66463,1,0,0:0:0:0:
256,192,66635,1,0,0:0:0:0:
256,192,66721,1,8,0:0:0:0:
256,192,66892,1,8,0:0:0:0:
256,192,66978,1,0,0:0:0:0:
256,192,67149,1,8,0:0:0:0:
256,192,67235,1,8,0:0:0:0:
256,192,67321,1,8,0:0:0:0:
256,192,67492,1,4,0:0:0:0:
256,192,67663,1,8,0:0:0:0:
256,192,67749,1,8,0:0:0:0:
256,192,67835,1,0,0:0:0:0:
256,192,68006,1,0,0:0:0:0:
256,192,68092,1,8,0:0:0:0:
256,192,68263,1,0,0:0:0:0:
256,192,68349,1,8,0:0:0:0:
256,192,68521,1,0,0:0:0:0:
256,192,68863,1,0,0:0:0:0:
256,192,68949,1,0,0:0:0:0:
256,192,69035,1,8,0:0:0:0:
256,192,69206,1,0,0:0:0:0:
256,192,69292,1,0,0:0:0:0:
256,192,69378,1,8,0:0:0:0:
256,192,69549,1,8,0:0:0:0:
256,192,69635,1,8,0:0:0:0:
256,192,69721,1,0,0:0:0:0:
256,192,69892,1,8,0:0:0:0:
256,192,70235,1,0,0:0:0:0:
256,192,70406,1,8,0:0:0:0:
256,192,70492,1,8,0:0:0:0:
256,192,70578,1,0,0:0:0:0:
256,192,70749,1,0,0:0:0:0:
256,192,70835,1,8,0:0:0:0:
256,192,71006,1,0,0:0:0:0:
256,192,71092,1,8,0:0:0:0:
256,192,71263,1,0,0:0:0:0:
256,192,71606,1,0,0:0:0:0:
256,192,71692,1,0,0:0:0:0:
256,192,71778,1,8,0:0:0:0:
256,192,71949,1,0,0:0:0:0:
256,192,72035,1,0,0:0:0:0:
256,192,72121,1,8,0:0:0:0:
256,192,72292,1,8,0:0:0:0:
256,192,72378,1,8,0:0:0:0:
256,192,72463,1,0,0:0:0:0:
256,192,72635,1,8,0:0:0:0:
256,192,72806,1,0,0:0:0:0:
256,192,72978,1,8,0:0:0:0:
256,192,73235,1,8,0:0:0:0:
256,192,73321,1,0,0:0:0:0:
256,192,73492,1,0,0:0:0:0:
256,192,73578,1,8,0:0:0:0:
256,192,73749,1,8,0:0:0:0:
256,192,73835,1,0,0:0:0:0:
256,192,73921,1,0,0:0:0:0:
256,192,74006,1,8,0:0:0:0:
256,192,74178,1,0,0:0:0:0:
256,192,74349,1,8,0:0:0:0:
256,192,74435,1,8,0:0:0:0:
256,192,74521,1,0,0:0:0:0:
256,192,74692,1,8,0:0:0:0:
256,192,74778,1,8,0:0:0:0:
256,192,74863,1,0,0:0:0:0:
256,192,75035,1,0,0:0:0:0:
256,192,75121,1,0,0:0:0:0:
256,192,75206,1,8,0:0:0:0:
256,192,75378,1,0,0:0:0:0:
256,192,75463,1,0,0:0:0:0:
256,192,75549,1,8,0:0:0:0:
256,192,75721,1,4,0:0:0:0:
256,192,75978,1,8,0:0:0:0:
256,192,76063,1,0,0:0:0:0:
256,192,76235,1,8,0:0:0:0:
256,192,76406,1,4,0:0:0:0:
256,192,76578,1,8,0:0:0:0:
256,192,76749,1,0,0:0:0:0:
256,192,77092,1,4,0:0:0:0:
256,192,77263,1,8,0:0:0:0:
256,192,77349,1,8,0:0:0:0:
256,192,77435,1,0,0:0:0:0:
256,192,77606,1,0,0:0:0:0:
256,192,77692,1,8,0:0:0:0:
256,192,77863,1,8,0:0:0:0:
256,192,77949,1,0,0:0:0:0:
256,192,78121,1,8,0:0:0:0:
256,192,78206,1,8,0:0:0:0:
256,192,78292,1,8,0:0:0:0:
256,192,78378,1,8,0:0:0:0:
256,192,78463,1,0,0:0:0:0:
256,192,79321,1,8,0:0:0:0:
256,192,79378,1,8,0:0:0:0:
256,192,79435,1,8,0:0:0:0:
256,192,79492,1,8,0:0:0:0:
256,192,79835,1,4,0:0:0:0:
256,192,80006,1,8,0:0:0:0:
256,192,80092,1,8,0:0:0:0:
256,192,80178,1,0,0:0:0:0:
256,192,80349,1,0,0:0:0:0:
256,192,80435,1,8,0:0:0:0:
256,192,80606,1,8,0:0:0:0:
256,192,80692,1,0,0:0:0:0:
256,192,80863,1,8,0:0:0:0:
256,192,81035,1,0,0:0:0:0:
256,192,81206,1,8,0:0:0:0:
256,192,81292,1,8,0:0:0:0:
256,192,81378,1,0,0:0:0:0:
256,192,81549,1,8,0:0:0:0:
256,192,81635,1,8,0:0:0:0:
256,192,81721,1,0,0:0:0:0:
256,192,81892,1,8,0:0:0:0:
256,192,81978,1,8,0:0:0:0:
256,192,82063,1,0,0:0:0:0:
256,192,82235,1,8,0:0:0:0:
256,192,82578,1,0,0:0:0:0:
256,192,82749,1,8,0:0:0:0:
256,192,82835,1,8,0:0:0:0:
256,192,82921,1,0,0:0:0:0:
256,192,83092,1,0,0:0:0:0:
256,192,83178,1,8,0:0:0:0:
256,192,83349,1,8,0:0:0:0:
256,192,83435,1,0,0:0:0:0:
256,192,83606,1,8,0:0:0:0:
256,192,83778,1,0,0:0:0:0:
256,192,83949,1,8,0:0:0:0:
256,192,84035,1,0,0:0:0:0:
256,192,84121,1,0,0:0:0:0:
256,192,84292,1,8,0:0:0:0:
256,192,84378,1,8,0:0:0:0:
256,192,84463,1,0,0:0:0:0:
256,192,84635,1,8,0:0:0:0:
256,192,84721,1,0,0:0:0:0:
256,192,84806,1,0,0:0:0:0:
256,192,84978,1,8,0:0:0:0:
256,192,85321,1,0,0:0:0:0:
256,192,85492,1,8,0:0:0:0:
256,192,85578,1,8,0:0:0:0:
256,192,85663,1,0,0:0:0:0:
256,192,85835,1,0,0:0:0:0:
256,192,85921,1,8,0:0:0:0:
256,192,86092,1,8,0:0:0:0:
256,192,86178,1,0,0:0:0:0:
256,192,86349,1,8,0:0:0:0:
256,192,86521,1,0,0:0:0:0:
256,192,86692,1,8,0:0:0:0:
256,192,86778,1,8,0:0:0:0:
256,192,86863,1,0,0:0:0:0:
256,192,87035,1,8,0:0:0:0:
256,192,87121,1,8,0:0:0:0:
256,192,87206,1,0,0:0:0:0:
256,192,87378,1,8,0:0:0:0:
256,192,87463,1,8,0:0:0:0:
256,192,87549,1,0,0:0:0:0:
256,192,87721,1,8,0:0:0:0:
256,192,88063,1,0,0:0:0:0:
256,192,88235,1,8,0:0:0:0:
256,192,88321,1,8,0:0:0:0:
256,192,88406,1,0,0:0:0:0:
256,192,88578,1,0,0:0:0:0:
256,192,88663,1,8,0:0:0:0:
256,192,88835,1,8,0:0:0:0:
256,192,88921,1,0,0:0:0:0:
256,192,89092,1,8,0:0:0:0:
256,192,89263,1,8,0:0:0:0:
256,192,89435,1,0,0:0:0:0:
256,192,89606,1,8,0:0:0:0:
256,192,89692,1,8,0:0:0:0:
256,192,89778,1,0,0:0:0:0:
256,192,89949,1,0,0:0:0:0:
256,192,90035,1,8,0:0:0:0:
256,192,90206,1,8,0:0:0:0:
256,192,90292,1,0,0:0:0:0:
256,192,90463,1,8,0:0:0:0:
256,192,90806,1,4,0:0:0:0:
256,192,90978,1,8,0:0:0:0:
256,192,91063,1,8,0:0:0:0:
256,192,91149,1,0,0:0:0:0:
256,192,91321,1,0,0:0:0:0:
256,192,91406,1,8,0:0:0:0:
256,192,91578,1,8,0:0:0:0:
256,192,91663,1,0,0:0:0:0:
256,192,91835,1,8,0:0:0:0:
256,192,92006,1,0,0:0:0:0:
256,192,92178,1,8,0:0:0:0:
256,192,92263,1,8,0:0:0:0:
256,192,92349,1,0,0:0:0:0:
256,192,92521,1,8,0:0:0:0:
256,192,92606,1,8,0:0:0:0:
256,192,92692,1,0,0:0:0:0:
256,192,92863,1,8,0:0:0:0:
256,192,92949,1,8,0:0:0:0:
256,192,93035,1,0,0:0:0:0:
256,192,93206,1,8,0:0:0:0:
256,192,93549,1,0,0:0:0:0:
256,192,93721,1,8,0:0:0:0:
256,192,93806,1,8,0:0:0:0:
256,192,93892,1,0,0:0:0:0:
256,192,94063,1,0,0:0:0:0:
256,192,94149,1,8,0:0:0:0:
256,192,94321,1,8,0:0:0:0:
256,192,94406,1,0,0:0:0:0:
256,192,94578,1,8,0:0:0:0:
256,192,94749,1,0,0:0:0:0:
256,192,94921,1,8,0:0:0:0:
256,192,95006,1,0,0:0:0:0:
256,192,95092,1,0,0:0:0:0:
256,192,95263,1,8,0:0:0:0:
256,192,95349,1,8,0:0:0:0:
256,192,95435,1,0,0:0:0:0:
256,192,95606,1,8,0:0:0:0:
256,192,95692,1,0,0:0:0:0:
256,192,95778,1,0,0:0:0:0:
256,192,95949,1,8,0:0:0:0:
256,192,96292,1,0,0:0:0:0:
256,192,96463,1,8,0:0:0:0:
256,192,96549,1,8,0:0:0:0:
256,192,96635,1,0,0:0:0:0:
256,192,96806,1,0,0:0:0:0:
256,192,96892,1,8,0:0:0:0:
256,192,97063,1,8,0:0:0:0:
256,192,97149,1,0,0:0:0:0:
256,192,97321,1,8,0:0:0:0:
256,192,97492,1,0,0:0:0:0:
256,192,97663,1,8,0:0:0:0:
256,192,97749,1,8,0:0:0:0:
256,192,97835,1,0,0:0:0:0:
256,192,98006,1,8,0:0:0:0:
256,192,98092,1,8,0:0:0:0:
256,192,98178,1,0,0:0:0:0:
256,192,98349,1,8,0:0:0:0:
256,192,98435,1,8,0:0:0:0:
256,192,98521,1,0,0:0:0:0:
256,192,98692,1,8,0:0:0:0:
256,192,99035,1,0,0:0:0:0:
256,192,99206,1,8,0:0:0:0:
256,192,99292,1,8,0:0:0:0:
256,192,99378,1,0,0:0:0:0:
256,192,99549,1,0,0:0:0:0:
256,192,99635,1,8,0:0:0:0:
256,192,99806,1,8,0:0:0:0:
256,192,99892,1,0,0:0:0:0:
256,192,100063,1,8,0:0:0:0:
256,192,100235,1,8,0:0:0:0:
256,192,100406,1,0,0:0:0:0:
256,192,100578,1,8,0:0:0:0:
256,192,100663,1,8,0:0:0:0:
256,192,100749,1,0,0:0:0:0:
256,192,100921,1,0,0:0:0:0:
256,192,101006,1,8,0:0:0:0:
256,192,101178,1,8,0:0:0:0:
256,192,101263,1,0,0:0:0:0:
256,192,101435,1,8,0:0:0:0:
256,192,101778,1,4,0:0:0:0:
256,192,102035,1,8,0:0:0:0:
256,192,102121,1,0,0:0:0:0:
256,192,102292,1,8,0:0:0:0:
256,192,102378,1,8,0:0:0:0:
256,192,102463,1,0,0:0:0:0:
256,192,102635,1,8,0:0:0:0:
256,192,102806,1,0,0:0:0:0:
256,192,103149,1,0,0:0:0:0:
256,192,103406,1,8,0:0:0:0:
256,192,103492,1,0,0:0:0:0:
256,192,103663,1,8,0:0:0:0:
256,192,103749,1,8,0:0:0:0:
256,192,103835,1,0,0:0:0:0:
256,192,104006,1,8,0:0:0:0:
256,192,104178,1,0,0:0:0:0:
256,192,104521,1,0,0:0:0:0:
256,192,104778,1,8,0:0:0:0:
256,192,104863,1,0,0:0:0:0:
256,192,105035,1,0,0:0:0:0:
256,192,105121,1,8,0:0:0:0:
256,192,105206,1,0,0:0:0:0:
256,192,105378,1,8,0:0:0:0:
256,192,105549,1,0,0:0:0:0:
256,192,105892,1,0,0:0:0:0:
256,192,106063,1,0,0:0:0:0:
256,192,106149,1,8,0:0:0:0:
256,192,106321,1,0,0:0:0:0:
256,192,106406,1,8,0:0:0:0:
256,192,106578,1,0,0:0:0:0:
256,192,106749,1,0,0:0:0:0:
256,192,106835,1,8,0:0:0:0:
256,192,107006,1,0,0:0:0:0:
256,192,107092,1,8,0:0:0:0:
256,192,107263,1,0,0:0:0:0:
256,192,107521,1,8,0:0:0:0:
256,192,107606,1,0,0:0:0:0:
256,192,107778,1,8,0:0:0:0:
256,192,107863,1,8,0:0:0:0:
256,192,107949,1,0,0:0:0:0:
256,192,108121,1,0,0:0:0:0:
256,192,108292,1,8,0:0:0:0:
256,192,108635,1,0,0:0:0:0:
256,192,108892,1,8,0:0:0:0:
256,192,108978,1,0,0:0:0:0:
256,192,109149,1,8,0:0:0:0:
256,192,109321,1,0,0:0:0:0:
256,192,109578,1,8,0:0:0:0:
256,192,109663,1,0,0:0:0:0:
256,192,109835,1,8,0:0:0:0:
256,192,110006,1,0,0:0:0:0:
256,192,110263,1,8,0:0:0:0:
256,192,110349,1,0,0:0:0:0:
256,192,110521,1,8,0:0:0:0:
256,192,110606,1,8,0:0:0:0:
256,192,110692,1,0,0:0:0:0:
256,192,110863,1,0,0:0:0:0:
256,192,111035,1,8,0:0:0:0:
256,192,111378,1,0,0:0:0:0:
256,192,111549,1,8,0:0:0:0:
256,192,111635,1,8,0:0:0:0:
256,192,111721,1,0,0:0:0:0:
256,192,111892,1,8,0:0:0:0:
256,192,112063,1,0,0:0:0:0:
256,192,112149,1,8,0:0:0:0:
256,192,112235,1,0,0:0:0:0:
256,192,112406,1,8,0:0:0:0:
256,192,112463,1,8,0:0:0:0:
256,192,112521,1,8,0:0:0:0:
256,192,112578,1,8,0:0:0:0:
256,192,115492,1,0,0:0:0:0:
256,192,115835,1,8,0:0:0:0:
256,192,116178,1,0,0:0:0:0:
256,192,116521,1,8,0:0:0:0:
256,192,116863,1,0,0:0:0:0:
256,192,117206,1,8,0:0:0:0:
256,192,117549,1,0,0:0:0:0:
256,192,117892,1,8,0:0:0:0:
256,192,118235,1,4,0:0:0:0:
256,192,118578,1,8,0:0:0:0:
256,192,118749,1,0,0:0:0:0:
256,192,118835,1,8,0:0:0:0:
256,192,118921,1,0,0:0:0:0:
256,192,119092,1,0,0:0:0:0:
256,192,119263,1,8,0:0:0:0:
256,192,119435,1,8,0:0:0:0:
256,192,119606,1,0,0:0:0:0:
256,192,119949,1,8,0:0:0:0:
256,192,120121,1,0,0:0:0:0:
256,192,120206,1,8,0:0:0:0:
256,192,120292,1,0,0:0:0:0:
256,192,120463,1,0,0:0:0:0:
256,192,120635,1,8,0:0:0:0:
256,192,120806,1,8,0:0:0:0:
256,192,120978,1,0,0:0:0:0:
256,192,121321,1,8,0:0:0:0:
256,192,121492,1,0,0:0:0:0:
256,192,121578,1,8,0:0:0:0:
256,192,121663,1,0,0:0:0:0:
256,192,121835,1,0,0:0:0:0:
256,192,122006,1,8,0:0:0:0:
256,192,122178,1,0,0:0:0:0:
256,192,122521,1,0,0:0:0:0:
256,192,122692,1,8,0:0:0:0:
256,192,122863,1,0,0:0:0:0:
256,192,123206,1,0,0:0:0:0:
256,192,123378,1,8,0:0:0:0:
256,192,123549,1,0,0:0:0:0:
256,192,123635,1,8,0:0:0:0:
256,192,123721,1,0,0:0:0:0:
256,192,124063,1,8,0:0:0:0:
256,192,124235,1,8,0:0:0:0:
256,192,124321,1,8,0:0:0:0:
256,192,124406,1,0,0:0:0:0:
256,192,124578,1,0,0:0:0:0:
256,192,124749,1,8,0:0:0:0:
256,192,124921,1,8,0:0:0:0:
256,192,125092,1,0,0:0:0:0:
256,192,125435,1,8,0:0:0:0:
256,192,125606,1,8,0:0:0:0:
256,192,125692,1,8,0:0:0:0:
256,192,125778,1,0,0:0:0:0:
256,192,125949,1,0,0:0:0:0:
256,192,126121,1,8,0:0:0:0:
256,192,126292,1,8,0:0:0:0:
256,192,126463,1,0,0:0:0:0:
256,192,126806,1,0,0:0:0:0:
256,192,126978,1,8,0:0:0:0:
256,192,127063,1,8,0:0:0:0:
256,192,127149,1,0,0:0:0:0:
256,192,127321,1,0,0:0:0:0:
256,192,127406,1,0,0:0:0:0:
256,192,127492,1,8,0:0:0:0:
256,192,127663,1,8,0:0:0:0:
256,192,128006,1,8,0:0:0:0:
256,192,128178,1,0,0:0:0:0:
256,192,128349,1,8,0:0:0:0:
256,192,128435,1,8,0:0:0:0:
256,192,128521,1,0,0:0:0:0:
256,192,128692,1,8,0:0:0:0:
256,192,128863,1,0,0:0:0:0:
256,192,129206,1,0,0:0:0:0:
256,192,129292,1,0,0:0:0:0:
256,192,129378,1,8,0:0:0:0:
256,192,129549,1,0,0:0:0:0:
256,192,129721,1,8,0:0:0:0:
256,192,129806,1,8,0:0:0:0:
256,192,129892,1,0,0:0:0:0:
256,192,129978,1,0,0:0:0:0:
256,192,130063,1,8,0:0:0:0:
256,192,130235,1,0,0:0:0:0:
256,192,130406,1,8,0:0:0:0:
256,192,130578,1,0,0:0:0:0:
256,192,130663,1,0,0:0:0:0:
256,192,130749,1,8,0:0:0:0:
256,192,130921,1,0,0:0:0:0:
256,192,131092,1,8,0:0:0:0:
256,192,131178,1,8,0:0:0:0:
256,192,131263,1,0,0:0:0:0:
256,192,131349,1,0,0:0:0:0:
256,192,131435,1,8,0:0:0:0:
256,192,131606,1,8,0:0:0:0:
256,192,131663,1,8,0:0:0:0:
256,192,131721,1,8,0:0:0:0:
256,192,131778,1,8,0:0:0:0:
256,192,131949,1,8,0:0:0:0:
256,192,132035,1,0,0:0:0:0:
256,192,132206,1,8,0:0:0:0:
256,192,132292,1,0,0:0:0:0:
256,192,132463,1,8,0:0:0:0:
256,192,132549,1,0,0:0:0:0:
256,192,132721,1,8,0:0:0:0:
256,192,132806,1,8,0:0:0:0:
256,192,132978,1,8,0:0:0:0:
256,192,133035,1,8,0:0:0:0:
256,192,133092,1,8,0:0:0:0:
256,192,133149,1,8,0:0:0:0:
256,192,133321,1,4,0:0:0:0:
256,192,133492,1,8,0:0:0:0:
256,192,133578,1,8,0:0:0:0:
256,192,133663,1,0,0:0:0:0:
256,192,133835,1,0,0:0:0:0:
256,192,133921,1,8,0:0:0:0:
256,192,134092,1,0,0:0:0:0:
256,192,134178,1,8,0:0:0:0:
256,192,134349,1,0,0:0:0:0:
256,192,134692,1,0,0:0:0:0:
256,192,134778,1,0,0:0:0:0:
256,192,134863,1,8,0:0:0:0:
256,192,135035,1,0,0:0:0:0:
256,192,135121,1,0,0:0:0:0:
256,192,135206,1,8,0:0:0:0:
256,192,135378,1,8,0:0:0:0:
256,192,135463,1,8,0:0:0:0:
256,192,135549,1,0,0:0:0:0:
256,192,135721,1,8,0:0:0:0:
256,192,136063,1,0,0:0:0:0:
256,192,136235,1,8,0:0:0:0:
256,192,136321,1,8,0:0:0:0:
256,192,136406,1,0,0:0:0:0:
256,192,136578,1,0,0:0:0:0:
256,192,136663,1,8,0:0:0:0:
256,192,136749,1,0,0:0:0:0:
256,192,136835,1,0,0:0:0:0:
256,192,136921,1,8,0:0:0:0:
256,192,137092,1,0,0:0:0:0:
256,192,137435,1,0,0:0:0:0:
256,192,137521,1,0,0:0:0:0:
256,192,137606,1,8,0:0:0:0:
256,192,137778,1,0,0:0:0:0:
256,192,137863,1,0,0:0:0:0:
256,192,137949,1,8,0:0:0:0:
256,192,138121,1,8,0:0:0:0:
256,192,138206,1,8,0:0:0:0:
256,192,138292,1,0,0:0:0:0:
256,192,138463,1,8,0:0:0:0:
256,192,138549,1,8,0:0:0:0:
256,192,138635,1,0,0:0:0:0:
256,192,138806,1,8,0:0:0:0:
256,192,139063,1,8,0:0:0:0:
256,192,139149,1,0,0:0:0:0:
256,192,139321,1,0,0:0:0:0:
256,192,139406,1,8,0:0:0:0:
256,192,139492,1,0,0:0:0:0:
256,192,139578,1,8,0:0:0:0:
256,192,139663,1,0,0:0:0:0:
256,192,139835,1,8,0:0:0:0:
256,192,140178,1,8,0:0:0:0:
256,192,140263,1,8,0:0:0:0:
256,192,140349,1,0,0:0:0:0:
256,192,140521,1,8,0:0:0:0:
256,192,140606,1,8,0:0:0:0:
256,192,140692,1,0,0:0:0:0:
256,192,140863,1,0,0:0:0:0:
256,192,140949,1,0,0:0:0:0:
256,192,141035,1,8,0:0:0:0:
256,192,141206,1,0,0:0:0:0:
256,192,141292,1,0,0:0:0:0:
256,192,141378,1,8,0:0:0:0:
256,192,141549,1,0,0:0:0:0:
256,192,141806,1,8,0:0:0:0:
256,192,141892,1,0,0:0:0:0:
256,192,142063,1,8,0:0:0:0:
256,192,142149,1,8,0:0:0:0:
256,192,142235,1,0,0:0:0:0:
256,192,142321,1,8,0:0:0:0:
256,192,142406,1,0,0:0:0:0:
256,192,142578,1,0,0:0:0:0:
256,192,142663,1,0,0:0:0:0:
256,192,142749,1,8,0:0:0:0:
256,192,142921,1,0,0:0:0:0:
256,192,143092,1,8,0:0:0:0:
256,192,143178,1,8,0:0:0:0:
256,192,143263,1,0,0:0:0:0:
256,192,143435,1,0,0:0:0:0:
256,192,143521,1,8,0:0:0:0:
256,192,143692,1,8,0:0:0:0:
256,192,143778,1,0,0:0:0:0:
256,192,143949,1,8,0:0:0:0:
256,192,144035,1,8,0:0:0:0:
256,192,144121,1,8,0:0:0:0:
256,192,144292,1,4,0:0:0:0:
256,192,144463,1,8,0:0:0:0:
256,192,144549,1,8,0:0:0:0:
256,192,144635,1,0,0:0:0:0:
256,192,144806,1,0,0:0:0:0:
256,192,144892,1,8,0:0:0:0:
256,192,145063,1,0,0:0:0:0:
256,192,145149,1,8,0:0:0:0:
256,192,145321,1,0,0:0:0:0:
256,192,145663,1,0,0:0:0:0:
256,192,145749,1,0,0:0:0:0:
256,192,145835,1,8,0:0:0:0:
256,192,146006,1,0,0:0:0:0:
256,192,146092,1,0,0:0:0:0:
256,192,146178,1,8,0:0:0:0:
256,192,146349,1,8,0:0:0:0:
256,192,146435,1,8,0:0:0:0:
256,192,146521,1,0,0:0:0:0:
256,192,146692,1,8,0:0:0:0:
256,192,147035,1,0,0:0:0:0:
256,192,147206,1,8,0:0:0:0:
256,192,147292,1,8,0:0:0:0:
256,192,147378,1,0,0:0:0:0:
256,192,147549,1,0,0:0:0:0:
256,192,147635,1,8,0:0:0:0:
256,192,147806,1,0,0:0:0:0:
256,192,147892,1,8,0:0:0:0:
256,192,148063,1,0,0:0:0:0:
256,192,148406,1,0,0:0:0:0:
256,192,148492,1,0,0:0:0:0:
256,192,148578,1,8,0:0:0:0:
256,192,148749,1,0,0:0:0:0:
256,192,148835,1,0,0:0:0:0:
256,192,148921,1,8,0:0:0:0:
256,192,149092,1,8,0:0:0:0:
256,192,149178,1,8,0:0:0:0:
256,192,149263,1,0,0:0:0:0:
256,192,149435,1,8,0:0:0:0:
256,192,149606,1,0,0:0:0:0:
256,192,149778,1,8,0:0:0:0:
256,192,150035,1,8,0:0:0:0:
256,192,150121,1,0,0:0:0:0:
256,192,150292,1,0,0:0:0:0:
256,192,150378,1,8,0:0:0:0:
256,192,150549,1,8,0:0:0:0:
256,192,150635,1,0,0:0:0:0:
256,192,150721,1,0,0:0:0:0:
256,192,150806,1,8,0:0:0:0:
256,192,150978,1,0,0:0:0:0:
256,192,151149,1,8,0:0:0:0:
256,192,151235,1,8,0:0:0:0:
256,192,151321,1,0,0:0:0:0:
256,192,151492,1,8,0:0:0:0:
256,192,151578,1,8,0:0:0:0:
256,192,151663,1,0,0:0:0:0:
256,192,151835,1,0,0:0:0:0:
256,192,151921,1,0,0:0:0:0:
256,192,152006,1,8,0:0:0:0:
256,192,152178,1,0,0:0:0:0:
256,192,152263,1,0,0:0:0:0:
256,192,152349,1,8,0:0:0:0:
256,192,152521,1,4,0:0:0:0:
256,192,152778,1,8,0:0:0:0:
256,192,152863,1,0,0:0:0:0:
256,192,153035,1,8,0:0:0:0:
256,192,153206,1,4,0:0:0:0:
256,192,153378,1,8,0:0:0:0:
256,192,153721,1,8,0:0:0:0:
256,192,153892,1,4,0:0:0:0:
256,192,154063,1,8,0:0:0:0:
256,192,154235,1,4,0:0:0:0:
256,192,154406,1,8,0:0:0:0:
256,192,154492,1,0,0:0:0:0:
256,192,154663,1,0,0:0:0:0:
256,192,154749,1,8,0:0:0:0:
256,192,154921,1,0,0:0:0:0:
256,192,155006,1,0,0:0:0:0:
256,192,155092,1,8,0:0:0:0:
256,192,155263,1,4,0:0:0:0:
256,192,155435,1,8,0:0:0:0:
256,192,155521,1,8,0:0:0:0:
256,192,155606,1,0,0:0:0:0:
256,192,155778,1,0,0:0:0:0:
256,192,155863,1,8,0:0:0:0:
256,192,156035,1,8,0:0:0:0:
256,192,156121,1,0,0:0:0:0:
256,192,156292,1,8,0:0:0:0:
256,192,156463,1,0,0:0:0:0:
256,192,156635,1,8,0:0:0:0:
256,192,156721,1,8,0:0:0:0:
256,192,156806,1,0,0:0:0:0:
256,192,156978,1,8,0:0:0:0:
256,192,157063,1,8,0:0:0:0:
256,192,157149,1,0,0:0:0:0:
256,192,157321,1,8,0:0:0:0:
256,192,157406,1,8,0:0:0:0:
256,192,157492,1,0,0:0:0:0:
256,192,157663,1,8,0:0:0:0:
256,192,158006,1,0,0:0:0:0:
256,192,158178,1,8,0:0:0:0:
256,192,158263,1,8,0:0:0:0:
256,192,158349,1,0,0:0:0:0:
256,192,158521,1,0,0:0:0:0:
256,192,158606,1,8,0:0:0:0:
256,192,158778,1,8,0:0:0:0:
256,192,158863,1,0,0:0:0:0:
256,192,159035,1,8,0:0:0:0:
256,192,159206,1,0,0:0:0:0:
256,192,159378,1,8,0:0:0:0:
256,192,159463,1,0,0:0:0:0:
256,192,159549,1,0,0:0:0:0:
256,192,159721,1,8,0:0:0:0:
256,192,159806,1,8,0:0:0:0:
256,192,159892,1,0,0:0:0:0:
256,192,160063,1,8,0:0:0:0:
256,192,160149,1,0,0:0:0:0:
256,192,160235,1,0,0:0:0:0:
256,192,160406,1,8,0:0:0:0:
256,192,160749,1,0,0:0:0:0:
256,192,160921,1,8,0:0:0:0:
256,192,161006,1,8,0:0:0:0:
256,192,161092,1,0,0:0:0:0:
256,192,161263,1,0,0:0:0:0:
256,192,161349,1,8,0:0:0:0:
256,192,161521,1,8,0:0:0:0:
256,192,161606,1,0,0:0:0:0:
256,192,161778,1,8,0:0:0:0:
256,192,161949,1,0,0:0:0:0:
256,192,162121,1,8,0:0:0:0:
256,192,162206,1,8,0:0:0:0:
256,192,162292,1,0,0:0:0:0:
256,192,162463,1,8,0:0:0:0:
256,192,162549,1,8,0:0:0:0:
256,192,162635,1,0,0:0:0:0:
256,192,162806,1,8,0:0:0:0:
256,192,162892,1,8,0:0:0:0:
256,192,162978,1,0,0:0:0:0:
256,192,163149,1,8,0:0:0:0:
256,192,163235,1,8,0:0:0:0:
256,192,163321,1,0,0:0:0:0:
256,192,163492,1,0,0:0:0:0:
256,192,164006,1,8,0:0:0:0:
256,192,164092,1,0,0:0:0:0:
256,192,164263,1,8,0:0:0:0:
256,192,164349,1,0,0:0:0:0:
256,192,164521,1,8,0:0:0:0:
256,192,164863,1,0,0:0:0:0:
256,192,165378,1,8,0:0:0:0:
256,192,165463,1,0,0:0:0:0:
256,192,165635,1,8,0:0:0:0:
256,192,165721,1,0,0:0:0:0:
256,192,165892,1,8,0:0:0:0:
256,192,166235,1,0,0:0:0:0:
