osu file format v14

[General]
AudioFilename: audio.mp3
AudioLeadIn: 0
PreviewTime: 250956
Countdown: 0
SampleSet: Normal
StackLeniency: 0.7
Mode: 2
LetterboxInBreaks: 0
WidescreenStoryboard: 0

[Editor]
Bookmarks: 10046,37622,73077,102168,153077,174895,211259,220956,240349,251259,270653
DistanceSpacing: 1.5
BeatDivisor: 4
GridSize: 4
TimelineZoom: 5.799997

[Metadata]
Title:The Quest
TitleUnicode:The Quest
Artist:Alestorm
ArtistUnicode:Alestorm
Creator:BoberOfDarkness
Version:The Endless Quest
Source:
Tags:
BeatmapID:1669798
BeatmapSetID:795038

[Difficulty]
HPDrainRate:6
CircleSize:4
OverallDifficulty:9.5
ApproachRate:9.5
SliderMultiplier:2
SliderTickRate:2

[Events]
//Background and Video events
0,0,"Ghost-Pirate-Ship-Picture-HD-Wallpaper-Desktop.jpg",0,0
//Break Periods
2,92671,96340
//Storyboard Layer 0 (Background)
//Storyboard Layer 1 (Fail)
//Storyboard Layer 2 (Pass)
//Storyboard Layer 3 (Foreground)
//Storyboard Sound Samples

[TimingPoints]
350,303.030303030303,4,1,0,100,1,0
10046,-100,4,1,0,100,0,0
121562,-142.857142857143,4,1,0,100,0,0
122546,-100,4,1,0,100,0,0

[HitObjects]
324,254,350,6,0,P|336:102|132:294,1,700
152,318,1461,1,0,0:0:0:0:
192,350,1511,1,0,0:0:0:0:
224,366,1562,6,0,P|420:314|192:62,1,700
156,94,2673,1,0,0:0:0:0:
124,134,2723,1,0,0:0:0:0:
100,178,2774,6,0,P|108:294|444:138,1,700
428,110,3885,1,0,0:0:0:0:
396,74,3935,1,0,0:0:0:0:
352,50,3986,6,0,P|128:78|348:314,1,700
372,290,5097,1,0,0:0:0:0:
400,250,5148,1,0,0:0:0:0:
412,202,5198,6,0,P|392:94|72:286,1,700
88,310,6309,1,0,0:0:0:0:
128,342,6360,1,0,0:0:0:0:
176,358,6410,6,0,P|432:302|208:94,1,700
176,130,7521,1,0,0:0:0:0:
152,174,7572,1,0,0:0:0:0:
142,208,7622,6,0,P|158:286|335:84,1,600
141,335,8683,1,0,0:0:0:0:
146,284,8734,1,0,0:0:0:0:
164,238,8784,1,0,0:0:0:0:
199,203,8834,6,0,P|266:180|278:92,1,150
148,95,9137,1,0,0:0:0:0:
80,64,9213,1,0,0:0:0:0:
268,60,9289,1,0,0:0:0:0:
336,28,9365,1,0,0:0:0:0:
112,117,9440,5,0,0:0:0:0:
56,180,9516,1,0,0:0:0:0:
300,100,9592,1,0,0:0:0:0:
368,132,9668,1,0,0:0:0:0:
396,200,9743,1,0,0:0:0:0:
388,276,9819,1,0,0:0:0:0:
340,336,9895,1,0,0:0:0:0:
268,348,9971,1,0,0:0:0:0:
100,328,10046,5,0,0:0:0:0:
64,264,10121,1,0,0:0:0:0:
84,192,10197,1,0,0:0:0:0:
140,144,10273,1,0,0:0:0:0:
312,272,10349,1,0,0:0:0:0:
348,208,10424,1,0,0:0:0:0:
340,132,10500,1,0,0:0:0:0:
308,64,10576,1,0,0:0:0:0:
252,116,10652,5,0,0:0:0:0:
192,160,10727,1,0,0:0:0:0:
224,92,10803,1,0,0:0:0:0:
288,56,10879,1,0,0:0:0:0:
471,143,10956,1,0,0:0:0:0:
424,76,11031,1,0,0:0:0:0:
240,216,11107,1,0,0:0:0:0:
192,160,11183,1,0,0:0:0:0:
452,280,11259,5,0,0:0:0:0:
484,212,11334,1,0,0:0:0:0:
452,144,11410,1,0,0:0:0:0:
392,100,11486,1,0,0:0:0:0:
200,216,11562,1,0,0:0:0:0:
240,152,11637,1,0,0:0:0:0:
424,76,11713,1,0,0:0:0:0:
484,32,11789,1,0,0:0:0:0:
280,20,11865,5,0,0:0:0:0:
228,72,11940,1,0,0:0:0:0:
216,148,12016,1,0,0:0:0:0:
268,200,12092,1,0,0:0:0:0:
468,216,12168,1,0,0:0:0:0:
464,140,12243,1,0,0:0:0:0:
424,76,12319,1,0,0:0:0:0:
356,48,12395,1,0,0:0:0:0:
200,304,12471,5,0,0:0:0:0:
192,220,12546,1,0,0:0:0:0:
224,140,12622,1,0,0:0:0:0:
288,80,12698,1,0,0:0:0:0:
108,96,12774,1,0,0:0:0:0:
40,64,12849,1,0,0:0:0:0:
236,64,12925,1,0,0:0:0:0:
292,16,13001,1,0,0:0:0:0:
356,48,13077,5,0,0:0:0:0:
347,122,13153,1,0,0:0:0:0:
275,140,13228,1,0,0:0:0:0:
261,214,13304,1,0,0:0:0:0:
476,292,13380,1,0,0:0:0:0:
500,216,13456,1,0,0:0:0:0:
288,172,13531,1,0,0:0:0:0:
232,108,13607,1,0,0:0:0:0:
41,240,13683,5,0,0:0:0:0:
12,172,13758,1,0,0:0:0:0:
40,104,13834,1,0,0:0:0:0:
100,56,13910,1,0,0:0:0:0:
296,32,13986,1,0,0:0:0:0:
360,72,14062,1,0,0:0:0:0:
372,144,14137,1,0,0:0:0:0:
340,212,14213,1,0,0:0:0:0:
184,188,14289,5,0,0:0:0:0:
148,252,14365,1,0,0:0:0:0:
240,260,14440,1,0,0:0:0:0:
252,336,14516,1,0,0:0:0:0:
84,264,14592,1,0,0:0:0:0:
28,204,14668,1,0,0:0:0:0:
264,216,14743,1,0,0:0:0:0:
336,172,14819,1,0,0:0:0:0:
128,168,14895,6,0,L|120:104,3,50
340,208,15198,1,0,0:0:0:0:
312,132,15274,1,0,0:0:0:0:
152,68,15349,1,0,0:0:0:0:
88,24,15425,1,0,0:0:0:0:
300,32,15501,5,0,0:0:0:0:
364,68,15576,1,0,0:0:0:0:
376,144,15652,1,0,0:0:0:0:
340,208,15728,1,0,0:0:0:0:
196,152,15804,1,0,0:0:0:0:
208,228,15880,1,0,0:0:0:0:
416,260,15956,1,0,0:0:0:0:
456,336,16031,1,0,0:0:0:0:
236,348,16107,5,0,0:0:0:0:
176,308,16182,1,0,0:0:0:0:
160,236,16258,1,0,0:0:0:0:
192,168,16334,1,0,0:0:0:0:
424,220,16410,1,0,0:0:0:0:
448,148,16486,1,0,0:0:0:0:
384,108,16562,1,0,0:0:0:0:
316,80,16637,1,0,0:0:0:0:
140,96,16713,1,0,0:0:0:0:
128,172,16789,1,0,0:0:0:0:
316,80,16865,1,0,0:0:0:0:
328,156,16941,1,0,0:0:0:0:
156,28,17016,1,0,0:0:0:0:
100,76,17091,1,0,0:0:0:0:
84,148,17167,1,0,0:0:0:0:
136,216,17243,1,0,0:0:0:0:
328,208,17319,5,0,0:0:0:0:
376,276,17395,1,0,0:0:0:0:
172,256,17471,1,0,0:0:0:0:
128,316,17546,1,0,0:0:0:0:
336,328,17622,1,0,0:0:0:0:
376,299,17697,1,0,0:0:0:0:
406,259,17773,1,0,0:0:0:0:
422,212,17849,1,0,0:0:0:0:
422,162,17925,5,0,0:0:0:0:
407,115,18000,1,0,0:0:0:0:
377,74,18076,1,0,0:0:0:0:
337,45,18152,1,0,0:0:0:0:
152,124,18228,1,0,0:0:0:0:
132,196,18304,1,0,0:0:0:0:
336,112,18380,1,0,0:0:0:0:
360,184,18456,1,0,0:0:0:0:
184,20,18531,5,0,0:0:0:0:
396,272,18683,2,0,L|268:220,1,100
40,192,18985,1,0,0:0:0:0:
256,136,19137,1,0,0:0:0:0:
472,192,19289,1,0,0:0:0:0:
452,108,19365,1,0,0:0:0:0:
288,64,19440,1,0,0:0:0:0:
216,44,19516,1,0,0:0:0:0:
64,32,19592,1,0,0:0:0:0:
44,116,19668,1,0,0:0:0:0:
256,136,19743,5,0,0:0:0:0:
316,184,19819,1,0,0:0:0:0:
336,256,19895,1,0,0:0:0:0:
316,328,19970,1,0,0:0:0:0:
128,340,20046,1,0,0:0:0:0:
84,280,20121,1,0,0:0:0:0:
72,204,20197,1,0,0:0:0:0:
84,128,20273,1,0,0:0:0:0:
296,64,20350,1,0,0:0:0:0:
356,104,20425,1,0,0:0:0:0:
376,176,20501,1,0,0:0:0:0:
336,256,20577,1,0,0:0:0:0:
152,64,20653,1,0,0:0:0:0:
81,88,20728,1,0,0:0:0:0:
40,151,20804,1,0,0:0:0:0:
38,226,20880,1,0,0:0:0:0:
75,291,20956,5,0,0:0:0:0:
138,330,21031,1,0,0:0:0:0:
356,344,21107,1,0,0:0:0:0:
336,272,21183,1,0,0:0:0:0:
180,240,21259,1,0,0:0:0:0:
196,168,21334,1,0,0:0:0:0:
376,100,21410,1,0,0:0:0:0:
428,44,21486,1,0,0:0:0:0:
204,228,21562,1,0,0:0:0:0:
216,156,21637,1,0,0:0:0:0:
388,72,21713,1,0,0:0:0:0:
420,16,21789,1,0,0:0:0:0:
200,24,21865,1,0,0:0:0:0:
144,76,21940,1,0,0:0:0:0:
144,152,22016,1,0,0:0:0:0:
196,204,22092,1,0,0:0:0:0:
388,268,22168,5,0,0:0:0:0:
444,216,22243,1,0,0:0:0:0:
300,184,22319,1,0,0:0:0:0:
248,132,22395,1,0,0:0:0:0:
432,280,22471,1,0,0:0:0:0:
484,228,22546,1,0,0:0:0:0:
488,152,22622,1,0,0:0:0:0:
452,88,22698,1,0,0:0:0:0:
392,44,22774,1,0,0:0:0:0:
316,32,22850,1,0,0:0:0:0:
136,156,22925,1,0,0:0:0:0:
96,92,23000,1,0,0:0:0:0:
264,336,23076,1,0,0:0:0:0:
316,280,23152,1,0,0:0:0:0:
168,240,23228,1,0,0:0:0:0:
124,172,23303,1,0,0:0:0:0:
356,320,23380,5,0,0:0:0:0:
380,240,23456,1,0,0:0:0:0:
196,200,23531,1,0,0:0:0:0:
176,108,23607,1,0,0:0:0:0:
384,40,23683,1,0,0:0:0:0:
436,108,23759,1,0,0:0:0:0:
436,192,23834,1,0,0:0:0:0:
384,260,23910,1,0,0:0:0:0:
180,296,23986,5,0,0:0:0:0:
200,216,24062,1,0,0:0:0:0:
356,144,24137,1,0,0:0:0:0:
404,88,24213,1,0,0:0:0:0:
96,172,24289,1,0,0:0:0:0:
72,96,24365,1,0,0:0:0:0:
248,72,24440,1,0,0:0:0:0:
296,8,24516,1,0,0:0:0:0:
484,212,24592,5,0,0:0:0:0:
496,128,24668,1,0,0:0:0:0:
296,172,24743,1,0,0:0:0:0:
240,108,24819,1,0,0:0:0:0:
80,44,24895,1,0,0:0:0:0:
36,104,24971,1,0,0:0:0:0:
32,180,25046,1,0,0:0:0:0:
76,240,25122,1,0,0:0:0:0:
324,320,25198,5,0,0:0:0:0:
352,244,25274,1,0,0:0:0:0:
160,168,25350,1,0,0:0:0:0:
192,88,25425,1,0,0:0:0:0:
424,204,25501,1,0,0:0:0:0:
456,136,25577,1,0,0:0:0:0:
428,68,25653,1,0,0:0:0:0:
360,36,25728,1,0,0:0:0:0:
168,28,25804,5,0,0:0:0:0:
112,76,25879,1,0,0:0:0:0:
132,148,25955,1,0,0:0:0:0:
188,200,26031,1,0,0:0:0:0:
364,152,26107,1,0,0:0:0:0:
376,228,26183,1,0,0:0:0:0:
176,256,26259,1,0,0:0:0:0:
128,316,26334,1,0,0:0:0:0:
364,332,26410,5,0,0:0:0:0:
404,268,26485,1,0,0:0:0:0:
392,192,26561,1,0,0:0:0:0:
340,140,26637,1,0,0:0:0:0:
152,36,26713,1,0,0:0:0:0:
84,68,26788,1,0,0:0:0:0:
48,136,26864,1,0,0:0:0:0:
40,212,26940,1,0,0:0:0:0:
72,280,27016,5,0,0:0:0:0:
136,316,27091,1,0,0:0:0:0:
280,252,27168,1,0,0:0:0:0:
296,180,27243,1,0,0:0:0:0:
88,328,27319,1,0,0:0:0:0:
64,256,27395,1,0,0:0:0:0:
104,192,27471,1,0,0:0:0:0:
172,160,27546,1,0,0:0:0:0:
368,140,27622,5,0,0:0:0:0:
380,64,27698,1,0,0:0:0:0:
316,24,27774,1,0,0:0:0:0:
260,0,27850,1,0,0:0:0:0:
472,288,27925,1,0,0:0:0:0:
476,212,28001,1,0,0:0:0:0:
436,148,28077,1,0,0:0:0:0:
368,112,28153,1,0,0:0:0:0:
128,12,28228,5,0,0:0:0:0:
84,72,28304,1,0,0:0:0:0:
96,148,28380,1,0,0:0:0:0:
152,196,28456,1,0,0:0:0:0:
408,244,28531,1,0,0:0:0:0:
424,328,28607,1,0,0:0:0:0:
160,276,28683,1,0,0:0:0:0:
128,356,28759,1,0,0:0:0:0:
316,312,28834,5,0,0:0:0:0:
328,228,28910,1,0,0:0:0:0:
142,43,28986,1,0,0:0:0:0:
80,88,29061,1,0,0:0:0:0:
58,161,29137,1,0,0:0:0:0:
67,236,29213,1,0,0:0:0:0:
108,301,29289,1,0,0:0:0:0:
175,335,29364,1,0,0:0:0:0:
364,344,29440,6,0,P|480:268|480:204,1,200
256,192,29895,1,0,0:0:0:0:
480,84,30046,1,0,0:0:0:0:
76,272,30350,2,0,L|72:136,1,100
408,284,30653,6,0,P|368:208|264:140,1,200
40,108,31107,2,0,L|52:0,1,100
472,108,31562,2,0,L|460:0,1,100
104,60,31865,5,0,0:0:0:0:
472,108,32168,2,0,L|448:232,1,100
112,248,32471,1,0,0:0:0:0:
496,272,32774,2,0,L|472:148,1,100
128,136,33077,5,0,0:0:0:0:
492,172,33380,2,0,L|468:48,1,100
112,64,33683,1,0,0:0:0:0:
472,312,33986,2,0,L|328:336,1,100
64,68,34289,6,0,P|80:180|172:232,1,200
432,296,34743,2,0,L|452:164,1,100
80,148,35198,2,0,L|184:136,1,100
432,72,35501,5,0,0:0:0:0:
32,48,35804,2,0,L|88:172,1,100
392,248,36107,1,0,0:0:0:0:
32,300,36410,2,0,L|28:184,1,100
260,248,36713,6,0,L|160:200,1,100
448,208,37016,2,0,L|472:104,1,100
120,88,37319,1,0,0:0:0:0:
481,170,37622,2,0,P|461:108|403:92,1,100
257,87,37849,1,0,0:0:0:0:
80,140,37925,6,0,L|92:268,1,100
244,244,38153,1,0,0:0:0:0:
396,248,38228,1,0,0:0:0:0:
448,196,38303,1,0,0:0:0:0:
436,120,38379,1,0,0:0:0:0:
376,76,38455,1,0,0:0:0:0:
224,24,38531,5,0,0:0:0:0:
172,76,38606,1,0,0:0:0:0:
176,152,38682,1,0,0:0:0:0:
232,208,38758,1,0,0:0:0:0:
444,208,38834,1,0,0:0:0:0:
460,136,38909,1,0,0:0:0:0:
420,72,38985,1,0,0:0:0:0:
352,36,39062,1,0,0:0:0:0:
100,360,39137,6,0,P|53:268|105:147,1,200
232,264,39592,2,0,L|246:155,1,100
88,140,39895,2,0,L|73:34,1,100
224,80,40198,2,0,L|244:24,2,50
84,260,40501,6,0,L|152:188,1,100
320,216,40804,2,0,L|384:124,1,100
108,80,41107,1,0,0:0:0:0:
112,128,41157,1,0,0:0:0:0:
132,172,41208,1,0,0:0:0:0:
172,204,41258,1,0,0:0:0:0:
404,80,41410,1,0,0:0:0:0:
400,128,41460,1,0,0:0:0:0:
380,172,41511,1,0,0:0:0:0:
340,204,41562,6,0,L|216:236,1,100
112,292,41865,2,0,P|64:240|64:204,1,100
100,196,42092,1,0,0:0:0:0:
62,213,42168,2,0,P|73:261|112:292,1,100
176,300,42395,1,0,0:0:0:0:
240,292,42471,2,0,P|264:216|240:168,1,100
240,152,42673,1,0,0:0:0:0:
208,112,42723,1,0,0:0:0:0:
160,96,42774,5,0,0:0:0:0:
344,144,42849,1,0,0:0:0:0:
368,72,42924,1,0,0:0:0:0:
332,4,43001,1,0,0:0:0:0:
172,36,43077,1,0,0:0:0:0:
164,112,43153,1,0,0:0:0:0:
336,132,43228,1,0,0:0:0:0:
392,180,43304,1,0,0:0:0:0:
408,252,43380,5,0,0:0:0:0:
364,312,43456,1,0,0:0:0:0:
152,340,43531,1,0,0:0:0:0:
100,288,43606,1,0,0:0:0:0:
84,216,43682,1,0,0:0:0:0:
92,140,43758,1,0,0:0:0:0:
132,76,43834,1,0,0:0:0:0:
196,36,43909,1,0,0:0:0:0:
412,244,43986,6,0,P|436:187|419:124,1,100
359,105,44213,1,0,0:0:0:0:
156,104,44289,2,0,P|136:156|164:216,1,100
208,248,44516,1,0,0:0:0:0:
280,268,44592,2,0,P|292:220|256:152,1,100
212,136,44819,1,0,0:0:0:0:
32,144,44895,2,0,P|32:64|72:32,1,100
104,24,45122,1,0,0:0:0:0:
184,12,45198,5,0,0:0:0:0:
436,160,45349,1,0,0:0:0:0:
424,84,45425,1,0,0:0:0:0:
368,36,45501,2,0,P|296:68|276:96,1,100
272,156,45728,1,0,0:0:0:0:
308,224,45804,2,0,P|328:296|292:332,1,100
256,356,46031,1,0,0:0:0:0:
48,292,46107,2,0,P|40:236|80:160,1,100
120,144,46334,1,0,0:0:0:0:
228,152,46410,6,0,P|264:104|240:44,1,100
212,8,46637,1,0,0:0:0:0:
48,36,46713,2,0,P|36:88|96:136,1,100
128,148,46940,1,0,0:0:0:0:
212,192,47016,2,0,P|244:232|208:304,1,100
184,332,47243,1,0,0:0:0:0:
108,320,47319,2,0,P|96:228|120:204,1,100
160,188,47546,1,0,0:0:0:0:
236,188,47622,6,0,P|296:132|304:84,1,100
292,44,47849,1,0,0:0:0:0:
112,52,47925,2,0,P|76:96|72:172,1,100
88,224,48153,1,0,0:0:0:0:
152,280,48228,1,0,0:0:0:0:
440,292,48380,1,0,0:0:0:0:
460,208,48456,1,0,0:0:0:0:
280,176,48531,2,0,P|304:104|336:88,1,100
392,64,48759,1,0,0:0:0:0:
172,32,48834,6,0,P|132:96|144:140,1,100
172,184,49061,1,0,0:0:0:0:
244,200,49137,2,0,P|272:280|240:292,1,100
232,332,49364,1,0,0:0:0:0:
156,336,49440,2,0,P|60:272|56:260,1,100
44,220,49667,1,0,0:0:0:0:
108,176,49743,2,0,P|144:128|144:72,1,100
80,120,49970,1,0,0:0:0:0:
24,168,50046,6,0,P|28:228|84:264,1,100
128,272,50273,1,0,0:0:0:0:
352,308,50349,2,0,P|388:240|364:192,1,100
344,160,50576,1,0,0:0:0:0:
284,112,50652,2,0,P|240:52|256:4,1,100
316,16,50879,1,0,0:0:0:0:
388,44,50955,2,0,P|432:140|424:160,1,100
380,180,51182,1,0,0:0:0:0:
168,304,51259,6,0,P|136:220|148:184,1,100
188,140,51486,1,0,0:0:0:0:
388,292,51562,2,0,P|384:224|352:180,1,100
312,148,51789,1,0,0:0:0:0:
240,128,51865,1,0,0:0:0:0:
116,92,52016,1,0,0:0:0:0:
136,16,52092,1,0,0:0:0:0:
356,244,52168,2,0,P|408:156|392:136,1,100
400,96,52395,1,0,0:0:0:0:
212,56,52471,5,0,0:0:0:0:
464,148,52622,1,0,0:0:0:0:
484,64,52698,1,0,0:0:0:0:
276,136,52774,1,0,0:0:0:0:
232,64,52849,1,0,0:0:0:0:
412,76,52925,1,0,0:0:0:0:
420,8,53001,1,0,0:0:0:0:
240,100,53077,5,0,0:0:0:0:
192,152,53153,1,0,0:0:0:0:
52,248,53228,1,0,0:0:0:0:
32,328,53304,1,0,0:0:0:0:
264,260,53380,1,0,0:0:0:0:
280,336,53456,1,0,0:0:0:0:
52,248,53531,1,0,0:0:0:0:
40,164,53607,1,0,0:0:0:0:
284,212,53683,6,0,P|320:168|280:108,1,100
64,68,53986,1,0,0:0:0:0:
372,128,54137,1,0,0:0:0:0:
348,56,54213,1,0,0:0:0:0:
280,24,54289,2,0,P|216:72|204:108,1,100
232,160,54516,1,0,0:0:0:0:
396,272,54592,2,0,P|408:188|372:140,1,100
352,124,54819,1,0,0:0:0:0:
280,80,54895,6,0,L|176:60,1,100
208,136,55122,1,0,0:0:0:0:
456,328,55198,2,0,P|468:272|424:208,1,100
388,196,55425,1,0,0:0:0:0:
304,176,55501,2,0,P|248:120|268:80,1,100
304,48,55728,1,0,0:0:0:0:
92,44,55804,2,0,P|64:88|56:144,1,100
96,208,56031,1,0,0:0:0:0:
160,264,56107,6,0,P|200:296|264:308,1,100
320,312,56334,1,0,0:0:0:0:
484,276,56410,2,0,P|472:200|428:152,1,100
396,136,56637,1,0,0:0:0:0:
320,104,56713,2,0,P|284:64|316:16,1,100
380,12,56940,1,0,0:0:0:0:
168,24,57016,2,0,P|128:72|156:132,1,100
172,176,57243,1,0,0:0:0:0:
252,228,57319,6,0,P|256:296|220:328,1,100
168,344,57546,1,0,0:0:0:0:
24,272,57622,2,0,P|32:176|52:144,1,100
104,140,57849,1,0,0:0:0:0:
272,180,57925,2,0,P|344:128|356:100,1,100
360,44,58153,1,0,0:0:0:0:
132,48,58228,2,0,P|104:100|112:168,1,100
148,200,58456,1,0,0:0:0:0:
372,316,58531,6,0,P|408:252|384:212,1,100
344,180,58759,1,0,0:0:0:0:
192,136,58834,1,0,0:0:0:0:
460,280,58986,1,0,0:0:0:0:
492,200,59062,1,0,0:0:0:0:
460,128,59137,2,0,P|436:80|380:44,1,100
328,32,59365,1,0,0:0:0:0:
100,92,59440,2,0,P|92:160|112:200,1,100
252,272,59668,1,0,0:0:0:0:
420,296,59743,6,0,P|452:224|440:192,1,100
408,140,59971,1,0,0:0:0:0:
188,156,60046,2,0,P|152:80|176:48,1,100
212,20,60274,1,0,0:0:0:0:
296,12,60349,2,0,P|340:40|324:120,1,100
304,152,60577,1,0,0:0:0:0:
96,328,60653,2,0,P|72:264|92:224,1,100
152,184,60880,1,0,0:0:0:0:
400,328,60956,6,0,P|404:260|368:200,1,100
256,152,61183,1,0,0:0:0:0:
64,128,61259,2,0,P|112:52|156:28,1,100
304,28,61486,1,0,0:0:0:0:
484,168,61562,2,0,P|484:104|460:48,1,100
388,44,61789,1,0,0:0:0:0:
188,32,61865,2,0,P|136:96|144:132,1,100
168,184,62092,1,0,0:0:0:0:
360,280,62168,5,0,0:0:0:0:
124,328,62319,1,0,0:0:0:0:
132,256,62395,1,0,0:0:0:0:
188,188,62471,1,0,0:0:0:0:
484,196,62622,1,0,0:0:0:0:
472,120,62698,1,0,0:0:0:0:
424,64,62774,5,0,0:0:0:0:
228,76,62849,1,0,0:0:0:0:
160,40,62925,1,0,0:0:0:0:
228,76,63001,1,0,0:0:0:0:
404,304,63077,1,0,0:0:0:0:
400,228,63153,1,0,0:0:0:0:
360,164,63228,1,0,0:0:0:0:
292,136,63304,1,0,0:0:0:0:
40,280,63380,6,0,L|32:156,1,100
292,136,63684,1,0,0:0:0:0:
189,193,63835,2,0,P|209:109|225:93,1,100
361,77,64138,1,0,0:0:0:0:
76,256,64290,2,0,L|56:128,1,100
356,208,64593,6,0,L|420:84,1,100
140,152,64896,2,0,L|268:128,1,100
180,40,65199,1,0,0:0:0:0:
72,16,65350,1,0,0:0:0:0:
336,124,65502,2,0,L|376:232,1,100
128,304,65805,5,0,0:0:0:0:
172,164,65956,1,0,0:0:0:0:
290,86,66108,1,0,0:0:0:0:
420,69,66259,1,0,0:0:0:0:
128,252,66411,2,0,L|112:116,1,100
388,184,66714,2,0,L|408:68,1,100
296,112,67017,5,0,0:0:0:0:
432,84,67168,1,0,0:0:0:0:
132,280,67320,1,0,0:0:0:0:
348,272,67471,1,0,0:0:0:0:
372,168,67623,1,0,0:0:0:0:
272,96,67774,1,0,0:0:0:0:
32,244,67926,2,0,L|24:128,1,100
296,236,68229,6,0,L|364:112,1,100
104,192,68531,2,0,L|86:57,1,100
228,92,68835,2,0,L|108:68,1,100
384,232,69137,2,0,L|392:112,1,100
132,244,69441,6,0,L|116:136,1,100
356,84,69744,1,0,0:0:0:0:
484,48,69896,1,0,0:0:0:0:
248,80,70047,1,0,0:0:0:0:
120,44,70199,1,0,0:0:0:0:
412,252,70350,2,0,L|428:124,1,100
136,228,70653,6,0,L|96:116,1,100
340,84,70956,1,0,0:0:0:0:
116,52,71108,1,0,0:0:0:0:
376,176,71259,2,0,L|400:32,1,100
120,120,71562,1,0,0:0:0:0:
392,80,71714,1,0,0:0:0:0:
142,21,71865,5,0,0:0:0:0:
49,335,72774,5,0,0:0:0:0:
420,300,73077,6,0,L|428:240,3,50
264,216,73380,2,0,L|256:156,3,50
92,164,73683,6,0,L|76:104,3,50
256,100,73986,1,0,0:0:0:0:
320,72,74061,1,0,0:0:0:0:
138,97,74137,1,0,0:0:0:0:
121,15,74213,1,0,0:0:0:0:
328,28,74289,5,0,0:0:0:0:
375,44,74364,1,0,0:0:0:0:
402,85,74440,1,0,0:0:0:0:
400,134,74516,1,0,0:0:0:0:
214,134,74592,1,0,0:0:0:0:
167,146,74667,1,0,0:0:0:0:
130,178,74743,1,0,0:0:0:0:
109,224,74819,1,0,0:0:0:0:
111,273,74895,5,0,0:0:0:0:
137,317,74970,1,0,0:0:0:0:
176,344,75046,1,0,0:0:0:0:
225,352,75122,1,0,0:0:0:0:
380,296,75198,1,0,0:0:0:0:
420,216,75274,1,0,0:0:0:0:
280,252,75349,1,0,0:0:0:0:
245,176,75425,1,0,0:0:0:0:
420,216,75501,5,0,0:0:0:0:
444,144,75577,1,0,0:0:0:0:
428,72,75652,1,0,0:0:0:0:
364,36,75728,1,0,0:0:0:0:
204,36,75804,1,0,0:0:0:0:
161,60,75879,1,0,0:0:0:0:
129,98,75955,1,0,0:0:0:0:
112,145,76031,1,0,0:0:0:0:
113,194,76107,5,0,0:0:0:0:
131,241,76182,1,0,0:0:0:0:
164,278,76258,1,0,0:0:0:0:
208,301,76334,1,0,0:0:0:0:
388,344,76410,1,0,0:0:0:0:
423,308,76485,1,0,0:0:0:0:
445,263,76561,1,0,0:0:0:0:
453,214,76637,1,0,0:0:0:0:
445,164,76713,5,0,0:0:0:0:
423,120,76788,1,0,0:0:0:0:
388,84,76864,1,0,0:0:0:0:
344,60,76940,1,0,0:0:0:0:
164,278,77016,1,0,0:0:0:0:
141,233,77091,1,0,0:0:0:0:
132,184,77167,1,0,0:0:0:0:
137,135,77243,1,0,0:0:0:0:
157,89,77319,5,0,0:0:0:0:
189,51,77394,1,0,0:0:0:0:
230,23,77470,1,0,0:0:0:0:
278,9,77546,1,0,0:0:0:0:
452,148,77622,1,0,0:0:0:0:
416,72,77698,1,0,0:0:0:0:
240,132,77774,1,0,0:0:0:0:
204,56,77850,1,0,0:0:0:0:
388,68,77925,5,0,0:0:0:0:
432,128,78001,1,0,0:0:0:0:
424,204,78077,1,0,0:0:0:0:
372,256,78152,1,0,0:0:0:0:
172,304,78228,1,0,0:0:0:0:
140,265,78303,1,0,0:0:0:0:
121,220,78379,1,0,0:0:0:0:
116,170,78455,1,0,0:0:0:0:
127,121,78531,5,0,0:0:0:0:
151,78,78606,1,0,0:0:0:0:
188,44,78682,1,0,0:0:0:0:
233,23,78758,1,0,0:0:0:0:
404,36,78834,1,0,0:0:0:0:
443,66,78909,1,0,0:0:0:0:
461,112,78985,1,0,0:0:0:0:
451,161,79061,1,0,0:0:0:0:
276,196,79137,5,0,0:0:0:0:
208,220,79213,1,0,0:0:0:0:
412,236,79289,1,0,0:0:0:0:
440,312,79364,1,0,0:0:0:0:
208,324,79440,1,0,0:0:0:0:
167,296,79515,1,0,0:0:0:0:
140,254,79591,1,0,0:0:0:0:
131,205,79667,1,0,0:0:0:0:
141,157,79743,5,0,0:0:0:0:
170,116,79818,1,0,0:0:0:0:
212,90,79894,1,0,0:0:0:0:
261,81,79970,1,0,0:0:0:0:
432,64,80046,1,0,0:0:0:0:
484,120,80122,1,0,0:0:0:0:
468,192,80198,1,0,0:0:0:0:
404,232,80274,1,0,0:0:0:0:
236,248,80349,6,0,L|224:312,3,50
368,320,80652,1,0,0:0:0:0:
436,264,80728,1,0,0:0:0:0:
240,296,80804,1,0,0:0:0:0:
199,269,80879,1,0,0:0:0:0:
171,228,80955,5,0,0:0:0:0:
162,179,81031,1,0,0:0:0:0:
173,131,81107,1,0,0:0:0:0:
203,91,81182,1,0,0:0:0:0:
376,104,81258,1,0,0:0:0:0:
316,64,81334,1,0,0:0:0:0:
164,52,81410,1,0,0:0:0:0:
104,12,81486,1,0,0:0:0:0:
324,16,81561,5,0,0:0:0:0:
440,112,81713,1,0,0:0:0:0:
480,248,81864,1,0,0:0:0:0:
256,192,82016,2,0,L|140:184,2,100
472,200,82471,1,0,0:0:0:0:
256,192,82622,1,0,0:0:0:0:
50,258,82774,5,0,0:0:0:0:
11,191,82849,1,0,0:0:0:0:
27,110,82925,1,0,0:0:0:0:
85,54,83001,1,0,0:0:0:0:
304,28,83077,1,0,0:0:0:0:
346,53,83152,1,0,0:0:0:0:
377,91,83228,1,0,0:0:0:0:
392,139,83304,1,0,0:0:0:0:
389,188,83380,5,0,0:0:0:0:
369,234,83455,1,0,0:0:0:0:
333,268,83531,1,0,0:0:0:0:
288,288,83607,1,0,0:0:0:0:
74,228,83683,1,0,0:0:0:0:
50,150,83758,1,0,0:0:0:0:
192,100,83834,1,0,0:0:0:0:
238,40,83910,1,0,0:0:0:0:
401,324,83986,5,0,0:0:0:0:
436,288,84062,1,0,0:0:0:0:
458,244,84138,1,0,0:0:0:0:
466,195,84213,1,0,0:0:0:0:
459,145,84289,1,0,0:0:0:0:
438,101,84365,1,0,0:0:0:0:
404,64,84441,1,0,0:0:0:0:
360,40,84516,1,0,0:0:0:0:
176,280,84592,5,0,0:0:0:0:
168,204,84668,1,0,0:0:0:0:
336,184,84743,1,0,0:0:0:0:
304,112,84819,1,0,0:0:0:0:
116,124,84895,1,0,0:0:0:0:
104,200,84971,1,0,0:0:0:0:
260,251,85046,1,0,0:0:0:0:
241,329,85122,1,0,0:0:0:0:
96,320,85198,5,0,0:0:0:0:
65,244,85274,1,0,0:0:0:0:
92,154,85349,1,0,0:0:0:0:
164,108,85425,1,0,0:0:0:0:
346,66,85501,1,0,0:0:0:0:
393,84,85576,1,0,0:0:0:0:
429,118,85652,1,0,0:0:0:0:
449,163,85728,1,0,0:0:0:0:
451,213,85804,5,0,0:0:0:0:
434,259,85879,1,0,0:0:0:0:
401,296,85955,1,0,0:0:0:0:
356,317,86031,1,0,0:0:0:0:
196,336,86107,1,0,0:0:0:0:
183,288,86182,1,0,0:0:0:0:
180,238,86258,1,0,0:0:0:0:
187,188,86334,1,0,0:0:0:0:
205,142,86410,5,0,0:0:0:0:
232,100,86485,1,0,0:0:0:0:
268,65,86561,1,0,0:0:0:0:
310,38,86637,1,0,0:0:0:0:
88,168,86713,1,0,0:0:0:0:
68,96,86789,1,0,0:0:0:0:
144,80,86864,1,0,0:0:0:0:
160,20,86940,1,0,0:0:0:0:
344,160,87016,5,0,0:0:0:0:
308,96,87092,1,0,0:0:0:0:
152,128,87168,1,0,0:0:0:0:
116,64,87244,1,0,0:0:0:0:
288,24,87319,1,0,0:0:0:0:
332,48,87394,1,0,0:0:0:0:
359,89,87470,1,0,0:0:0:0:
364,139,87546,1,0,0:0:0:0:
184,88,87622,5,0,0:0:0:0:
140,148,87697,1,0,0:0:0:0:
148,220,87773,1,0,0:0:0:0:
204,264,87849,1,0,0:0:0:0:
360,364,87925,1,0,0:0:0:0:
427,325,88001,1,0,0:0:0:0:
466,261,88077,1,0,0:0:0:0:
471,188,88152,1,0,0:0:0:0:
450,117,88228,5,0,0:0:0:0:
408,56,88304,1,0,0:0:0:0:
340,24,88380,1,0,0:0:0:0:
268,16,88455,1,0,0:0:0:0:
76,328,88531,1,0,0:0:0:0:
52,256,88607,1,0,0:0:0:0:
238,225,88683,1,0,0:0:0:0:
243,137,88758,1,0,0:0:0:0:
76,176,88834,5,0,0:0:0:0:
59,130,88909,1,0,0:0:0:0:
77,84,88985,1,0,0:0:0:0:
120,52,89061,1,0,0:0:0:0:
312,64,89137,1,0,0:0:0:0:
368,116,89213,1,0,0:0:0:0:
224,160,89289,1,0,0:0:0:0:
184,216,89364,1,0,0:0:0:0:
368,356,89440,5,0,0:0:0:0:
436,316,89515,1,0,0:0:0:0:
456,236,89591,1,0,0:0:0:0:
424,160,89667,1,0,0:0:0:0:
272,248,89743,1,0,0:0:0:0:
212,212,89819,1,0,0:0:0:0:
364,152,89895,1,0,0:0:0:0:
420,112,89971,1,0,0:0:0:0:
252,120,90046,5,0,0:0:0:0:
214,55,90122,1,0,0:0:0:0:
317,48,90198,1,0,0:0:0:0:
333,7,90274,1,0,0:0:0:0:
151,25,90349,1,0,0:0:0:0:
81,76,90425,1,0,0:0:0:0:
254,149,90501,1,0,0:0:0:0:
308,213,90577,1,0,0:0:0:0:
476,261,90653,5,0,0:0:0:0:
490,335,90728,1,0,0:0:0:0:
282,285,90804,1,0,0:0:0:0:
260,347,90880,1,0,0:0:0:0:
409,339,90956,1,0,0:0:0:0:
385,258,91031,1,0,0:0:0:0:
173,210,91107,1,0,0:0:0:0:
402,114,91259,5,0,0:0:0:0:
64,228,91865,1,0,0:0:0:0:
488,188,92168,1,0,0:0:0:0:
120,124,92471,1,0,0:0:0:0:
428,304,96865,5,0,0:0:0:0:
424,256,96915,1,0,0:0:0:0:
404,208,96966,1,0,0:0:0:0:
368,172,97016,1,0,0:0:0:0:
84,304,97168,5,0,0:0:0:0:
88,256,97218,1,0,0:0:0:0:
108,208,97269,1,0,0:0:0:0:
144,172,97319,1,0,0:0:0:0:
348,220,97925,5,4,2:2:0:0:
120,148,99365,1,0,2:2:0:0:
132,76,99440,1,0,2:2:0:0:
304,324,100956,5,0,0:0:0:0:
395,308,101031,1,0,0:0:0:0:
332,249,101107,1,0,0:0:0:0:
79,156,101259,1,0,0:0:0:0:
232,110,101410,1,0,0:0:0:0:
98,63,101562,1,0,0:0:0:0:
281,42,101713,1,0,0:0:0:0:
31,15,101865,1,0,0:0:0:0:
441,300,102168,6,0,L|459:223,3,50
218,223,102471,1,0,0:0:0:0:
245,143,102546,1,0,0:0:0:0:
390,100,102622,1,0,0:0:0:0:
448,36,102698,1,0,0:0:0:0:
210,25,102774,5,0,0:0:0:0:
164,43,102849,1,0,0:0:0:0:
138,85,102925,1,0,0:0:0:0:
141,134,103001,1,0,0:0:0:0:
349,192,103077,1,0,0:0:0:0:
364,259,103153,1,0,0:0:0:0:
167,264,103228,1,0,0:0:0:0:
151,332,103304,1,0,0:0:0:0:
399,345,103380,5,0,0:0:0:0:
411,296,103455,1,0,0:0:0:0:
400,249,103531,1,0,0:0:0:0:
367,211,103607,1,0,0:0:0:0:
134,174,103683,1,0,0:0:0:0:
160,98,103759,1,0,0:0:0:0:
347,97,103834,1,0,0:0:0:0:
320,28,103910,1,0,0:0:0:0:
111,30,103986,5,0,0:0:0:0:
71,58,104061,1,0,0:0:0:0:
59,106,104137,1,0,0:0:0:0:
82,149,104213,1,0,0:0:0:0:
300,181,104289,1,0,0:0:0:0:
286,228,104364,1,0,0:0:0:0:
251,263,104440,1,0,0:0:0:0:
203,277,104516,1,0,0:0:0:0:
26,276,104592,5,0,0:0:0:0:
22,192,104668,1,0,0:0:0:0:
196,192,104743,1,0,0:0:0:0:
259,147,104819,1,0,0:0:0:0:
92,50,104895,1,0,0:0:0:0:
59,87,104970,1,0,0:0:0:0:
53,136,105046,1,0,0:0:0:0:
75,180,105122,1,0,0:0:0:0:
300,221,105198,5,0,0:0:0:0:
253,282,105274,1,0,0:0:0:0:
71,312,105349,1,0,0:0:0:0:
49,371,105425,1,0,0:0:0:0:
272,351,105501,1,0,0:0:0:0:
319,340,105576,1,0,0:0:0:0:
349,301,105652,1,0,0:0:0:0:
348,252,105728,1,0,0:0:0:0:
183,215,105804,5,0,0:0:0:0:
147,181,105879,1,0,0:0:0:0:
140,132,105955,1,0,0:0:0:0:
165,90,106031,1,0,0:0:0:0:
365,163,106107,1,0,0:0:0:0:
401,94,106183,1,0,0:0:0:0:
220,83,106259,1,0,0:0:0:0:
217,11,106334,1,0,0:0:0:0:
383,35,106410,5,0,0:0:0:0:
404,79,106485,1,0,0:0:0:0:
394,127,106561,1,0,0:0:0:0:
356,158,106637,1,0,0:0:0:0:
164,175,106713,1,0,0:0:0:0:
98,213,106789,1,0,0:0:0:0:
276,273,106865,1,0,0:0:0:0:
333,324,106940,1,0,0:0:0:0:
92,329,107016,5,0,0:0:0:0:
65,287,107091,1,0,0:0:0:0:
59,238,107167,1,0,0:0:0:0:
76,191,107243,1,0,0:0:0:0:
262,214,107319,1,0,0:0:0:0:
250,165,107394,1,0,0:0:0:0:
222,124,107470,1,0,0:0:0:0:
181,96,107546,1,0,0:0:0:0:
416,168,107622,5,0,0:0:0:0:
432,98,107698,1,0,0:0:0:0:
276,88,107774,1,0,0:0:0:0:
264,19,107849,1,0,0:0:0:0:
67,21,107925,1,0,0:0:0:0:
31,54,108000,1,0,0:0:0:0:
22,102,108076,1,0,0:0:0:0:
44,146,108152,1,0,0:0:0:0:
268,192,108228,5,0,0:0:0:0:
283,238,108303,1,0,0:0:0:0:
268,285,108379,1,0,0:0:0:0:
229,315,108455,1,0,0:0:0:0:
32,311,108531,1,0,0:0:0:0:
50,243,108607,1,0,0:0:0:0:
227,186,108683,1,0,0:0:0:0:
284,129,108759,1,0,0:0:0:0:
80,193,108834,5,0,0:0:0:0:
52,152,108909,1,0,0:0:0:0:
58,103,108985,1,0,0:0:0:0:
94,69,109061,1,0,0:0:0:0:
371,219,109137,1,0,0:0:0:0:
350,152,109213,1,0,0:0:0:0:
189,88,109289,1,0,0:0:0:0:
141,23,109365,1,0,0:0:0:0:
388,281,109440,5,0,0:0:0:0:
424,247,109515,1,0,0:0:0:0:
431,199,109591,1,0,0:0:0:0:
406,156,109667,1,0,0:0:0:0:
211,194,109743,1,0,0:0:0:0:
212,144,109818,1,0,0:0:0:0:
237,101,109894,1,0,0:0:0:0:
278,74,109970,1,0,0:0:0:0:
112,72,110046,5,0,0:0:0:0:
53,119,110122,1,0,0:0:0:0:
54,194,110198,1,0,0:0:0:0:
111,242,110274,1,0,0:0:0:0:
338,277,110349,1,0,0:0:0:0:
325,196,110425,1,0,0:0:0:0:
142,166,110501,1,0,0:0:0:0:
204,126,110577,1,0,0:0:0:0:
400,121,110653,5,0,0:0:0:0:
466,77,110728,1,0,0:0:0:0:
221,61,110804,1,0,0:0:0:0:
159,96,110880,1,0,0:0:0:0:
374,114,110956,1,0,0:0:0:0:
408,149,111031,1,0,0:0:0:0:
417,197,111107,1,0,0:0:0:0:
397,243,111183,1,0,0:0:0:0:
245,280,111259,5,0,0:0:0:0:
192,338,111334,1,0,0:0:0:0:
245,280,111410,1,0,0:0:0:0:
424,288,111486,1,0,0:0:0:0:
469,228,111562,1,0,0:0:0:0:
236,171,111637,1,0,0:0:0:0:
175,118,111713,1,0,0:0:0:0:
162,48,111789,1,0,0:0:0:0:
410,194,111865,5,0,0:0:0:0:
429,148,111940,1,0,0:0:0:0:
421,99,112016,1,0,0:0:0:0:
389,63,112092,1,0,0:0:0:0:
169,32,112168,1,0,0:0:0:0:
125,54,112243,1,0,0:0:0:0:
99,97,112319,1,0,0:0:0:0:
100,146,112395,1,0,0:0:0:0:
288,218,112471,5,0,0:0:0:0:
346,265,112546,1,0,0:0:0:0:
152,287,112622,1,0,0:0:0:0:
110,350,112698,1,0,0:0:0:0:
325,338,112774,1,0,0:0:0:0:
325,288,112849,1,0,0:0:0:0:
302,244,112925,1,0,0:0:0:0:
262,215,113001,1,0,0:0:0:0:
86,194,113077,5,0,0:0:0:0:
119,111,113153,1,0,0:0:0:0:
324,113,113228,1,0,0:0:0:0:
384,59,113304,1,0,0:0:0:0:
119,111,113380,1,0,0:0:0:0:
85,146,113455,1,0,0:0:0:0:
76,195,113531,1,0,0:0:0:0:
96,240,113607,1,0,0:0:0:0:
337,330,113683,5,0,0:0:0:0:
345,281,113758,1,0,0:0:0:0:
323,237,113834,1,0,0:0:0:0:
279,215,113910,1,0,0:0:0:0:
106,177,113986,1,0,0:0:0:0:
135,103,114062,1,0,0:0:0:0:
340,77,114137,1,0,0:0:0:0:
404,31,114213,1,0,0:0:0:0:
183,36,114289,5,0,0:0:0:0:
137,53,114364,1,0,0:0:0:0:
121,99,114440,1,0,0:0:0:0:
146,141,114516,1,0,0:0:0:0:
353,191,114592,1,0,0:0:0:0:
369,237,114667,1,0,0:0:0:0:
352,283,114743,1,0,0:0:0:0:
310,308,114819,1,0,0:0:0:0:
110,326,114895,5,0,0:0:0:0:
97,246,114971,1,0,0:0:0:0:
187,191,115046,1,0,0:0:0:0:
201,100,115122,1,0,0:0:0:0:
407,119,115198,1,0,0:0:0:0:
468,57,115274,1,0,0:0:0:0:
284,62,115349,1,0,0:0:0:0:
253,0,115425,1,0,0:0:0:0:
451,297,115501,5,0,0:0:0:0:
456,247,115576,1,0,0:0:0:0:
436,202,115652,1,0,0:0:0:0:
397,172,115728,1,0,0:0:0:0:
179,184,115804,1,0,0:0:0:0:
224,118,115880,1,0,0:0:0:0:
370,75,115956,1,0,0:0:0:0:
417,11,116031,1,0,0:0:0:0:
190,29,116107,5,0,0:0:0:0:
145,49,116182,1,0,0:0:0:0:
124,94,116258,1,0,0:0:0:0:
136,141,116334,1,0,0:0:0:0:
327,227,116410,1,0,0:0:0:0:
384,271,116486,1,0,0:0:0:0:
177,279,116562,1,0,0:0:0:0:
128,330,116637,1,0,0:0:0:0:
364,336,116713,5,0,0:0:0:0:
383,291,116788,1,0,0:0:0:0:
372,242,116864,1,0,0:0:0:0:
337,208,116940,1,0,0:0:0:0:
180,162,117016,1,0,0:0:0:0:
125,101,117092,1,0,0:0:0:0:
313,134,117168,1,0,0:0:0:0:
374,88,117243,1,0,0:0:0:0:
181,29,117319,5,0,0:0:0:0:
150,67,117394,1,0,0:0:0:0:
151,116,117470,1,0,0:0:0:0:
182,153,117546,1,0,0:0:0:0:
379,218,117622,1,0,0:0:0:0:
332,286,117698,1,0,0:0:0:0:
153,298,117774,1,0,0:0:0:0:
104,229,117849,1,0,0:0:0:0:
294,214,117925,5,0,0:0:0:0:
306,166,118000,1,0,0:0:0:0:
296,117,118076,1,0,0:0:0:0:
265,79,118152,1,0,0:0:0:0:
61,142,118228,1,0,0:0:0:0:
32,102,118303,1,0,0:0:0:0:
37,54,118379,1,0,0:0:0:0:
75,22,118455,1,0,0:0:0:0:
256,24,118531,5,0,0:0:0:0:
329,39,118607,1,0,0:0:0:0:
156,96,118683,1,0,0:0:0:0:
136,180,118759,1,0,0:0:0:0:
408,244,118834,1,0,0:0:0:0:
392,168,118910,1,0,0:0:0:0:
308,152,118986,1,0,0:0:0:0:
320,64,119062,1,0,0:0:0:0:
472,192,119137,5,0,0:0:0:0:
464,120,119212,1,0,0:0:0:0:
412,64,119288,1,0,0:0:0:0:
340,44,119364,1,0,0:0:0:0:
176,228,119440,1,0,0:0:0:0:
156,273,119515,1,0,0:0:0:0:
167,320,119591,1,0,0:0:0:0:
205,351,119667,1,0,0:0:0:0:
420,324,119743,5,0,0:0:0:0:
450,284,119818,1,0,0:0:0:0:
457,236,119894,1,0,0:0:0:0:
435,191,119970,1,0,0:0:0:0:
235,353,120046,1,0,0:0:0:0:
183,294,120122,1,0,0:0:0:0:
249,261,120198,1,0,0:0:0:0:
269,187,120274,1,0,0:0:0:0:
85,311,120349,5,0,0:0:0:0:
329,323,120501,1,0,0:0:0:0:
343,248,120577,1,0,0:0:0:0:
156,262,120653,1,0,0:0:0:0:
135,181,120728,1,0,0:0:0:0:
356,306,120804,1,0,0:0:0:0:
399,241,120880,1,0,0:0:0:0:
144,336,120956,5,0,0:0:0:0:
100,309,121031,1,0,0:0:0:0:
66,273,121107,1,0,0:0:0:0:
33,228,121183,1,0,0:0:0:0:
23,173,121259,1,0,0:0:0:0:
26,118,121334,1,0,0:0:0:0:
40,64,121410,1,0,0:0:0:0:
69,17,121486,1,0,0:0:0:0:
218,48,121562,6,0,P|297:90|151:317,1,454.999986114502
117,254,122622,1,0,0:0:0:0:
156,320,122698,1,0,0:0:0:0:
336,272,122774,5,0,0:0:0:0:
408,232,122849,1,0,0:0:0:0:
216,188,122925,1,0,0:0:0:0:
144,148,123000,1,0,0:0:0:0:
348,116,123077,1,0,0:0:0:0:
409,157,123152,1,0,0:0:0:0:
408,232,123228,1,0,0:0:0:0:
354,285,123304,1,0,0:0:0:0:
144,312,123380,5,0,0:0:0:0:
97,294,123455,1,0,0:0:0:0:
63,258,123531,1,0,0:0:0:0:
50,210,123607,1,0,0:0:0:0:
59,162,123683,1,0,0:0:0:0:
89,123,123758,1,0,0:0:0:0:
128,92,123834,1,0,0:0:0:0:
176,80,123910,1,0,0:0:0:0:
388,216,123986,6,0,P|416:132|388:108,1,100
360,80,124213,1,0,0:0:0:0:
292,52,124289,2,0,P|232:84|220:144,1,100
280,156,124516,1,0,0:0:0:0:
340,200,124592,2,0,P|336:264|280:288,1,100
236,280,124819,1,0,0:0:0:0:
310,283,124895,2,0,P|346:247|330:179,1,100
300,140,125122,1,0,0:0:0:0:
220,148,125198,6,0,P|192:92|216:52,1,100
256,4,125425,1,0,0:0:0:0:
456,48,125500,2,0,P|444:108|384:124,1,100
336,116,125728,1,0,0:0:0:0:
272,168,125804,2,0,P|268:232|320:280,1,100
356,288,126031,1,0,0:0:0:0:
432,276,126107,2,0,P|432:208|396:176,1,100
348,152,126334,1,0,0:0:0:0:
188,56,126410,6,0,P|124:100|140:136,1,100
160,176,126637,1,0,0:0:0:0:
228,208,126713,2,0,P|236:132|208:104,1,100
156,84,126940,1,0,0:0:0:0:
84,100,127016,2,0,P|40:156|48:196,1,100
104,224,127243,1,0,0:0:0:0:
176,244,127319,2,0,P|216:176|200:144,1,100
152,116,127546,1,0,0:0:0:0:
228,104,127622,6,0,P|300:60|304:32,1,100
228,36,127849,1,0,0:0:0:0:
56,24,127925,2,0,P|48:88|80:148,1,100
124,160,128153,1,0,0:0:0:0:
180,208,128228,2,0,P|180:260|128:296,1,100
220,320,128456,1,0,0:0:0:0:
428,332,128531,2,0,P|448:264|428:232,1,100
376,196,128759,1,0,0:0:0:0:
224,44,128834,6,0,P|156:76|148:120,1,100
180,164,129062,1,0,0:0:0:0:
248,196,129137,2,0,P|268:244|220:300,1,100
184,328,129365,1,0,0:0:0:0:
124,288,129440,2,0,P|116:352|172:380,1,100
212,356,129668,1,0,0:0:0:0:
284,344,129743,2,0,P|332:296|320:236,1,100
296,200,129971,1,0,0:0:0:0:
236,152,130046,6,0,P|196:104|204:48,1,100
256,24,130274,1,0,0:0:0:0:
448,224,130349,2,0,P|467:178|458:130,1,100
408,72,130577,1,0,0:0:0:0:
336,52,130653,2,0,P|288:100|304:164,1,100
348,172,130880,1,0,0:0:0:0:
416,204,130956,2,0,P|439:247|384:288,1,100
344,312,131183,1,0,0:0:0:0:
180,44,131259,6,0,P|116:80|112:120,1,100
148,168,131486,1,0,0:0:0:0:
220,204,131562,2,0,P|236:288|200:316,1,100
168,324,131789,1,0,0:0:0:0:
92,340,131865,2,0,P|52:288|72:232,1,100
120,204,132092,1,0,0:0:0:0:
360,288,132168,2,0,P|400:228|384:164,1,100
344,128,132395,1,0,0:0:0:0:
264,80,132471,6,0,P|204:156|220:180,1,100
248,208,132698,1,0,0:0:0:0:
384,320,132774,2,0,P|388:264|340:232,1,100
300,216,133001,1,0,0:0:0:0:
100,164,133077,5,0,0:0:0:0:
40,128,133153,1,0,0:0:0:0:
296,160,133228,1,0,0:0:0:0:
312,88,133304,1,0,0:0:0:0:
148,80,133380,1,0,0:0:0:0:
140,24,133456,1,0,0:0:0:0:
388,80,133531,1,0,0:0:0:0:
400,4,133607,1,0,0:0:0:0:
172,32,133683,6,0,P|132:96|144:140,1,100
172,184,133910,1,0,0:0:0:0:
244,200,133986,2,0,P|272:280|240:292,1,100
232,332,134213,1,0,0:0:0:0:
156,336,134289,2,0,P|60:272|56:260,1,100
44,220,134516,1,0,0:0:0:0:
108,176,134592,2,0,P|144:128|144:72,1,100
80,120,134819,1,0,0:0:0:0:
24,168,134895,6,0,P|28:228|84:264,1,100
128,272,135122,1,0,0:0:0:0:
352,308,135198,2,0,P|388:240|364:192,1,100
344,160,135425,1,0,0:0:0:0:
284,112,135501,2,0,P|240:52|256:4,1,100
316,16,135728,1,0,0:0:0:0:
388,44,135804,2,0,P|432:140|424:160,1,100
380,180,136031,1,0,0:0:0:0:
168,176,136107,6,0,P|124:232|144:288,1,100
168,320,136334,1,0,0:0:0:0:
236,352,136410,1,0,0:0:0:0:
368,280,136562,1,0,0:0:0:0:
348,208,136637,1,0,0:0:0:0:
304,148,136713,2,0,P|256:104|192:80,1,100
153,65,136940,1,0,0:0:0:0:
352,160,137016,2,0,P|376:100|360:44,1,100
312,24,137243,1,0,0:0:0:0:
236,20,137319,6,0,P|160:64|176:92,1,100
168,124,137546,1,0,0:0:0:0:
324,184,137622,2,0,P|336:268|300:300,1,100
264,312,137850,1,0,0:0:0:0:
192,324,137925,2,0,P|134:274|118:228,1,100
109,172,138153,1,0,0:0:0:0:
423,313,138228,1,0,0:0:0:0:
332,277,138380,1,0,0:0:0:0:
407,228,138456,1,0,0:0:0:0:
475,192,138531,5,0,0:0:0:0:
324,200,138683,1,0,0:0:0:0:
308,124,138759,1,0,0:0:0:0:
292,44,138834,1,0,0:0:0:0:
60,155,138986,1,0,0:0:0:0:
104,95,139061,1,0,0:0:0:0:
173,66,139137,1,0,0:0:0:0:
428,296,139288,1,0,0:0:0:0:
445,213,139364,1,0,0:0:0:0:
453,131,139440,1,0,0:0:0:0:
207,118,139592,1,0,0:0:0:0:
127,142,139668,1,0,0:0:0:0:
58,179,139743,6,0,P|40:252|81:301,1,100
116,318,139971,1,0,0:0:0:0:
354,323,140046,2,0,P|379:278|359:206,1,100
320,175,140274,1,0,0:0:0:0:
259,151,140350,2,0,P|202:103|209:52,1,100
253,45,140577,1,0,0:0:0:0:
449,145,140653,2,0,P|450:202|410:255,1,100
373,271,140880,1,0,0:0:0:0:
105,332,140956,6,0,P|64:272|68:231,1,100
84,174,141183,1,0,0:0:0:0:
320,271,141259,2,0,P|343:175|316:147,1,100
297,125,141486,1,0,0:0:0:0:
229,91,141562,1,0,0:0:0:0:
83,55,141713,1,0,0:0:0:0:
153,28,141789,1,0,0:0:0:0:
353,34,141865,2,0,P|417:70|421:121,1,100
393,160,142092,1,0,0:0:0:0:
184,168,142168,5,0,0:0:0:0:
124,224,142243,1,0,0:0:0:0:
136,312,142319,1,0,0:0:0:0:
204,352,142395,1,0,0:0:0:0:
384,332,142471,1,0,0:0:0:0:
364,256,142546,1,0,0:0:0:0:
204,32,142622,5,0,0:0:0:0:
155,45,142697,1,0,0:0:0:0:
114,72,142773,1,0,0:0:0:0:
83,111,142849,1,0,0:0:0:0:
66,158,142925,1,0,0:0:0:0:
65,208,143000,1,0,0:0:0:0:
80,256,143076,1,0,0:0:0:0:
108,296,143152,1,0,0:0:0:0:
148,326,143228,1,0,0:0:0:0:
195,342,143303,1,0,0:0:0:0:
384,300,143380,6,0,L|492:300,2,100
216,304,143834,2,0,L|108:304,2,100
472,232,144289,2,0,L|496:100,1,100
176,28,144592,6,0,P|136:80|124:148,3,100
296,124,145198,2,0,P|312:216|292:240,1,100
36,224,145501,2,0,P|40:276|116:316,1,100
384,316,145804,2,0,L|480:276,1,100
196,304,146107,1,0,0:0:0:0:
244,184,146259,1,0,0:0:0:0:
328,88,146410,1,0,0:0:0:0:
444,24,146562,1,0,0:0:0:0:
168,184,146713,1,0,0:0:0:0:
124,72,146865,1,0,0:0:0:0:
244,108,147016,5,0,0:0:0:0:
364,64,147168,1,0,0:0:0:0:
56,120,147319,1,0,0:0:0:0:
40,20,147471,1,0,0:0:0:0:
300,36,147622,1,0,0:0:0:0:
80,112,147774,1,0,0:0:0:0:
320,164,147925,2,0,L|344:276,1,100
88,280,148228,6,0,L|196:264,1,100
448,208,148531,1,0,0:0:0:0:
192,144,148683,2,0,L|76:124,2,100
444,268,149137,2,0,L|424:140,1,100
152,116,149440,5,0,0:0:0:0:
396,68,149592,1,0,0:0:0:0:
144,36,149743,2,0,L|124:148,1,100
400,216,150046,1,0,0:0:0:0:
104,292,150198,1,0,0:0:0:0:
400,216,150349,2,0,L|380:328,1,100
80,172,150653,5,0,0:0:0:0:
336,140,150804,1,0,0:0:0:0:
460,64,150956,1,0,0:0:0:0:
200,48,151107,1,0,0:0:0:0:
472,20,151259,2,0,L|484:144,1,100
208,176,151562,1,0,0:0:0:0:
476,288,151713,1,0,0:0:0:0:
120,332,151865,5,0,0:0:0:0:
56,308,152774,5,0,0:0:0:0:
420,300,153077,6,0,L|428:240,3,50
264,216,153380,2,0,L|256:156,3,50
92,164,153683,6,0,L|76:104,3,50
256,100,153986,1,0,0:0:0:0:
320,72,154061,1,0,0:0:0:0:
168,52,154137,1,0,0:0:0:0:
128,0,154213,1,0,0:0:0:0:
328,28,154289,5,0,0:0:0:0:
375,44,154364,1,0,0:0:0:0:
402,85,154440,1,0,0:0:0:0:
400,134,154516,1,0,0:0:0:0:
214,134,154592,1,0,0:0:0:0:
167,146,154667,1,0,0:0:0:0:
130,178,154743,1,0,0:0:0:0:
109,224,154819,1,0,0:0:0:0:
111,273,154895,5,0,0:0:0:0:
137,317,154970,1,0,0:0:0:0:
176,344,155046,1,0,0:0:0:0:
225,352,155122,1,0,0:0:0:0:
380,296,155198,1,0,0:0:0:0:
448,324,155274,1,0,0:0:0:0:
280,252,155349,1,0,0:0:0:0:
212,292,155425,1,0,0:0:0:0:
420,216,155501,5,0,0:0:0:0:
444,144,155577,1,0,0:0:0:0:
428,72,155652,1,0,0:0:0:0:
364,36,155728,1,0,0:0:0:0:
204,36,155804,1,0,0:0:0:0:
161,60,155879,1,0,0:0:0:0:
129,98,155955,1,0,0:0:0:0:
112,145,156031,1,0,0:0:0:0:
113,194,156107,5,0,0:0:0:0:
131,241,156182,1,0,0:0:0:0:
164,278,156258,1,0,0:0:0:0:
208,301,156334,1,0,0:0:0:0:
388,344,156410,1,0,0:0:0:0:
423,308,156485,1,0,0:0:0:0:
445,263,156561,1,0,0:0:0:0:
453,214,156637,1,0,0:0:0:0:
445,164,156713,5,0,0:0:0:0:
423,120,156788,1,0,0:0:0:0:
388,84,156864,1,0,0:0:0:0:
344,60,156940,1,0,0:0:0:0:
164,278,157016,1,0,0:0:0:0:
141,233,157091,1,0,0:0:0:0:
132,184,157167,1,0,0:0:0:0:
137,135,157243,1,0,0:0:0:0:
157,89,157319,5,0,0:0:0:0:
189,51,157394,1,0,0:0:0:0:
230,23,157470,1,0,0:0:0:0:
278,9,157546,1,0,0:0:0:0:
452,148,157622,1,0,0:0:0:0:
416,72,157698,1,0,0:0:0:0:
240,132,157774,1,0,0:0:0:0:
204,56,157850,1,0,0:0:0:0:
388,68,157925,5,0,0:0:0:0:
432,128,158001,1,0,0:0:0:0:
424,204,158077,1,0,0:0:0:0:
372,256,158152,1,0,0:0:0:0:
172,304,158228,1,0,0:0:0:0:
140,265,158303,1,0,0:0:0:0:
121,220,158379,1,0,0:0:0:0:
116,170,158455,1,0,0:0:0:0:
127,121,158531,5,0,0:0:0:0:
151,78,158606,1,0,0:0:0:0:
188,44,158682,1,0,0:0:0:0:
233,23,158758,1,0,0:0:0:0:
404,36,158834,1,0,0:0:0:0:
443,66,158909,1,0,0:0:0:0:
461,112,158985,1,0,0:0:0:0:
451,161,159061,1,0,0:0:0:0:
276,196,159137,5,0,0:0:0:0:
208,220,159213,1,0,0:0:0:0:
412,236,159289,1,0,0:0:0:0:
440,312,159364,1,0,0:0:0:0:
208,324,159440,1,0,0:0:0:0:
167,296,159515,1,0,0:0:0:0:
140,254,159591,1,0,0:0:0:0:
131,205,159667,1,0,0:0:0:0:
141,157,159743,5,0,0:0:0:0:
170,116,159818,1,0,0:0:0:0:
212,90,159894,1,0,0:0:0:0:
261,81,159970,1,0,0:0:0:0:
432,64,160046,1,0,0:0:0:0:
484,120,160122,1,0,0:0:0:0:
468,192,160198,1,0,0:0:0:0:
404,232,160274,1,0,0:0:0:0:
220,168,160349,5,0,0:0:0:0:
174,187,160424,1,0,0:0:0:0:
152,230,160500,1,0,0:0:0:0:
162,278,160576,1,0,0:0:0:0:
384,324,160653,1,0,0:0:0:0:
368,248,160728,1,0,0:0:0:0:
296,208,160804,1,0,0:0:0:0:
356,156,160880,1,0,0:0:0:0:
432,120,160956,5,0,0:0:0:0:
384,52,161031,1,0,0:0:0:0:
300,36,161107,1,0,0:0:0:0:
228,8,161183,1,0,0:0:0:0:
44,52,161259,1,0,0:0:0:0:
28,98,161334,1,0,0:0:0:0:
36,147,161410,1,0,0:0:0:0:
65,187,161486,1,0,0:0:0:0:
324,16,161562,5,0,0:0:0:0:
440,112,161714,1,0,0:0:0:0:
480,248,161865,1,0,0:0:0:0:
256,192,162017,2,0,L|140:184,2,100
472,200,162472,1,0,0:0:0:0:
256,192,162623,1,0,0:0:0:0:
40,192,162774,5,0,0:0:0:0:
29,143,162849,1,0,0:0:0:0:
42,96,162925,1,0,0:0:0:0:
77,60,163001,1,0,0:0:0:0:
260,68,163077,1,0,0:0:0:0:
332,100,163152,1,0,0:0:0:0:
188,144,163228,1,0,0:0:0:0:
132,188,163304,1,0,0:0:0:0:
352,308,163380,5,0,0:0:0:0:
368,261,163455,1,0,0:0:0:0:
361,212,163531,1,0,0:0:0:0:
330,173,163607,1,0,0:0:0:0:
144,192,163683,1,0,0:0:0:0:
110,157,163758,1,0,0:0:0:0:
108,108,163834,1,0,0:0:0:0:
140,71,163910,1,0,0:0:0:0:
308,32,163986,5,0,0:0:0:0:
352,56,164061,1,0,0:0:0:0:
386,93,164137,1,0,0:0:0:0:
407,137,164213,1,0,0:0:0:0:
414,187,164289,1,0,0:0:0:0:
406,236,164364,1,0,0:0:0:0:
384,280,164440,1,0,0:0:0:0:
349,316,164516,1,0,0:0:0:0:
176,280,164592,5,0,0:0:0:0:
168,204,164668,1,0,0:0:0:0:
336,184,164743,1,0,0:0:0:0:
304,112,164819,1,0,0:0:0:0:
152,140,164895,1,0,0:0:0:0:
184,64,164971,1,0,0:0:0:0:
256,20,165046,1,0,0:0:0:0:
340,8,165122,1,0,0:0:0:0:
120,216,165198,5,0,0:0:0:0:
152,140,165274,1,0,0:0:0:0:
224,96,165349,1,0,0:0:0:0:
308,84,165425,1,0,0:0:0:0:
88,292,165501,1,0,0:0:0:0:
120,216,165577,1,0,0:0:0:0:
192,172,165652,1,0,0:0:0:0:
276,160,165728,1,0,0:0:0:0:
72,152,165804,1,0,0:0:0:0:
36,76,165880,1,0,0:0:0:0:
184,56,165956,1,0,0:0:0:0:
248,24,166031,1,0,0:0:0:0:
416,312,166107,1,0,0:0:0:0:
444,270,166182,1,0,0:0:0:0:
458,223,166258,1,0,0:0:0:0:
458,173,166334,1,0,0:0:0:0:
443,126,166410,5,0,0:0:0:0:
414,85,166485,1,0,0:0:0:0:
374,55,166561,1,0,0:0:0:0:
328,38,166637,1,0,0:0:0:0:
72,88,166713,1,0,0:0:0:0:
36,148,166789,1,0,0:0:0:0:
108,168,166865,1,0,0:0:0:0:
124,228,166940,1,0,0:0:0:0:
48,232,167016,5,0,0:0:0:0:
37,280,167091,1,0,0:0:0:0:
59,323,167167,1,0,0:0:0:0:
104,344,167243,1,0,0:0:0:0:
352,336,167319,1,0,0:0:0:0:
424,308,167395,1,0,0:0:0:0:
360,252,167471,1,0,0:0:0:0:
308,224,167546,1,0,0:0:0:0:
360,252,167622,5,0,0:0:0:0:
372,180,167697,1,0,0:0:0:0:
332,116,167773,1,0,0:0:0:0:
268,76,167849,1,0,0:0:0:0:
68,96,167925,1,0,0:0:0:0:
44,168,168001,1,0,0:0:0:0:
76,236,168077,1,0,0:0:0:0:
136,280,168153,1,0,0:0:0:0:
308,256,168228,5,0,0:0:0:0:
368,288,168304,1,0,0:0:0:0:
164,200,168380,1,0,0:0:0:0:
120,136,168456,1,0,0:0:0:0:
352,208,168531,1,0,0:0:0:0:
380,140,168606,1,0,0:0:0:0:
364,68,168682,1,0,0:0:0:0:
300,28,168758,1,0,0:0:0:0:
224,32,168834,5,0,0:0:0:0:
164,76,168910,1,0,0:0:0:0:
152,152,168986,1,0,0:0:0:0:
176,224,169062,1,0,0:0:0:0:
392,356,169137,1,0,0:0:0:0:
426,320,169212,1,0,0:0:0:0:
447,274,169288,1,0,0:0:0:0:
451,225,169364,1,0,0:0:0:0:
438,177,169440,5,0,0:0:0:0:
410,136,169515,1,0,0:0:0:0:
370,107,169591,1,0,0:0:0:0:
322,92,169667,1,0,0:0:0:0:
168,112,169743,1,0,0:0:0:0:
112,140,169819,1,0,0:0:0:0:
324,176,169895,1,0,0:0:0:0:
368,216,169971,1,0,0:0:0:0:
132,288,170046,5,0,0:0:0:0:
320,288,170274,1,0,0:0:0:0:
156,296,170349,1,0,0:0:0:0:
92,260,170425,1,0,0:0:0:0:
64,192,170501,1,0,0:0:0:0:
92,124,170577,1,0,0:0:0:0:
156,88,170653,1,0,0:0:0:0:
440,52,170804,5,0,0:0:0:0:
472,120,170880,1,0,0:0:0:0:
464,196,170956,1,0,0:0:0:0:
412,248,171031,1,0,0:0:0:0:
200,208,171107,1,0,0:0:0:0:
120,248,171183,1,0,0:0:0:0:
344,248,171259,5,0,0:0:0:0:
344,172,171334,1,0,0:0:0:0:
312,104,171410,1,0,0:0:0:0:
232,72,171486,1,0,0:0:0:0:
64,64,171562,1,0,0:0:0:0:
32,101,171637,1,0,0:0:0:0:
23,150,171713,1,0,0:0:0:0:
39,197,171789,1,0,0:0:0:0:
272,208,171865,5,0,0:0:0:0:
328,276,171940,1,0,0:0:0:0:
256,296,172016,1,0,0:0:0:0:
232,364,172092,1,0,0:0:0:0:
444,332,172168,1,0,0:0:0:0:
461,286,172243,1,0,0:0:0:0:
442,241,172319,1,0,0:0:0:0:
397,224,172395,1,0,0:0:0:0:
172,312,172471,5,0,0:0:0:0:
108,272,172546,1,0,0:0:0:0:
80,204,172622,1,0,0:0:0:0:
100,132,172698,1,0,0:0:0:0:
148,72,172774,6,0,P|288:48|68:152,1,1200
436,288,174895,6,0,P|447:239|440:160,1,100
392,136,175122,1,0,0:0:0:0:
340,84,175198,2,0,P|280:112|264:176,1,100
292,212,175425,1,0,0:0:0:0:
352,256,175501,2,0,P|380:324|328:348,1,100
300,360,175728,1,0,0:0:0:0:
228,336,175804,2,0,P|180:264|200:224,1,100
220,192,176031,1,0,0:0:0:0:
288,160,176107,6,0,P|348:184|376:256,1,100
340,280,176334,1,0,0:0:0:0:
268,304,176410,2,0,P|196:280|192:236,1,100
220,196,176637,1,0,0:0:0:0:
288,160,176713,2,0,P|320:68|296:52,1,100
280,28,176940,1,0,0:0:0:0:
204,20,177016,2,0,P|136:64|148:92,1,100
180,128,177243,1,0,0:0:0:0:
444,184,177319,6,0,P|456:264|424:304,1,100
384,312,177546,1,0,0:0:0:0:
308,300,177622,2,0,P|260:252|272:208,1,100
316,172,177849,1,0,0:0:0:0:
384,140,177925,2,0,P|384:72|336:48,1,100
288,52,178153,1,0,0:0:0:0:
224,92,178228,2,0,P|188:180|208:200,1,100
328,216,178456,1,0,0:0:0:0:
476,268,178531,6,0,P|480:320|416:344,1,100
368,336,178759,1,0,0:0:0:0:
296,320,178834,2,0,P|244:280|236:232,1,100
264,180,179062,1,0,0:0:0:0:
320,128,179137,2,0,P|304:56|260:32,1,100
212,44,179365,1,0,0:0:0:0:
140,68,179440,2,0,P|68:136|68:148,1,100
88,200,179668,1,0,0:0:0:0:
296,236,179743,6,0,P|328:280|292:340,1,100
240,332,179971,1,0,0:0:0:0:
168,320,180046,2,0,P|108:272|112:232,1,100
156,196,180274,1,0,0:0:0:0:
220,156,180349,2,0,P|260:124|260:60,1,100
224,16,180577,1,0,0:0:0:0:
148,24,180653,2,0,P|72:92|76:116,1,100
96,148,180880,1,0,0:0:0:0:
408,208,180956,6,0,P|432:264|420:320,1,100
372,352,181183,1,0,0:0:0:0:
296,356,181259,1,0,0:0:0:0:
224,336,181334,1,0,0:0:0:0:
200,260,181409,1,0,0:0:0:0:
228,188,181486,1,0,0:0:0:0:
428,304,181562,5,0,0:0:0:0:
468,275,181637,1,0,0:0:0:0:
494,233,181713,1,0,0:0:0:0:
500,183,181789,1,0,0:0:0:0:
486,136,181865,1,0,0:0:0:0:
454,98,181940,1,0,0:0:0:0:
409,76,182016,1,0,0:0:0:0:
360,75,182092,1,0,0:0:0:0:
136,64,182168,6,0,P|112:104|112:184,1,100
160,208,182395,1,0,0:0:0:0:
356,288,182471,2,0,P|412:236|400:196,1,100
392,148,182698,1,0,0:0:0:0:
340,96,182774,2,0,P|252:108|248:120,1,100
240,176,183001,1,0,0:0:0:0:
440,324,183077,2,0,P|460:260|416:220,1,100
376,184,183304,1,0,0:0:0:0:
132,88,183380,6,0,P|100:136|124:188,1,100
180,200,183607,1,0,0:0:0:0:
224,260,183683,2,0,P|224:316|168:336,1,100
116,324,183910,1,0,0:0:0:0:
52,280,183986,2,0,P|32:232|44:160,1,100
88,132,184213,1,0,0:0:0:0:
360,208,184289,2,0,P|384:160|368:88,1,100
324,64,184516,1,0,0:0:0:0:
160,36,184592,6,0,P|104:80|112:120,1,100
152,160,184819,1,0,0:0:0:0:
336,156,184895,2,0,P|408:232|408:252,1,100
428,292,185122,1,0,0:0:0:0:
405,219,185198,2,0,P|380:177|335:155,1,100
264,128,185425,1,0,0:0:0:0:
68,240,185501,2,0,P|24:176|16:116,1,100
44,84,185728,1,0,0:0:0:0:
312,264,185804,6,0,P|348:196|332:172,1,100
300,124,186031,1,0,0:0:0:0:
92,152,186107,2,0,P|80:80|128:40,1,100
164,32,186334,1,0,0:0:0:0:
240,24,186410,2,0,P|288:112|272:132,1,100
248,156,186637,1,0,0:0:0:0:
64,144,186713,2,0,P|40:192|80:268,1,100
108,280,186940,1,0,0:0:0:0:
336,308,187016,6,0,P|380:244|360:200,1,100
332,168,187243,1,0,0:0:0:0:
105,224,187319,2,0,P|61:160|81:116,1,100
100,76,187546,1,0,0:0:0:0:
168,48,187622,1,0,0:0:0:0:
432,48,187774,1,0,0:0:0:0:
476,108,187849,1,0,0:0:0:0:
492,180,187925,2,0,P|428:264|420:264,1,100
376,288,188153,1,0,0:0:0:0:
152,288,188228,6,0,P|108:224|116:180,1,100
156,148,188456,1,0,0:0:0:0:
380,232,188531,2,0,P|396:176|376:128,1,100
312,92,188759,1,0,0:0:0:0:
204,48,188834,2,0,P|140:80|136:144,1,100
156,176,189062,1,0,0:0:0:0:
220,212,189137,2,0,P|256:256|216:292,1,100
168,316,189365,1,0,0:0:0:0:
368,252,189440,6,0,P|384:180|360:132,1,100
312,112,189668,1,0,0:0:0:0:
124,32,189743,2,0,P|64:76|72:128,1,100
88,168,189971,1,0,0:0:0:0:
148,212,190046,2,0,P|180:260|132:312,1,100
92,308,190274,1,0,0:0:0:0:
56,244,190349,2,0,P|40:184|80:152,1,100
124,116,190577,1,0,0:0:0:0:
457,298,190653,6,0,P|460:216|436:177,1,100
401,142,190880,1,0,0:0:0:0:
324,100,190956,1,0,0:0:0:0:
194,65,191032,1,0,0:0:0:0:
215,20,191107,1,0,0:0:0:0:
304,6,191183,1,0,0:0:0:0:
471,98,191259,5,0,0:0:0:0:
481,20,191334,1,0,0:0:0:0:
307,202,191410,1,0,0:0:0:0:
233,141,191486,1,0,0:0:0:0:
69,188,191562,1,0,0:0:0:0:
44,120,191637,1,0,0:0:0:0:
64,48,191713,1,0,0:0:0:0:
132,16,191789,1,0,0:0:0:0:
412,32,191865,6,0,P|428:112|420:144,1,100
128,88,192168,2,0,P|60:120|28:144,2,100
255,72,192622,1,0,0:0:0:0:
472,96,192774,2,0,P|472:152|424:208,1,100
160,192,193077,6,0,P|120:240|124:300,1,100
360,296,193380,2,0,L|452:248,2,100
228,300,193834,1,0,0:0:0:0:
56,264,193986,2,0,P|32:192|52:136,1,100
396,232,194289,6,0,P|404:168|348:120,1,100
216,144,194592,2,0,P|208:48|224:20,1,100
344,96,194895,2,0,P|392:40|364:0,1,100
160,20,195198,2,0,P|108:112|112:116,2,100
276,76,195653,5,0,0:0:0:0:
488,220,195804,2,0,P|480:268|444:312,1,100
296,328,196107,1,0,0:0:0:0:
36,204,196259,1,0,0:0:0:0:
308,216,196410,2,0,P|328:168|316:100,1,100
56,136,196713,6,0,P|40:60|64:4,1,100
344,280,197016,2,0,P|420:240|448:208,1,100
460,120,197319,1,0,0:0:0:0:
336,52,197471,1,0,0:0:0:0:
72,48,197622,2,0,P|52:104|84:164,1,100
336,152,197925,6,0,P|384:196|380:260,1,100
104,208,198228,2,0,P|56:236|36:300,2,100
224,180,198683,1,0,0:0:0:0:
480,168,198834,2,0,P|468:96|436:72,1,100
188,36,199137,6,0,P|144:72|140:144,1,100
412,176,199440,2,0,P|440:264|424:280,1,100
368,336,199743,1,0,0:0:0:0:
256,368,199895,1,0,0:0:0:0:
36,288,200046,2,0,P|36:232|80:192,1,100
180,160,200349,5,0,0:0:0:0:
320,100,200501,1,0,0:0:0:0:
48,48,200653,2,0,P|20:124|48:180,1,100
316,176,200956,2,0,P|312:240|284:280,1,100
36,336,201259,1,0,0:0:0:0:
272,292,201410,1,0,0:0:0:0:
496,224,201562,6,0,P|492:168|424:120,1,100
184,32,201865,2,0,P|120:84|124:116,2,100
320,24,202319,1,0,0:0:0:0:
104,172,202471,1,0,0:0:0:0:
408,280,202622,1,0,0:0:0:0:
108,324,202774,6,0,P|72:276|76:192,1,100
356,248,203077,1,0,0:0:0:0:
296,112,203228,1,0,0:0:0:0:
164,40,203380,1,0,0:0:0:0:
328,16,203531,1,0,0:0:0:0:
88,120,203683,2,0,P|48:192|64:248,1,100
304,228,203986,6,0,P|280:288|228:316,1,100
488,300,204289,2,0,L|496:188,1,100
184,156,204592,2,0,P|208:84|256:48,1,100
464,100,204895,1,0,0:0:0:0:
404,32,205046,1,0,0:0:0:0:
136,16,205198,6,0,P|60:80|64:112,1,100
324,132,205501,2,0,P|352:212|344:232,1,100
84,248,205804,2,0,P|100:312|164:340,1,100
448,320,206107,2,0,P|448:228|424:212,1,100
148,184,206410,6,0,P|88:144|80:88,1,100
360,136,206713,2,0,P|432:76|436:56,2,100
232,136,207168,1,0,0:0:0:0:
388,216,207319,1,0,0:0:0:0:
164,264,207471,1,0,0:0:0:0:
312,272,207622,6,0,P|324:208|284:164,1,100
28,188,207925,2,0,P|48:148|112:116,2,100
152,184,208380,1,0,0:0:0:0:
376,300,208531,2,0,P|388:228|372:192,1,100
220,96,208759,1,0,0:0:0:0:
68,48,208834,6,0,P|28:92|44:144,1,100
376,180,209137,2,0,P|380:232|344:272,1,100
44,216,209440,2,0,P|40:268|76:308,1,100
400,224,209743,1,0,0:0:0:0:
128,144,209895,1,0,0:0:0:0:
440,256,210046,6,0,P|440:192|392:148,1,100
356,120,210274,1,0,0:0:0:0:
280,96,210349,1,0,0:0:0:0:
20,140,210501,1,0,0:0:0:0:
324,200,210653,1,0,0:0:0:0:
224,272,210804,1,0,0:0:0:0:
476,300,210956,1,0,0:0:0:0:
296,312,211107,1,0,0:0:0:0:
220,288,211183,1,0,0:0:0:0:
172,240,211259,6,0,P|160:88|364:280,1,700
344,304,212370,1,0,0:0:0:0:
304,336,212420,1,0,0:0:0:0:
272,352,212471,6,0,P|76:300|304:48,1,700
340,80,213582,1,0,0:0:0:0:
372,120,213632,1,0,0:0:0:0:
396,164,213683,6,0,P|388:280|52:124,1,700
68,96,214794,1,0,0:0:0:0:
100,60,214844,1,0,0:0:0:0:
144,36,214895,6,0,P|368:64|148:300,1,700
124,276,216006,1,0,0:0:0:0:
96,236,216057,1,0,0:0:0:0:
84,188,216107,6,0,P|104:80|424:272,1,700
408,296,217218,1,0,0:0:0:0:
368,328,217269,1,0,0:0:0:0:
320,344,217319,6,0,P|64:288|288:80,1,700
320,116,218430,1,0,0:0:0:0:
344,160,218481,1,0,0:0:0:0:
356,208,218531,6,0,P|304:308|136:28,1,700
180,24,219642,1,0,0:0:0:0:
224,48,219693,1,0,0:0:0:0:
244,92,219743,6,0,P|240:192|136:240,2,200
224,72,220425,1,0,0:0:0:0:
176,56,220500,1,0,0:0:0:0:
127,61,220576,1,0,0:0:0:0:
84,84,220652,1,0,0:0:0:0:
55,125,220728,1,0,0:0:0:0:
44,174,220803,1,0,0:0:0:0:
54,223,220879,1,0,0:0:0:0:
256,344,220956,5,0,0:0:0:0:
332,324,221031,1,0,0:0:0:0:
372,256,221107,1,0,0:0:0:0:
384,180,221183,1,0,0:0:0:0:
160,344,221259,1,0,0:0:0:0:
84,324,221334,1,0,0:0:0:0:
44,256,221410,1,0,0:0:0:0:
32,180,221486,1,0,0:0:0:0:
200,200,221562,5,0,0:0:0:0:
264,152,221637,1,0,0:0:0:0:
408,72,221713,1,0,0:0:0:0:
468,28,221789,1,0,0:0:0:0:
140,120,221865,1,0,0:0:0:0:
160,44,221940,1,0,0:0:0:0:
252,52,222016,1,0,0:0:0:0:
312,12,222092,1,0,0:0:0:0:
88,80,222168,5,0,0:0:0:0:
60,152,222243,1,0,0:0:0:0:
252,232,222319,1,0,0:0:0:0:
280,312,222395,1,0,0:0:0:0:
72,328,222471,1,0,0:0:0:0:
63,279,222546,1,0,0:0:0:0:
80,232,222622,1,0,0:0:0:0:
118,200,222698,1,0,0:0:0:0:
336,220,222774,5,0,0:0:0:0:
376,184,222849,1,0,0:0:0:0:
384,128,222925,1,0,0:0:0:0:
360,80,223001,1,0,0:0:0:0:
140,120,223077,1,0,0:0:0:0:
160,44,223152,1,0,0:0:0:0:
252,52,223228,1,0,0:0:0:0:
312,12,223304,1,0,0:0:0:0:
480,332,223380,5,0,0:0:0:0:
488,268,223456,1,0,0:0:0:0:
472,208,223531,1,0,0:0:0:0:
424,164,223607,1,0,0:0:0:0:
268,156,223683,1,0,0:0:0:0:
200,132,223759,1,0,0:0:0:0:
360,96,223834,1,0,0:0:0:0:
432,76,223910,1,0,0:0:0:0:
224,24,223986,5,0,0:0:0:0:
184,76,224062,1,0,0:0:0:0:
180,140,224137,1,0,0:0:0:0:
212,196,224213,1,0,0:0:0:0:
432,236,224289,1,0,0:0:0:0:
360,272,224365,1,0,0:0:0:0:
180,296,224440,1,0,0:0:0:0:
108,332,224516,1,0,0:0:0:0:
400,272,224592,5,0,0:0:0:0:
432,216,224668,1,0,0:0:0:0:
412,156,224743,1,0,0:0:0:0:
360,116,224819,1,0,0:0:0:0:
192,88,224895,1,0,0:0:0:0:
136,56,224971,1,0,0:0:0:0:
328,52,225046,1,0,0:0:0:0:
384,16,225122,1,0,0:0:0:0:
172,84,225198,5,0,0:0:0:0:
140,140,225274,1,0,0:0:0:0:
144,204,225349,1,0,0:0:0:0:
184,256,225425,1,0,0:0:0:0:
372,328,225501,1,0,0:0:0:0:
416,280,225577,1,0,0:0:0:0:
408,216,225653,1,0,0:0:0:0:
368,164,225728,1,0,0:0:0:0:
176,144,225804,5,0,0:0:0:0:
120,100,225880,1,0,0:0:0:0:
132,40,225956,1,0,0:0:0:0:
180,0,226031,1,0,0:0:0:0:
408,132,226107,1,0,0:0:0:0:
384,72,226183,1,0,0:0:0:0:
280,32,226259,1,0,0:0:0:0:
220,8,226334,1,0,0:0:0:0:
16,80,226410,5,0,0:0:0:0:
20,129,226485,1,0,0:0:0:0:
44,172,226561,1,0,0:0:0:0:
85,200,226637,1,0,0:0:0:0:
244,236,226713,1,0,0:0:0:0:
316,264,226789,1,0,0:0:0:0:
116,276,226865,1,0,0:0:0:0:
56,316,226940,1,0,0:0:0:0:
336,340,227016,5,0,0:0:0:0:
396,296,227092,1,0,0:0:0:0:
376,200,227168,1,0,0:0:0:0:
312,160,227243,1,0,0:0:0:0:
92,172,227319,1,0,0:0:0:0:
104,96,227395,1,0,0:0:0:0:
184,84,227471,1,0,0:0:0:0:
176,16,227546,1,0,0:0:0:0:
16,192,227622,5,0,0:0:0:0:
40,132,227698,1,0,0:0:0:0:
144,92,227774,1,0,0:0:0:0:
204,68,227849,1,0,0:0:0:0:
400,228,227925,1,0,0:0:0:0:
428,188,228000,1,0,0:0:0:0:
419,140,228076,1,0,0:0:0:0:
379,113,228152,1,0,0:0:0:0:
176,132,228228,5,0,0:0:0:0:
146,172,228303,1,0,0:0:0:0:
140,221,228379,1,0,0:0:0:0:
157,267,228455,1,0,0:0:0:0:
368,304,228531,1,0,0:0:0:0:
392,244,228607,1,0,0:0:0:0:
376,180,228683,1,0,0:0:0:0:
336,128,228759,1,0,0:0:0:0:
200,164,228834,5,0,0:0:0:0:
168,80,228910,1,0,0:0:0:0:
336,128,228986,1,0,0:0:0:0:
372,52,229062,1,0,0:0:0:0:
180,24,229137,1,0,0:0:0:0:
139,51,229212,1,0,0:0:0:0:
123,97,229288,1,0,0:0:0:0:
140,144,229364,1,0,0:0:0:0:
332,224,229440,5,0,0:0:0:0:
320,288,229516,1,0,0:0:0:0:
236,340,229592,1,0,0:0:0:0:
180,360,229668,1,0,0:0:0:0:
36,288,229743,1,0,0:0:0:0:
32,238,229818,1,0,0:0:0:0:
51,192,229894,1,0,0:0:0:0:
88,159,229970,1,0,0:0:0:0:
280,168,230046,5,0,0:0:0:0:
352,136,230122,1,0,0:0:0:0:
412,76,230198,1,0,0:0:0:0:
432,0,230274,1,0,0:0:0:0:
280,68,230349,1,0,0:0:0:0:
212,52,230425,1,0,0:0:0:0:
44,72,230501,1,0,0:0:0:0:
24,0,230577,1,0,0:0:0:0:
256,296,230653,5,0,0:0:0:0:
332,276,230728,1,0,0:0:0:0:
372,208,230804,1,0,0:0:0:0:
384,132,230880,1,0,0:0:0:0:
180,152,230956,1,0,0:0:0:0:
160,84,231031,1,0,0:0:0:0:
248,80,231107,1,0,0:0:0:0:
264,12,231183,1,0,0:0:0:0:
96,40,231259,5,0,0:0:0:0:
58,72,231334,1,0,0:0:0:0:
49,120,231410,1,0,0:0:0:0:
71,164,231486,1,0,0:0:0:0:
232,216,231562,1,0,0:0:0:0:
304,240,231637,1,0,0:0:0:0:
88,256,231713,1,0,0:0:0:0:
40,304,231789,1,0,0:0:0:0:
272,324,231865,5,0,0:0:0:0:
307,290,231940,1,0,0:0:0:0:
313,241,232016,1,0,0:0:0:0:
287,200,232092,1,0,0:0:0:0:
132,152,232168,1,0,0:0:0:0:
108,88,232243,1,0,0:0:0:0:
188,72,232319,1,0,0:0:0:0:
196,8,232395,1,0,0:0:0:0:
404,156,232471,5,0,0:0:0:0:
420,109,232546,1,0,0:0:0:0:
407,62,232622,1,0,0:0:0:0:
368,32,232698,1,0,0:0:0:0:
204,48,232774,1,0,0:0:0:0:
144,48,232849,1,0,0:0:0:0:
328,116,232925,1,0,0:0:0:0:
360,160,233001,1,0,0:0:0:0:
152,160,233077,5,0,0:0:0:0:
120,198,233152,1,0,0:0:0:0:
116,247,233228,1,0,0:0:0:0:
140,290,233304,1,0,0:0:0:0:
376,308,233380,1,0,0:0:0:0:
360,236,233456,1,0,0:0:0:0:
284,180,233531,1,0,0:0:0:0:
312,116,233607,1,0,0:0:0:0:
480,108,233683,5,0,0:0:0:0:
504,32,233759,1,0,0:0:0:0:
332,16,233834,1,0,0:0:0:0:
244,32,233910,1,0,0:0:0:0:
76,80,233986,1,0,0:0:0:0:
46,118,234061,1,0,0:0:0:0:
48,167,234137,1,0,0:0:0:0:
82,202,234213,1,0,0:0:0:0:
300,268,234289,5,0,0:0:0:0:
308,204,234365,1,0,0:0:0:0:
288,144,234440,1,0,0:0:0:0:
240,100,234516,1,0,0:0:0:0:
432,132,234592,1,0,0:0:0:0:
476,68,234668,1,0,0:0:0:0:
404,48,234743,1,0,0:0:0:0:
384,8,234819,1,0,0:0:0:0:
164,20,234895,5,0,0:0:0:0:
122,46,234970,1,0,0:0:0:0:
101,91,235046,1,0,0:0:0:0:
106,140,235122,1,0,0:0:0:0:
288,168,235198,1,0,0:0:0:0:
329,194,235273,1,0,0:0:0:0:
346,240,235349,1,0,0:0:0:0:
332,287,235425,1,0,0:0:0:0:
140,304,235501,5,0,0:0:0:0:
112,240,235577,1,0,0:0:0:0:
36,204,235653,1,0,0:0:0:0:
68,136,235728,1,0,0:0:0:0:
280,160,235804,1,0,0:0:0:0:
272,84,235880,1,0,0:0:0:0:
224,32,235956,1,0,0:0:0:0:
168,0,236031,1,0,0:0:0:0:
384,172,236107,5,0,0:0:0:0:
368,100,236183,1,0,0:0:0:0:
288,40,236259,1,0,0:0:0:0:
240,16,236334,1,0,0:0:0:0:
36,36,236410,1,0,0:0:0:0:
20,96,236486,1,0,0:0:0:0:
176,144,236562,1,0,0:0:0:0:
232,184,236637,1,0,0:0:0:0:
40,224,236713,5,0,0:0:0:0:
27,271,236788,1,0,0:0:0:0:
45,317,236864,1,0,0:0:0:0:
86,344,236940,1,0,0:0:0:0:
288,348,237016,1,0,0:0:0:0:
334,332,237091,1,0,0:0:0:0:
362,292,237167,1,0,0:0:0:0:
361,242,237243,1,0,0:0:0:0:
208,204,237319,5,0,0:0:0:0:
144,164,237395,1,0,0:0:0:0:
328,148,237471,1,0,0:0:0:0:
368,96,237546,1,0,0:0:0:0:
124,112,237622,1,0,0:0:0:0:
136,48,237697,1,0,0:0:0:0:
188,8,237773,1,0,0:0:0:0:
252,0,237849,1,0,0:0:0:0:
408,36,237925,5,0,0:0:0:0:
472,76,238001,1,0,0:0:0:0:
252,92,238077,1,0,0:0:0:0:
204,152,238153,1,0,0:0:0:0:
396,176,238228,1,0,0:0:0:0:
432,208,238303,1,0,0:0:0:0:
431,256,238379,1,0,0:0:0:0:
394,288,238455,1,0,0:0:0:0:
208,344,238531,5,0,0:0:0:0:
192,280,238607,1,0,0:0:0:0:
216,220,238683,1,0,0:0:0:0:
256,168,238759,1,0,0:0:0:0:
92,304,238834,5,0,0:0:0:0:
176,288,238911,1,0,0:0:0:0:
340,280,238986,1,0,0:0:0:0:
424,264,239063,1,0,0:0:0:0:
200,192,239137,5,0,0:0:0:0:
152,120,239213,1,0,0:0:0:0:
252,112,239289,1,0,0:0:0:0:
320,68,239365,1,0,0:0:0:0:
216,68,239440,1,0,0:0:0:0:
168,8,239516,1,0,0:0:0:0:
284,28,239592,1,0,0:0:0:0:
336,96,239668,1,0,0:0:0:0:
168,136,239743,5,0,0:0:0:0:
100,192,239819,1,0,0:0:0:0:
288,240,239895,1,0,0:0:0:0:
368,280,239971,1,0,0:0:0:0:
76,272,240046,1,0,0:0:0:0:
48,348,240122,1,0,0:0:0:0:
216,328,240198,1,0,0:0:0:0:
300,344,240274,1,0,0:0:0:0:
472,280,240349,6,0,L|480:156,1,100
220,136,240653,1,0,0:0:0:0:
372,152,240804,2,0,P|352:68|336:52,1,100
200,36,241107,1,0,0:0:0:0:
436,256,241259,2,0,L|456:128,1,100
156,208,241562,6,0,L|92:84,1,100
372,152,241865,2,0,L|244:128,1,100
332,40,242168,1,0,0:0:0:0:
440,16,242319,1,0,0:0:0:0:
176,124,242471,2,0,L|136:232,1,100
384,304,242774,5,0,0:0:0:0:
348,160,242925,1,0,0:0:0:0:
220,84,243077,1,0,0:0:0:0:
72,56,243228,1,0,0:0:0:0:
384,252,243380,2,0,L|400:116,1,100
124,184,243683,2,0,L|104:68,1,100
216,112,243986,5,0,0:0:0:0:
80,84,244137,1,0,0:0:0:0:
380,280,244289,1,0,0:0:0:0:
164,272,244440,1,0,0:0:0:0:
140,168,244592,1,0,0:0:0:0:
240,96,244743,1,0,0:0:0:0:
480,244,244895,2,0,L|488:128,1,100
216,236,245198,6,0,L|148:112,1,100
408,192,245501,1,0,0:0:0:0:
420,68,245653,1,0,0:0:0:0:
284,92,245804,2,0,L|404:68,1,100
128,232,246107,2,0,L|120:112,1,100
380,244,246410,6,0,L|396:136,1,100
156,84,246713,1,0,0:0:0:0:
28,48,246865,1,0,0:0:0:0:
264,80,247016,1,0,0:0:0:0:
392,44,247168,1,0,0:0:0:0:
100,252,247319,2,0,L|84:124,1,100
172,128,247546,1,0,0:0:0:0:
376,228,247622,6,0,L|416:116,1,100
172,84,247925,1,0,0:0:0:0:
396,52,248077,1,0,0:0:0:0:
136,176,248228,2,0,L|112:32,1,100
392,120,248531,1,0,0:0:0:0:
120,80,248683,1,0,0:0:0:0:
400,300,248834,6,0,P|392:192|288:120,1,200
56,184,249289,1,0,0:0:0:0:
176,132,249440,1,0,0:0:0:0:
104,52,249592,1,0,0:0:0:0:
352,112,249743,1,0,0:0:0:0:
128,116,249895,1,0,0:0:0:0:
131,82,249945,1,0,0:0:0:0:
145,52,249996,1,0,0:0:0:0:
167,28,250046,5,0,0:0:0:0:
456,308,250956,5,0,0:0:0:0:
92,300,251259,6,0,L|84:240,3,50
248,216,251562,2,0,L|256:156,3,50
420,164,251865,6,0,L|436:104,3,50
256,100,252168,1,0,0:0:0:0:
192,72,252243,1,0,0:0:0:0:
380,44,252319,1,0,0:0:0:0:
448,8,252395,1,0,0:0:0:0:
184,28,252471,5,0,0:0:0:0:
137,44,252546,1,0,0:0:0:0:
110,85,252622,1,0,0:0:0:0:
112,134,252698,1,0,0:0:0:0:
298,134,252774,1,0,0:0:0:0:
345,146,252849,1,0,0:0:0:0:
382,178,252925,1,0,0:0:0:0:
403,224,253001,1,0,0:0:0:0:
401,273,253077,5,0,0:0:0:0:
375,317,253152,1,0,0:0:0:0:
336,344,253228,1,0,0:0:0:0:
287,352,253304,1,0,0:0:0:0:
132,296,253380,1,0,0:0:0:0:
64,324,253456,1,0,0:0:0:0:
232,252,253531,1,0,0:0:0:0:
300,292,253607,1,0,0:0:0:0:
92,216,253683,5,0,0:0:0:0:
68,144,253759,1,0,0:0:0:0:
84,72,253834,1,0,0:0:0:0:
148,36,253910,1,0,0:0:0:0:
308,36,253986,1,0,0:0:0:0:
351,60,254061,1,0,0:0:0:0:
383,98,254137,1,0,0:0:0:0:
400,145,254213,1,0,0:0:0:0:
399,194,254289,5,0,0:0:0:0:
381,241,254364,1,0,0:0:0:0:
348,278,254440,1,0,0:0:0:0:
304,301,254516,1,0,0:0:0:0:
124,344,254592,1,0,0:0:0:0:
89,308,254667,1,0,0:0:0:0:
67,263,254743,1,0,0:0:0:0:
59,214,254819,1,0,0:0:0:0:
67,164,254895,5,0,0:0:0:0:
89,120,254970,1,0,0:0:0:0:
124,84,255046,1,0,0:0:0:0:
168,60,255122,1,0,0:0:0:0:
348,278,255198,1,0,0:0:0:0:
371,233,255273,1,0,0:0:0:0:
380,184,255349,1,0,0:0:0:0:
375,135,255425,1,0,0:0:0:0:
355,89,255501,5,0,0:0:0:0:
323,51,255576,1,0,0:0:0:0:
282,23,255652,1,0,0:0:0:0:
234,9,255728,1,0,0:0:0:0:
60,148,255804,1,0,0:0:0:0:
96,72,255880,1,0,0:0:0:0:
272,132,255956,1,0,0:0:0:0:
308,56,256032,1,0,0:0:0:0:
124,68,256107,5,0,0:0:0:0:
80,128,256183,1,0,0:0:0:0:
88,204,256259,1,0,0:0:0:0:
140,256,256334,1,0,0:0:0:0:
340,304,256410,1,0,0:0:0:0:
372,265,256485,1,0,0:0:0:0:
391,220,256561,1,0,0:0:0:0:
396,170,256637,1,0,0:0:0:0:
385,121,256713,5,0,0:0:0:0:
361,78,256788,1,0,0:0:0:0:
324,44,256864,1,0,0:0:0:0:
279,23,256940,1,0,0:0:0:0:
108,36,257016,1,0,0:0:0:0:
69,66,257091,1,0,0:0:0:0:
51,112,257167,1,0,0:0:0:0:
61,161,257243,1,0,0:0:0:0:
236,196,257319,5,0,0:0:0:0:
304,220,257395,1,0,0:0:0:0:
100,236,257471,1,0,0:0:0:0:
72,312,257546,1,0,0:0:0:0:
304,324,257622,1,0,0:0:0:0:
345,296,257697,1,0,0:0:0:0:
372,254,257773,1,0,0:0:0:0:
381,205,257849,1,0,0:0:0:0:
371,157,257925,5,0,0:0:0:0:
342,116,258000,1,0,0:0:0:0:
300,90,258076,1,0,0:0:0:0:
251,81,258152,1,0,0:0:0:0:
80,64,258228,1,0,0:0:0:0:
28,120,258304,1,0,0:0:0:0:
44,192,258380,1,0,0:0:0:0:
108,232,258456,1,0,0:0:0:0:
276,248,258531,6,0,L|288:312,3,50
144,320,258834,1,0,0:0:0:0:
76,264,258910,1,0,0:0:0:0:
272,296,258986,1,0,0:0:0:0:
313,269,259061,1,0,0:0:0:0:
341,228,259137,5,0,0:0:0:0:
350,179,259213,1,0,0:0:0:0:
339,131,259289,1,0,0:0:0:0:
309,91,259364,1,0,0:0:0:0:
136,104,259440,1,0,0:0:0:0:
196,64,259516,1,0,0:0:0:0:
348,52,259592,1,0,0:0:0:0:
408,12,259668,1,0,0:0:0:0:
188,16,259743,5,0,0:0:0:0:
72,112,259895,1,0,0:0:0:0:
32,248,260046,1,0,0:0:0:0:
256,192,260198,2,0,L|372:184,2,100
40,200,260653,1,0,0:0:0:0:
256,192,260804,1,0,0:0:0:0:
472,192,260956,5,0,0:0:0:0:
483,143,261031,1,0,0:0:0:0:
470,96,261107,1,0,0:0:0:0:
435,60,261183,1,0,0:0:0:0:
252,68,261259,1,0,0:0:0:0:
180,100,261334,1,0,0:0:0:0:
324,144,261410,1,0,0:0:0:0:
380,188,261486,1,0,0:0:0:0:
284,300,261562,5,0,0:0:0:0:
240,277,261637,1,0,0:0:0:0:
215,234,261713,1,0,0:0:0:0:
216,185,261789,1,0,0:0:0:0:
368,192,261865,1,0,0:0:0:0:
402,157,261940,1,0,0:0:0:0:
404,108,262016,1,0,0:0:0:0:
372,71,262092,1,0,0:0:0:0:
204,32,262168,5,0,0:0:0:0:
160,56,262243,1,0,0:0:0:0:
126,93,262319,1,0,0:0:0:0:
105,137,262395,1,0,0:0:0:0:
98,187,262471,1,0,0:0:0:0:
106,236,262546,1,0,0:0:0:0:
128,280,262622,1,0,0:0:0:0:
163,316,262698,1,0,0:0:0:0:
336,280,262774,5,0,0:0:0:0:
344,204,262850,1,0,0:0:0:0:
176,184,262925,1,0,0:0:0:0:
208,112,263001,1,0,0:0:0:0:
396,124,263077,1,0,0:0:0:0:
408,200,263153,1,0,0:0:0:0:
376,268,263228,1,0,0:0:0:0:
320,316,263304,1,0,0:0:0:0:
416,320,263380,5,0,0:0:0:0:
400,248,263456,1,0,0:0:0:0:
348,196,263531,1,0,0:0:0:0:
280,160,263607,1,0,0:0:0:0:
128,64,263683,1,0,0:0:0:0:
81,82,263758,1,0,0:0:0:0:
45,116,263834,1,0,0:0:0:0:
25,161,263910,1,0,0:0:0:0:
23,211,263986,5,0,0:0:0:0:
40,257,264061,1,0,0:0:0:0:
73,294,264137,1,0,0:0:0:0:
118,315,264213,1,0,0:0:0:0:
316,336,264289,1,0,0:0:0:0:
329,288,264364,1,0,0:0:0:0:
332,238,264440,1,0,0:0:0:0:
325,188,264516,1,0,0:0:0:0:
307,142,264592,5,0,0:0:0:0:
280,100,264667,1,0,0:0:0:0:
244,65,264743,1,0,0:0:0:0:
202,38,264819,1,0,0:0:0:0:
424,168,264895,1,0,0:0:0:0:
444,96,264971,1,0,0:0:0:0:
368,80,265046,1,0,0:0:0:0:
352,20,265122,1,0,0:0:0:0:
168,160,265198,5,0,0:0:0:0:
204,96,265274,1,0,0:0:0:0:
360,128,265350,1,0,0:0:0:0:
396,64,265426,1,0,0:0:0:0:
224,24,265501,1,0,0:0:0:0:
180,48,265576,1,0,0:0:0:0:
153,89,265652,1,0,0:0:0:0:
148,139,265728,1,0,0:0:0:0:
336,208,265804,5,0,0:0:0:0:
352,254,265879,1,0,0:0:0:0:
341,302,265955,1,0,0:0:0:0:
305,335,266031,1,0,0:0:0:0:
152,364,266107,1,0,0:0:0:0:
85,325,266183,1,0,0:0:0:0:
46,261,266259,1,0,0:0:0:0:
41,188,266334,1,0,0:0:0:0:
62,117,266410,5,0,0:0:0:0:
104,56,266486,1,0,0:0:0:0:
172,24,266562,1,0,0:0:0:0:
244,16,266637,1,0,0:0:0:0:
436,328,266713,1,0,0:0:0:0:
460,256,266789,1,0,0:0:0:0:
368,228,266865,1,0,0:0:0:0:
344,144,266940,1,0,0:0:0:0:
436,176,267016,5,0,0:0:0:0:
453,130,267091,1,0,0:0:0:0:
435,84,267167,1,0,0:0:0:0:
392,52,267243,1,0,0:0:0:0:
200,64,267319,1,0,0:0:0:0:
144,116,267395,1,0,0:0:0:0:
288,160,267471,1,0,0:0:0:0:
328,216,267546,1,0,0:0:0:0:
144,356,267622,5,0,0:0:0:0:
101,330,267697,1,0,0:0:0:0:
74,288,267773,1,0,0:0:0:0:
69,239,267849,1,0,0:0:0:0:
240,248,267925,1,0,0:0:0:0:
300,212,268001,1,0,0:0:0:0:
148,152,268077,1,0,0:0:0:0:
92,112,268153,1,0,0:0:0:0:
260,120,268228,5,0,0:0:0:0:
404,112,268380,1,0,0:0:0:0:
368,40,268456,1,0,0:0:0:0:
200,12,268531,1,0,0:0:0:0:
320,120,268683,1,0,0:0:0:0:
284,48,268759,1,0,0:0:0:0:
116,20,268834,1,0,0:0:0:0:
248,164,268986,1,0,0:0:0:0:
212,92,269062,1,0,0:0:0:0:
44,64,269137,1,0,0:0:0:0:
364,284,269289,1,0,0:0:0:0:
416,220,269365,1,0,0:0:0:0:
232,312,269440,5,0,0:0:0:0:
160,288,269515,1,0,0:0:0:0:
296,240,269591,1,0,0:0:0:0:
360,200,269667,1,0,0:0:0:0:
136,176,269743,2,0,L|56:148,2,66.6666666666667,0|0|0,3:3|3:3|3:3,3:3:0:0:
220,116,270046,2,0,L|300:88,2,66.6666666666667,0|0|0,3:3|3:3|3:3,3:3:0:0:
116,96,270349,2,0,L|36:68,2,66.6666666666667,0|0|0,3:3|3:3|3:3,3:3:0:0:
304,280,270653,5,0,0:0:0:0:
380,260,270728,1,0,0:0:0:0:
420,192,270804,1,0,0:0:0:0:
432,116,270880,1,0,0:0:0:0:
208,280,270956,1,0,0:0:0:0:
132,260,271031,1,0,0:0:0:0:
92,192,271107,1,0,0:0:0:0:
80,116,271183,1,0,0:0:0:0:
324,196,271259,5,0,0:0:0:0:
308,124,271334,1,0,0:0:0:0:
256,72,271410,1,0,0:0:0:0:
184,48,271486,1,0,0:0:0:0:
372,264,271562,1,0,0:0:0:0:
436,228,271637,1,0,0:0:0:0:
444,152,271713,1,0,0:0:0:0:
408,88,271789,1,0,0:0:0:0:
200,180,271865,5,0,0:0:0:0:
248,124,271940,1,0,0:0:0:0:
432,128,272016,1,0,0:0:0:0:
480,72,272091,1,0,0:0:0:0:
280,40,272168,1,0,0:0:0:0:
231,49,272243,1,0,0:0:0:0:
188,75,272319,1,0,0:0:0:0:
157,114,272395,1,0,0:0:0:0:
141,161,272471,5,0,0:0:0:0:
141,211,272546,1,0,0:0:0:0:
158,257,272622,1,0,0:0:0:0:
191,295,272698,1,0,0:0:0:0:
364,300,272774,1,0,0:0:0:0:
424,252,272850,1,0,0:0:0:0:
252,220,272925,1,0,0:0:0:0:
192,172,273001,1,0,0:0:0:0:
28,144,273077,5,0,0:0:0:0:
21,95,273152,1,0,0:0:0:0:
49,55,273228,1,0,0:0:0:0:
96,43,273304,1,0,0:0:0:0:
284,204,273380,1,0,0:0:0:0:
307,160,273455,1,0,0:0:0:0:
304,111,273531,1,0,0:0:0:0:
276,70,273607,1,0,0:0:0:0:
124,40,273683,5,0,0:0:0:0:
92,78,273758,1,0,0:0:0:0:
73,124,273834,1,0,0:0:0:0:
67,174,273910,1,0,0:0:0:0:
75,223,273986,1,0,0:0:0:0:
96,268,274061,1,0,0:0:0:0:
129,305,274137,1,0,0:0:0:0:
171,332,274213,1,0,0:0:0:0:
344,316,274289,5,0,0:0:0:0:
400,268,274364,1,0,0:0:0:0:
416,196,274440,1,0,0:0:0:0:
396,124,274516,1,0,0:0:0:0:
248,208,274592,1,0,0:0:0:0:
176,184,274668,1,0,0:0:0:0:
28,120,274743,1,0,0:0:0:0:
32,48,274819,1,0,0:0:0:0:
196,136,274895,5,0,0:0:0:0:
268,160,274971,1,0,0:0:0:0:
436,140,275046,1,0,0:0:0:0:
448,60,275122,1,0,0:0:0:0:
256,32,275198,1,0,0:0:0:0:
192,68,275273,1,0,0:0:0:0:
160,136,275349,1,0,0:0:0:0:
168,212,275425,1,0,0:0:0:0:
356,328,275501,5,0,0:0:0:0:
432,308,275576,1,0,0:0:0:0:
472,240,275652,1,0,0:0:0:0:
484,164,275728,1,0,0:0:0:0:
283,64,275804,1,0,0:0:0:0:
234,74,275879,1,0,0:0:0:0:
192,100,275955,1,0,0:0:0:0:
161,139,276031,1,0,0:0:0:0:
146,187,276107,5,0,0:0:0:0:
148,236,276182,1,0,0:0:0:0:
167,282,276258,1,0,0:0:0:0:
200,318,276334,1,0,0:0:0:0:
400,304,276410,1,0,0:0:0:0:
384,232,276486,1,0,0:0:0:0:
340,172,276562,1,0,0:0:0:0:
268,148,276637,1,0,0:0:0:0:
52,188,276713,5,0,0:0:0:0:
32,104,276789,1,0,0:0:0:0:
192,104,276865,1,0,0:0:0:0:
228,40,276940,1,0,0:0:0:0:
52,188,277016,1,0,0:0:0:0:
33,234,277091,1,0,0:0:0:0:
33,283,277167,1,0,0:0:0:0:
52,329,277243,1,0,0:0:0:0:
148,336,277319,5,0,0:0:0:0:
216,296,277395,1,0,0:0:0:0:
120,260,277471,1,0,0:0:0:0:
108,196,277546,1,0,0:0:0:0:
288,216,277622,1,0,0:0:0:0:
336,156,277698,1,0,0:0:0:0:
192,112,277774,1,0,0:0:0:0:
148,52,277850,1,0,0:0:0:0:
384,232,277925,5,0,0:0:0:0:
436,168,278001,1,0,0:0:0:0:
412,76,278077,1,0,0:0:0:0:
336,36,278153,1,0,0:0:0:0:
148,156,278228,1,0,0:0:0:0:
204,112,278304,1,0,0:0:0:0:
360,144,278380,1,0,0:0:0:0:
416,100,278456,1,0,0:0:0:0:
240,48,278531,5,0,0:0:0:0:
180,92,278607,1,0,0:0:0:0:
168,168,278683,1,0,0:0:0:0:
204,236,278759,1,0,0:0:0:0:
436,272,278834,1,0,0:0:0:0:
464,188,278910,1,0,0:0:0:0:
288,156,278986,1,0,0:0:0:0:
260,64,279062,1,0,0:0:0:0:
488,296,279137,5,0,0:0:0:0:
464,148,279289,1,0,0:0:0:0:
364,40,279440,1,0,0:0:0:0:
112,92,279592,1,0,0:0:0:0:
440,172,279743,2,0,L|444:300,1,100
72,172,280046,2,0,L|68:300,1,100
208,284,280274,1,0,0:0:0:0:
372,276,280350,5,0,0:0:0:0:
436,240,280425,1,0,0:0:0:0:
460,168,280501,1,0,0:0:0:0:
464,92,280577,1,0,0:0:0:0:
284,36,280653,1,0,0:0:0:0:
238,54,280728,1,0,0:0:0:0:
201,88,280804,1,0,0:0:0:0:
177,132,280880,1,0,0:0:0:0:
171,181,280956,5,0,0:0:0:0:
181,230,281031,1,0,0:0:0:0:
207,272,281107,1,0,0:0:0:0:
246,303,281183,1,0,0:0:0:0:
420,288,281259,1,0,0:0:0:0:
400,204,281334,1,0,0:0:0:0:
312,168,281410,1,0,0:0:0:0:
284,88,281486,1,0,0:0:0:0:
120,36,281562,5,0,0:0:0:0:
73,50,281637,1,0,0:0:0:0:
47,92,281713,1,0,0:0:0:0:
55,141,281789,1,0,0:0:0:0:
204,132,281865,1,0,0:0:0:0:
242,162,281940,1,0,0:0:0:0:
266,206,282016,1,0,0:0:0:0:
269,256,282092,1,0,0:0:0:0:
251,302,282168,5,0,0:0:0:0:
217,338,282243,1,0,0:0:0:0:
170,356,282319,1,0,0:0:0:0:
121,353,282395,1,0,0:0:0:0:
320,288,282471,1,0,0:0:0:0:
388,248,282546,1,0,0:0:0:0:
180,192,282622,1,0,0:0:0:0:
132,136,282698,1,0,0:0:0:0:
348,180,282774,5,0,0:0:0:0:
384,112,282850,1,0,0:0:0:0:
364,40,282925,1,0,0:0:0:0:
296,12,283001,1,0,0:0:0:0:
144,40,283077,1,0,0:0:0:0:
108,74,283152,1,0,0:0:0:0:
106,122,283228,1,0,0:0:0:0:
138,159,283304,1,0,0:0:0:0:
288,188,283380,5,0,0:0:0:0:
340,244,283456,1,0,0:0:0:0:
308,312,283531,1,0,0:0:0:0:
240,344,283607,1,0,0:0:0:0:
80,328,283683,1,0,0:0:0:0:
58,283,283758,1,0,0:0:0:0:
49,234,283834,1,0,0:0:0:0:
55,184,283910,1,0,0:0:0:0:
75,138,283986,5,0,0:0:0:0:
107,100,284061,1,0,0:0:0:0:
148,72,284137,1,0,0:0:0:0:
196,58,284213,1,0,0:0:0:0:
428,228,284289,1,0,0:0:0:0:
452,152,284365,1,0,0:0:0:0:
392,104,284440,1,0,0:0:0:0:
368,32,284516,1,0,0:0:0:0:
196,88,284592,5,0,0:0:0:0:
264,56,284668,1,0,0:0:0:0:
408,60,284743,1,0,0:0:0:0:
476,28,284819,1,0,0:0:0:0:
252,168,284895,1,0,0:0:0:0:
236,248,284971,1,0,0:0:0:0:
428,164,285046,1,0,0:0:0:0:
444,244,285122,1,0,0:0:0:0:
256,192,285198,6,0,L|232:240,3,50
96,316,285501,1,0,0:0:0:0:
66,276,285576,1,0,0:0:0:0:
49,229,285652,1,0,0:0:0:0:
48,179,285728,1,0,0:0:0:0:
62,131,285804,5,0,0:0:0:0:
90,90,285879,1,0,0:0:0:0:
130,60,285955,1,0,0:0:0:0:
176,42,286031,1,0,0:0:0:0:
396,224,286107,2,0,L|412:168,3,50
248,120,286410,5,0,0:0:0:0:
184,160,286486,1,0,0:0:0:0:
152,228,286562,1,0,0:0:0:0:
188,292,286637,1,0,0:0:0:0:
384,336,286713,1,0,0:0:0:0:
397,287,286788,1,0,0:0:0:0:
399,238,286864,1,0,0:0:0:0:
390,189,286940,1,0,0:0:0:0:
369,143,287016,5,0,0:0:0:0:
339,104,287091,1,0,0:0:0:0:
300,72,287167,1,0,0:0:0:0:
255,51,287243,1,0,0:0:0:0:
64,124,287319,1,0,0:0:0:0:
20,52,287395,1,0,0:0:0:0:
196,80,287471,1,0,0:0:0:0:
255,51,287546,1,0,0:0:0:0:
428,184,287622,5,0,0:0:0:0:
460,116,287698,1,0,0:0:0:0:
424,52,287774,1,0,0:0:0:0:
356,24,287850,1,0,0:0:0:0:
180,20,287925,1,0,0:0:0:0:
148,58,288000,1,0,0:0:0:0:
124,102,288076,1,0,0:0:0:0:
108,149,288152,1,0,0:0:0:0:
100,199,288228,5,0,0:0:0:0:
101,249,288303,1,0,0:0:0:0:
110,298,288379,1,0,0:0:0:0:
128,344,288455,1,0,0:0:0:0:
304,304,288531,1,0,0:0:0:0:
384,280,288607,1,0,0:0:0:0:
200,176,288683,1,0,0:0:0:0:
128,128,288759,1,0,0:0:0:0:
356,148,288834,5,0,0:0:0:0:
424,108,288910,1,0,0:0:0:0:
452,180,288986,1,0,0:0:0:0:
420,248,289062,1,0,0:0:0:0:
200,80,289137,1,0,0:0:0:0:
72,132,289289,2,0,L|20:152,2,50
308,204,289592,1,0,0:0:0:0:
276,132,289668,1,0,0:0:0:0:
136,84,289743,1,0,0:0:0:0:
276,292,289895,1,0,0:0:0:0:
244,220,289971,1,0,0:0:0:0:
76,160,290046,6,0,P|64:240|392:124,1,700
175,26,291259,6,0,P|46:127|240:48,1,700
472,348,292471,6,0,P|488:256|80:-84,1,700
316,192,293683,5,0,0:0:0:0:
