osu file format v14

[General]
AudioFilename: audio.mp3
AudioLeadIn: 0
PreviewTime: 72113
Countdown: 0
SampleSet: Soft
StackLeniency: 0.3
Mode: 0
LetterboxInBreaks: 0
WidescreenStoryboard: 1

[Editor]
Bookmarks: 26431,52613,72250,89704,107159,135522,152977,170431,187886,200977,220068
DistanceSpacing: 0.8
BeatDivisor: 4
GridSize: 32
TimelineZoom: 2.3

[Metadata]
Title:Keelhauled
TitleUnicode:Keelhauled
Artist:Alestorm
ArtistUnicode:Alestorm
Creator:Camo
Version:ZELQ'S EXTRA
Source:
Tags:captain morgans revenge black sails at midnight bottle of rum awesomemacd lecandy zelq gabdu09 heavy pirate folk english metal
BeatmapID:3295345
BeatmapSetID:1537993

[Difficulty]
HPDrainRate:5
CircleSize:4
OverallDifficulty:9
ApproachRate:9.5
SliderMultiplier:1.9
SliderTickRate:1

[Events]
//Background and Video events
0,0,"andrey-bakulin-06.jpg",0,0
//Break Periods
//Storyboard Layer 0 (Background)
//Storyboard Layer 1 (Fail)
//Storyboard Layer 2 (Pass)
//Storyboard Layer 3 (Foreground)
//Storyboard Layer 4 (Overlay)
//Storyboard Sound Samples

[TimingPoints]
250,272.727272727273,4,2,1,70,1,0
250,-111.111111111111,4,2,1,70,0,0
4340,-83.3333333333333,4,2,1,70,0,0
4544,-83.3333333333333,4,2,1,5,0,0
4613,-111.111111111111,4,2,1,70,0,0
8704,-83.3333333333333,4,2,1,70,0,0
8908,-83.3333333333333,4,2,1,5,0,0
8977,-111.111111111111,4,2,1,70,0,0
11295,-111.111111111111,4,2,1,60,0,0
11431,-111.111111111111,4,2,1,70,0,0
13818,-111.111111111111,4,2,1,60,0,0
13886,-111.111111111111,4,2,1,70,0,0
16204,-111.111111111111,4,2,1,60,0,0
16340,-111.111111111111,4,2,1,70,0,0
17431,-200,4,2,1,70,0,0
17635,-200,4,2,1,5,0,0
17704,-111.111111111111,4,2,1,70,0,0
18386,-111.111111111111,4,2,1,60,0,0
18522,-111.111111111111,4,2,1,70,0,0
19818,-111.111111111111,4,2,1,60,0,0
19886,-111.111111111111,4,2,1,70,0,0
20567,-111.111111111111,4,2,1,60,0,0
20704,-111.111111111111,4,2,1,70,0,0
22545,-111.111111111111,4,2,1,60,0,0
22613,-111.111111111111,4,2,1,70,0,0
26159,-200,4,2,1,70,0,0
26363,-200,4,2,1,5,0,0
26431,-90.9090909090908,4,2,1,70,0,0
30318,-90.9090909090908,4,2,1,60,0,0
30386,-90.9090909090908,4,2,1,70,0,0
35295,-90.9090909090908,4,2,1,60,0,0
35431,-90.9090909090908,4,2,1,70,0,0
36999,-90.9090909090908,4,2,1,60,0,0
37068,-90.9090909090908,4,2,1,70,0,0
37136,-90.9090909090908,4,2,1,60,0,0
37204,-90.9090909090908,4,2,1,70,0,0
37272,-90.9090909090908,4,2,1,60,0,0
37340,-90.9090909090908,4,2,1,70,0,0
38363,-90.9090909090908,4,2,1,60,0,0
38431,-90.9090909090908,4,2,1,70,0,0
39658,-90.9090909090908,4,2,1,60,0,0
39795,-90.9090909090908,4,2,1,70,0,0
40272,-90.9090909090908,4,2,1,60,0,0
40340,-90.9090909090908,4,2,1,70,0,0
43886,-125,4,2,1,70,0,0
43954,-125,4,2,1,5,0,0
44022,-125,4,2,1,60,0,0
46068,-125,4,2,1,70,0,0
46136,-125,4,2,1,5,0,0
46204,-125,4,2,1,60,0,0
48250,-125,4,2,1,70,0,0
48318,-125,4,2,1,5,0,0
48386,-125,4,2,1,60,0,0
49340,-125,4,2,1,70,0,0
49409,-125,4,2,1,5,0,0
49477,-125,4,2,1,60,0,0
50431,-125,4,2,1,70,0,0
50500,-125,4,2,1,5,0,0
50568,-125,4,2,1,60,0,0
50977,-125,4,2,1,70,0,0
51045,-125,4,2,1,5,0,0
51113,-125,4,2,1,60,0,0
51522,-62.5,4,2,1,70,0,0
51795,-83.3333333333333,4,2,1,70,0,0
52613,-100,4,2,1,70,0,0
52817,-100,4,2,1,5,0,0
52886,-100,4,2,1,70,0,0
53090,-100,4,2,1,60,0,0
53295,-100,4,2,1,70,0,0
54113,-100,4,2,1,60,0,0
54249,-100,4,2,1,70,0,0
54726,-100,4,2,1,60,0,0
54795,-100,4,2,1,70,0,0
56226,-100,4,2,1,60,0,0
56295,-100,4,2,1,70,0,0
57181,-100,4,2,1,60,0,0
57250,-100,4,2,1,70,0,0
57318,-100,4,2,1,60,0,0
57386,-100,4,2,1,70,0,0
57522,-100,4,2,1,60,0,0
57659,-100,4,2,1,70,0,0
58136,-100,4,2,1,60,0,0
58204,-100,4,2,1,70,0,0
59295,-100,4,2,1,60,0,0
59431,-100,4,2,1,70,0,0
60113,-100,4,2,1,60,0,0
60250,-100,4,2,1,70,0,0
60318,-100,4,2,1,60,0,0
60386,-100,4,2,1,70,0,0
60454,-100,4,2,1,60,0,0
60522,-71.4285714285714,4,2,1,70,0,0
61340,-83.3333333333333,4,2,1,70,0,0
62704,-83.3333333333333,4,2,1,60,0,0
62840,-83.3333333333333,4,2,1,70,0,0
63181,-83.3333333333333,4,2,1,60,0,0
63250,-125,4,2,1,70,0,0
63522,-83.3333333333333,4,2,1,70,0,0
63590,-83.3333333333333,4,2,1,60,0,0
63659,-83.3333333333333,4,2,1,70,0,0
64409,-83.3333333333333,4,2,1,60,0,0
64477,-83.3333333333333,4,2,1,70,0,0
65840,-83.3333333333333,4,2,1,60,0,0
65977,-83.3333333333333,4,2,1,70,0,0
67136,-83.3333333333333,4,2,1,60,0,0
67204,-83.3333333333333,4,2,1,70,0,0
67954,-83.3333333333333,4,2,1,60,0,0
68022,-83.3333333333333,4,2,1,70,0,0
70068,-71.4285714285714,4,2,1,70,0,0
70272,-71.4285714285714,4,2,1,5,0,0
70340,-71.4285714285714,4,2,1,70,0,0
70749,-71.4285714285714,4,2,1,60,0,0
70886,-71.4285714285714,4,2,1,70,0,0
71295,-71.4285714285714,4,2,1,60,0,0
71431,-71.4285714285714,4,2,1,70,0,0
72250,-76.9230769230769,4,2,1,70,0,1
72386,-76.9230769230769,4,2,1,60,0,1
72522,-76.9230769230769,4,2,1,70,0,1
73272,-76.9230769230769,4,2,1,60,0,1
73340,-76.9230769230769,4,2,1,70,0,1
73476,-76.9230769230769,4,2,1,60,0,1
73613,-76.9230769230769,4,2,1,70,0,1
74567,-76.9230769230769,4,2,1,60,0,1
74704,-76.9230769230769,4,2,1,70,0,1
74840,-76.9230769230769,4,2,1,60,0,1
74977,-76.9230769230769,4,2,1,70,0,1
75454,-76.9230769230769,4,2,1,60,0,1
75522,-76.9230769230769,4,2,1,70,0,1
75658,-76.9230769230769,4,2,1,60,0,1
75795,-76.9230769230769,4,2,1,70,0,1
75931,-76.9230769230769,4,2,1,60,0,1
76068,-76.9230769230769,4,2,1,70,0,1
76545,-76.9230769230769,4,2,1,60,0,1
76613,-76.9230769230769,4,2,1,70,0,1
77568,-76.9230769230769,4,2,1,60,0,1
77636,-76.9230769230769,4,2,1,5,0,1
77704,-76.9230769230769,4,2,1,70,0,1
78454,-76.9230769230769,4,2,1,60,0,1
78522,-76.9230769230769,4,2,1,70,0,1
78590,-76.9230769230769,4,2,1,60,0,1
78659,-76.9230769230769,4,2,1,70,0,1
79681,-76.9230769230769,4,2,1,60,0,1
79750,-76.9230769230769,4,2,1,70,0,1
79818,-76.9230769230769,4,2,1,60,0,1
79886,-76.9230769230769,4,2,1,70,0,1
80431,-62.5,4,2,1,70,0,1
80977,-76.9230769230769,4,2,1,70,0,1
81113,-76.9230769230769,4,2,1,60,0,1
81250,-76.9230769230769,4,2,1,70,0,1
82000,-76.9230769230769,4,2,1,60,0,1
82068,-76.9230769230769,4,2,1,70,0,1
82204,-76.9230769230769,4,2,1,60,0,1
82340,-76.9230769230769,4,2,1,70,0,1
82476,-76.9230769230769,4,2,1,60,0,1
82613,-76.9230769230769,4,2,1,70,0,1
83295,-76.9230769230769,4,2,1,60,0,1
83431,-76.9230769230769,4,2,1,70,0,1
83567,-76.9230769230769,4,2,1,60,0,1
83704,-76.9230769230769,4,2,1,70,0,1
84181,-76.9230769230769,4,2,1,60,0,1
84250,-76.9230769230769,4,2,1,70,0,1
84386,-76.9230769230769,4,2,1,60,0,1
84522,-76.9230769230769,4,2,1,70,0,1
84590,-76.9230769230769,4,2,1,60,0,1
84795,-76.9230769230769,4,2,1,70,0,1
84999,-76.9230769230769,4,2,1,60,0,1
85068,-76.9230769230769,4,2,1,70,0,1
85272,-76.9230769230769,4,2,1,60,0,1
85340,-76.9230769230769,4,2,1,70,0,1
86295,-76.9230769230769,4,2,1,60,0,1
86431,-76.9230769230769,4,2,1,70,0,1
86635,-76.9230769230769,4,2,1,60,0,1
86704,-76.9230769230769,4,2,1,70,0,1
87454,-76.9230769230769,4,2,1,60,0,1
87522,-76.9230769230769,4,2,1,70,0,1
89159,-62.5,4,2,1,70,0,1
89704,-90.9090909090909,4,2,1,70,0,0
91544,-90.9090909090909,4,2,1,60,0,0
91613,-90.9090909090909,4,2,1,70,0,0
93045,-90.9090909090909,4,2,1,60,0,0
93113,-90.9090909090909,4,2,1,70,0,0
93318,-90.9090909090909,4,2,1,60,0,0
93386,-90.9090909090909,4,2,1,70,0,0
93590,-90.9090909090909,4,2,1,60,0,0
93659,-90.9090909090909,4,2,1,70,0,0
93727,-90.9090909090909,4,2,1,60,0,0
93795,-90.9090909090909,4,2,1,70,0,0
95908,-90.9090909090909,4,2,1,60,0,0
95977,-90.9090909090909,4,2,1,70,0,0
96318,-90.9090909090909,4,2,1,60,0,0
96386,-90.9090909090909,4,2,1,70,0,0
101636,-90.9090909090909,4,2,1,60,0,0
101704,-90.9090909090909,4,2,1,70,0,0
104635,-90.9090909090909,4,2,1,60,0,0
104704,-90.9090909090909,4,2,1,70,0,0
104772,-90.9090909090909,4,2,1,60,0,0
104840,-90.9090909090909,4,2,1,70,0,0
104908,-90.9090909090909,4,2,1,60,0,0
104977,-90.9090909090909,4,2,1,70,0,0
105726,-90.9090909090909,4,2,1,60,0,0
105795,-90.9090909090909,4,2,1,70,0,0
105999,-90.9090909090909,4,2,1,60,0,0
106068,-90.9090909090909,4,2,1,70,0,0
106272,-90.9090909090909,4,2,1,60,0,0
106340,-90.9090909090909,4,2,1,70,0,0
106544,-90.9090909090909,4,2,1,60,0,0
106613,-90.9090909090909,4,2,1,70,0,0
106681,-90.9090909090909,4,2,1,60,0,0
106750,-90.9090909090909,4,2,1,70,0,0
107159,-100,4,2,1,70,0,0
107295,-100,4,2,1,60,0,0
107431,-100,4,2,1,70,0,0
108181,-100,4,2,1,5,0,0
108250,-100,4,2,1,70,0,0
109476,-100,4,2,1,60,0,0
109613,-100,4,2,1,70,0,0
110567,-100,4,2,1,60,0,0
110704,-100,4,2,1,70,0,0
111590,-100,4,2,1,60,0,0
111659,-100,4,2,1,70,0,0
112477,-100,4,2,1,60,0,0
112613,-100,4,2,1,70,0,0
112681,-100,4,2,1,60,0,0
112750,-100,4,2,1,70,0,0
112818,-100,4,2,1,60,0,0
112886,-100,4,2,1,70,0,0
113635,-100,4,2,1,60,0,0
113704,-100,4,2,1,70,0,0
113840,-100,4,2,1,60,0,0
113977,-100,4,2,1,70,0,0
114659,-100,4,2,1,60,0,0
114795,-100,4,2,1,70,0,0
115750,-100,4,2,1,60,0,0
115886,-100,4,2,1,70,0,0
116022,-100,4,2,1,60,0,0
116159,-100,4,2,1,70,0,0
116840,-100,4,2,1,60,0,0
116977,-100,4,2,1,70,0,0
117045,-100,4,2,1,60,0,0
117113,-100,4,2,1,70,0,0
119090,-100,4,2,1,5,0,0
119159,-100,4,2,1,70,0,0
119704,-100,4,2,1,60,0,0
119840,-100,4,2,1,70,0,0
120181,-100,4,2,1,60,0,0
120250,-100,4,2,1,70,0,0
122567,-100,4,2,1,60,0,0
122704,-100,4,2,1,70,0,0
122840,-100,4,2,1,60,0,0
122977,-100,4,2,1,70,0,0
123522,-71.4285714285714,4,2,1,70,0,0
124613,-83.3333333333333,4,2,1,70,0,0
125977,-83.3333333333333,4,2,1,60,0,0
126113,-83.3333333333333,4,2,1,70,0,0
126454,-83.3333333333333,4,2,1,60,0,0
126795,-83.3333333333333,4,2,1,70,0,0
126863,-83.3333333333333,4,2,1,60,0,0
126931,-83.3333333333333,4,2,1,70,0,0
127681,-83.3333333333333,4,2,1,60,0,0
127750,-83.3333333333333,4,2,1,70,0,0
128635,-83.3333333333333,4,2,1,60,0,0
128704,-83.3333333333333,4,2,1,70,0,0
129113,-83.3333333333333,4,2,1,60,0,0
129250,-83.3333333333333,4,2,1,70,0,0
129999,-83.3333333333333,4,2,1,60,0,0
130068,-83.3333333333333,4,2,1,70,0,0
131090,-83.3333333333333,4,2,1,60,0,0
131159,-83.3333333333333,4,2,1,70,0,0
131227,-83.3333333333333,4,2,1,60,0,0
131295,-83.3333333333333,4,2,1,70,0,0
131499,-83.3333333333333,4,2,1,60,0,0
131567,-83.3333333333333,4,2,1,70,0,0
131772,-83.3333333333333,4,2,1,60,0,0
131840,-83.3333333333333,4,2,1,70,0,0
132044,-83.3333333333333,4,2,1,60,0,0
132112,-83.3333333333333,4,2,1,70,0,0
132863,-83.3333333333333,4,2,1,60,0,0
132931,-83.3333333333333,4,2,1,70,0,0
133136,-83.3333333333333,4,2,1,60,0,0
133204,-83.3333333333333,4,2,1,70,0,0
133340,-71.4285714285714,4,2,1,70,0,0
133750,-71.4285714285714,4,2,1,60,0,0
133886,-71.4285714285714,4,2,1,70,0,0
135045,-71.4285714285714,4,2,1,60,0,0
135113,-71.4285714285714,4,2,1,70,0,0
135181,-71.4285714285714,4,2,1,60,0,0
135250,-71.4285714285714,4,2,1,70,0,0
135522,-76.9230769230769,4,2,1,70,0,1
135658,-76.9230769230769,4,2,1,60,0,1
135795,-76.9230769230769,4,2,1,70,0,1
136476,-76.9230769230769,4,2,1,60,0,1
136613,-76.9230769230769,4,2,1,70,0,1
136749,-76.9230769230769,4,2,1,60,0,1
136886,-76.9230769230769,4,2,1,70,0,1
137840,-76.9230769230769,4,2,1,60,0,1
137977,-76.9230769230769,4,2,1,70,0,1
138113,-76.9230769230769,4,2,1,60,0,1
138250,-76.9230769230769,4,2,1,70,0,1
139136,-76.9230769230769,4,2,1,60,0,1
139204,-76.9230769230769,4,2,1,70,0,1
140840,-76.9230769230769,4,2,1,60,0,1
140977,-76.9230769230769,4,2,1,70,0,1
141181,-76.9230769230769,4,2,1,60,0,1
141250,-76.9230769230769,4,2,1,70,0,1
143704,-62.5,4,2,1,70,0,1
144250,-76.9230769230769,4,2,1,70,0,1
144386,-76.9230769230769,4,2,1,60,0,1
144522,-76.9230769230769,4,2,1,70,0,1
145476,-76.9230769230769,4,2,1,60,0,1
145613,-76.9230769230769,4,2,1,70,0,1
145749,-76.9230769230769,4,2,1,60,0,1
145886,-76.9230769230769,4,2,1,70,0,1
146567,-76.9230769230769,4,2,1,60,0,1
146704,-76.9230769230769,4,2,1,70,0,1
146840,-76.9230769230769,4,2,1,60,0,1
146977,-76.9230769230769,4,2,1,70,0,1
147726,-76.9230769230769,4,2,1,5,0,1
147795,-76.9230769230769,4,2,1,70,0,1
147863,-76.9230769230769,4,2,1,60,0,1
147931,-76.9230769230769,4,2,1,70,0,1
148272,-76.9230769230769,4,2,1,60,0,1
148340,-76.9230769230769,4,2,1,70,0,1
148544,-76.9230769230769,4,2,1,60,0,1
148613,-76.9230769230769,4,2,1,70,0,1
149567,-76.9230769230769,4,2,1,60,0,1
149704,-76.9230769230769,4,2,1,70,0,1
149908,-76.9230769230769,4,2,1,60,0,1
149977,-76.9230769230769,4,2,1,70,0,1
152022,-76.9230769230769,4,2,1,60,0,1
152159,-76.9230769230769,4,2,1,70,0,1
152977,-76.9230769230769,4,2,1,70,0,0
153045,-76.9230769230769,4,2,1,60,0,0
155159,-76.9230769230769,4,2,1,70,0,0
157136,-76.9230769230769,4,2,1,60,0,0
157204,-76.9230769230769,4,2,1,70,0,0
157272,-76.9230769230769,4,2,1,60,0,0
157340,-76.9230769230769,4,2,1,70,0,0
157409,-76.9230769230769,4,2,1,60,0,0
159522,-76.9230769230769,4,2,1,70,0,0
161795,-76.9230769230769,4,2,1,60,0,0
163886,-76.9230769230769,4,2,1,70,0,0
166136,-76.9230769230769,4,2,1,60,0,0
168250,-76.9230769230769,4,2,1,70,0,0
169340,-166.666666666667,4,2,1,60,0,0
169613,-66.6666666666667,4,2,1,70,0,0
169817,-66.6666666666667,4,2,1,5,0,0
169886,-66.6666666666667,4,2,1,70,0,0
170431,-90.9090909090909,4,2,1,70,0,0
172272,-90.9090909090909,4,2,1,60,0,0
172340,-90.9090909090909,4,2,1,70,0,0
174931,-90.9090909090909,4,2,1,60,0,0
175067,-90.9090909090909,4,2,1,70,0,0
176635,-90.9090909090909,4,2,1,60,0,0
176704,-90.9090909090909,4,2,1,70,0,0
179908,-90.9090909090909,4,2,1,60,0,0
179977,-90.9090909090909,4,2,1,70,0,0
180999,-90.9090909090909,4,2,1,60,0,0
181068,-90.9090909090909,4,2,1,70,0,0
182499,-90.9090909090909,4,2,1,60,0,0
182568,-90.9090909090909,4,2,1,70,0,0
183181,-90.9090909090909,4,2,1,60,0,0
183250,-90.9090909090909,4,2,1,70,0,0
183659,-90.9090909090909,4,2,1,60,0,0
183795,-90.9090909090909,4,2,1,70,0,0
184272,-90.9090909090909,4,2,1,60,0,0
184340,-90.9090909090909,4,2,1,70,0,0
185363,-90.9090909090909,4,2,1,60,0,0
185431,-90.9090909090909,4,2,1,70,0,0
186590,-90.9090909090909,4,2,1,60,0,0
186659,-90.9090909090909,4,2,1,70,0,0
187886,-100,4,2,1,70,0,0
189317,-100,4,2,1,5,0,0
189386,-100,4,2,1,70,0,0
190136,-100,4,2,1,60,0,0
190204,-100,4,2,1,70,0,0
190954,-100,4,2,1,60,0,0
191159,-100,4,2,1,70,0,0
193408,-100,4,2,1,60,0,0
193477,-100,4,2,1,70,0,0
194431,-83.3333333333333,4,2,1,70,0,0
194499,-83.3333333333333,4,2,1,60,0,0
194568,-83.3333333333333,4,2,1,70,0,0
194772,-83.3333333333333,4,2,1,60,0,0
194841,-83.3333333333333,4,2,1,70,0,0
195863,-83.3333333333333,4,2,1,60,0,0
195932,-83.3333333333333,4,2,1,70,0,0
200500,-83.3333333333333,4,2,1,60,0,0
200568,-83.3333333333333,4,2,1,70,0,0
200636,-83.3333333333333,4,2,1,60,0,0
200704,-66.6666666666667,4,2,1,70,0,0
200772,-66.6666666666667,4,2,1,60,0,0
200840,-66.6666666666667,4,2,1,70,0,0
200908,-66.6666666666667,4,2,1,60,0,0
200977,-76.9230769230769,4,2,1,70,0,1
201181,-76.9230769230769,4,2,1,5,0,1
201250,-76.9230769230769,4,2,1,70,0,1
202204,-76.9230769230769,4,2,1,60,0,1
202340,-76.9230769230769,4,2,1,70,0,1
202477,-76.9230769230769,4,2,1,60,0,1
202613,-76.9230769230769,4,2,1,70,0,1
202817,-76.9230769230769,4,2,1,60,0,1
202886,-76.9230769230769,4,2,1,70,0,1
202954,-76.9230769230769,4,2,1,60,0,1
203022,-76.9230769230769,4,2,1,70,0,1
203090,-76.9230769230769,4,2,1,60,0,1
203159,-76.9230769230769,4,2,1,70,0,1
204181,-76.9230769230769,4,2,1,60,0,1
204250,-76.9230769230769,4,2,1,70,0,1
204386,-76.9230769230769,4,2,1,60,0,1
204522,-76.9230769230769,4,2,1,70,0,1
204590,-76.9230769230769,4,2,1,60,0,1
204659,-76.9230769230769,4,2,1,70,0,1
204931,-76.9230769230769,4,2,1,60,0,1
205068,-76.9230769230769,4,2,1,70,0,1
208272,-76.9230769230769,4,2,1,60,0,1
208340,-76.9230769230769,4,2,1,70,0,1
208408,-76.9230769230769,4,2,1,60,0,1
208477,-76.9230769230769,4,2,1,70,0,1
208545,-76.9230769230769,4,2,1,60,0,1
208613,-76.9230769230769,4,2,1,70,0,1
209159,-62.5,4,2,1,70,0,1
209704,-76.9230769230769,4,2,1,70,0,1
209908,-76.9230769230769,4,2,1,5,0,1
209977,-76.9230769230769,4,2,1,70,0,1
210931,-76.9230769230769,4,2,1,60,0,1
211068,-76.9230769230769,4,2,1,70,0,1
211272,-76.9230769230769,4,2,1,5,0,1
211340,-76.9230769230769,4,2,1,70,0,1
213181,-76.9230769230769,4,2,1,5,0,1
213250,-76.9230769230769,4,2,1,70,0,1
213386,-76.9230769230769,4,2,1,60,0,1
213522,-76.9230769230769,4,2,1,70,0,1
215022,-76.9230769230769,4,2,1,60,0,1
215159,-76.9230769230769,4,2,1,70,0,1
216318,-76.9230769230769,4,2,1,60,0,1
216386,-76.9230769230769,4,2,1,70,0,1
216454,-76.9230769230769,4,2,1,60,0,1
216522,-76.9230769230769,4,2,1,70,0,1
217000,-76.9230769230769,4,2,1,60,0,1
217068,-76.9230769230769,4,2,1,70,0,1
217340,-62.5,4,2,1,70,0,1
217544,-62.5,4,2,1,5,0,1
217613,-62.5,4,2,1,70,0,1
217817,-62.5,4,2,1,5,0,1
217886,-55.5555555555556,4,2,1,70,0,1
219726,-55.5555555555556,4,2,1,5,0,1
219794,-55.5555555555556,4,2,1,70,0,1
219998,-55.5555555555556,4,2,1,5,0,1
220067,-41.6666666666667,4,2,1,70,0,1
220204,-41.6666666666667,4,2,1,5,0,0

[Colours]
Combo1 : 0,64,128
Combo2 : 0,94,94
Combo3 : 113,113,113
Combo4 : 143,71,71

[HitObjects]
14,0,250,6,0,P|9:42|1:84,1,85.4999973907472,2|0,3:2|0:0,0:0:0:0:
100,12,522,2,0,P|95:54|87:96,1,85.4999973907472,2|0,3:2|0:0,0:0:0:0:
51,277,795,6,0,P|46:234|38:192,1,85.4999973907472,2|0,3:2|0:0,0:0:0:0:
136,264,1067,2,0,P|131:221|123:179,1,85.4999973907472,2|0,3:2|0:0,0:0:0:0:
197,69,1340,5,2,3:2:0:0:
197,69,1477,1,0,0:0:0:0:
376,102,1613,2,0,L|292:117,1,85.4999973907472,2|0,3:2|0:0,0:0:0:0:
405,0,1886,6,0,L|320:14,1,85.4999973907472,2|0,3:2|0:0,0:0:0:0:
437,192,2159,2,0,L|352:206,1,85.4999973907472,2|0,3:2|0:0,0:0:0:0:
105,350,2431,5,2,3:3:0:0:
136,264,2568,1,2,0:3:0:0:
51,277,2704,1,2,3:3:0:0:
105,350,2840,1,2,0:3:0:0:
272,242,2977,5,2,3:3:0:0:
303,328,3114,1,2,0:3:0:0:
218,315,3250,1,2,3:3:0:0:
272,242,3386,1,2,0:3:0:0:
388,377,3522,6,0,P|406:338|397:294,1,85.4999973907472,2|2,3:3|0:3,0:0:0:0:
298,80,3795,2,0,P|279:118|288:162,1,85.4999973907472,2|2,3:3|0:3,0:0:0:0:
459,234,4068,5,2,3:3:0:0:
459,234,4340,6,0,B|441:212|416:207|416:207|399:137|399:137|430:100,1,170.999994781494,6|0,3:2|0:0,0:0:0:0:
494,24,4613,6,0,P|452:14|412:0,1,85.4999973907472,2|0,3:2|0:0,0:0:0:0:
510,124,4886,2,0,P|469:114|429:100,1,85.4999973907472,2|0,3:2|0:0,0:0:0:0:
280,182,5159,6,0,P|238:191|198:206,1,85.4999973907472,2|0,3:2|0:0,0:0:0:0:
298,80,5432,2,0,P|256:89|216:104,1,85.4999973907472,2|0,3:2|0:0,0:0:0:0:
140,20,5704,5,2,3:2:0:0:
140,20,5840,1,0,0:0:0:0:
30,76,5977,2,0,P|39:117|44:160,1,85.4999973907472,2|0,3:2|0:0,0:0:0:0:
198,206,6250,6,0,P|207:247|212:290,1,85.4999973907472,2|0,3:2|0:0,0:0:0:0:
10,279,6522,2,0,P|19:320|24:363,1,85.4999973907472,2|0,3:2|0:0,0:0:0:0:
118,280,6795,5,2,3:2:0:0:
118,280,6931,1,0,0:0:0:0:
44,160,7068,5,2,3:2:0:0:
44,160,7204,1,0,0:0:0:0:
139,19,7340,6,0,P|182:27|224:30,1,85.4999973907472,2|0,3:2|0:0,0:0:0:0:
124,174,7613,2,0,P|166:181|208:184,1,85.4999973907472,2|0,3:2|0:0,0:0:0:0:
331,114,7886,6,0,P|373:117|415:124,1,85.4999973907472,2|0,3:2|0:0,0:0:0:0:
315,268,8159,2,0,P|357:271|399:278,1,85.4999973907472,2|0,3:2|0:0,0:0:0:0:
494,214,8431,5,2,3:2:0:0:
340,378,8568,5,2,0:3:0:0:
340,378,8636,1,2,0:3:0:0:
340,378,8704,2,0,B|277:359|277:359|268:350|268:350|223:340|171:320,1,170.999994781494,2|0,0:3|0:0,0:0:0:0:
102,372,8977,6,0,P|163:318|145:239,1,170.999994781494,2|0,3:2|3:2,0:0:0:0:
64,136,9386,1,2,2:2:0:0:
0,202,9522,2,0,B|96:170|62:155|181:116,1,170.999994781494,2|0,3:2|3:2,0:0:0:0:
321,97,9931,5,2,2:2:0:0:
334,83,10068,1,2,3:2:0:0:
338,99,10204,1,2,2:2:0:0:
308,182,10340,5,2,3:2:0:0:
426,61,10477,1,2,2:2:0:0:
260,20,10613,2,0,B|235:21|211:12|211:12|161:45|65:50,1,170.999994781494,2|2,3:2|3:2,0:0:0:0:
13,0,11022,1,2,2:2:0:0:
152,125,11159,6,0,P|163:166|169:208,1,85.4999973907472,2|0,3:2|0:0,0:0:0:0:
0,202,11431,2,0,P|11:243|17:285,1,85.4999973907472,2|2,3:2|2:2,0:0:0:0:
156,221,11704,2,0,P|131:299|187:359,1,170.999994781494,2|2,3:2|3:2,0:0:0:0:
34,379,12113,5,2,2:2:0:0:
231,291,12250,2,0,B|325:322|299:329|399:365,3,170.999994781494,2|2|2|2,3:2|3:2|3:2|3:2,0:0:0:0:
493,248,13204,5,2,2:2:0:0:
429,173,13340,6,0,B|386:179|346:193|346:193|296:161|326:105,1,170.999994781494,2|0,3:2|3:2,0:0:0:0:
495,25,13750,6,0,L|485:76,1,42.7499986953736,2|0,2:2|0:0,0:0:0:0:
486,66,13886,2,0,B|440:83|440:83|408:33|325:19,1,170.999994781494,2|0,3:2|3:2,0:0:0:0:
141,91,14295,5,2,2:2:0:0:
121,97,14431,1,2,3:2:0:0:
124,76,14568,1,2,2:2:0:0:
36,56,14704,5,2,3:2:0:0:
189,14,14840,1,2,2:2:0:0:
155,178,14977,2,0,B|218:197|218:197|250:219|250:219|337:259,1,170.999994781494,2|2,3:2|3:2,0:0:0:0:
445,384,15386,5,2,2:2:0:0:
512,310,15522,2,0,P|459:284|462:165,1,170.999994781494,2|2,3:2|3:2,0:0:0:0:
321,355,15931,5,2,2:2:0:0:
241,327,16068,2,0,P|284:341|322:356,1,85.4999973907472,2|0,3:2|0:0,0:0:0:0:
409,254,16340,5,2,3:2:0:0:
316,154,16477,1,2,2:2:0:0:
391,88,16613,2,0,P|433:80|474:70,1,85.4999973907472,2|0,3:2|0:0,0:0:0:0:
208,155,16886,6,0,L|197:239,1,85.4999973907472,2|0,3:2|0:0,0:0:0:0:
474,70,17159,6,0,L|463:154,1,85.4999973907472,2|0,3:2|0:0,0:0:0:0:
199,38,17431,6,0,P|167:55|134:66,1,71.25,2|0,3:2|0:0,0:0:0:0:
269,0,17704,6,0,P|348:-1|373:74,1,170.999994781494,2|0,3:2|3:2,0:0:0:0:
208,155,18113,1,2,2:2:0:0:
280,217,18250,2,0,P|322:207|364:198,1,85.4999973907472,2|0,3:2|0:0,0:0:0:0:
481,315,18522,5,0,3:2:0:0:
283,357,18659,5,2,2:2:0:0:
162,384,18795,1,2,3:2:0:0:
162,384,18931,1,2,2:2:0:0:
123,259,19068,5,2,3:2:0:0:
210,296,19204,1,2,2:2:0:0:
63,360,19340,2,0,P|44:276|16:195,1,170.999994781494,2|2,3:2|3:2,0:0:0:0:
72,29,19750,6,0,L|12:45,1,42.7499986953736,2|0,2:2|0:0,0:0:0:0:
30,40,19886,2,0,B|123:69|90:82|187:118,1,170.999994781494,2|2,3:2|3:2,0:0:0:0:
87,163,20295,5,2,2:2:0:0:
192,33,20431,2,0,P|232:20|271:3,1,85.4999973907472,2|0,3:2|0:0,0:0:0:0:
281,186,20704,2,0,P|269:145|266:102,1,85.4999973907472,2|2,3:2|2:2,0:0:0:0:
505,116,20977,6,0,B|433:96|415:73|344:56,3,170.999994781494,2|2|2|2,3:2|3:2|3:2|3:2,0:0:0:0:
466,13,21931,5,2,2:2:0:0:
466,13,22068,2,0,P|414:124|416:179,1,170.999994781494,2|0,3:2|3:2,0:0:0:0:
360,302,22477,6,0,L|425:286,1,42.7499986953736,2|0,2:2|0:0,0:0:0:0:
401,291,22613,2,0,B|344:275|316:248|316:248|211:279,1,170.999994781494,2|0,3:2|3:2,0:0:0:0:
98,176,23022,5,2,2:2:0:0:
269,128,23159,1,2,3:2:0:0:
203,198,23295,1,2,2:2:0:0:
118,90,23431,5,2,3:2:0:0:
203,42,23568,1,2,2:2:0:0:
41,3,23704,2,0,P|29:87|10:171,1,170.999994781494,2|2,3:2|3:2,0:0:0:0:
168,333,24113,5,2,2:2:0:0:
89,375,24250,2,0,P|41:347|70:230,1,170.999994781494,2|2,3:2|3:2,0:0:0:0:
220,222,24659,5,2,2:2:0:0:
296,264,24795,2,0,B|272:266|246:273|246:273|123:226,1,170.999994781494,0|2,3:2|3:2,0:0:0:0:
133,230,25204,1,2,2:2:0:0:
244,116,25340,5,6,3:2:0:0:
360,355,25477,5,8,0:2:0:0:
406,322,25545,1,8,0:2:0:0:
412,264,25613,1,10,0:2:0:0:
311,0,25750,5,8,0:3:0:0:
258,112,25886,1,8,0:3:0:0:
344,206,26022,1,12,0:3:0:0:
431,245,26159,6,0,L|500:227,1,71.25,14|0,2:2|0:0,0:0:0:0:
492,314,26431,6,0,P|442:226|343:205,1,209.000006378174,2|0,3:2|3:2,0:0:0:0:
168,333,26840,1,10,0:2:0:0:
243,380,26977,2,0,B|260:304|243:270|271:171,1,209.000006378174,2|0,3:2|3:2,0:0:0:0:
165,95,27386,5,10,0:2:0:0:
361,53,27522,1,2,3:2:0:0:
279,11,27659,1,10,0:2:0:0:
122,182,27795,5,2,3:2:0:0:
122,182,27931,1,10,0:2:0:0:
43,128,28068,2,0,P|34:76|17:27,1,104.500003189087,2|8,3:2|0:2,0:0:0:0:
270,173,28340,6,0,L|341:153,1,52.2500015945435,2|0,3:2|0:0,0:0:0:0:
328,241,28477,2,0,L|411:273,1,52.2500015945435,10|0,0:2|0:0,0:0:0:0:
492,250,28613,6,0,P|394:283|328:365,1,209.000006378174,2|2,3:2|3:2,0:0:0:0:
328,363,29022,1,10,0:2:0:0:
492,250,29159,6,0,L|505:134,1,104.500003189087,2|8,3:2|0:2,0:0:0:0:
439,29,29431,1,2,3:2:0:0:
439,29,29568,1,10,0:2:0:0:
235,262,29704,5,2,3:2:0:0:
165,95,29840,1,8,0:2:0:0:
338,11,29977,1,2,3:2:0:0:
251,135,30113,1,8,0:2:0:0:
28,32,30250,6,0,L|88:19,1,52.2500015945435,2|0,3:2|0:0,0:0:0:0:
79,20,30386,2,0,P|60:67|56:132,2,104.500003189087,8|6|10,0:2|3:2|0:2,0:0:0:0:
355,108,30795,6,0,B|253:140|280:156|146:207,1,209.000006378174,6|0,3:2|3:2,0:0:0:0:
167,199,31204,1,10,0:2:0:0:
243,378,31340,5,2,3:2:0:0:
52,320,31477,2,0,P|68:270|65:218,1,104.500003189087,8|2,0:2|3:2,0:0:0:0:
129,376,31750,5,10,0:2:0:0:
346,310,31886,1,2,3:2:0:0:
443,280,32022,1,10,0:2:0:0:
236,282,32159,5,2,3:2:0:0:
502,369,32295,1,10,0:2:0:0:
440,269,32431,2,0,P|390:286|340:300,1,104.500003189087,2|8,3:2|0:2,0:0:0:0:
490,163,32704,6,0,P|464:164|442:149,1,52.2500015945435,2|0,3:2|0:0,0:0:0:0:
324,209,32840,2,0,P|335:186|358:174,1,52.2500015945435,10|0,0:2|0:0,0:0:0:0:
493,77,32977,6,0,B|520:43|520:43|432:26|351:90,1,209.000006378174,2|2,3:2|3:2,0:0:0:0:
69,85,33386,5,10,0:2:0:0:
244,9,33522,5,2,3:2:0:0:
255,38,33590,1,0,3:2:0:0:
239,67,33659,1,8,0:2:0:0:
133,134,33795,5,2,3:2:0:0:
100,174,33863,1,0,3:2:0:0:
44,175,33932,1,10,0:2:0:0:
246,373,34068,6,0,L|159:360,1,52.2500015945435,2|0,3:2|3:2,0:0:0:0:
119,354,34204,1,8,0:2:0:0:
37,284,34340,6,0,L|88:273,1,52.2500015945435,2|0,3:2|3:2,0:0:0:0:
212,249,34477,1,8,0:2:0:0:
369,290,34613,6,0,L|317:282,1,52.2500015945435,6|0,3:2|3:2,0:0:0:0:
224,156,34750,5,8,0:2:0:0:
224,156,34818,1,8,0:2:0:0:
211,112,34886,1,10,0:2:0:0:
239,67,34954,1,8,0:2:0:0:
297,60,35022,1,8,0:2:0:0:
374,81,35090,5,8,0:2:0:0:
453,103,35159,6,0,B|487:62|487:62|460:-7,1,104.500003189087,6|0,3:2|0:0,0:0:0:0:
369,290,35431,2,0,B|335:331|335:331|362:400,1,104.500003189087,0|10,3:2|0:2,0:0:0:0:
504,251,35704,6,0,B|390:217|441:193|309:155,1,209.000006378174,2|0,3:2|3:2,0:0:0:0:
1,185,36113,5,10,0:2:0:0:
211,112,36250,1,2,3:2:0:0:
115,73,36386,1,10,0:2:0:0:
15,349,36522,5,2,3:2:0:0:
212,249,36659,1,10,0:2:0:0:
142,370,36795,2,0,P|125:266|101:194,1,156.750004783631,2|0,3:2|0:0,0:0:0:0:
109,217,37068,6,0,P|110:191|125:169,1,52.2500015945435,2|0,3:2|0:0,0:0:0:0:
279,318,37204,2,0,P|256:330|230:328,1,52.2500015945435,10|0,0:2|0:0,0:0:0:0:
13,261,37340,6,0,P|19:209|22:156,1,104.500003189087,2|8,3:2|0:2,0:0:0:0:
212,249,37613,2,0,P|218:197|221:144,1,104.500003189087,2|10,3:2|0:2,0:0:0:0:
511,84,37886,6,0,P|445:7|344:9,1,209.000006378174,2|2,3:2|3:2,0:0:0:0:
420,377,38295,6,0,L|490:358,1,52.2500015945435,10|0,0:2|0:0,0:0:0:0:
470,363,38431,2,0,B|497:315|497:315|469:261,1,104.500003189087,2|8,3:2|0:2,0:0:0:0:
424,135,38704,5,2,3:2:0:0:
344,189,38840,1,8,0:2:0:0:
484,194,38977,5,6,3:2:0:0:
278,100,39113,1,8,0:2:0:0:
422,14,39250,5,2,3:2:0:0:
384,161,39386,1,10,0:2:0:0:
343,319,39522,2,0,P|293:332|245:352,1,104.500003189087,6|0,3:2|0:0,0:0:0:0:
278,100,39795,6,0,P|227:86|179:66,1,104.500003189087,0|10,3:2|0:2,0:0:0:0:
75,299,40068,2,0,P|100:254|67:127,1,156.750004783631,2|0,3:2|0:0,0:0:0:0:
87,152,40340,1,0,3:2:0:0:
15,38,40477,5,10,0:2:0:0:
271,224,40613,1,2,3:2:0:0:
186,271,40750,1,10,0:2:0:0:
109,9,40886,5,2,3:2:0:0:
0,217,41022,1,10,0:2:0:0:
162,375,41159,2,0,P|211:356|261:342,1,104.500003189087,2|8,3:2|0:2,0:0:0:0:
487,357,41431,6,0,L|414:339,1,52.2500015945435,2|0,3:2|0:0,0:0:0:0:
341,268,41568,2,0,L|295:243,1,52.2500015945435,10|0,0:2|0:0,0:0:0:0:
475,263,41704,2,0,P|460:214|455:162,1,104.500003189087,6|10,3:2|0:2,0:0:0:0:
211,17,41977,5,2,3:2:0:0:
211,17,42113,1,8,0:2:0:0:
211,17,42250,2,0,L|195:136,1,104.500003189087,2|10,3:2|0:2,0:0:0:0:
469,58,42522,2,0,L|455:161,1,104.500003189087,2|8,3:2|0:2,0:0:0:0:
293,369,42795,5,2,3:2:0:0:
127,179,42931,1,8,0:2:0:0:
333,89,43068,5,2,3:2:0:0:
81,326,43204,1,8,0:2:0:0:
6,223,43340,5,2,3:2:0:0:
200,263,43477,1,8,0:2:0:0:
398,306,43613,1,6,3:2:0:0:
102,12,43886,6,0,L|59:23,1,38,6|0,3:2|0:0,0:0:0:0:
98,16,46068,2,0,L|55:27,1,38,6|0,3:2|0:0,0:0:0:0:
102,12,48250,6,0,L|59:23,1,38,6|0,3:2|0:0,0:0:0:0:
61,25,49340,2,0,L|98:16,1,38,6|0,3:2|0:0,0:0:0:0:
102,12,50431,6,0,L|59:23,1,38,6|0,3:2|0:0,0:0:0:0:
61,25,50977,2,0,L|98:16,1,38,6|0,3:2|0:0,0:0:0:0:
102,12,51522,6,0,P|150:103|49:182,1,228,6|8,3:2|0:2,0:0:0:0:
12,103,51795,6,0,B|141:63|97:45|232:3,1,227.999993041992,8|8,0:2|0:2,0:0:0:0:
303,183,52204,5,8,0:2:0:0:
438,101,52340,1,8,0:2:0:0:
339,8,52477,1,8,0:2:0:0:
215,205,52613,6,0,P|248:267|242:337,1,142.5,6|0,3:2|0:0,0:0:0:0:
242,337,52886,1,10,0:2:0:0:
475,335,53022,6,0,P|466:313|470:290,1,47.5,2|0,2:2|0:0,0:0:0:0:
471,291,53159,2,0,L|378:270,1,95,0|0,0:0|3:2,0:0:0:0:
69,358,53431,6,0,L|162:375,1,95,10|0,0:2|3:2,0:0:0:0:
14,271,53704,2,0,P|101:243|126:155,1,190,2|10,3:2|0:2,0:0:0:0:
276,75,54113,5,0,0:0:0:0:
358,115,54249,1,0,3:2:0:0:
303,183,54386,1,0,3:2:0:0:
36,52,54522,6,0,B|60:81|47:118|47:118|66:82|104:76,1,142.5,10|0,0:2|0:0,0:0:0:0:
186,94,54795,6,0,B|282:72|266:50|366:22,1,190,2|10,3:2|0:2,0:0:0:0:
361,23,55204,1,0,0:0:0:0:
156,13,55340,5,2,3:2:0:0:
211,171,55477,2,0,P|199:221|193:264,2,95,2|8|0,3:2|0:2|3:2,0:0:0:0:
114,207,55886,5,2,3:2:0:0:
307,146,56022,2,0,P|387:158|427:239,1,142.5,2|0,2:2|0:0,0:0:0:0:
496,182,56295,2,0,B|512:230|512:230|463:274,1,95,2|0,2:2|3:2,0:0:0:0:
252,338,56568,5,0,3:2:0:0:
338,370,56704,1,10,0:2:0:0:
406,306,56840,1,0,3:2:0:0:
242,345,56977,6,0,L|79:316,1,142.5,2|0,3:2|0:0,0:0:0:0:
33,371,57250,2,0,P|25:346|13:326,1,47.5,8|0,0:2|0:0,0:0:0:0:
123,189,57386,2,0,P|97:228|54:247,1,95,2|0,2:2|0:0,0:0:0:0:
163,384,57659,2,0,P|223:285|181:246,1,190,2|0,3:2|3:2,0:0:0:0:
0,102,58068,6,0,P|-1:125|13:143,1,47.5,2|0,3:2|0:0,0:0:0:0:
13,144,58204,2,0,B|113:104|91:89|195:52,1,190,2|2,2:2|2:2,0:0:0:0:
275,40,58613,1,0,3:2:0:0:
241,129,58750,1,0,3:2:0:0:
62,33,58886,5,10,0:2:0:0:
254,207,59022,1,0,3:2:0:0:
424,137,59159,2,0,P|379:123|334:105,1,95,2|0,3:2|0:0,0:0:0:0:
83,212,59431,2,0,P|128:198|172:180,1,95,10|0,0:2|0:0,0:0:0:0:
307,384,59704,2,0,P|306:290|360:213,1,190,2|10,3:2|0:2,0:0:0:0:
360,213,60113,1,0,0:0:0:0:
154,284,60250,6,0,L|223:296,1,47.5,2|0,3:2|0:0,0:0:0:0:
425,362,60386,2,0,L|472:354,1,47.5,2|0,2:2|0:0,0:0:0:0:
472,354,60522,2,0,B|483:334|512:327|512:327|503:313|457:312|444:346,1,132.999995941162,8|2,0:2|2:2,0:0:0:0:
335,303,60795,5,12,0:2:0:0:
465,158,60931,1,8,0:2:0:0:
484,199,61000,1,8,0:2:0:0:
454,238,61068,1,10,0:2:0:0:
260,172,61204,5,8,0:2:0:0:
384,33,61340,2,0,P|439:47|495:55,1,113.999996520996,6|8,3:2|0:2,0:0:0:0:
179,101,61613,5,2,3:2:0:0:
179,101,61750,1,8,0:2:0:0:
260,172,61886,5,2,3:2:0:0:
204,5,62022,1,8,0:2:0:0:
78,142,62159,2,0,P|70:198|59:254,1,113.999996520996,2|8,3:2|0:2,0:0:0:0:
73,16,62431,5,2,3:2:0:0:
161,192,62568,2,0,P|181:248|193:301,1,113.999996520996,10|0,0:2|0:0,0:0:0:0:
126,374,62840,1,10,0:2:0:0:
36,340,62977,1,0,3:2:0:0:
359,345,63113,5,8,0:2:0:0:
359,345,63181,1,0,0:0:0:0:
359,345,63250,2,0,B|386:334|405:310|405:310|395:343|366:369,1,114,6|0,3:2|0:0,0:0:0:0:
282,384,63522,6,0,L|226:372,1,56.9999982604981,6|0,3:2|0:0,0:0:0:0:
226,373,63659,2,0,P|268:337|272:282,1,113.999996520996,10|0,0:2|3:2,0:0:0:0:
447,232,63931,2,0,P|489:267|493:322,1,113.999996520996,10|0,0:2|3:2,0:0:0:0:
274,205,64204,2,0,P|373:176|411:147,1,113.999996520996,10|0,0:2|3:2,0:0:0:0:
460,117,64409,1,0,0:0:0:0:
460,117,64477,2,0,L|479:-17,1,113.999996520996,10|0,0:2|3:2,0:0:0:0:
447,232,64750,5,8,0:2:0:0:
384,55,64886,1,0,3:2:0:0:
384,55,65022,1,8,0:2:0:0:
512,175,65159,5,0,3:2:0:0:
364,273,65295,1,8,0:2:0:0:
180,149,65431,2,0,P|236:133|212:31,1,170.999994781494,4|0,3:2|0:0,0:0:0:0:
126,11,65704,6,0,L|14:36,1,113.999996520996,2|0,3:2|0:0,0:0:0:0:
14,36,65977,1,2,3:2:0:0:
180,149,66113,5,10,0:2:0:0:
6,221,66250,1,0,3:2:0:0:
75,374,66386,6,0,P|94:321|79:267,1,113.999996520996,10|0,0:2|3:2,0:0:0:0:
287,321,66659,2,0,P|251:277|197:263,1,113.999996520996,10|0,0:2|3:2,0:0:0:0:
449,164,66931,2,0,P|393:173|354:213,1,113.999996520996,10|0,0:2|3:2,0:0:0:0:
386,303,67136,5,0,0:0:0:0:
386,303,67204,2,0,L|415:56,1,227.999993041992,10|8,0:2|0:2,0:0:0:0:
476,274,67613,5,4,3:2:0:0:
496,315,67682,1,0,0:0:0:0:
490,358,67750,1,10,0:2:0:0:
490,358,67886,6,0,L|411:381,1,56.9999982604981,6|0,3:2|0:0,0:0:0:0:
424,378,68022,1,10,0:2:0:0:
386,303,68159,6,0,L|307:326,1,56.9999982604981,0|0,3:2|3:2,0:0:0:0:
315,324,68295,1,10,0:2:0:0:
241,258,68431,6,0,L|162:281,1,56.9999982604981,0|0,3:2|3:2,0:0:0:0:
161,281,68567,1,10,0:2:0:0:
92,209,68704,6,0,L|13:232,1,56.9999982604981,0|0,3:2|3:2,0:0:0:0:
0,235,68840,1,8,0:2:0:0:
69,384,68977,6,0,L|80:301,1,56.9999982604981,2|0,3:2|3:2,0:0:0:0:
92,209,69113,1,8,0:2:0:0:
204,384,69250,6,0,L|211:327,1,56.9999982604981,2|0,3:2|0:0,0:0:0:0:
238,137,69386,1,8,0:2:0:0:
312,94,69522,5,2,3:2:0:0:
331,131,69590,1,0,3:2:0:0:
316,176,69659,1,8,0:2:0:0:
152,144,69795,5,0,3:2:0:0:
153,101,69863,1,0,3:2:0:0:
189,70,69932,1,8,0:2:0:0:
225,226,70068,6,0,B|322:274|299:288|417:341,1,199.499993911743,2|0,3:2|0:0,0:0:0:0:
512,278,70340,2,0,P|520:340|466:372,1,132.999995941162,6|0,3:2|0:0,0:0:0:0:
316,176,70613,2,0,P|307:113|361:81,1,132.999995941162,2|0,3:2|0:0,0:0:0:0:
96,373,70886,6,0,P|149:340|141:278,1,132.999995941162,6|0,3:2|0:0,0:0:0:0:
45,158,71159,2,0,P|-8:190|0:252,1,132.999995941162,2|0,3:2|0:0,0:0:0:0:
316,176,71431,2,0,P|369:143|361:81,1,132.999995941162,6|0,3:2|0:0,0:0:0:0:
190,64,71704,5,10,0:2:0:0:
200,62,71773,1,8,0:2:0:0:
211,60,71841,1,8,0:2:0:0:
221,58,71909,1,8,0:2:0:0:
231,57,71977,5,10,0:2:0:0:
207,17,72045,1,8,0:2:0:0:
163,1,72113,1,8,0:2:0:0:
118,14,72181,1,8,0:2:0:0:
89,47,72250,2,0,P|120:100|139:158,1,123.499994346619,6|0,3:2|0:0,0:0:0:0:
512,278,72522,6,0,B|386:313|417:328|271:373,1,246.999988693238,10|0,0:2|3:2,0:0:0:0:
198,269,72931,1,0,3:2:0:0:
286,166,73068,1,10,0:2:0:0:
495,171,73204,5,0,0:0:0:0:
450,181,73272,1,0,0:0:0:0:
414,148,73340,2,0,P|409:87|432:30,1,123.499994346619,2|0,3:2|0:0,0:0:0:0:
199,104,73613,6,0,P|308:139|307:255,1,246.999988693238,10|2,0:2|3:2,0:0:0:0:
128,328,74022,1,0,3:2:0:0:
53,350,74159,5,10,0:2:0:0:
139,158,74295,1,2,0:2:0:0:
33,115,74431,2,0,P|51:168|62:241,1,123.499994346619,2|0,3:2|0:0,0:0:0:0:
391,340,74704,2,0,P|400:279|419:220,1,123.499994346619,10|0,0:2|0:0,0:0:0:0:
330,84,74977,6,0,B|201:49|230:45|89:0,1,246.999988693238,2|10,3:2|0:2,0:0:0:0:
174,241,75386,5,2,0:2:0:0:
232,244,75454,1,0,0:0:0:0:
273,206,75522,2,0,L|249:344,1,123.499994346619,2|0,3:2|0:0,0:0:0:0:
251,327,75795,5,10,0:2:0:0:
480,280,75931,1,0,0:0:0:0:
330,84,76068,1,6,3:2:0:0:
487,19,76204,5,0,3:2:0:0:
439,109,76340,5,8,0:2:0:0:
208,13,76477,6,0,L|148:0,1,61.7499971733095
147,0,76613,2,0,P|90:23|35:51,1,123.499994346619,2|0,3:2|0:0,0:0:0:0:
27,209,76886,2,0,P|82:180|138:157,1,123.499994346619,10|0,0:2|0:0,0:0:0:0:
305,384,77159,6,0,P|201:336|230:226,1,246.999988693238,2|10,3:2|0:2,0:0:0:0:
437,343,77568,6,0,P|460:358|446:383,1,61.7499971733095
447,384,77704,2,0,B|464:250,1,123.499994346619,2|0,3:2|0:0,0:0:0:0:
263,105,77977,5,10,0:2:0:0:
263,105,78113,1,0,0:0:0:0:
355,272,78250,2,0,L|389:49,1,185.249991519928,2|0,3:2|0:0,0:0:0:0:
446,24,78522,1,14,0:2:0:0:
446,24,78590,1,0,0:0:0:0:
446,24,78659,1,2,0:2:0:0:
191,23,78795,5,2,3:2:0:0:
230,226,78931,1,2,0:2:0:0:
314,181,79068,5,10,0:2:0:0:
51,140,79204,1,0,0:0:0:0:
127,85,79340,5,2,3:2:0:0:
127,85,79477,1,0,3:2:0:0:
54,0,79613,6,0,P|48:30|46:60,1,61.7499971733095,10|0,0:2|0:0,0:0:0:0:
133,170,79750,2,0,P|126:200|124:230,1,61.7499971733095,10|0,0:2|0:0,0:0:0:0:
82,320,79886,5,2,3:2:0:0:
39,325,79954,1,0,3:2:0:0:
0,305,80022,2,0,L|10:239,1,61.7499971733095,0|0,3:2|3:2,0:0:0:0:
271,360,80159,5,2,3:2:0:0:
314,365,80227,1,0,3:2:0:0:
353,345,80295,2,0,L|343:283,1,61.7499971733095,0|0,3:2|3:2,0:0:0:0:
325,199,80431,6,0,P|188:228|184:368,1,304,2|12,3:2|0:2,0:0:0:0:
142,57,80977,6,0,L|13:20,1,123.499994346619,6|0,3:2|0:0,0:0:0:0:
256,117,81250,2,0,B|389:69|349:45|486:-4,1,246.999988693238,10|0,0:2|3:2,0:0:0:0:
272,21,81659,5,0,3:2:0:0:
458,97,81795,2,0,P|496:153|464:217,1,123.499994346619,10|0,0:2|0:0,0:0:0:0:
484,320,82000,5,0,0:0:0:0:
484,320,82068,2,0,P|425:301|364:287,1,123.499994346619,2|0,3:2|0:0,0:0:0:0:
256,117,82340,2,0,P|197:98|136:84,1,123.499994346619,10|0,0:2|0:0,0:0:0:0:
148,361,82613,2,0,P|89:342|28:328,1,123.499994346619,2|0,3:2|3:2,0:0:0:0:
186,263,82886,5,10,0:2:0:0:
186,263,83022,1,2,0:2:0:0:
58,132,83159,2,0,B|20:180|20:180|50:247,1,123.499994346619,2|0,3:2|0:0,0:0:0:0:
258,383,83431,2,0,P|268:323|282:262,1,123.499994346619,10|0,0:2|0:0,0:0:0:0:
492,46,83704,2,0,P|374:84|255:116,1,246.999988693238,2|10,3:2|0:2,0:0:0:0:
17,20,84113,6,0,P|44:7|74:9,1,61.7499971733095,2|0,0:2|0:0,0:0:0:0:
73,9,84250,2,0,L|57:131,1,123.499994346619,2|0,3:2|0:0,0:0:0:0:
0,362,84522,6,0,L|57:340,1,61.7499971733095,10|0,0:2|0:0,0:0:0:0:
146,305,84659,1,0,0:0:0:0:
256,384,84795,6,0,B|267:347|300:316|300:316|247:210,1,185.249991519928,6|0,3:2|0:0,0:0:0:0:
170,316,85068,2,0,B|86:286|102:263|9:226,1,185.249991519928,8|0,0:2|0:0,0:0:0:0:
298,145,85340,6,0,P|261:263|236:384,1,246.999988693238,2|10,3:2|0:2,0:0:0:0:
236,384,85750,1,0,0:0:0:0:
5,144,85886,2,0,P|44:191|90:232,1,123.499994346619,2|0,3:2|3:2,0:0:0:0:
219,54,86159,2,0,P|279:43|338:24,1,123.499994346619,10|0,0:2|0:0,0:0:0:0:
457,207,86431,6,0,P|396:143|429:62,1,185.249991519928,2|0,3:2|0:0,0:0:0:0:
507,18,86704,2,0,B|538:71|538:71|491:131,1,123.499994346619,10|0,0:2|0:0,0:0:0:0:
117,116,86977,6,0,P|251:174|313:283,1,246.999988693238,2|10,3:2|0:2,0:0:0:0:
457,207,87386,6,0,L|397:227,1,61.7499971733095,2|0,0:2|0:0,0:0:0:0:
180,296,87522,1,2,3:2:0:0:
252,374,87659,5,2,0:2:0:0:
350,157,87795,1,10,0:2:0:0:
291,86,87931,1,0,0:0:0:0:
370,307,88068,5,2,3:2:0:0:
389,324,88340,1,10,0:2:0:0:
364,332,88477,1,2,3:2:0:0:
134,375,88613,5,2,3:2:0:0:
91,357,88681,1,0,3:2:0:0:
70,317,88750,2,0,L|80:238,1,61.7499971733095,0|0,3:2|3:2,0:0:0:0:
220,199,88886,5,2,3:2:0:0:
263,181,88954,1,0,3:2:0:0:
284,141,89023,2,0,L|274:62,1,61.7499971733095,0|0,3:2|3:2,0:0:0:0:
171,16,89159,6,0,P|39:43|87:168,1,304,2|12,3:2|0:2,0:0:0:0:
512,0,89704,5,2,3:2:0:0:
394,47,89840,1,8,0:2:0:0:
327,239,89977,1,0,3:2:0:0:
415,175,90113,5,10,0:2:0:0:
196,95,90250,5,2,3:2:0:0:
179,106,90386,1,8,0:2:0:0:
196,114,90522,1,0,3:2:0:0:
0,344,90659,5,10,0:2:0:0:
158,299,90795,1,2,3:2:0:0:
118,148,90931,1,10,0:2:0:0:
86,378,91068,5,2,3:2:0:0:
248,334,91204,1,10,0:2:0:0:
489,355,91340,6,0,P|416:352|402:281,1,156.750004783631,2|0,3:2|0:0,0:0:0:0:
512,241,91613,2,0,P|463:258|413:277,1,104.500003189087,2|10,3:2|0:2,0:0:0:0:
483,2,91886,6,0,P|401:67|330:143,1,209.000006378174,2|2,3:2|3:2,0:0:0:0:
278,228,92295,1,10,0:2:0:0:
180,42,92431,5,2,3:2:0:0:
276,13,92568,1,8,0:2:0:0:
134,204,92704,5,2,3:2:0:0:
287,238,92840,1,10,0:2:0:0:
172,40,92977,6,0,L|119:29,1,52.2500015945435,2|0,3:2|0:0,0:0:0:0:
49,12,93113,1,8,0:2:0:0:
212,296,93250,6,0,L|159:285,1,52.2500015945435,2|0,3:2|0:0,0:0:0:0:
89,268,93386,1,8,0:2:0:0:
229,112,93522,6,0,P|209:127|184:135,1,52.2500015945435,2|0,3:2|0:0,0:0:0:0:
11,144,93659,2,0,P|27:165|40:188,1,52.2500015945435,8|0,0:2|0:0,0:0:0:0:
60,373,93795,2,0,P|66:321|81:269,1,104.500003189087,6|10,3:2|0:2,0:0:0:0:
399,384,94068,6,0,B|311:366|307:317|188:289,1,209.000006378174,6|0,3:2|3:2,0:0:0:0:
129,197,94477,1,10,0:2:0:0:
274,29,94613,5,2,3:2:0:0:
400,62,94750,1,8,0:2:0:0:
374,196,94886,1,2,3:2:0:0:
426,284,95022,5,10,0:2:0:0:
330,124,95159,1,2,3:2:0:0:
228,204,95295,1,10,0:2:0:0:
381,363,95431,5,2,3:2:0:0:
466,199,95568,1,10,0:2:0:0:
260,367,95704,6,0,P|185:341|109:323,1,156.750004783631,2|0,3:2|0:0,0:0:0:0:
120,220,95977,2,0,P|70:237|25:264,1,104.500003189087,2|10,3:2|0:2,0:0:0:0:
314,295,96250,5,2,3:2:0:0:
333,264,96318,1,0,0:0:0:0:
330,228,96386,1,8,0:2:0:0:
174,72,96522,5,2,3:2:0:0:
155,103,96590,1,2,3:2:0:0:
158,139,96658,1,10,0:2:0:0:
386,51,96795,5,2,3:2:0:0:
355,32,96863,1,0,3:2:0:0:
319,35,96931,1,8,0:2:0:0:
173,304,97068,5,2,3:2:0:0:
142,323,97136,1,0,3:2:0:0:
106,320,97204,1,10,0:2:0:0:
398,384,97340,6,0,L|415:281,1,104.500003189087,2|8,3:2|0:2,0:0:0:0:
279,136,97613,6,0,L|329:123,1,52.2500015945435,2|0,3:2|3:2,0:0:0:0:
457,92,97750,1,8,0:2:0:0:
29,29,97886,6,0,L|83:41,1,52.2500015945435,6|0,3:2|3:2,0:0:0:0:
177,5,98022,1,8,0:2:0:0:
177,5,98090,1,8,0:2:0:0:
192,34,98159,1,10,0:2:0:0:
187,78,98227,1,8,0:2:0:0:
151,118,98295,1,8,0:2:0:0:
112,183,98363,5,8,0:2:0:0:
129,264,98431,6,0,B|222:279|247:312|345:325,1,209.000006378174,6|0,3:2|3:2,0:0:0:0:
10,304,98840,5,10,0:2:0:0:
184,384,98977,2,0,P|205:286|129:223,1,209.000006378174,2|0,3:2|3:2,0:0:0:0:
321,18,99386,5,10,0:2:0:0:
410,37,99522,1,2,3:2:0:0:
280,226,99659,5,10,0:2:0:0:
246,134,99795,1,2,3:2:0:0:
462,143,99931,5,10,0:2:0:0:
406,224,100068,2,0,L|299:197,1,104.500003189087,2|8,3:2|0:2,0:0:0:0:
423,367,100340,6,0,B|450:366|450:366|463:345,1,52.2500015945435,2|0,3:2|0:0,0:0:0:0:
512,268,100477,2,0,B|511:240|511:240|490:227,1,52.2500015945435,10|0,0:2|0:0,0:0:0:0:
494,44,100613,6,0,P|473:92|461:142,1,104.500003189087,2|8,3:2|0:2,0:0:0:0:
344,297,100886,1,2,3:2:0:0:
201,37,101022,5,10,0:2:0:0:
95,168,101159,2,0,P|74:216|62:266,1,104.500003189087,2|8,3:2|0:2,0:0:0:0:
149,360,101431,1,2,3:2:0:0:
286,220,101568,6,0,L|235:233,1,52.2500015945435,10|0,0:2|0:0,0:0:0:0:
236,234,101704,2,0,P|204:176|263:130,1,104.500003189087,2|8,3:2|0:2,0:0:0:0:
344,297,101977,2,0,P|375:336|361:384,1,104.500003189087,2|8,3:2|0:2,0:0:0:0:
369,23,102250,2,0,P|354:71|386:110,1,104.500003189087,6|8,3:2|0:2,0:0:0:0:
455,292,102522,5,2,3:2:0:0:
512,182,102659,1,10,0:2:0:0:
312,80,102795,6,0,B|209:53|226:43|116:5,1,209.000006378174,6|0,3:2|3:2,0:0:0:0:
0,308,103204,5,10,0:2:0:0:
71,369,103340,2,0,P|119:350|170:337,2,104.500003189087,2|8|0,3:2|0:2|3:2,0:0:0:0:
35,155,103750,5,10,0:2:0:0:
202,197,103886,1,2,3:2:0:0:
364,234,104022,1,10,0:2:0:0:
313,124,104159,5,2,3:2:0:0:
202,197,104295,1,10,0:2:0:0:
98,272,104431,2,0,P|47:215|59:140,1,156.750004783631,2|0,3:2|0:0,0:0:0:0:
118,91,104704,6,0,B|140:110|140:110|135:132,1,52.2500015945435,2|0,3:2|0:0,0:0:0:0:
27,53,104840,2,0,B|32:23|32:23|54:17,1,52.2500015945435,10|0,0:2|0:0,0:0:0:0:
191,20,104977,6,0,L|272:33,1,52.2500015945435,6|0,3:2|0:0,0:0:0:0:
267,33,105113,1,10,0:2:0:0:
500,111,105250,2,0,P|450:125|402:146,1,104.500003189087,2|8,3:2|0:2,0:0:0:0:
319,350,105522,6,0,L|256:367,3,52.2500015945435,2|0|10|0,3:2|0:0|0:2|0:0,0:0:0:0:
192,384,105795,2,0,P|166:339|251:268,1,156.750004783631,2|0,3:2|0:0,0:0:0:0:
364,287,106068,5,2,3:2:0:0:
409,296,106136,1,0,3:2:0:0:
453,303,106204,2,0,L|383:330,1,52.2500015945435,8|0,0:2|0:0,0:0:0:0:
184,175,106340,5,2,3:2:0:0:
139,184,106408,1,0,3:2:0:0:
95,191,106476,2,0,L|165:218,1,52.2500015945435,8|0,0:2|0:0,0:0:0:0:
363,188,106613,5,2,3:2:0:0:
376,186,106681,1,0,0:0:0:0:
389,184,106750,1,8,0:2:0:0:
400,183,106818,1,8,0:0:0:0:
416,181,106886,5,6,3:2:0:0:
380,150,106954,1,8,0:2:0:0:
363,106,107022,1,8,0:2:0:0:
379,62,107090,1,8,0:2:0:0:
420,30,107159,6,0,P|464:45|510:58,1,95,6|0,3:2|0:0,0:0:0:0:
217,4,107431,2,0,P|253:91|271:184,1,190,10|2,0:2|3:2,0:0:0:0:
229,268,107840,1,0,3:2:0:0:
466,288,107977,6,0,P|396:302|332:334,1,142.5,10|0,0:2|0:0,0:0:0:0:
227,362,108250,2,0,B|210:317|210:317|238:279,1,95,2|2,3:2|2:2,0:0:0:0:
134,95,108522,5,8,0:2:0:0:
61,32,108659,2,0,B|19:76|19:76|47:133|68:229,1,190,2|0,2:2|3:2,0:0:0:0:
144,375,109068,5,10,0:2:0:0:
10,271,109204,1,0,3:2:0:0:
168,211,109340,2,0,P|216:198|257:182,1,95,2|0,3:2|0:0,0:0:0:0:
330,30,109613,2,0,P|377:16|419:0,1,95,10|0,0:2|0:0,0:0:0:0:
510,248,109886,2,0,P|428:205|417:115,1,190,2|10,3:2|0:2,0:0:0:0:
491,54,110295,1,0,0:0:0:0:
234,24,110431,6,0,B|207:62|207:62|220:108,1,95,2|0,3:2|0:0,0:0:0:0:
341,213,110704,1,10,0:2:0:0:
266,286,110840,2,0,B|336:310|356:358|436:384,1,190,2|0,2:2|3:2,0:0:0:0:
161,346,111250,6,0,L|68:373,1,95,8|2,0:2|0:2,0:0:0:0:
9,152,111522,2,0,L|87:171,1,47.5,0|0,3:2|0:0,0:0:0:0:
55,162,111659,2,0,P|38:207|31:253,1,95,2|10,2:2|0:2,0:0:0:0:
57,59,111931,5,0,0:0:0:0:
141,16,112068,2,0,B|198:50|198:50|177:104|168:169,1,190,2|10,3:2|0:2,0:0:0:0:
248,370,112477,5,0,0:0:0:0:
316,329,112613,2,0,L|329:283,1,47.5,2|0,3:2|0:0,0:0:0:0:
215,240,112750,2,0,L|229:297,1,47.5,2|0,2:2|0:0,0:0:0:0:
458,228,112886,2,0,B|379:209|361:198|276:175,1,190,8|0,0:2|3:2,0:0:0:0:
428,338,113295,5,0,3:2:0:0:
492,138,113431,2,0,P|481:69|402:29,1,142.5,10|0,0:2|0:0,0:0:0:0:
334,0,113704,2,0,P|315:47|351:94,1,95,2|0,3:2|0:0,0:0:0:0:
281,260,113977,2,0,P|326:255|353:218,1,95,10|0,0:2|0:0,0:0:0:0:
203,93,114250,6,0,B|105:69|135:41|26:13,1,190,2|10,3:2|0:2,0:0:0:0:
31,14,114659,1,0,0:0:0:0:
0,239,114795,5,10,0:2:0:0:
75,257,114863,1,8,2:2:0:0:
120,237,114931,1,8,2:2:0:0:
137,205,115000,1,8,2:2:0:0:
137,205,115068,2,0,P|90:195|46:176,1,95,10|8,0:2|0:3,0:0:0:0:
244,351,115340,2,0,P|233:257|275:174,1,190,14|8,0:2|2:2,0:0:0:0:
397,141,115750,5,0,0:0:0:0:
484,28,115886,6,0,L|377:3,1,95,6|0,3:2|0:0,0:0:0:0:
469,317,116159,2,0,P|480:222|503:130,1,190,10|2,0:2|3:2,0:0:0:0:
277,7,116568,5,0,3:2:0:0:
158,57,116704,2,0,P|141:100|161:141,1,95,10|0,0:2|0:0,0:0:0:0:
339,283,116977,2,0,P|346:304|333:323,1,47.5,2|0,3:2|0:0,0:0:0:0:
334,323,117113,2,0,L|243:350,1,95,2|8,2:2|0:2,0:0:0:0:
52,186,117386,5,2,2:2:0:0:
135,276,117522,1,0,3:2:0:0:
247,214,117659,1,0,3:2:0:0:
25,303,117795,5,10,0:2:0:0:
161,141,117931,1,0,3:2:0:0:
0,0,118068,6,0,P|13:45|22:92,1,95,2|2,3:2|2:2,0:0:0:0:
332,188,118340,1,8,0:2:0:0:
441,137,118477,2,0,P|459:94|446:49,2,95,2|0|0,2:2|3:2|3:2,0:0:0:0:
223,244,118886,6,0,B|287:278|268:326|364:357,1,142.5,10|0,0:2|0:0,0:0:0:0:
413,381,119159,2,0,P|444:346|440:299,1,95,2|2,3:2|2:2,0:0:0:0:
215,10,119431,5,8,0:2:0:0:
134,59,119568,2,0,P|130:105|160:140,1,95,2|0,2:2|0:0,0:0:0:0:
160,140,119840,1,0,3:2:0:0:
375,87,119977,6,0,B|328:105|328:105|311:127|311:127|252:153,1,142.5,8|0,0:2|0:0,0:0:0:0:
55,174,120250,6,0,P|91:203|109:246,1,95,2|0,3:2|0:0,0:0:0:0:
286,322,120522,1,10,0:2:0:0:
132,382,120659,1,0,0:0:0:0:
39,334,120795,5,2,3:2:0:0:
335,220,120931,2,0,B|432:257|393:281|524:330,1,190,2|2,3:2|2:2,0:0:0:0:
189,313,121340,6,0,P|200:266|204:220,1,95,2|0,3:2|0:0,0:0:0:0:
0,2,121613,5,10,0:2:0:0:
120,152,121750,1,0,0:0:0:0:
240,96,121886,1,0,3:2:0:0:
166,38,122022,5,2,3:2:0:0:
6,152,122159,2,0,P|26:194|40:240,1,95,10|0,0:2|3:2,0:0:0:0:
372,383,122431,6,0,P|385:337|406:294,1,95,6|0,3:2|0:0,0:0:0:0:
342,82,122704,2,0,P|321:124|308:170,1,95,10|0,0:2|0:0,0:0:0:0:
498,204,122977,2,0,P|452:191|409:170,1,95,2|0,3:2|3:2,0:0:0:0:
132,367,123250,2,0,P|189:296|164:208,1,190,10|10,0:2|0:2,0:0:0:0:
209,12,123659,6,0,L|231:74,1,66.4999979705811,10|8,0:2|0:2,0:0:0:0:
232,75,123795,1,8,0:2:0:0:
311,272,123931,1,10,0:2:0:0:
57,337,124068,5,8,0:2:0:0:
26,315,124136,1,8,0:2:0:0:
22,272,124204,1,8,0:2:0:0:
47,233,124272,1,8,0:2:0:0:
84,203,124340,5,10,0:2:0:0:
109,144,124409,1,8,0:2:0:0:
78,75,124477,1,8,0:2:0:0:
11,41,124545,1,8,0:2:0:0:
11,41,124613,2,0,B|-22:88|-22:88|6:156,1,113.999996520996,6|8,3:2|0:2,0:0:0:0:
386,339,124886,6,0,B|419:292|419:292|391:224,1,113.999996520996,2|8,3:2|0:2,0:0:0:0:
503,46,125159,2,0,P|418:121|309:150,1,227.999993041992,2|2,3:2|3:2,0:0:0:0:
129,2,125568,1,8,0:2:0:0:
78,75,125704,5,2,3:2:0:0:
309,9,125840,1,10,0:2:0:0:
109,144,125977,5,0,0:0:0:0:
233,185,126113,1,10,0:2:0:0:
57,337,126250,5,0,3:2:0:0:
263,269,126386,1,8,0:2:0:0:
263,269,126454,1,0,0:0:0:0:
263,269,126522,2,0,B|317:248|317:248|282:312|189:297,1,170.999994781494,6|0,3:2|0:0,0:0:0:0:
19,191,126795,6,0,L|38:256,1,56.9999982604981,6|0,3:2|0:0,0:0:0:0:
34,244,126931,2,0,P|81:214|92:160,1,113.999996520996,10|0,0:2|3:2,0:0:0:0:
167,361,127204,2,0,P|215:387|268:369,1,113.999996520996,10|0,0:2|3:2,0:0:0:0:
394,205,127477,6,0,P|312:183|263:115,1,170.999994781494,10|0,0:2|0:0,0:0:0:0:
260,37,127750,2,0,B|290:26|302:-2|302:-2|298:28|315:62,1,113.999996520996,10|0,0:2|3:2,0:0:0:0:
181,139,128022,5,8,0:2:0:0:
383,14,128159,1,0,3:2:0:0:
445,90,128295,1,8,0:2:0:0:
175,11,128431,6,0,B|87:51|119:64|22:108,1,170.999994781494,0|0,3:2|0:0,0:0:0:0:
74,202,128704,2,0,P|143:123|81:37,1,227.999993041992,4|2,3:2|3:2,0:0:0:0:
80,36,129113,1,0,0:0:0:0:
198,222,129250,5,2,3:2:0:0:
0,276,129386,2,0,P|55:288|109:307,1,113.999996520996,8|2,0:2|3:2,0:0:0:0:
321,34,129659,2,0,P|301:87|289:143,1,113.999996520996,8|0,0:2|3:2,0:0:0:0:
487,353,129931,6,0,L|420:368,1,56.9999982604981,10|0,0:2|0:0,0:0:0:0:
360,384,130068,1,0,3:2:0:0:
500,155,130204,2,0,P|446:135|393:114,1,113.999996520996,10|0,0:2|3:2,0:0:0:0:
227,369,130477,2,0,B|348:313|291:290|411:235,1,227.999993041992,10|8,0:2|0:2,0:0:0:0:
161,18,130886,6,0,B|132:-6|132:-6|222:-20|225:113,1,170.999994781494,4|0,3:2|0:0,0:0:0:0:
177,134,131159,6,0,L|111:121,1,56.9999982604981,6|0,3:2|0:0,0:0:0:0:
109,121,131295,1,10,0:2:0:0:
166,232,131431,6,0,L|100:219,1,56.9999982604981,0|0,3:2|0:0,0:0:0:0:
86,216,131567,1,10,0:2:0:0:
344,138,131704,6,0,L|399:126,1,56.9999982604981,0|0,3:2|0:0,0:0:0:0:
433,121,131840,1,10,0:2:0:0:
353,246,131976,6,0,L|408:234,1,56.9999982604981,0|0,3:2|0:0,0:0:0:0:
468,221,132112,1,8,0:2:0:0:
153,358,132250,5,2,3:2:0:0:
127,348,132318,1,0,3:2:0:0:
108,330,132386,1,8,0:2:0:0:
285,303,132522,5,2,3:2:0:0:
263,276,132590,1,0,0:0:0:0:
255,246,132658,1,8,0:2:0:0:
19,146,132795,5,2,3:2:0:0:
12,104,132863,1,0,0:0:0:0:
22,68,132931,1,8,0:2:0:0:
217,125,133068,5,0,3:2:0:0:
233,77,133136,1,0,0:0:0:0:
266,44,133204,1,8,0:2:0:0:
34,384,133340,6,0,P|18:319|-2:256,1,132.999995941162,2|8,3:2|0:2,0:0:0:0:
383,115,133613,2,0,P|398:50|422:-11,1,132.999995941162,6|0,3:2|0:0,0:0:0:0:
114,113,133886,6,0,B|255:176|141:240|303:311,1,265.999991882324,2|6,3:2|3:2,0:0:0:0:
284,302,134295,1,8,0:2:0:0:
512,186,134431,6,0,P|534:126|489:82,1,132.999995941162,2|8,3:2|0:2,0:0:0:0:
217,376,134704,2,0,P|172:331|194:272,1,132.999995941162,6|8,3:2|0:2,0:0:0:0:
471,298,134977,5,2,3:2:0:0:
482,300,135045,1,0,0:0:0:0:
492,302,135113,1,8,0:2:0:0:
502,305,135181,1,0,0:0:0:0:
512,307,135250,2,0,L|365:345,1,132.999995941162,6|8,3:2|0:2,0:0:0:0:
21,57,135522,6,0,P|84:37|140:3,1,123.499994346619,6|0,3:2|0:0,0:0:0:0:
386,235,135795,2,0,P|296:154|282:34,1,246.999988693238,10|0,0:2|3:2,0:0:0:0:
282,34,136204,1,0,3:2:0:0:
20,145,136340,6,0,P|79:155|110:207,1,123.499994346619,10|0,0:2|0:0,0:0:0:0:
151,297,136545,1,0,1:0:0:0:
151,297,136613,2,0,B|120:298|93:312|93:312|64:285|29:273,1,123.499994346619,2|0,3:2|0:0,0:0:0:0:
291,328,136886,2,0,B|353:330|407:358|407:358|465:304|533:280,1,246.999988693238,10|2,0:2|3:2,0:0:0:0:
511,288,137295,1,0,3:2:0:0:
204,383,137431,5,10,0:2:0:0:
204,383,137568,1,2,2:0:0:0:
397,57,137704,6,0,P|439:97|426:155,1,123.499994346619,2|0,3:2|0:0,0:0:0:0:
213,210,137977,2,0,P|170:169|183:111,1,123.499994346619,10|0,0:2|0:0,0:0:0:0:
316,5,138250,6,0,B|296:108|314:136|295:252,1,246.999988693238,2|10,3:2|0:2,0:0:0:0:
81,340,138659,1,2,2:0:0:0:
21,57,138795,1,2,3:2:0:0:
21,57,139068,5,10,0:2:0:0:
57,34,139136,1,0,0:0:0:0:
100,31,139204,1,0,3:2:0:0:
137,52,139272,1,0,3:2:0:0:
179,55,139340,5,2,3:2:0:0:
159,94,139409,1,0,3:2:0:0:
173,134,139477,1,0,3:2:0:0:
209,156,139545,1,0,3:2:0:0:
230,204,139613,5,8,0:2:0:0:
263,159,139681,1,0,3:2:0:0:
316,142,139750,1,0,3:2:0:0:
370,151,139818,1,0,3:2:0:0:
408,190,139886,2,0,P|390:250|383:311,1,123.499994346619,2|0,3:2|0:0,0:0:0:0:
70,136,140159,2,0,P|52:194|45:256,1,123.499994346619,10|0,0:2|0:0,0:0:0:0:
288,365,140431,6,0,P|219:268|262:158,1,246.999988693238,2|10,3:2|0:2,0:0:0:0:
461,112,140840,1,0,0:0:0:0:
181,49,140977,6,0,P|89:33|0:12,1,185.249991519928,2|0,3:2|0:0,0:0:0:0:
99,145,141250,2,0,B|220:91|176:66|332:8,1,246.999988693238,10|2,0:2|3:2,0:0:0:0:
308,17,141659,1,0,3:2:0:0:
493,272,141795,5,10,0:2:0:0:
493,272,141931,1,2,0:2:0:0:
140,384,142068,5,2,3:2:0:0:
70,322,142204,1,2,3:2:0:0:
181,144,142340,1,10,0:2:0:0:
274,252,142477,1,0,0:0:0:0:
347,232,142613,6,0,P|229:195|108:167,1,246.999988693238,2|10,3:2|0:2,0:0:0:0:
0,164,143022,1,10,0:2:0:0:
364,112,143159,5,2,3:2:0:0:
396,106,143227,1,0,3:2:0:0:
427,101,143295,2,0,L|405:182,1,61.7499971733095,0|0,3:2|3:2,0:0:0:0:
167,34,143431,5,2,3:2:0:0:
135,28,143499,1,0,3:2:0:0:
104,23,143567,2,0,L|125:104,1,61.7499971733095,0|0,3:2|3:2,0:0:0:0:
164,287,143704,6,0,P|274:192|250:48,1,304,2|12,3:2|0:2,0:0:0:0:
67,384,144250,6,0,P|48:321|14:270,1,123.499994346619,6|0,3:2|0:0,0:0:0:0:
221,381,144522,2,0,B|351:344|321:326|453:288,1,246.999988693238,10|0,0:2|3:2,0:0:0:0:
449,289,144931,1,0,3:2:0:0:
507,155,145068,5,10,0:2:0:0:
364,112,145204,1,0,0:0:0:0:
488,363,145340,6,0,P|497:302|512:242,1,123.499994346619,2|0,3:2|0:0,0:0:0:0:
448,24,145613,2,0,P|387:14|327:0,1,123.499994346619,10|0,0:2|0:0,0:0:0:0:
96,209,145886,2,0,P|167:118|103:22,1,246.999988693238,2|10,3:2|0:2,0:0:0:0:
27,77,146295,1,2,2:0:0:0:
215,225,146431,6,0,L|335:198,1,123.499994346619,2|0,3:2|0:0,0:0:0:0:
42,382,146704,2,0,L|15:261,1,123.499994346619,10|0,0:2|0:0,0:0:0:0:
259,360,146977,2,0,L|286:112,1,246.999988693238,2|10,3:2|0:2,0:0:0:0:
151,318,147386,5,2,0:2:0:0:
374,378,147522,2,0,P|454:342|461:254,1,185.249991519928,2|0,3:2|0:0,0:0:0:0:
505,170,147795,2,0,B|480:151|480:151|451:161,1,61.7499971733095,10|0,0:2|0:0,0:0:0:0:
285,114,147931,6,0,B|274:85|274:85|293:60,1,61.7499971733095,0|0,0:0|3:0,0:0:0:0:
386,17,148068,2,0,B|349:92|399:117|343:212,1,185.249991519928,2|0,3:2|0:0,0:0:0:0:
214,209,148340,2,0,P|301:212|333:293,1,185.249991519928,12|0,0:2|0:0,0:0:0:0:
480,379,148613,6,0,B|439:360|376:351|376:351|363:339|363:339|244:305,1,246.999988693238,2|10,3:2|0:2,0:0:0:0:
0,296,149022,5,0,0:0:0:0:
77,371,149159,2,0,P|95:312|120:255,1,123.499994346619,2|0,3:2|3:2,0:0:0:0:
0,63,149431,2,0,P|42:107|98:133,1,123.499994346619,10|0,0:2|0:0,0:0:0:0:
368,128,149704,6,0,P|278:150|190:179,1,185.249991519928,2|0,3:2|0:0,0:0:0:0:
202,62,149977,2,0,B|302:107|256:208|353:272,1,246.999988693238,10|2,0:2|3:2,0:0:0:0:
337,260,150386,1,0,3:2:0:0:
461,38,150522,5,10,0:2:0:0:
218,271,150659,1,2,0:2:0:0:
287,374,150795,5,2,3:2:0:0:
425,205,150931,1,2,0:2:0:0:
504,259,151068,1,10,0:2:0:0:
408,366,151204,1,0,0:0:0:0:
95,304,151340,5,2,3:2:0:0:
67,334,151613,1,10,0:2:0:0:
111,342,151750,1,2,2:0:0:0:
31,231,151886,6,0,P|11:172|12:111,1,123.499994346619,2|0,3:2|0:0,0:0:0:0:
186,155,152159,2,0,P|198:94|229:41,1,123.499994346619,10|0,0:2|0:0,0:0:0:0:
302,275,152363,1,0,0:0:0:0:
302,275,152431,2,0,P|393:194|512:162,1,246.999988693238,2|12,3:2|0:2,0:0:0:0:
103,9,152977,5,6,3:2:0:0:
256,192,153045,12,2,155159,3:2:0:0:
61,24,155431,5,2,2:0:0:0:
158,41,155568,1,2,2:0:0:0:
255,56,155704,1,2,3:2:0:0:
0,207,155977,5,2,2:0:0:0:
216,130,156113,1,2,2:0:0:0:
69,142,156250,5,2,3:2:0:0:
82,237,156522,1,2,2:0:0:0:
94,332,156795,1,2,3:2:0:0:
94,332,157068,5,2,2:0:0:0:
124,352,157136,1,0,0:0:0:0:
157,355,157204,1,2,2:0:0:0:
188,341,157272,1,0,0:0:0:0:
205,318,157340,1,2,3:2:0:0:
256,192,157409,12,2,159522,3:3:0:0:
354,270,159795,5,2,2:0:0:0:
440,303,159931,1,2,2:0:0:0:
512,356,160068,1,2,3:2:0:0:
304,364,160340,5,2,2:0:0:0:
505,236,160477,1,2,2:0:0:0:
438,177,160613,5,2,3:2:0:0:
428,100,160886,1,2,2:3:0:0:
476,34,161159,5,2,3:3:0:0:
312,84,161340,1,2,0:3:0:0:
147,141,161522,1,2,0:3:0:0:
66,110,161704,5,2,3:2:0:0:
256,192,161795,12,2,163886,3:2:0:0:
214,13,164159,5,2,2:0:0:0:
259,76,164295,1,2,2:0:0:0:
241,149,164431,1,2,3:2:0:0:
339,202,164704,5,2,2:0:0:0:
89,333,164840,1,2,2:0:0:0:
155,378,164977,5,2,3:2:0:0:
167,283,165250,1,2,2:0:0:0:
178,190,165522,1,2,3:2:0:0:
178,190,165795,5,2,2:3:0:0:
142,201,165863,1,2,0:3:0:0:
107,187,165931,1,2,2:3:0:0:
86,155,166000,1,2,0:3:0:0:
93,118,166068,1,2,3:3:0:0:
256,192,166136,12,6,168250,3:2:0:0:
319,252,169340,6,0,P|359:239|401:230,1,85.4999973907472
271,183,169613,6,0,B|244:130|244:130|307:48|307:48|323:81|356:111,1,213.750008153916,14|0,0:2|0:0,0:0:0:0:
455,153,169886,2,0,B|387:168|348:228|374:259|320:335|230:339,1,285.000010871888,14|14,0:2|0:2,0:0:0:0:
501,69,170431,6,0,P|452:50|405:27,1,104.500003189087,2|8,3:2|0:2,0:0:0:0:
230,7,170704,1,0,3:2:0:0:
175,199,170840,1,10,0:2:0:0:
89,252,170977,2,0,P|58:152|12:58,1,209.000006378174,2|0,3:2|3:2,0:0:0:0:
263,116,171386,5,10,0:2:0:0:
319,194,171522,1,2,3:2:0:0:
236,253,171659,1,10,0:2:0:0:
156,103,171795,5,2,3:2:0:0:
318,42,171931,1,10,0:2:0:0:
456,124,172068,2,0,P|425:197|408:273,1,156.750004783631,2|0,3:2|0:0,0:0:0:0:
476,337,172340,6,0,B|495:320|495:320|493:293,1,52.2500015945435,2|0,3:2|0:0,0:0:0:0:
346,344,172477,2,0,B|363:363|363:363|389:361,1,52.2500015945435,10|0,0:2|0:0,0:0:0:0:
334,197,172613,6,0,B|234:158|258:121|161:81,1,209.000006378174,2|2,3:2|3:2,0:0:0:0:
367,114,173022,5,10,0:2:0:0:
218,236,173159,2,0,B|118:275|142:312|38:355,1,209.000006378174,2|2,3:2|3:2,0:0:0:0:
54,163,173568,5,10,0:2:0:0:
231,371,173704,2,0,P|273:343|275:293,1,104.500003189087,2|8,3:2|0:2,0:0:0:0:
123,0,173977,6,0,P|75:29|73:79,1,104.500003189087,2|8,3:2|0:2,0:0:0:0:
1,268,174250,2,0,B|94:243|94:243|106:236|106:236|201:210,1,209.000006378174,2|6,3:2|3:2,0:0:0:0:
475,101,174659,5,10,0:2:0:0:
361,32,174795,2,0,P|312:11|262:0,2,104.500003189087,6|0|0,3:2|0:0|3:2,0:0:0:0:
346,341,175204,5,10,0:2:0:0:
432,381,175340,2,0,P|461:280|510:188,1,209.000006378174,2|2,3:2|3:2,0:0:0:0:
307,101,175750,5,10,0:2:0:0:
277,248,175886,1,2,3:2:0:0:
417,188,176022,1,10,0:2:0:0:
195,79,176159,5,2,3:2:0:0:
382,261,176295,1,10,0:2:0:0:
188,370,176431,2,0,P|117:338|42:316,1,156.750004783631,2|0,3:2|0:0,0:0:0:0:
156,256,176704,2,0,P|186:215|174:165,1,104.500003189087,2|10,3:2|0:2,0:0:0:0:
11,13,176977,5,2,3:2:0:0:
75,232,177113,1,8,0:2:0:0:
151,4,177250,1,2,3:2:0:0:
259,166,177386,1,10,0:2:0:0:
9,132,177522,6,0,P|59:118|108:100,1,104.500003189087,2|8,3:2|0:2,0:0:0:0:
330,39,177795,5,2,3:2:0:0:
323,38,177863,1,0,3:2:0:0:
318,36,177931,1,10,0:2:0:0:
313,34,178000,1,8,0:2:0:0:
306,57,178068,5,10,0:2:0:0:
339,24,178136,1,10,0:2:0:0:
385,16,178204,1,0,3:2:0:0:
429,30,178272,1,0,3:2:0:0:
474,18,178340,5,8,0:3:0:0:
462,64,178409,1,8,0:3:0:0:
452,109,178477,1,8,0:3:0:0:
442,155,178545,1,8,0:3:0:0:
471,198,178613,5,8,0:3:0:0:
418,198,178681,1,8,0:3:0:0:
378,233,178750,1,8,0:3:0:0:
375,285,178818,1,8,0:3:0:0:
400,329,178886,6,0,L|456:316,1,52.2500015945435,4|4,0:3|0:3,0:0:0:0:
300,183,179022,6,0,L|335:144,1,52.2500015945435,4|4,0:3|0:3,0:0:0:0:
131,206,179159,6,0,L|181:3,1,209.000006378174,6|0,3:2|3:2,0:0:0:0:
36,163,179568,5,10,0:2:0:0:
226,251,179704,2,0,P|255:293|200:378,1,156.750004783631,2|0,3:2|0:0,0:0:0:0:
90,378,179977,2,0,B|53:337|53:337|69:290,1,104.500003189087,0|10,3:2|0:2,0:0:0:0:
239,119,180250,5,2,3:2:0:0:
38,11,180386,1,10,0:2:0:0:
300,183,180522,5,2,3:2:0:0:
151,296,180659,1,10,0:2:0:0:
329,378,180795,2,0,P|382:358|488:333,1,156.750004783631,2|0,3:2|0:0,0:0:0:0:
428,243,181068,2,0,P|453:198|440:149,1,104.500003189087,2|10,3:2|0:2,0:0:0:0:
126,194,181340,6,0,P|175:209|224:228,1,104.500003189087,2|8,3:2|0:2,0:0:0:0:
432,21,181613,1,2,3:2:0:0:
327,101,181750,1,10,0:2:0:0:
170,15,181886,2,0,P|192:59|206:112,1,104.500003189087,2|8,3:2|0:2,0:0:0:0:
319,286,182159,5,2,3:2:0:0:
319,286,182295,1,10,0:2:0:0:
44,347,182431,6,0,L|95:355,1,52.2500015945435,2|0,3:2|0:0,0:0:0:0:
169,369,182568,1,8,0:2:0:0:
28,224,182704,6,0,P|78:211|125:188,1,104.500003189087,2|8,3:2|0:2,0:0:0:0:
0,101,182977,6,0,P|37:64|66:21,1,104.500003189087,6|8,3:2|0:2,0:0:0:0:
163,83,183181,1,0,0:0:0:0:
163,83,183250,2,0,L|115:105,1,52.2500015945435,2|0,3:2|0:0,0:0:0:0:
300,185,183386,6,0,P|350:199|401:209,1,104.500003189087,10|6,0:2|3:2,0:0:0:0:
488,157,183659,1,0,0:0:0:0:
423,85,183795,1,0,3:2:0:0:
219,308,183931,5,10,0:2:0:0:
294,383,184068,2,0,P|363:347|436:318,1,156.750004783631,2|0,3:2|0:0,0:0:0:0:
492,377,184340,2,0,P|525:344|517:286,1,104.500003189087,0|10,3:2|0:2,0:0:0:0:
222,142,184613,5,2,3:2:0:0:
490,3,184750,1,10,0:2:0:0:
192,229,184886,5,2,3:2:0:0:
319,286,185022,1,10,0:2:0:0:
157,384,185159,2,0,B|85:350|103:337|13:300,1,156.750004783631,2|0,3:2|0:0,0:0:0:0:
102,240,185431,6,0,L|114:136,1,104.500003189087,2|10,3:2|0:2,0:0:0:0:
187,302,185704,5,6,3:2:0:0:
12,180,185840,1,10,0:2:0:0:
178,66,185977,2,0,P|225:43|270:18,1,104.500003189087,2|8,3:2|0:2,0:0:0:0:
50,45,186250,5,2,3:2:0:0:
286,213,186386,1,10,0:2:0:0:
372,161,186522,1,2,3:2:0:0:
372,161,186590,1,0,0:0:0:0:
372,161,186659,1,8,0:2:0:0:
444,384,186795,5,10,0:2:0:0:
488,325,186863,1,8,0:2:0:0:
475,267,186931,1,8,0:2:0:0:
433,254,187000,1,8,0:2:0:0:
433,254,187068,2,0,P|384:270|337:293,1,104.500003189087,10|8,0:2|0:2,0:0:0:0:
265,367,187340,1,10,0:2:0:0:
365,39,187477,5,8,0:2:0:0:
397,23,187545,1,8,0:2:0:0:
442,32,187613,1,10,0:2:0:0:
468,81,187681,1,8,0:2:0:0:
445,139,187750,1,8,0:2:0:0:
372,161,187818,5,8,0:2:0:0:
310,103,187886,6,0,B|245:77|245:77|221:37|221:37|178:27|150:15,1,190,6|2,3:2|3:2,0:0:0:0:
69,72,188295,1,8,0:2:0:0:
237,284,188431,6,0,P|221:239|216:192,1,95,2|8,3:2|0:2,0:0:0:0:
32,365,188704,2,0,P|18:319|13:272,1,95,2|8,3:2|0:2,0:0:0:0:
308,217,188977,5,2,3:2:0:0:
236,372,189113,2,0,P|177:356|147:276,1,142.5,10|0,0:2|0:0,0:0:0:0:
79,213,189386,2,0,P|133:140|89:62,1,190,10|8,0:2|0:2,0:0:0:0:
233,234,189795,6,0,L|187:220,1,47.5,6|0,3:2|0:0,0:0:0:0:
0,165,189931,1,8,0:2:0:0:
241,39,190068,6,0,L|286:24,1,47.5,6|0,3:2|0:0,0:0:0:0:
286,24,190204,2,0,B|308:46|337:64|337:64|306:185,1,190,10|10,0:2|0:2,0:0:0:0:
390,373,190613,5,0,3:2:0:0:
488,273,190750,2,0,P|484:227|447:199,1,95,10|0,0:2|3:2,0:0:0:0:
380,240,190954,2,0,P|343:267|339:313,1,95
480,355,191159,5,0,3:2:0:0:
233,234,191295,1,8,0:2:0:0:
411,127,191431,5,0,3:2:0:0:
182,314,191568,1,8,0:2:0:0:
261,377,191704,5,0,3:2:0:0:
161,137,191840,1,8,0:2:0:0:
0,271,191977,5,4,3:2:0:0:
84,328,192113,1,8,0:2:0:0:
125,230,192250,2,0,P|48:172|57:88,1,190,2|2,3:2|3:2,0:0:0:0:
267,10,192659,6,0,L|255:104,1,95,8|2,0:2|3:2,0:0:0:0:
506,90,192931,2,0,L|494:184,1,95,8|0,0:2|3:2,0:0:0:0:
220,214,193204,2,0,B|285:249|265:264|342:301,1,142.5,10|0,0:2|0:0,0:0:0:0:
395,358,193477,6,0,P|425:322|421:276,1,95,10|0,0:2|3:2,0:0:0:0:
135,248,193750,2,0,P|150:291|191:311,1,95,10|0,0:2|3:2,0:0:0:0:
362,211,194022,1,8,0:2:0:0:
173,48,194159,5,4,3:2:0:0:
7,263,194295,1,10,0:2:0:0:
83,384,194431,6,0,L|73:327,1,56.9999982604981,2|0,3:2|0:0,0:0:0:0:
70,308,194568,1,10,0:2:0:0:
36,33,194704,6,0,L|26:89,1,56.9999982604981,4|0,3:2|0:0,0:0:0:0:
12,163,194841,1,10,0:2:0:0:
256,21,194977,6,0,B|293:-17|293:-17|327:11|327:11|259:47|265:124,1,227.999993041992,0|4,3:2|3:2,0:0:0:0:
166,184,195386,1,8,0:2:0:0:
223,376,195522,6,0,L|232:319,1,56.9999982604981,2|0,3:2|3:2,0:0:0:0:
250,225,195659,1,8,0:2:0:0:
408,345,195795,6,0,L|417:288,1,56.9999982604981,6|0,3:2|0:0,0:0:0:0:
440,165,195932,1,8,0:2:0:0:
150,196,196068,6,0,P|203:215|252:244,1,113.999996520996,2|8,3:2|0:2,0:0:0:0:
458,51,196340,2,0,P|404:70|355:99,1,113.999996520996,4|8,3:2|0:2,0:0:0:0:
71,28,196613,5,2,3:2:0:0:
237,141,196750,1,8,0:2:0:0:
9,177,196886,5,6,3:2:0:0:
163,210,197022,1,8,0:2:0:0:
195,36,197159,5,2,3:2:0:0:
170,23,197295,1,8,0:2:0:0:
156,46,197431,1,6,3:2:0:0:
182,59,197568,1,8,0:2:0:0:
326,4,197704,5,2,3:2:0:0:
359,186,197840,1,8,0:2:0:0:
458,57,197977,5,6,3:2:0:0:
406,263,198113,1,8,0:2:0:0:
220,140,198250,5,2,3:2:0:0:
245,127,198386,1,8,0:2:0:0:
259,150,198522,1,6,3:2:0:0:
233,163,198659,1,8,0:2:0:0:
0,156,198795,6,0,P|20:210|35:266,1,113.999996520996,2|8,3:2|0:2,0:0:0:0:
425,62,199068,2,0,P|404:116|389:172,1,113.999996520996,6|8,3:2|0:2,0:0:0:0:
76,8,199340,6,0,P|96:62|111:118,1,113.999996520996,2|8,3:2|0:2,0:0:0:0:
504,205,199613,2,0,P|483:259|468:315,1,113.999996520996,6|8,3:2|0:2,0:0:0:0:
214,368,199886,5,2,3:2:0:0:
241,362,199954,1,8,0:2:0:0:
268,357,200022,1,8,0:3:0:0:
296,352,200090,1,8,0:3:0:0:
303,324,200159,5,8,0:3:0:0:
276,330,200227,1,8,0:3:0:0:
249,335,200295,1,12,0:3:0:0:
221,340,200363,1,0,0:0:0:0:
200,319,200431,5,4,0:3:0:0:
253,296,200500,1,0,0:0:0:0:
292,255,200568,1,4,0:3:0:0:
308,200,200636,1,0,0:0:0:0:
289,148,200704,6,0,B|265:125|265:125|278:166,1,71.2500027179719,4|0,0:3|0:0,0:0:0:0:
194,59,200840,6,0,B|161:51|161:51|193:80,1,71.2500027179719,4|0,0:3|0:0,0:0:0:0:
44,39,200977,6,0,B|8:77|8:77|46:117|66:198,1,185.249991519928,6|0,3:2|0:0,0:0:0:0:
0,326,201250,2,0,B|126:254|32:217|185:146,1,246.999988693238,10|0,0:2|3:2,0:0:0:0:
377,246,201659,1,0,3:2:0:0:
495,192,201795,2,0,P|512:130|498:73,1,123.499994346619,10|0,0:2|0:0,0:0:0:0:
216,231,202068,6,0,B|175:279|175:279|201:341,1,123.499994346619,2|0,3:2|0:0,0:0:0:0:
391,144,202340,1,10,0:2:0:0:
391,144,202477,1,0,0:0:0:0:
502,321,202613,6,0,P|411:341|322:367,1,185.249991519928,2|0,3:2|0:0,0:0:0:0:
245,384,202886,2,0,B|231:356|231:356|250:332,1,61.7499971733095,10|0,0:2|0:0,0:0:0:0:
348,289,203022,2,0,B|379:290|379:290|389:319,1,61.7499971733095,2|0,0:2|0:0,0:0:0:0:
221,123,203159,6,0,B|128:96|128:96|93:49|93:49|4:22,2,246.999988693238,2|10|2,3:2|0:2|3:2,0:0:0:0:
309,81,203840,1,0,0:0:0:0:
189,5,203977,5,10,0:2:0:0:
28,128,204113,1,2,0:2:0:0:
28,128,204181,1,0,0:0:0:0:
28,128,204250,2,0,P|68:191|86:249,1,123.499994346619,2|0,3:2|0:0,0:0:0:0:
324,280,204522,5,10,0:2:0:0:
274,284,204590,1,0,0:0:0:0:
227,301,204659,1,0,3:2:0:0:
186,329,204727,1,0,3:2:0:0:
151,364,204795,2,0,L|13:314,1,123.499994346619,6|0,3:2|0:0,0:0:0:0:
185,209,205068,5,8,0:2:0:0:
405,381,205204,1,0,3:2:0:0:
503,344,205340,2,0,P|522:283|478:234,1,123.499994346619,2|0,3:2|0:0,0:0:0:0:
322,72,205613,2,0,P|263:82|237:136,1,123.499994346619,10|0,0:2|0:0,0:0:0:0:
388,272,205886,6,0,L|429:28,1,246.999988693238,2|10,3:2|0:2,0:0:0:0:
185,209,206295,5,0,3:2:0:0:
10,110,206431,2,0,P|69:92|129:68,1,123.499994346619,2|0,3:2|0:0,0:0:0:0:
105,380,206704,2,0,P|164:362|224:338,1,123.499994346619,10|0,0:2|0:0,0:0:0:0:
371,161,206977,5,2,3:2:0:0:
371,161,207113,1,0,0:0:0:0:
512,244,207250,5,14,0:2:0:0:
228,82,207386,1,2,0:2:0:0:
476,111,207522,5,2,3:2:0:0:
267,206,207659,1,2,0:0:0:0:
411,276,207795,1,10,0:2:0:0:
345,52,207931,1,0,3:2:0:0:
175,162,208068,2,0,P|123:182|41:57,1,185.249991519928,2|0,3:2|0:0,0:0:0:0:
50,0,208340,6,0,B|40:64,1,61.7499971733095,10|0,0:2|0:0,0:0:0:0:
11,232,208477,2,0,B|1:296,1,61.7499971733095,10|0,0:2|0:0,0:0:0:0:
113,379,208613,5,2,3:2:0:0:
156,384,208681,1,0,3:2:0:0:
195,364,208749,2,0,L|185:298,1,61.7499971733095,0|0,3:2|3:2,0:0:0:0:
267,206,208886,5,2,3:2:0:0:
310,201,208954,1,0,3:2:0:0:
349,221,209022,2,0,L|339:287,1,61.7499971733095,0|0,3:2|3:2,0:0:0:0:
161,192,209159,6,0,P|179:52|319:41,1,304,2|12,3:2|0:2,0:0:0:0:
447,372,209704,6,0,B|465:340|486:318|486:318|456:203,1,185.249991519928,6|0,3:2|0:0,0:0:0:0:
424,65,209977,2,0,B|413:15|474:-6|474:-6|519:57|519:57|496:84|478:126,1,246.999988693238,10|0,0:2|3:2,0:0:0:0:
453,287,210386,1,0,0:0:0:0:
227,107,210522,6,0,P|202:54|244:14,1,123.499994346619,10|0,0:2|3:2,0:0:0:0:
109,261,210795,2,0,P|56:285|16:243,1,123.499994346619,2|0,3:2|0:0,0:0:0:0:
280,262,211068,6,0,P|365:227|455:203,1,185.249991519928,10|0,0:2|0:0,0:0:0:0:
385,125,211340,2,0,P|426:84|402:32,1,123.499994346619,2|0,3:2|0:0,0:0:0:0:
83,169,211613,5,10,0:2:0:0:
328,341,211750,1,2,0:2:0:0:
178,384,211886,2,0,L|213:139,2,246.999988693238,2|10|2,3:2|0:2|3:2,0:0:0:0:
178,384,212568,1,0,0:0:0:0:
41,331,212704,5,10,0:2:0:0:
306,162,212840,1,2,0:2:0:0:
46,19,212977,2,0,P|21:104|82:168,1,185.249991519928,2|0,3:2|0:0,0:0:0:0:
158,304,213250,6,0,P|211:276|224:218,1,123.499994346619,14|0,0:2|0:0,0:0:0:0:
393,72,213522,2,0,L|148:33,1,246.999988693238,2|8,3:2|0:2,0:0:0:0:
339,378,213931,5,0,3:2:0:0:
438,290,214068,2,0,P|450:230|472:173,1,123.499994346619,2|0,3:2|0:0,0:0:0:0:
83,253,214340,2,0,P|95:192|117:135,1,123.499994346619,10|0,0:2|0:0,0:0:0:0:
492,27,214613,6,0,B|414:48|414:48|374:111|374:111|324:127|289:146,1,246.999988693238,2|10,3:2|0:2,0:0:0:0:
49,75,215022,1,0,0:0:0:0:
225,338,215159,6,0,P|215:277|199:217,1,123.499994346619,2|0,3:2|0:0,0:0:0:0:
335,0,215431,2,0,P|275:15|214:25,1,123.499994346619,10|0,0:2|0:0,0:0:0:0:
431,375,215704,6,0,P|448:252|474:129,1,246.999988693238,2|14,3:2|0:2,0:0:0:0:
335,0,216113,1,2,0:2:0:0:
148,92,216250,6,0,P|176:102|203:119,1,61.7499971733095,6|0,3:2|0:0,0:0:0:0:
309,112,216386,2,0,P|328:135|343:163,1,61.7499971733095,2|0,0:0|0:0,0:0:0:0:
410,73,216522,1,10,0:2:0:0:
451,8,216659,1,0,3:2:0:0:
12,72,216795,6,0,P|38:118|60:191,1,123.499994346619,2|0,3:2|0:0,0:0:0:0:
183,240,217000,1,0,0:0:0:0:
183,240,217068,2,0,P|182:292|165:367,1,123.499994346619,8|2,0:2|3:2,0:0:0:0:
483,240,217340,6,0,P|371:261|280:327,1,228,2|0,3:2|0:0,0:0:0:0:
270,184,217613,2,0,B|377:212|335:348|451:381,1,228,6|0,3:2|0:0,0:0:0:0:
512,328,217886,6,0,L|169:236,1,341.999989562989,2|14,3:2|0:2,0:0:0:0:
26,200,218295,1,0,3:2:0:0:
250,49,218431,5,6,3:2:0:0:
78,384,218977,1,6,3:2:0:0:
357,352,219522,6,0,P|240:308|182:197,1,256.499992172241,6|0,0:0|0:0,0:0:0:0:
153,352,219795,6,0,P|271:308|329:197,1,256.499992172241,6|0,0:0|0:0,0:0:0:0:
286,38,220068,6,0,P|214:80|297:74,1,227.999993041992,6|0,0:0|0:0,0:0:0:0:
