osu file format v14

[General]
AudioFilename: audio.mp3
AudioLeadIn: 0
PreviewTime: 72113
Countdown: 0
SampleSet: Soft
StackLeniency: 0.4
Mode: 0
LetterboxInBreaks: 0
WidescreenStoryboard: 1

[Editor]
Bookmarks: 250,8977,26431,43886,52613,61340,72250,89704,107159,124613,135522,152977,170431,187886,200977,220068
DistanceSpacing: 0.45
BeatDivisor: 4
GridSize: 32
TimelineZoom: 3

[Metadata]
Title:Keelhauled
TitleUnicode:Keelhauled
Artist:Alestorm
ArtistUnicode:Alestorm
Creator:Camo
Version:LECANDY'S EXTRA
Source:
Tags:captain morgans revenge black sails at midnight bottle of rum awesomemacd lecandy zelq gabdu09 heavy pirate folk english metal
BeatmapID:3177954
BeatmapSetID:1537993

[Difficulty]
HPDrainRate:5.4
CircleSize:4
OverallDifficulty:8.6
ApproachRate:9.4
SliderMultiplier:1.78
SliderTickRate:1

[Events]
//Background and Video events
0,0,"andrey-bakulin-06.jpg",0,0
//Break Periods
//Storyboard Layer 0 (Background)
//Storyboard Layer 1 (Fail)
//Storyboard Layer 2 (Pass)
//Storyboard Layer 3 (Foreground)
//Storyboard Layer 4 (Overlay)
//Storyboard Sound Samples

[TimingPoints]
250,272.727272727273,4,2,1,70,1,0
250,-142.857142857143,4,2,1,70,0,0
8704,-250,4,2,1,70,0,0
8909,-250,4,2,1,5,0,0
8977,-100,4,2,1,70,0,0
9250,-100,4,2,1,70,0,0
10818,-100,4,2,1,5,0,0
10886,-100,4,2,1,70,0,0
13000,-100,4,2,1,5,0,0
13068,-100,4,2,1,70,0,0
15181,-100,4,2,1,5,0,0
15250,-100,4,2,1,70,0,0
16818,-100,4,2,1,5,0,0
16886,-100,4,2,1,70,0,0
17431,-333.333333333333,4,2,1,70,0,0
17636,-200,4,2,1,5,0,0
17704,-100,4,2,1,70,0,0
19545,-100,4,2,1,5,0,0
19613,-100,4,2,1,70,0,0
21727,-100,4,2,1,5,0,0
21795,-100,4,2,1,70,0,0
23909,-100,4,2,1,5,0,0
23977,-100,4,2,1,70,0,0
26159,-200,4,2,1,70,0,0
26363,-200,4,2,1,5,0,0
26431,-83.3333333333333,4,2,1,70,0,0
42181,-83.3333333333333,4,2,1,5,0,0
42250,-83.3333333333333,4,2,1,70,0,0
43818,-83.3333333333333,4,2,1,5,0,0
43886,-71.4285714285714,4,2,1,70,0,0
51522,-83.3333333333333,4,2,1,70,0,0
52613,-90.9090909090909,4,2,1,70,0,0
52818,-90.9090909090909,4,2,1,5,0,0
52886,-90.9090909090909,4,2,1,70,0,0
53909,-90.9090909090909,4,2,1,5,0,0
53977,-90.9090909090909,4,2,1,70,0,0
55000,-90.9090909090909,4,2,1,5,0,0
55068,-90.9090909090909,4,2,1,70,0,0
57181,-90.9090909090909,4,2,1,5,0,0
57250,-90.9090909090909,4,2,1,70,0,0
57659,-90.9090909090909,4,2,1,70,0,0
59363,-90.9090909090909,4,2,1,5,0,0
59431,-90.9090909090909,4,2,1,70,0,0
61340,-83.3333333333333,4,2,1,70,0,0
70068,-58.8235294117647,4,2,1,70,0,0
70272,-58.8235294117647,4,2,1,5,0,0
70340,-208.333333333334,4,2,1,70,0,0
70545,-208.333333333334,4,2,1,5,0,0
70613,-58.8235294117647,4,2,1,70,0,0
70818,-58.8235294117647,4,2,1,5,0,0
70886,-208.333333333334,4,2,1,70,0,0
71090,-208.333333333334,4,2,1,5,0,0
71159,-58.8235294117647,4,2,1,70,0,0
71363,-58.8235294117647,4,2,1,5,0,0
71431,-208.333333333334,4,2,1,70,0,0
71636,-208.333333333334,4,2,1,5,0,0
71704,-83.3333333333333,4,2,1,70,0,0
72250,-62.5,4,2,1,70,0,0
72454,-62.5,4,2,1,5,0,0
72522,-83.3333333333333,4,2,1,70,0,0
72727,-83.3333333333333,4,2,1,5,0,0
72795,-90.9090909090909,4,2,1,70,0,0
73340,-71.4285714285714,4,2,1,70,0,0
73545,-71.4285714285714,4,2,1,5,0,0
73613,-83.3333333333333,4,2,1,70,0,0
73818,-83.3333333333333,4,2,1,5,0,0
73886,-100,4,2,1,70,0,0
74431,-71.4285714285714,4,2,1,70,0,0
74636,-71.4285714285714,4,2,1,5,0,0
74704,-83.3333333333333,4,2,1,70,0,0
74909,-83.3333333333333,4,2,1,5,0,0
74977,-100,4,2,1,70,0,0
75522,-71.4285714285714,4,2,1,70,0,0
75795,-71.4285714285714,4,2,1,70,0,0
76068,-71.4285714285714,4,2,1,70,0,0
76272,-71.4285714285714,4,2,1,5,0,0
76340,-71.4285714285714,4,2,1,70,0,0
77704,-71.4285714285714,4,2,1,70,0,0
77909,-71.4285714285714,4,2,1,5,0,0
77977,-83.3333333333333,4,2,1,70,0,0
78250,-71.4285714285714,4,2,1,70,0,0
80431,-62.5,4,2,1,70,0,0
80636,-62.5,4,2,1,5,0,0
80704,-62.5,4,2,1,70,0,0
80977,-62.5,4,2,1,70,0,0
81181,-62.5,4,2,1,5,0,0
81250,-83.3333333333333,4,2,1,70,0,0
81454,-83.3333333333333,4,2,1,5,0,0
81522,-90.9090909090909,4,2,1,70,0,0
82068,-71.4285714285714,4,2,1,70,0,0
82272,-71.4285714285714,4,2,1,5,0,0
82341,-83.3333333333333,4,2,1,70,0,0
82545,-83.3333333333333,4,2,1,5,0,0
82614,-100,4,2,1,70,0,0
83159,-71.4285714285714,4,2,1,70,0,0
83363,-71.4285714285714,4,2,1,5,0,0
83432,-83.3333333333333,4,2,1,70,0,0
83636,-83.3333333333333,4,2,1,5,0,0
83705,-100,4,2,1,70,0,0
84250,-71.4285714285714,4,2,1,70,0,0
84795,-62.5,4,2,1,70,0,0
85000,-62.5,4,2,1,5,0,0
85068,-62.5,4,2,1,70,0,0
85340,-71.4285714285714,4,2,1,70,0,0
86431,-71.4285714285714,4,2,1,70,0,0
86636,-71.4285714285714,4,2,1,5,0,0
86704,-71.4285714285714,4,2,1,70,0,0
89159,-62.5,4,2,1,70,0,0
89363,-62.5,4,2,1,5,0,0
89431,-62.5,4,2,1,70,0,0
89704,-83.3333333333333,4,2,1,70,0,0
107159,-90.9090909090909,4,2,1,70,0,0
107363,-90.9090909090909,4,2,1,5,0,0
107431,-90.9090909090909,4,2,1,70,0,0
109545,-90.9090909090909,4,2,1,5,0,0
109613,-90.9090909090909,4,2,1,70,0,0
112272,-90.9090909090909,4,2,1,5,0,0
112340,-90.9090909090909,4,2,1,70,0,0
112613,-90.9090909090909,4,2,1,70,0,0
112818,-90.9090909090909,4,2,1,5,0,0
112886,-90.9090909090909,4,2,1,70,0,0
113909,-90.9090909090909,4,2,1,5,0,0
113977,-90.9090909090909,4,2,1,70,0,0
115340,-58.8235294117647,4,2,1,70,0,0
115545,-58.8235294117647,4,2,1,5,0,0
115613,-166.666666666667,4,2,1,70,0,0
115818,-166.666666666667,4,2,1,5,0,0
115886,-62.5,4,2,1,70,0,0
116090,-62.5,4,2,1,5,0,0
116159,-90.9090909090909,4,2,1,70,0,0
116977,-90.9090909090909,4,2,1,70,0,0
117181,-90.9090909090909,4,2,1,5,0,0
117250,-90.9090909090909,4,2,1,70,0,0
118272,-90.9090909090909,4,2,1,5,0,0
118340,-90.9090909090909,4,2,1,70,0,0
119159,-90.9090909090909,4,2,1,70,0,0
119363,-90.9090909090909,4,2,1,5,0,0
119431,-90.9090909090909,4,2,1,70,0,0
121545,-90.9090909090909,4,2,1,5,0,0
121613,-90.9090909090909,4,2,1,70,0,0
122431,-71.4285714285714,4,2,1,70,0,0
122636,-71.4285714285714,4,2,1,5,0,0
122704,-90.9090909090909,4,2,1,70,0,0
124613,-83.3333333333333,4,2,1,70,0,0
133613,-62.5,4,2,1,70,0,0
133886,-83.3333333333333,4,2,1,70,0,0
134159,-62.5,4,2,1,70,0,0
134431,-83.3333333333333,4,2,1,70,0,0
134704,-62.5,4,2,1,70,0,0
134977,-55.5555555555556,4,2,1,70,0,0
135181,-55.5555555555556,4,2,1,5,0,0
135250,-166.666666666667,4,2,1,70,0,0
135454,-166.666666666667,4,2,1,5,0,0
135522,-62.5,4,2,1,70,0,0
135727,-62.5,4,2,1,5,0,0
135794,-83.3333333333333,4,2,1,70,0,0
136000,-83.3333333333333,4,2,1,5,0,0
136067,-90.9090909090909,4,2,1,70,0,0
136612,-71.4285714285714,4,2,1,70,0,0
136818,-71.4285714285714,4,2,1,5,0,0
136885,-83.3333333333333,4,2,1,70,0,0
137090,-83.3333333333333,4,2,1,5,0,0
137158,-100,4,2,1,70,0,0
137703,-71.4285714285714,4,2,1,70,0,0
137909,-71.4285714285714,4,2,1,5,0,0
137976,-83.3333333333333,4,2,1,70,0,0
138181,-83.3333333333333,4,2,1,5,0,0
138249,-100,4,2,1,70,0,0
138794,-71.4285714285714,4,2,1,70,0,0
139068,-71.4285714285714,4,2,1,70,0,0
140704,-83.3333333333333,4,2,1,70,0,0
140977,-71.4285714285714,4,2,1,70,0,0
141181,-71.4285714285714,4,2,1,5,0,0
141249,-90.9090909090909,4,2,1,70,0,0
141522,-83.3333333333333,4,2,1,70,0,0
142068,-71.4285714285714,4,2,1,70,0,0
143703,-62.5,4,2,1,70,0,0
143909,-62.5,4,2,1,5,0,0
143977,-62.5,4,2,1,70,0,0
144181,-62.5,4,2,1,5,0,0
144249,-71.4285714285714,4,2,1,70,0,0
144454,-71.4285714285714,4,2,1,5,0,0
144522,-83.3333333333333,4,2,1,70,0,0
144727,-83.3333333333333,4,2,1,5,0,0
144795,-90.9090909090909,4,2,1,70,0,0
145340,-71.4285714285714,4,2,1,70,0,0
145545,-71.4285714285714,4,2,1,5,0,0
145613,-83.3333333333333,4,2,1,70,0,0
145818,-83.3333333333333,4,2,1,5,0,0
145886,-100,4,2,1,70,0,0
146431,-71.4285714285714,4,2,1,70,0,0
146636,-71.4285714285714,4,2,1,5,0,0
146704,-83.3333333333333,4,2,1,70,0,0
146909,-83.3333333333333,4,2,1,5,0,0
146977,-100,4,2,1,70,0,0
147522,-71.4285714285714,4,2,1,70,0,0
148067,-62.5,4,2,1,70,0,0
148272,-62.5,4,2,1,5,0,0
148340,-62.5,4,2,1,70,0,0
148612,-71.4285714285714,4,2,1,70,0,0
149704,-71.4285714285714,4,2,1,70,0,0
149909,-71.4285714285714,4,2,1,5,0,0
149977,-83.3333333333333,4,2,1,70,0,0
150250,-71.4285714285714,4,2,1,70,0,0
151886,-62.5,4,2,1,70,0,0
152090,-62.5,4,2,1,5,0,0
152159,-83.3333333333333,4,2,1,70,0,0
152431,-62.5,4,2,1,70,0,0
152977,-131.356073801443,4,2,1,70,0,0
155159,-166.666666666666,4,2,1,70,0,0
157340,-130.877385003554,4,2,1,70,0,0
159522,-166.666666666666,4,2,1,70,0,0
161704,-159.892634300158,4,2,1,70,0,0
163340,-166.666666666666,4,2,1,70,0,0
166068,-130.877385003554,4,2,1,70,0,0
169613,-55.5555555555556,4,2,1,70,0,0
169818,-55.5555555555556,4,2,1,5,0,0
169886,-83.3333333333333,4,2,1,70,0,0
170090,-83.3333333333333,4,2,1,5,0,0
170159,-200,4,2,1,70,0,0
170363,-200,4,2,1,5,0,0
170431,-83.3333333333333,4,2,1,70,0,0
174795,-76.9230769230769,4,2,1,70,0,0
175340,-83.3333333333333,4,2,1,70,0,0
179159,-76.9230769230769,4,2,1,70,0,0
179704,-83.3333333333333,4,2,1,70,0,0
183522,-76.9230769230769,4,2,1,70,0,0
184068,-83.3333333333333,4,2,1,70,0,0
186181,-83.3333333333333,4,2,1,5,0,0
186250,-83.3333333333333,4,2,1,70,0,0
187886,-83.3333333333333,4,2,1,70,0,0
194704,-66.6666666666667,4,2,1,70,0,0
196886,-58.8235294117647,4,2,1,70,0,0
197159,-66.6666666666667,4,2,1,70,0,0
197431,-58.8235294117647,4,2,1,70,0,0
197704,-66.6666666666667,4,2,1,70,0,0
197977,-58.8235294117647,4,2,1,70,0,0
198250,-66.6666666666667,4,2,1,70,0,0
198522,-58.8235294117647,4,2,1,70,0,0
198795,-66.6666666666667,4,2,1,70,0,0
199068,-58.8235294117647,4,2,1,70,0,0
199340,-66.6666666666667,4,2,1,70,0,0
199613,-58.8235294117647,4,2,1,70,0,0
199886,-66.6666666666667,4,2,1,70,0,0
200431,-55.5555555555556,4,2,1,70,0,0
200704,-125,4,2,1,70,0,0
200977,-62.5,4,2,1,70,0,0
201181,-62.5,4,2,1,5,0,0
201249,-83.3333333333333,4,2,1,70,0,0
201454,-83.3333333333333,4,2,1,5,0,0
201522,-90.9090909090909,4,2,1,70,0,0
202067,-66.6666666666667,4,2,1,70,0,0
202272,-66.6666666666667,4,2,1,5,0,0
202340,-90.9090909090909,4,2,1,70,0,0
202545,-90.9090909090909,4,2,1,5,0,0
202613,-100,4,2,1,70,0,0
203158,-71.4285714285714,4,2,1,70,0,0
203363,-71.4285714285714,4,2,1,5,0,0
203431,-83.3333333333333,4,2,1,70,0,0
203636,-83.3333333333333,4,2,1,5,0,0
203704,-100,4,2,1,70,0,0
204249,-71.4285714285714,4,2,1,70,0,0
205000,-71.4285714285714,4,2,1,5,0,0
205068,-71.4285714285714,4,2,1,70,0,0
206159,-83.3333333333333,4,2,1,70,0,0
206431,-64.5161290322581,4,2,1,70,0,0
206704,-90.9090909090909,4,2,1,70,0,0
206977,-83.3333333333333,4,2,1,70,0,0
207523,-71.4285714285714,4,2,1,70,0,0
209158,-62.5,4,2,1,70,0,0
209363,-62.5,4,2,1,5,0,0
209431,-62.5,4,2,1,70,0,0
209704,-71.4285714285714,4,2,1,70,0,0
209909,-71.4285714285714,4,2,1,5,0,0
209977,-83.3333333333333,4,2,1,70,0,0
210181,-83.3333333333333,4,2,1,5,0,0
210250,-90.9090909090909,4,2,1,70,0,0
210795,-71.4285714285714,4,2,1,70,0,0
211000,-71.4285714285714,4,2,1,5,0,0
211068,-83.3333333333333,4,2,1,70,0,0
211272,-83.3333333333333,4,2,1,5,0,0
211341,-100,4,2,1,70,0,0
211886,-71.4285714285714,4,2,1,70,0,0
212090,-71.4285714285714,4,2,1,5,0,0
212159,-83.3333333333333,4,2,1,70,0,0
212363,-83.3333333333333,4,2,1,5,0,0
212432,-100,4,2,1,70,0,0
212977,-71.4285714285714,4,2,1,70,0,0
213522,-58.8235294117647,4,2,1,70,0,0
213727,-58.8235294117647,4,2,1,5,0,0
213795,-58.8235294117647,4,2,1,70,0,0
214067,-71.4285714285714,4,2,1,70,0,0
215159,-62.5,4,2,1,70,0,0
215363,-62.5,4,2,1,5,0,0
215432,-83.3333333333333,4,2,1,70,0,0
215636,-83.3333333333333,4,2,1,5,0,0
215705,-71.4285714285714,4,2,1,70,0,0
217340,-58.8235294117647,4,2,1,70,0,0
217545,-58.8235294117647,4,2,1,5,0,0
217613,-83.3333333333333,4,2,1,70,0,0
217818,-83.3333333333333,4,2,1,5,0,0
217886,-55.5555555555556,4,2,1,70,0,0
218090,-55.5555555555556,4,2,1,5,0,0
218159,-55.5555555555556,4,2,1,70,0,0
218431,-71.4285714285714,4,2,1,70,0,0
219522,-50,4,2,1,70,0,0
219727,-50,4,2,1,5,0,0
219795,-45.4545454545455,4,2,1,70,0,0
220000,-45.4545454545455,4,2,1,5,0,0
220068,-45.4545454545455,4,2,1,70,0,0

[Colours]
Combo1 : 0,64,128
Combo2 : 0,94,94
Combo3 : 113,113,113
Combo4 : 143,71,71

[HitObjects]
265,65,250,5,2,3:2:0:0:
265,65,386,1,0,0:0:0:0:
265,65,522,2,0,P|251:87|256:130,1,62.2999980987549,2|0,3:2|0:0,0:0:0:0:
474,209,796,5,2,3:2:0:0:
474,209,932,1,0,0:0:0:0:
474,209,1068,2,0,P|488:187|483:144,1,62.2999980987549,2|0,3:2|0:0,0:0:0:0:
306,196,1340,5,2,3:2:0:0:
306,196,1476,1,0,0:0:0:0:
306,196,1613,2,0,P|276:200|246:209,1,62.2999980987549,2|0,3:2|0:0,0:0:0:0:
428,77,1886,5,2,3:2:0:0:
428,77,2022,1,0,0:0:0:0:
428,77,2158,2,0,P|459:72|489:63,1,62.2999980987549,2|0,3:2|0:0,0:0:0:0:
394,149,2431,5,2,3:3:0:0:
386,145,2500,1,2,0:3:0:0:
379,141,2568,1,2,0:3:0:0:
372,138,2636,1,2,0:3:0:0:
365,134,2704,2,0,P|350:127|336:121,3,31.1499990493775,2|2|2|2,3:0|0:3|0:3|0:3,0:0:0:0:
265,84,2977,5,2,3:3:0:0:
167,150,3113,1,2,0:3:0:0:
201,11,3250,2,0,P|189:52|180:88,1,62.2999980987549,2|2,3:3|0:3,0:0:0:0:
82,183,3522,5,2,3:3:0:0:
82,183,3659,1,2,0:3:0:0:
154,238,3795,1,2,3:3:0:0:
93,91,3931,1,2,0:3:0:0:
0,222,4068,5,2,3:3:0:0:
103,0,4340,1,6,3:2:0:0:
71,275,4613,5,2,3:2:0:0:
71,275,4749,1,0,0:0:0:0:
71,275,4885,2,0,P|82:303|87:351,1,62.2999980987549,2|0,3:2|0:0,0:0:0:0:
288,383,5159,5,2,3:2:0:0:
288,383,5295,1,0,0:0:0:0:
288,383,5431,2,0,P|287:351|279:321,1,62.2999980987549,2|0,3:2|0:0,0:0:0:0:
154,238,5704,5,2,3:2:0:0:
154,238,5840,1,0,0:0:0:0:
154,238,5976,2,0,P|165:266|170:314,1,62.2999980987549,2|0,3:2|0:0,0:0:0:0:
373,355,6250,5,2,3:2:0:0:
373,355,6386,1,0,0:0:0:0:
374,354,6522,2,0,P|373:322|365:292,1,62.2999980987549,2|0,3:2|0:0,0:0:0:0:
288,147,6795,5,2,3:2:0:0:
288,147,6931,1,0,0:0:0:0:
288,147,7067,2,0,P|275:174|285:220,1,62.2999980987549,2|0,3:2|0:0,0:0:0:0:
499,207,7340,5,2,3:2:0:0:
499,207,7476,1,0,0:0:0:0:
499,207,7613,2,0,P|494:237|474:260,1,62.2999980987549,2|0,3:2|0:0,0:0:0:0:
415,92,7885,5,2,3:2:0:0:
415,92,8021,1,0,0:0:0:0:
415,91,8159,2,0,P|426:62|436:33,1,62.2999980987549,2|0,3:2|0:0,0:0:0:0:
389,178,8431,1,2,3:2:0:0:
162,0,8704,6,0,P|153:25|144:50,1,53.4,2|0,0:3|0:0,0:0:0:0:
233,71,8977,6,0,P|149:69|108:144,1,178,2|0,3:2|3:2,0:0:0:0:
166,203,9386,1,2,2:2:0:0:
15,104,9522,2,0,P|37:190|51:278,1,178,2|0,3:2|3:2,0:0:0:0:
209,375,9931,5,2,2:2:0:0:
209,374,10068,2,0,P|250:339|240:289,1,89,2|2,3:2|2:2,0:0:0:0:
47,287,10340,2,0,P|58:339|106:355,1,89,2|2,3:2|2:2,0:0:0:0:
324,251,10613,2,0,P|391:272|455:279,1,133.5,2|0,3:2|0:0,0:0:0:0:
468,290,10886,1,2,3:2:0:0:
371,352,11022,1,2,2:2:0:0:
510,204,11159,6,0,P|518:156|479:123,1,89,2|0,3:2|0:0,0:0:0:0:
413,137,11431,1,2,3:2:0:0:
413,137,11567,1,2,2:2:0:0:
247,13,11704,2,0,P|238:55|264:89,1,89,2|0,3:2|0:0,0:0:0:0:
343,91,11977,1,2,3:2:0:0:
343,91,12113,1,2,2:2:0:0:
184,157,12250,6,0,P|140:147|65:141,1,89,2|0,3:2|0:0,0:0:0:0:
60,0,12522,2,0,P|104:10|179:16,1,89,2|0,3:2|0:0,0:0:0:0:
0,125,12795,2,0,P|-23:180|29:229,1,133.5,2|0,3:2|0:0,0:0:0:0:
49,223,13068,1,2,3:2:0:0:
139,146,13204,1,2,2:2:0:0:
298,339,13340,6,0,P|385:320|474:311,1,178,2|0,3:2|3:2,0:0:0:0:
371,241,13750,1,2,2:2:0:0:
181,344,13886,2,0,P|95:362|6:371,1,178,2|0,3:2|3:2,0:0:0:0:
240,265,14295,5,2,2:2:0:0:
240,265,14431,2,0,P|243:220|253:177,1,89,2|2,3:2|2:2,0:0:0:0:
94,98,14704,2,0,P|92:142|82:185,1,89,2|2,3:2|2:2,0:0:0:0:
234,73,14977,2,0,P|203:9|136:19,1,133.5,2|0,3:2|0:0,0:0:0:0:
128,25,15250,1,2,3:2:0:0:
180,140,15386,1,2,2:2:0:0:
334,45,15522,6,0,P|378:48|421:57,1,89,2|0,3:2|0:0,0:0:0:0:
471,120,15795,1,2,3:2:0:0:
471,120,15931,1,2,2:2:0:0:
270,181,16068,2,0,P|315:184|358:193,1,89,2|0,3:2|0:0,0:0:0:0:
415,248,16340,1,2,3:2:0:0:
415,248,16477,1,2,2:2:0:0:
223,348,16613,6,0,P|165:341|100:392,1,133.5,2|0,3:2|0:0,0:0:0:0:
0,384,16886,2,0,P|26:348|64:292,1,89,2|0,3:2|0:0,0:0:0:0:
321,277,17159,2,0,P|276:272|232:264,1,89,2|0,3:2|0:0,0:0:0:0:
82,108,17431,2,0,P|76:87|70:67,1,40.049998777771,2|0,3:2|0:0,0:0:0:0:
4,147,17704,6,0,P|55:134|113:232,1,178,2|0,3:2|3:2,0:0:0:0:
56,296,18113,1,2,2:2:0:0:
254,373,18250,2,0,P|305:386|363:287,1,178,2|0,3:2|3:2,0:0:0:0:
261,109,18658,5,2,2:2:0:0:
261,109,18795,2,0,P|236:144|253:193,1,89,2|2,3:2|2:2,0:0:0:0:
440,113,19068,2,0,P|423:73|372:64,1,89,2|2,3:2|2:2,0:0:0:0:
382,281,19340,2,0,P|373:215|353:152,1,133.5,2|0,3:2|0:0,0:0:0:0:
344,135,19613,1,2,3:2:0:0:
464,198,19749,1,2,2:2:0:0:
238,279,19886,6,0,P|191:261|142:253,1,89,2|0,3:2|0:0,0:0:0:0:
110,190,20158,1,2,3:2:0:0:
110,190,20294,1,2,2:2:0:0:
40,34,20431,2,0,P|87:52|136:60,1,89,2|0,3:2|0:0,0:0:0:0:
168,123,20703,1,2,3:2:0:0:
168,123,20839,1,2,2:2:0:0:
0,174,20977,6,0,P|15:215|22:261,1,89,2|0,3:2|0:0,0:0:0:0:
185,122,21250,2,0,P|169:80|163:35,1,89,2|0,3:2|0:0,0:0:0:0:
105,207,21522,2,0,P|166:217|190:288,1,133.5,2|0,3:2|0:0,0:0:0:0:
179,295,21795,1,2,3:2:0:0:
279,232,21931,1,2,2:2:0:0:
505,384,22067,6,0,P|511:294|525:207,1,178,2|0,3:2|3:2,0:0:0:0:
432,260,22477,1,2,2:2:0:0:
333,73,22613,2,0,P|341:142|454:156,1,178,2|0,3:2|3:2,0:0:0:0:
479,13,23022,5,2,2:2:0:0:
479,13,23158,2,0,P|506:30|489:107,1,89,2|2,3:2|2:2,0:0:0:0:
426,257,23431,2,0,P|429:213|439:170,1,89,2|2,3:2|2:2,0:0:0:0:
276,2,23704,2,0,P|270:68|255:134,1,133.5,2|0,3:2|0:0,0:0:0:0:
263,153,23977,1,2,3:2:0:0:
365,85,24113,1,2,2:2:0:0:
208,261,24250,6,0,P|165:248|118:243,1,89,2|0,3:2|0:0,0:0:0:0:
43,262,24523,1,2,3:2:0:0:
43,262,24659,1,2,2:2:0:0:
164,68,24795,2,0,P|119:73|77:85,1,89,0|0,3:2|0:0,0:0:0:0:
16,144,25068,1,2,3:2:0:0:
16,144,25204,1,2,2:2:0:0:
232,349,25340,5,6,3:2:0:0:
157,153,25477,1,8,0:2:0:0:
156,160,25545,1,8,0:2:0:0:
155,168,25613,1,10,0:2:0:0:
55,306,25750,1,8,0:3:0:0:
273,199,25886,1,8,0:3:0:0:
66,67,26022,1,12,0:3:0:0:
131,259,26159,2,0,P|162:249|195:244,1,66.75,14|0,2:2|0:0,0:0:0:0:
371,149,26431,6,0,P|366:67|243:60,1,213.599993481446,2|0,3:2|3:2,0:0:0:0:
219,127,26840,1,10,0:2:0:0:
380,247,26977,2,0,P|433:249|485:258,1,106.799996740723,2|8,3:2|0:2,0:0:0:0:
323,333,27250,2,0,P|272:293|289:245,1,106.799996740723,0|10,3:2|0:2,0:0:0:0:
483,123,27522,5,2,3:2:0:0:
371,254,27659,1,10,0:2:0:0:
288,65,27795,5,2,3:2:0:0:
370,167,27931,1,10,0:2:0:0:
188,265,28068,2,0,P|82:249|-24:249,1,213.599993481446,2|2,3:2|3:2,0:0:0:0:
15,164,28477,1,10,0:2:0:0:
167,359,28613,6,0,P|220:337|272:327,1,106.799996740723,2|8,3:2|0:2,0:0:0:0:
420,384,28886,1,2,3:2:0:0:
466,321,29022,1,10,0:2:0:0:
168,373,29159,6,0,P|221:351|273:341,1,106.799996740723,2|8,3:2|0:2,0:0:0:0:
433,377,29431,1,2,3:2:0:0:
479,314,29567,1,10,0:2:0:0:
299,212,29704,6,0,P|315:267|372:278,1,106.799996740723,2|8,3:2|0:2,0:0:0:0:
471,64,29977,2,0,P|454:115|447:168,1,106.799996740723,2|8,3:2|0:2,0:0:0:0:
310,0,30250,2,0,P|352:97|372:202,1,213.599993481446,2|6,3:2|3:2,3:2:0:0:
452,271,30659,1,10,0:2:0:0:
124,376,30795,6,0,P|18:348|32:245,1,213.599993481446,6|0,3:2|3:2,0:0:0:0:
101,222,31204,1,10,0:2:0:0:
0,71,31340,2,0,P|14:122|20:175,1,106.799996740723,2|8,3:2|0:2,0:0:0:0:
165,291,31613,2,0,P|212:239|172:179,1,106.799996740723,2|10,3:2|0:2,0:0:0:0:
78,36,31886,5,2,3:2:0:0:
191,136,32022,1,10,0:2:0:0:
25,268,32159,5,2,3:2:0:0:
87,147,32295,1,10,0:2:0:0:
194,366,32431,2,0,P|295:334|409:322,1,213.599993481446,2|2,3:2|3:2,0:0:0:0:
439,249,32840,1,10,0:2:0:0:
379,45,32977,6,0,P|322:66|326:140,1,106.799996740723,2|8,3:2|0:2,0:0:0:0:
512,286,33250,2,0,P|527:232|491:192,1,106.799996740723,2|10,3:2|0:2,0:0:0:0:
249,171,33522,6,0,P|278:176|322:193,1,53.3999983703614,2|0,3:2|3:2,0:0:0:0:
377,154,33659,1,8,0:2:0:0:
512,117,33794,6,0,P|482:111|438:94,1,53.3999983703614,2|0,3:2|3:2,0:0:0:0:
387,146,33931,1,10,0:2:0:0:
236,57,34068,5,2,3:2:0:0:
232,50,34136,1,0,3:2:0:0:
228,43,34204,1,8,0:2:0:0:
19,192,34340,5,2,3:2:0:0:
15,185,34408,1,0,3:2:0:0:
11,178,34476,1,8,0:2:0:0:
176,239,34613,5,6,3:2:0:0:
188,228,34681,1,0,3:2:0:0:
195,202,34750,1,8,0:2:0:0:
180,170,34818,1,8,0:2:0:0:
131,153,34886,1,10,0:2:0:0:
80,118,34954,1,8,0:2:0:0:
85,55,35022,1,8,0:2:0:0:
130,16,35090,1,8,0:2:0:0:
138,29,35159,6,0,P|105:130|93:236,1,213.599993481446,6|0,3:2|3:2,0:0:0:0:
24,283,35568,1,10,0:2:0:0:
191,384,35704,2,0,P|232:360|236:296,1,106.799996740723,2|8,3:2|0:2,0:0:0:0:
16,272,35977,2,0,P|16:319|69:354,1,106.799996740723,0|10,3:2|0:2,0:0:0:0:
249,200,36250,5,2,3:2:0:0:
125,303,36386,1,10,0:2:0:0:
56,124,36522,5,2,3:2:0:0:
133,216,36659,1,10,0:2:0:0:
358,96,36795,2,0,P|331:199|320:305,1,213.599993481446,2|2,3:2|3:2,0:0:0:0:
236,213,37204,1,10,0:2:0:0:
457,83,37340,6,0,P|454:37|368:12,1,106.799996740723,2|8,3:2|0:2,0:0:0:0:
245,79,37613,1,2,3:2:0:0:
207,13,37750,1,10,0:2:0:0:
446,93,37886,6,0,P|443:47|357:22,1,106.799996740723,2|8,3:2|0:2,0:0:0:0:
234,89,38159,1,2,3:2:0:0:
196,23,38296,1,10,0:2:0:0:
0,207,38431,6,0,P|53:192|104:183,1,106.799996740723,2|8,3:2|0:2,0:0:0:0:
117,20,38704,2,0,P|66:43|54:99,1,106.799996740723,2|8,3:2|0:2,0:0:0:0:
205,236,38977,2,0,P|308:216|434:204,1,213.599993481446,6|2,3:2|3:2,0:0:0:0:
335,130,39386,1,10,0:2:0:0:
137,336,39522,6,0,P|46:292|54:191,1,213.599993481446,6|0,3:2|3:2,0:0:0:0:
133,156,39931,1,10,0:2:0:0:
225,370,40068,2,0,P|283:356|294:291,1,106.799996740723,2|8,3:2|0:2,0:0:0:0:
144,140,40340,2,0,P|161:190|167:243,1,106.799996740723,0|10,3:2|0:2,0:0:0:0:
337,368,40613,5,2,3:2:0:0:
505,271,40750,1,10,0:2:0:0:
333,171,40886,5,2,3:2:0:0:
439,113,41022,1,10,0:2:0:0:
447,325,41159,2,0,P|456:218|482:115,1,213.599993481446,2|2,3:2|3:2,0:0:0:0:
416,35,41568,1,10,0:2:0:0:
235,250,41704,6,0,P|185:230|133:218,1,106.799996740723,6|10,3:2|0:2,0:0:0:0:
0,22,41977,2,0,P|82:39|90:112,1,160.199995111084,2|0,3:2|0:0,0:0:0:0:
75,125,42250,1,2,3:2:0:0:
174,33,42386,1,10,0:2:0:0:
323,181,42522,2,0,P|375:192|424:212,1,106.799996740723,2|8,3:2|0:2,0:0:0:0:
507,146,42795,5,2,3:2:0:0:
444,70,42931,1,8,0:2:0:0:
173,273,43068,5,2,3:2:0:0:
207,165,43204,1,8,0:2:0:0:
327,360,43340,6,0,P|378:345|431:336,1,106.799996740723,2|8,3:2|0:2,0:0:0:0:
234,41,43613,2,0,P|157:65|79:80,1,160.199995111084,6|0,3:2|0:0,0:0:0:0:
0,159,43886,5,6,3:2:0:0:
474,257,46068,5,6,3:2:0:0:
161,10,48250,5,6,3:2:0:0:
501,170,49340,5,6,3:2:0:0:
168,373,50431,5,6,3:2:0:0:
299,179,50977,5,6,3:2:0:0:
12,17,51522,6,0,P|8:63|80:81,1,106.799996740723,6|10,3:2|0:2,0:0:0:0:
123,65,51727,1,8,0:2:0:0:
132,58,51795,1,8,0:2:0:0:
303,249,51931,1,10,0:2:0:0:
236,7,52068,1,8,0:2:0:0:
204,176,52204,1,8,0:2:0:0:
331,82,52340,1,8,0:2:0:0:
87,202,52476,1,8,0:2:0:0:
369,377,52613,6,0,P|443:356|512:345,1,146.850004481506,6|0,3:2|0:0,0:0:0:0:
471,266,52886,2,0,P|424:280|376:288,1,97.900002987671,10|2,0:2|2:2,0:0:0:0:
200,369,53159,1,0,3:2:0:0:
200,369,53295,1,0,3:2:0:0:
73,276,53431,2,0,P|118:261|157:288,1,97.900002987671,10|0,0:2|3:2,0:0:0:0:
415,384,53704,6,0,P|427:311|447:240,1,146.850004481506,2|0,3:2|0:0,0:0:0:0:
392,177,53977,2,0,P|404:131|416:71,1,97.900002987671,10|0,3:2|0:0,0:0:0:0:
266,5,54250,1,0,3:2:0:0:
266,5,54386,1,0,3:2:0:0:
285,85,54522,2,0,P|340:60|336:6,1,97.900002987671,10|0,0:2|3:2,0:0:0:0:
121,107,54795,6,0,P|50:88|57:1,1,146.850004481506,2|0,3:2|0:0,0:0:0:0:
121,7,55068,2,0,P|168:19|204:52,1,97.900002987671,10|0,0:2|0:0,0:0:0:0:
274,169,55340,1,2,3:2:0:0:
274,169,55477,1,2,3:2:0:0:
64,242,55613,2,0,P|101:208|148:197,1,97.900002987671,8|0,0:2|3:2,0:0:0:0:
456,260,55886,5,2,3:2:0:0:
456,260,56022,2,0,P|470:329|347:353,1,195.800005975342,2|2,2:2|2:2,0:0:0:0:
215,233,56431,1,0,3:2:0:0:
215,233,56568,1,0,3:2:0:0:
335,308,56704,1,10,0:2:0:0:
188,375,56840,1,0,3:2:0:0:
340,186,56977,6,0,P|355:121|385:37,1,146.850004481506,2|0,3:2|0:0,0:0:0:0:
443,0,57250,2,0,P|482:20|475:89,1,97.900002987671,8|2,0:2|2:2,0:0:0:0:
242,148,57522,1,0,3:2:0:0:
242,148,57659,2,0,P|175:95|230:1,1,195.800005975342,2|0,3:2|3:2,0:0:0:0:
436,146,58068,6,0,P|419:194|402:265,1,97.900002987671,2|2,3:2|2:2,0:0:0:0:
133,343,58340,1,8,0:2:0:0:
133,343,58477,2,0,P|240:324|342:325,1,195.800005975342,2|0,2:2|3:2,0:0:0:0:
451,366,58886,1,10,0:2:0:0:
509,147,59022,1,0,3:2:0:0:
509,147,59159,6,0,P|540:191|475:257,1,146.850004481506,2|0,3:2|0:0,0:0:0:0:
416,261,59431,2,0,P|371:241|322:235,1,97.900002987671,10|0,0:2|0:0,0:0:0:0:
256,82,59704,1,2,3:2:0:0:
256,82,59840,1,0,3:2:0:0:
428,56,59977,2,0,P|379:49|335:29,1,97.900002987671,10|0,0:2|0:0,0:0:0:0:
67,138,60250,6,0,P|29:97|53:48,1,97.900002987671,2|2,3:2|2:2,0:0:0:0:
274,100,60522,2,0,P|257:154|191:173,1,97.900002987671,8|2,0:2|2:2,0:0:0:0:
103,1,60795,1,12,0:2:0:0:
127,203,60931,1,8,0:2:0:0:
130,213,61000,1,8,0:2:0:0:
133,223,61068,2,0,P|146:168|154:112,1,97.900002987671,10|8,0:2|0:2,0:0:0:0:
462,6,61340,6,0,P|447:57|435:126,1,106.799996740723,6|8,3:2|0:2,0:0:0:0:
245,140,61613,1,2,3:2:0:0:
356,55,61750,1,8,0:2:0:0:
410,208,61886,2,0,P|458:186|511:176,1,106.799996740723,2|8,3:2|0:2,0:0:0:0:
347,140,62159,2,0,P|313:179|318:231,1,106.799996740723,2|8,3:2|0:2,0:0:0:0:
100,362,62431,5,2,3:2:0:0:
100,362,62568,2,0,P|97:308|85:256,1,106.799996740723,10|0,0:2|3:2,0:0:0:0:
0,61,62840,2,0,P|22:130|154:139,1,213.599993481446,10|8,0:2|0:2,0:0:0:0:
297,7,63250,1,6,3:2:0:0:
175,60,63386,1,8,0:2:0:0:
340,173,63522,6,0,P|350:120|367:70,1,106.799996740723,6|10,3:2|0:2,0:0:0:0:
263,94,63795,1,0,3:2:0:0:
370,266,63931,2,0,P|422:244|430:184,1,106.799996740723,10|0,0:2|3:2,0:0:0:0:
178,206,64204,2,0,P|231:216|281:233,1,106.799996740723,10|0,0:2|3:2,0:0:0:0:
421,108,64477,5,10,0:2:0:0:
335,181,64613,1,0,3:2:0:0:
449,288,64750,1,8,0:2:0:0:
309,384,64886,2,0,P|250:365|187:357,1,106.799996740723,0|8,3:2|0:2,0:0:0:0:
123,183,65159,2,0,P|72:194|54:246,1,106.799996740723,0|8,3:2|0:2,0:0:0:0:
246,313,65431,1,4,3:2:0:0:
134,384,65568,1,8,0:2:0:0:
239,171,65704,6,0,P|282:141|334:127,1,106.799996740723,2|8,3:2|0:2,0:0:0:0:
249,12,65977,1,2,3:2:0:0:
442,112,66113,2,0,P|432:60|375:47,1,106.799996740723,10|0,0:2|3:2,0:0:0:0:
189,64,66386,2,0,P|200:14|248:-1,1,106.799996740723,10|0,0:2|3:2,0:0:0:0:
386,188,66659,6,0,P|354:222|326:274,1,106.799996740723,10|0,0:2|3:2,0:0:0:0:
95,151,66931,2,0,P|120:194|137:257,1,106.799996740723,10|0,0:2|3:2,0:0:0:0:
270,97,67204,2,0,P|238:196|218:311,1,213.599993481446,10|8,0:2|0:2,0:0:0:0:
8,384,67613,2,0,P|13:328|77:308,1,106.799996740723,4|10,3:2|0:2,0:0:0:0:
333,365,67886,5,6,3:2:0:0:
337,371,67954,1,0,0:0:0:0:
341,377,68022,1,10,0:2:0:0:
184,354,68159,2,0,P|157:358|133:369,2,53.3999983703614,0|0|10,3:2|3:2|0:2,0:0:0:0:
270,295,68431,5,0,3:2:0:0:
265,299,68499,1,0,3:2:0:0:
259,304,68567,1,10,0:2:0:0:
409,317,68704,2,0,P|435:325|456:342,2,53.3999983703614,0|0|8,3:2|3:2|0:2,0:0:0:0:
350,209,68977,5,2,3:2:0:0:
353,214,69045,1,0,3:2:0:0:
357,220,69113,1,8,0:2:0:0:
218,205,69250,2,0,P|190:208|166:219,2,53.3999983703614,2|0|8,3:2|0:0|0:2,0:0:0:0:
260,102,69522,5,2,3:2:0:0:
255,106,69590,1,0,3:2:0:0:
248,111,69658,1,8,0:2:0:0:
402,136,69795,2,0,P|428:144|449:161,2,53.3999983703614,0|0|8,3:2|3:2|0:2,0:0:0:0:
274,9,70068,6,0,B|208:-10|174:47|177:52|181:57|141:121|81:93,1,226.950004328728,2|0,3:2|0:0,0:0:0:0:
74,79,70340,2,0,P|57:49|57:8,1,64.0800015644532,6|0,3:2|0:0,0:0:0:0:
0,147,70613,6,0,P|48:249|62:361,1,226.950004328728,2|0,3:2|0:0,0:0:0:0:
80,375,70886,2,0,P|111:376|144:344,1,64.0800015644532,6|0,3:2|0:0,0:0:0:0:
229,201,71159,6,0,B|293:177|320:243|317:248|313:252|339:323|407:298,1,226.950004328728,2|0,3:2|0:0,0:0:0:0:
426,286,71431,2,0,P|424:255|416:221,1,64.0800015644532,6|0,3:2|0:0,0:0:0:0:
476,123,71704,5,10,0:2:0:0:
482,114,71772,1,8,0:2:0:0:
488,104,71840,2,0,P|480:74|477:49,1,53.3999983703614,8|8,0:2|0:2,0:0:0:0:
253,167,71977,2,0,P|260:196|264:222,1,53.3999983703614,10|8,0:2|0:2,0:0:0:0:
395,31,72113,1,8,0:2:0:0:
14,59,72250,6,0,P|1:157|98:185,1,213.6,6|0,3:2|0:0,0:0:0:0:
148,117,72522,2,0,P|126:194|115:273,1,160.199995111084,10|0,0:2|0:0,0:0:0:0:
158,350,72795,2,0,P|209:353|238:312,1,97.900002987671,0|0,3:2|3:2,0:0:0:0:
341,161,73068,1,10,0:2:0:0:
221,233,73204,1,0,0:0:0:0:
388,384,73340,6,0,P|400:291|425:201,1,186.899994296265,2|0,3:2|0:0,0:0:0:0:
495,145,73613,2,0,P|492:68|424:33,1,160.199995111084,10|0,0:2|0:0,0:0:0:0:
349,71,73886,2,0,P|306:56|262:54,1,89,2|0,3:2|3:2,0:0:0:0:
98,113,74159,1,10,0:2:0:0:
180,16,74295,1,2,0:2:0:0:
20,192,74431,6,0,P|113:198|204:218,1,186.899994296265,2|0,3:2|0:0,0:0:0:0:
269,161,74704,2,0,P|326:194|268:296,1,160.199995111084,10|0,0:2|0:0,0:0:0:0:
238,320,74977,2,0,P|197:302|153:294,1,89,2|0,3:2|3:2,0:0:0:0:
333,382,75250,1,10,0:2:0:0:
148,205,75386,5,2,0:2:0:0:
141,198,75454,1,0,0:0:0:0:
137,189,75522,2,0,P|159:123|235:103,1,124.59999619751,2|0,3:2|0:0,0:0:0:0:
368,0,75795,2,0,P|345:58|334:119,1,124.59999619751,10|0,0:2|3:2,0:0:0:0:
475,349,76068,2,0,P|498:255|398:209,1,186.899994296265,6|0,3:2|0:0,0:0:0:0:
326,254,76340,1,8,0:2:0:0:
95,23,76613,6,0,P|156:15|217:2,1,124.59999619751,2|0,3:2|0:0,0:0:0:0:
124,190,76886,2,0,P|62:198|2:211,1,124.59999619751,10|0,0:2|0:0,0:0:0:0:
182,103,77159,1,2,3:2:0:0:
229,221,77295,1,0,3:2:0:0:
323,105,77431,2,0,P|385:92|462:84,1,124.59999619751,10|0,0:2|0:0,0:0:0:0:
246,11,77704,6,0,P|278:98|299:189,1,186.899994296265,2|0,3:2|0:0,0:0:0:0:
375,222,77977,2,0,P|364:281|310:299,1,106.799996740723,10|0,0:2|0:0,0:0:0:0:
177,370,78250,2,0,P|117:375|76:330,1,124.59999619751,2|0,3:2|3:2,0:0:0:0:
114,154,78522,1,14,0:2:0:0:
29,258,78659,1,2,0:2:0:0:
214,191,78795,6,0,P|198:124|174:61,1,124.59999619751,2|2,3:2|0:2,0:0:0:0:
307,269,79068,2,0,P|374:259|386:190,1,124.59999619751,10|0,0:2|0:0,0:0:0:0:
408,40,79340,1,2,3:2:0:0:
317,145,79477,1,0,3:2:0:0:
512,6,79613,2,0,P|492:65|482:126,1,124.59999619751,10|10,0:2|0:2,0:0:0:0:
197,100,79886,5,2,3:2:0:0:
183,97,79954,1,0,3:2:0:0:
169,94,80022,1,0,3:2:0:0:
155,91,80090,1,0,3:2:0:0:
108,55,80159,5,2,3:2:0:0:
90,59,80227,1,0,3:2:0:0:
72,63,80295,1,0,3:2:0:0:
54,67,80363,1,0,3:2:0:0:
2,27,80431,6,0,P|30:130|38:237,1,213.6,2|0,3:2|0:0,0:0:0:0:
0,314,80704,1,12,0:2:0:0:
368,360,80977,6,0,P|467:365|476:257,1,213.6,6|0,3:2|0:0,0:0:0:0:
409,240,81250,2,0,P|419:156|442:70,1,160.199995111084,10|0,0:2|0:0,0:0:0:0:
489,18,81522,2,0,P|444:46|393:36,1,97.900002987671,0|0,3:2|3:2,0:0:0:0:
222,112,81796,1,10,0:2:0:0:
308,9,81932,1,0,0:0:0:0:
221,208,82068,6,0,P|143:179|19:171,1,186.899994296265,2|0,3:2|0:0,0:0:0:0:
0,101,82341,2,0,P|18:37|126:23,1,160.199995111084,10|0,0:2|0:0,0:0:0:0:
128,92,82614,2,0,P|109:132|102:176,1,89,2|0,3:2|3:2,0:0:0:0:
113,354,82887,1,10,0:2:0:0:
14,228,83023,1,2,0:2:0:0:
209,334,83159,6,0,P|282:303|410:284,1,186.899994296265,2|0,3:2|0:0,0:0:0:0:
442,354,83432,2,0,P|508:328|473:234,1,160.199995111084,10|0,0:2|0:0,0:0:0:0:
424,209,83705,2,0,P|417:160|392:94,1,89,2|0,3:2|3:2,0:0:0:0:
343,11,83978,1,10,0:2:0:0:
492,104,84114,1,2,0:2:0:0:
318,205,84250,6,0,P|255:204|224:148,1,124.59999619751,2|0,3:2|0:0,0:0:0:0:
116,0,84522,2,0,P|53:1|22:57,1,124.59999619751,10|0,0:2|0:0,0:0:0:0:
153,294,84796,2,0,P|138:188|106:86,1,213.6,6|0,3:2|0:0,0:0:0:0:
123,3,85068,1,8,0:2:0:0:
387,349,85341,6,0,P|325:358|268:381,1,124.59999619751,2|0,3:2|0:0,0:0:0:0:
73,316,85614,2,0,P|103:370|174:368,1,124.59999619751,10|0,0:2|0:0,0:0:0:0:
279,211,85887,1,2,3:2:0:0:
166,285,86023,1,0,3:2:0:0:
366,272,86159,2,0,P|371:210|384:148,1,124.59999619751,10|0,0:2|0:0,0:0:0:0:
113,8,86432,6,0,P|25:45|44:141,1,186.899994296265,2|0,3:2|0:0,0:0:0:0:
73,196,86705,2,0,P|126:198|198:210,1,124.59999619751,10|0,0:2|0:0,0:0:0:0:
329,62,86977,2,0,P|266:57|189:44,1,124.59999619751,2|0,3:2|3:2,0:0:0:0:
342,275,87250,1,10,0:2:0:0:
264,151,87387,1,2,0:2:0:0:
177,299,87523,5,2,3:2:0:0:
353,183,87659,1,2,0:2:0:0:
353,183,87795,2,0,P|404:168|484:164,1,124.59999619751,10|0,0:2|0:0,0:0:0:0:
248,70,88068,1,2,3:2:0:0:
202,212,88205,1,0,3:2:0:0:
6,116,88340,2,0,P|59:114|134:93,1,124.59999619751,10|2,0:2|3:2,0:0:0:0:
304,8,88613,5,2,3:2:0:0:
318,11,88681,1,0,3:2:0:0:
332,14,88749,1,0,3:2:0:0:
346,17,88817,1,0,3:2:0:0:
384,53,88886,5,2,3:2:0:0:
402,49,88954,1,0,3:2:0:0:
420,45,89022,1,0,3:2:0:0:
438,41,89090,1,0,3:2:0:0:
504,25,89159,6,0,P|438:60|441:192,1,213.6,2|0,3:2|0:0,0:0:0:0:
512,278,89431,1,12,0:2:0:0:
63,381,89704,6,0,P|93:278|104:172,1,213.599993481446,2|0,3:2|3:2,0:0:0:0:
178,124,90113,1,10,0:2:0:0:
34,24,90250,2,0,P|49:63|139:63,1,106.799996740723,2|8,3:2|0:2,0:0:0:0:
218,200,90522,2,0,P|259:195|283:108,1,106.799996740723,0|10,3:2|0:2,0:0:0:0:
416,0,90795,5,2,3:2:0:0:
264,64,90932,1,10,0:2:0:0:
433,203,91068,5,2,3:2:0:0:
380,79,91204,1,10,0:2:0:0:
308,278,91341,2,0,P|406:238|512:227,1,213.599993481446,2|2,3:2|3:2,0:0:0:0:
477,134,91750,1,10,0:2:0:0:
307,372,91886,6,0,P|258:351|205:347,1,106.799996740723,2|8,3:2|0:2,0:0:0:0:
44,300,92159,1,2,3:2:0:0:
15,373,92295,1,10,0:2:0:0:
300,355,92431,6,0,P|249:337|196:337,1,106.799996740723,2|8,3:2|0:2,0:0:0:0:
29,303,92704,1,2,3:2:0:0:
0,376,92840,1,10,0:2:0:0:
0,141,92977,6,0,P|20:198|69:212,1,106.799996740723,2|8,3:2|0:2,0:0:0:0:
198,247,93250,2,0,P|248:228|300:220,1,106.799996740723,2|8,3:2|0:2,0:0:0:0:
229,33,93522,2,0,P|147:59|150:184,1,213.599993481446,2|6,3:2|3:2,0:0:0:0:
195,260,93932,1,10,0:2:0:0:
486,63,94068,6,0,P|458:140|427:303,1,213.599993481446,6|0,3:2|3:2,0:0:0:0:
468,343,94477,1,10,0:2:0:0:
308,384,94613,2,0,P|260:360|258:295,1,106.799996740723,2|8,3:2|0:2,0:0:0:0:
363,155,94886,2,0,P|349:206|343:259,1,106.799996740723,2|10,3:2|0:2,0:0:0:0:
45,279,95159,5,2,3:2:0:0:
258,224,95295,1,10,0:2:0:0:
170,311,95431,5,2,3:2:0:0:
141,193,95568,1,10,0:2:0:0:
78,382,95704,2,0,P|176:341|285:330,1,213.599993481446,2|2,3:2|3:2,0:0:0:0:
366,357,96113,1,10,0:2:0:0:
463,122,96249,6,0,P|470:147|464:173,1,53.3999983703614,2|0,3:2|3:2,0:0:0:0:
395,217,96386,1,8,0:2:0:0:
512,243,96522,6,0,P|493:261|467:269,1,53.3999983703614,2|2,3:2|3:2,0:0:0:0:
395,232,96659,1,10,0:2:0:0:
343,105,96795,6,0,P|327:126|325:152,1,53.3999983703614,2|0,3:2|3:2,0:0:0:0:
377,214,96932,1,8,0:2:0:0:
258,203,97067,6,0,P|269:226|291:241,1,53.3999983703614,2|0,3:2|3:2,0:0:0:0:
373,230,97204,1,10,0:2:0:0:
74,383,97340,5,2,3:2:0:0:
78,376,97408,1,0,3:2:0:0:
82,369,97476,1,8,0:2:0:0:
160,200,97613,5,2,3:2:0:0:
164,193,97681,1,0,3:2:0:0:
168,186,97749,1,8,0:2:0:0:
231,352,97886,5,6,3:2:0:0:
221,363,97954,1,0,3:2:0:0:
195,370,98023,1,8,0:2:0:0:
165,355,98091,1,8,0:2:0:0:
148,306,98159,1,10,0:2:0:0:
108,263,98227,1,8,0:2:0:0:
49,261,98295,1,8,0:2:0:0:
6,308,98363,1,8,0:2:0:0:
16,323,98432,6,0,P|27:217|53:114,1,213.599993481446,6|0,3:2|3:2,0:0:0:0:
20,27,98841,1,10,0:2:0:0:
196,0,98977,2,0,P|187:40|118:65,1,106.799996740723,2|8,3:2|0:2,0:0:0:0:
0,178,99250,2,0,P|51:162|104:158,1,106.799996740723,0|10,3:2|0:2,0:0:0:0:
285,50,99523,5,2,3:2:0:0:
182,179,99659,1,10,0:2:0:0:
342,254,99795,5,2,3:2:0:0:
273,135,99932,1,10,0:2:0:0:
186,323,100068,2,0,P|293:327|406:360,1,213.599993481446,2|2,3:2|3:2,0:0:0:0:
478,339,100477,1,10,0:2:0:0:
279,145,100613,6,0,P|303:104|383:100,1,106.799996740723,2|8,3:2|0:2,0:0:0:0:
450,242,100886,1,2,3:2:0:0:
505,181,101023,1,10,0:2:0:0:
285,156,101159,6,0,P|313:117|393:122,1,106.799996740723,2|8,3:2|0:2,0:0:0:0:
456,256,101432,1,2,3:2:0:0:
504,198,101569,1,10,0:2:0:0:
342,323,101704,6,0,P|288:327|237:342,1,106.799996740723,2|8,3:2|0:2,0:0:0:0:
154,164,101977,2,0,P|202:180|193:251,1,106.799996740723,2|8,3:2|0:2,0:0:0:0:
47,263,102250,2,0,P|33:211|10:163,1,106.799996740723,6|8,3:2|0:2,0:0:0:0:
136,7,102523,1,2,3:2:0:0:
42,76,102659,1,10,0:2:0:0:
252,11,102795,6,0,P|357:29|350:160,1,213.599993481446,6|0,3:2|3:2,0:0:0:0:
304,173,103204,1,10,0:2:0:0:
474,226,103341,2,0,P|421:237|372:257,1,106.799996740723,2|8,3:2|0:2,0:0:0:0:
228,105,103613,2,0,P|196:148|219:205,1,106.799996740723,0|10,3:2|0:2,0:0:0:0:
479,329,103886,5,2,3:2:0:0:
276,259,104023,1,10,0:2:0:0:
372,362,104159,5,2,3:2:0:0:
416,231,104295,1,10,0:2:0:0:
260,384,104432,2,0,P|159:350|36:334,1,213.599993481446,2|2,3:2|3:2,0:0:0:0:
0,270,104841,1,10,0:2:0:0:
243,138,104977,5,6,3:2:0:0:
241,146,105045,1,0,0:0:0:0:
239,154,105113,1,10,0:2:0:0:
72,216,105250,2,0,P|64:188|47:167,2,53.3999983703614,2|0|8,3:2|0:0|0:2,0:0:0:0:
135,101,105522,5,2,3:2:0:0:
137,109,105590,1,0,0:0:0:0:
139,117,105658,1,10,0:2:0:0:
237,262,105795,2,0,P|260:248|286:243,2,53.3999983703614,2|0|8,3:2|0:0|0:2,0:0:0:0:
512,55,106068,6,0,P|499:78|490:103,1,53.3999983703614,2|0,3:2|3:2,0:0:0:0:
482,183,106204,1,8,0:2:0:0:
333,0,106340,6,0,P|320:23|311:48,1,53.3999983703614,2|0,3:2|3:2,0:0:0:0:
303,128,106476,1,8,0:2:0:0:
375,265,106613,5,2,3:2:0:0:
374,240,106681,1,0,3:2:0:0:
355,219,106750,1,8,0:2:0:0:
328,212,106818,1,8,0:0:0:0:
302,222,106886,2,0,P|298:249|291:275,1,53.3999983703614,6|8,3:2|0:2,0:0:0:0:
454,347,107022,2,0,P|457:320|469:280,1,53.3999983703614,8|8,0:2|0:2,0:0:0:0:
257,381,107159,6,0,P|168:343|182:269,1,146.850004481506,6|0,3:2|0:0,0:0:0:0:
115,240,107431,2,0,P|129:194|131:124,1,97.900002987671,10|0,0:2|0:0,0:0:0:0:
218,243,107704,1,2,3:2:0:0:
218,243,107840,1,0,3:2:0:0:
40,158,107977,2,0,P|2:186|15:244,1,97.900002987671,10|0,0:2|0:0,0:0:0:0:
196,67,108250,5,2,3:2:0:0:
196,67,108386,2,0,P|289:95|386:106,1,195.800005975342,2|2,2:2|2:2,0:0:0:0:
269,181,108795,1,0,3:2:0:0:
269,181,108931,1,0,3:2:0:0:
402,308,109068,1,10,0:2:0:0:
370,190,109204,1,0,3:2:0:0:
225,344,109340,6,0,P|161:348|51:382,1,146.850004481506,2|0,3:2|0:0,0:0:0:0:
7,341,109613,2,0,P|-12:303|38:249,1,97.900002987671,10|0,0:2|0:0,0:0:0:0:
174,185,109886,1,2,3:2:0:0:
174,185,110022,1,0,3:2:0:0:
103,277,110159,2,0,P|95:228|79:182,1,97.900002987671,10|0,0:2|0:0,0:0:0:0:
327,6,110431,6,0,P|288:91|195:94,1,195.800005975342,2|10,3:2|0:2,0:0:0:0:
123,52,110840,1,2,2:2:0:0:
0,172,110977,1,0,3:2:0:0:
0,172,111113,1,0,3:2:0:0:
23,15,111250,2,0,P|43:59|53:107,1,97.900002987671,8|2,0:2|0:2,0:0:0:0:
218,324,111522,5,0,3:2:0:0:
67,236,111659,1,2,2:2:0:0:
67,236,111795,2,0,P|84:285|145:286,1,97.900002987671,10|0,0:2|0:0,0:0:0:0:
296,375,112068,2,0,P|366:354|439:346,1,146.850004481506,2|0,3:2|0:0,0:0:0:0:
400,268,112340,2,0,P|351:271|304:285,1,97.900002987671,10|0,0:2|0:0,0:0:0:0:
202,57,112613,6,0,P|131:77|125:155,1,146.850004481506,2|0,3:2|0:0,0:0:0:0:
191,181,112886,2,0,P|239:184|286:198,1,97.900002987671,8|2,0:2|2:2,0:0:0:0:
480,120,113159,1,0,3:2:0:0:
480,120,113295,1,0,3:2:0:0:
323,24,113431,1,10,0:2:0:0:
384,117,113568,1,0,3:2:0:0:
216,277,113704,6,0,P|139:294|59:328,1,146.850004481506,2|0,3:2|0:0,0:0:0:0:
0,284,113977,2,0,P|-2:236|43:199,1,97.900002987671,10|0,0:2|0:0,0:0:0:0:
184,160,114250,1,2,3:2:0:0:
184,160,114386,1,0,3:2:0:0:
285,339,114522,2,0,P|311:299|304:252,1,97.900002987671,10|0,0:2|0:0,0:0:0:0:
105,112,114795,5,10,0:2:0:0:
105,112,114863,1,8,2:2:0:0:
105,112,114931,1,8,2:2:0:0:
105,112,115000,1,8,2:2:0:0:
105,111,115068,2,0,P|102:86|95:63,1,48.9500014938355,10|0,0:2|0:0,0:0:0:0:
311,123,115204,2,0,P|290:136|273:153,1,48.9500014938355,8|8,0:3|0:3,0:0:0:0:
162,254,115340,6,0,P|190:144|210:32,1,226.950004328728,14|0,0:2|0:0,0:0:0:0:
209,32,115613,2,0,P|219:4|222:33,1,80.0999975555421,8|0,2:2|0:0,0:0:0:0:
327,34,115886,6,0,P|426:57|456:156,1,213.6,6|0,3:2|0:0,0:0:0:0:
397,215,116159,2,0,P|343:226|293:251,1,97.900002987671,10|0,0:2|0:0,0:0:0:0:
321,130,116431,1,2,3:2:0:0:
321,130,116568,1,0,3:2:0:0:
481,237,116704,2,0,P|478:284|400:312,1,97.900002987671,10|0,0:2|0:0,0:0:0:0:
227,376,116977,6,0,P|164:338|92:324,1,146.850004481506,2|0,3:2|0:0,0:0:0:0:
21,362,117250,2,0,P|-11:315|17:265,1,97.900002987671,8|2,0:2|2:2,0:0:0:0:
90,142,117522,1,0,3:2:0:0:
90,142,117659,1,0,3:2:0:0:
131,297,117795,1,10,0:2:0:0:
18,203,117931,1,0,3:2:0:0:
205,229,118068,6,0,P|236:213|360:189,1,146.850004481506,2|0,3:2|0:0,0:0:0:0:
416,228,118340,2,0,P|452:193|443:143,1,97.900002987671,8|2,0:2|2:2,0:0:0:0:
335,36,118613,1,0,3:2:0:0:
335,36,118749,1,0,3:2:0:0:
512,52,118886,2,0,P|461:56|415:72,1,97.900002987671,10|0,0:2|0:0,0:0:0:0:
107,96,119159,6,0,P|136:16|220:7,1,146.850004481506,2|0,3:2|0:0,0:0:0:0:
255,45,119431,2,0,P|236:92|226:173,1,97.900002987671,8|2,0:2|2:2,0:0:0:0:
119,254,119704,1,0,3:2:0:0:
119,254,119840,1,0,3:2:0:0:
0,121,119977,2,0,P|34:152|107:187,1,97.900002987671,8|2,0:2|0:2,0:0:0:0:
308,365,120250,6,0,P|393:333|497:314,1,195.800005975342,2|10,3:2|0:2,0:0:0:0:
385,244,120659,1,0,0:0:0:0:
512,124,120795,1,2,3:2:0:0:
469,228,120931,1,2,3:2:0:0:
358,53,121068,2,0,P|411:66|428:120,1,97.900002987671,8|2,0:2|2:2,0:0:0:0:
289,276,121340,6,0,P|219:237|239:162,1,146.850004481506,2|0,3:2|0:0,0:0:0:0:
276,114,121613,2,0,P|270:74|240:14,1,97.900002987671,10|0,0:2|0:0,0:0:0:0:
358,153,121886,1,0,3:2:0:0:
358,153,122022,1,2,3:2:0:0:
473,312,122159,2,0,P|427:315|369:337,1,97.900002987671,10|0,0:2|3:2,0:0:0:0:
99,384,122431,6,0,P|16:318|68:237,1,186.899994296265,6|0,3:2|0:0,0:0:0:0:
102,207,122704,2,0,P|148:204|206:182,1,97.900002987671,10|0,0:2|0:0,0:0:0:0:
336,242,122977,1,2,3:2:0:0:
336,242,123113,1,0,3:2:0:0:
183,350,123250,2,0,P|231:313|227:265,1,97.900002987671,10|0,0:2|0:0,0:0:0:0:
102,57,123522,5,10,0:2:0:0:
59,55,123590,1,8,0:0:0:0:
25,79,123658,1,10,0:2:0:0:
13,119,123726,1,8,0:2:0:0:
29,158,123794,1,8,0:2:0:0:
185,0,123931,5,10,0:2:0:0:
284,224,124068,5,8,0:2:0:0:
297,240,124136,1,8,0:2:0:0:
329,243,124205,1,8,0:2:0:0:
357,223,124273,1,8,0:2:0:0:
387,185,124341,1,10,0:2:0:0:
439,169,124409,1,8,0:2:0:0:
492,203,124477,1,8,0:2:0:0:
501,269,124545,1,8,0:2:0:0:
445,314,124613,6,0,P|387:325|344:347,1,106.799996740723,6|8,3:2|0:2,0:0:0:0:
135,268,124886,1,2,3:2:0:0:
253,326,125023,1,8,0:2:0:0:
111,384,125159,2,0,P|53:345|64:297,1,106.799996740723,2|8,3:2|0:2,0:0:0:0:
254,165,125431,2,0,P|249:234|202:249,1,106.799996740723,2|8,3:2|0:2,0:0:0:0:
23,177,125704,5,2,3:2:0:0:
23,177,125841,2,0,P|17:124|3:72,1,106.799996740723,10|0,0:2|3:2,0:0:0:0:
221,0,126113,2,0,P|197:97|97:105,1,213.599993481446,10|8,0:2|0:2,0:0:0:0:
325,33,126523,2,0,P|386:39|409:86,1,106.799996740723,6|8,3:2|0:2,0:0:0:0:
450,255,126795,5,6,3:2:0:0:
361,147,126931,1,10,0:2:0:0:
292,316,127068,1,0,3:2:0:0:
292,316,127204,2,0,P|239:322|185:344,1,106.799996740723,10|0,0:2|3:2,0:0:0:0:
21,255,127477,2,0,P|36:299|100:316,1,106.799996740723,10|0,0:2|3:2,0:0:0:0:
207,135,127750,5,10,0:2:0:0:
166,253,127886,1,0,3:2:0:0:
77,157,128023,1,8,0:2:0:0:
302,232,128159,2,0,P|355:219|433:218,1,106.799996740723,0|8,3:2|0:2,0:0:0:0:
275,72,128431,2,0,P|234:79|214:159,1,106.799996740723,0|8,3:2|0:2,0:0:0:0:
417,96,128704,1,4,3:2:0:0:
360,16,128841,1,8,0:2:0:0:
512,156,128977,6,0,P|494:206|484:258,1,106.799996740723,2|8,3:2|0:2,0:0:0:0:
362,384,129250,1,2,3:2:0:0:
199,299,129386,2,0,P|253:303|334:331,1,106.799996740723,8|2,0:2|3:2,0:0:0:0:
407,176,129659,2,0,P|343:194|332:267,1,106.799996740723,8|0,0:2|3:2,0:0:0:0:
156,382,129931,6,0,P|92:364|81:291,1,106.799996740723,10|0,0:2|3:2,0:0:0:0:
0,146,130204,2,0,P|14:197|18:250,1,106.799996740723,10|0,0:2|3:2,0:0:0:0:
191,90,130477,2,0,P|118:109|140:240,1,213.599993481446,10|8,0:2|0:2,0:0:0:0:
284,117,130886,2,0,P|269:65|265:12,1,106.799996740723,4|10,3:2|0:2,0:0:0:0:
329,236,131159,5,6,3:2:0:0:
317,255,131295,1,10,0:2:0:0:
196,183,131432,2,0,P|204:208|209:234,2,53.3999983703614,0|0|10,3:2|3:2|0:2,0:0:0:0:
255,316,131704,5,0,3:2:0:0:
265,333,131840,1,10,0:2:0:0:
422,264,131977,2,0,P|413:289|408:315,2,53.3999983703614,0|0|8,3:2|3:2|0:2,0:0:0:0:
334,119,132250,5,2,3:2:0:0:
322,138,132386,1,8,0:2:0:0:
454,179,132522,2,0,P|479:171|506:166,2,53.3999983703614,2|0|8,3:2|0:0|0:2,0:0:0:0:
452,73,132795,5,2,3:2:0:0:
460,88,132931,1,8,0:2:0:0:
323,231,133067,2,0,P|298:223|271:218,2,53.3999983703614,0|0|8,3:2|3:2|0:2,0:0:0:0:
53,27,133340,6,0,P|68:53|77:98,1,53.3999983703614,2|0,3:2|0:0,0:0:0:0:
14,238,133477,1,8,0:2:0:0:
14,238,133613,2,0,P|48:164|114:177,1,142.4,6|8,3:2|0:2,0:0:0:0:
208,86,133886,6,0,P|193:112|184:157,1,53.3999983703614,2|0,3:2|0:0,0:0:0:0:
257,297,134023,1,8,0:2:0:0:
257,297,134159,2,0,P|223:223|157:236,1,142.4,6|8,3:2|0:2,0:0:0:0:
94,264,134431,6,0,P|107:289|114:326,1,53.3999983703614,2|0,3:2|0:0,0:0:0:0:
289,384,134568,1,8,0:2:0:0:
288,384,134704,2,0,P|353:355|423:346,1,142.4,6|8,3:2|0:2,0:0:0:0:
512,28,134977,6,0,P|434:55|252:82,1,240.299992666626,2|0,3:2|0:0,0:0:0:0:
234,141,135250,2,0,P|203:116|203:72,1,80.0999975555421,6|0,3:2|0:0,0:0:0:0:
380,178,135522,6,0,P|288:193|266:313,1,213.6,6|0,3:2|0:0,0:0:0:0:
326,356,135795,2,0,P|404:339|484:339,1,160.199995111084,10|0,0:2|0:0,0:0:0:0:
445,248,136067,2,0,P|397:259|348:261,1,97.900002987671,0|0,3:2|3:2,0:0:0:0:
165,384,136340,1,10,0:2:0:0:
274,288,136476,1,0,0:0:0:0:
41,193,136613,6,0,P|80:281|193:251,1,186.899994296265,2|0,3:2|0:0,0:0:0:0:
220,222,136885,2,0,P|209:142|183:67,1,160.199995111084,10|0,0:2|0:0,0:0:0:0:
236,0,137158,2,0,P|275:-3|298:68,1,89,2|0,3:2|3:2,0:0:0:0:
436,143,137431,1,10,0:2:0:0:
289,113,137567,1,2,2:0:0:0:
497,80,137704,6,0,P|466:168|450:260,1,186.899994296265,2|0,3:2|0:0,0:0:0:0:
512,310,137976,2,0,P|479:379|390:343,1,160.199995111084,10|0,0:2|0:0,0:0:0:0:
366,302,138249,2,0,P|317:308|267:329,1,89,2|0,3:2|3:2,0:0:0:0:
150,370,138522,1,10,0:2:0:0:
261,239,138658,1,2,2:0:0:0:
63,339,138794,6,0,P|14:305|64:219,1,124.59999619751,2|0,3:2|0:0,0:0:0:0:
204,131,139068,2,0,P|199:190|99:190,1,124.59999619751,10|0,0:2|3:2,0:0:0:0:
0,66,139340,5,2,3:2:0:0:
20,19,139408,1,0,3:2:0:0:
70,9,139476,1,0,3:2:0:0:
113,23,139544,1,0,3:2:0:0:
130,57,139613,5,8,0:2:0:0:
152,69,139681,1,0,3:2:0:0:
169,66,139749,1,0,3:2:0:0:
176,59,139817,1,0,3:2:0:0:
182,53,139886,6,0,P|246:52|275:122,1,124.59999619751,2|0,3:2|0:0,0:0:0:0:
414,251,140159,2,0,P|418:188|434:128,1,124.59999619751,10|0,0:2|0:0,0:0:0:0:
378,13,140431,1,2,3:2:0:0:
512,96,140567,1,0,3:2:0:0:
331,219,140704,2,0,P|299:223|246:177,1,106.799996740723,10|0,0:2|0:0,0:0:0:0:
1,105,140977,6,0,P|7:49|130:22,1,186.899994296265,2|0,3:2|0:0,0:0:0:0:
185,59,141249,2,0,P|165:129|157:202,1,146.850004481506,10|0,0:2|0:0,0:0:0:0:
89,253,141522,2,0,P|103:304|110:357,1,106.799996740723,2|0,3:2|3:2,0:0:0:0:
304,384,141794,1,10,0:2:0:0:
186,288,141931,1,2,0:2:0:0:
425,213,142068,6,0,P|449:159|462:83,1,124.59999619751,2|2,3:2|3:2,0:0:0:0:
164,128,142340,2,0,P|175:66|200:9,1,124.59999619751,10|0,0:2|0:0,0:0:0:0:
363,140,142612,1,2,3:2:0:0:
284,45,142750,1,0,3:2:0:0:
303,247,142886,2,0,P|247:236|256:149,1,124.59999619751,10|10,0:2|0:2,0:0:0:0:
401,11,143158,5,2,3:2:0:0:
417,15,143226,1,0,3:2:0:0:
431,26,143294,1,0,3:2:0:0:
438,42,143362,1,0,3:2:0:0:
492,70,143431,5,2,3:2:0:0:
492,85,143499,1,0,3:2:0:0:
485,100,143567,1,0,3:2:0:0:
472,110,143635,1,0,3:2:0:0:
430,156,143704,6,0,P|355:180|244:291,1,213.6,2|0,3:2|0:0,0:0:0:0:
213,355,143976,1,12,0:2:0:0:
0,10,144249,6,0,P|68:4|130:127,1,186.899994296265,6|0,3:2|0:0,0:0:0:0:
87,155,144522,2,0,P|119:227|136:306,1,160.199995111084,10|0,0:2|0:0,0:0:0:0:
81,369,144795,2,0,P|25:353|29:290,1,97.900002987671,0|0,3:2|3:2,0:0:0:0:
176,166,145068,1,10,0:2:0:0:
47,254,145204,1,0,0:0:0:0:
255,220,145340,6,0,P|317:176|283:63,1,186.899994296265,2|0,3:2|0:0,0:0:0:0:
234,20,145613,2,0,P|302:37|405:51,1,160.199995111084,10|0,0:2|0:0,0:0:0:0:
446,107,145886,2,0,P|489:86|538:76,1,89,2|0,3:2|3:2,0:0:0:0:
405,191,146159,1,10,0:2:0:0:
512,273,146295,1,2,2:0:0:0:
363,384,146431,6,0,P|283:359|168:346,1,186.899994296265,2|0,3:2|0:0,0:0:0:0:
107,384,146704,2,0,P|30:356|71:268,1,160.199995111084,10|0,0:2|0:0,0:0:0:0:
118,276,146977,2,0,P|154:263|219:260,1,89,2|0,3:2|3:2,0:0:0:0:
375,173,147250,1,10,0:2:0:0:
291,275,147386,1,2,0:2:0:0:
260,29,147522,6,0,P|275:88|288:183,1,124.59999619751,2|0,3:2|0:0,0:0:0:0:
286,286,147795,1,10,0:2:0:0:
501,113,147931,5,0,0:0:0:0:
507,119,148000,1,0,3:0:0:0:
512,126,148068,2,0,P|440:147|385:31,1,213.6,2|0,3:2|0:0,0:0:0:0:
447,0,148340,1,12,0:2:0:0:
10,167,148613,6,0,P|71:177|151:203,1,124.59999619751,2|0,3:2|0:0,0:0:0:0:
281,57,148886,2,0,P|230:61|196:142,1,124.59999619751,10|0,0:2|0:0,0:0:0:0:
338,264,149159,1,2,3:2:0:0:
223,202,149295,1,0,3:2:0:0:
414,215,149431,2,0,P|422:155|366:121,1,124.59999619751,10|0,0:2|0:0,0:0:0:0:
208,330,149704,6,0,P|124:344|13:395,1,186.899994296265,2|0,3:2|0:0,0:0:0:0:
35,281,149977,2,0,P|87:271|136:251,1,106.799996740723,10|0,0:2|0:0,0:0:0:0:
339,367,150250,2,0,P|397:342|459:330,1,124.59999619751,2|0,3:2|3:2,0:0:0:0:
329,158,150522,1,10,0:2:0:0:
414,249,150659,1,2,0:2:0:0:
271,290,150795,5,2,3:2:0:0:
438,146,150931,1,2,0:2:0:0:
438,146,151068,2,0,P|481:102|440:30,1,124.59999619751,10|0,0:2|0:0,0:0:0:0:
221,78,151340,1,2,3:2:0:0:
373,83,151477,1,0,3:2:0:0:
159,11,151613,2,0,P|116:55|157:127,1,124.59999619751,10|2,0:2|2:0,0:0:0:0:
294,274,151886,6,0,P|396:292|513:322,1,213.6,2|0,3:2|0:0,0:0:0:0:
470,231,152159,2,0,P|417:221|365:207,1,106.799996740723,10|0,0:0|0:0,0:0:0:0:
450,384,152363,1,0,0:0:0:0:
450,384,152431,2,0,P|380:367|310:355,1,142.4,2|0,3:2|0:0,0:0:0:0:
36,225,152703,1,12,0:2:0:0:
217,276,152977,6,0,B|165:298|120:263|112:214|123:207|135:202|124:154|77:122|28:146,2,271.019051752258,6|2|2,3:2|3:2|3:2,0:0:0:0:
217,276,154613,1,2,3:3:0:0:
453,307,154886,5,2,2:3:0:0:
453,307,155022,1,2,2:3:0:0:
453,307,155159,2,0,P|353:322|259:387,1,213.599993481446,2|2,3:2|3:2,0:0:0:0:
512,245,156250,2,0,P|502:202|436:182,2,106.799996740723,2|2|2,3:2|2:0|3:2,0:0:0:0:
358,179,157068,5,2,2:0:0:0:
358,179,157204,1,2,2:0:0:0:
358,179,157340,2,0,B|342:125|381:84|431:81|436:93|440:105|489:99|526:56|507:5,2,272.010324771038,2|2|2,3:2|3:2|3:2,0:0:0:0:
358,179,158977,1,2,3:2:0:0:
200,280,159250,5,2,2:3:0:0:
200,280,159386,1,2,2:3:0:0:
200,280,159522,2,0,P|106:231|1:215,1,213.599993481446,2|2,3:3|3:2,0:0:0:0:
123,100,160613,2,0,P|172:118|166:183,1,106.799996740723,2|2,3:2|2:3,0:0:0:0:
38,134,161159,2,0,P|33:99|24:64,2,71.1999978271485,2|2|2,3:3|0:3|0:3,0:0:0:0:
11,352,161704,6,0,P|15:252|119:222,2,222.649405682883,2|2|2,3:2|3:2|3:2,0:0:0:0:
11,352,163340,2,0,P|40:357|69:367,1,53.3999983703614,2|2,3:2|0:3,0:0:0:0:
137,312,163545,1,2,0:3:0:0:
145,306,163613,2,0,P|118:302|93:294,1,53.3999983703614,2|2,2:3|2:0,0:0:0:0:
215,384,163886,6,0,P|235:279|271:178,1,213.599993481446,2|2,3:2|3:2,0:0:0:0:
160,39,164977,2,0,P|158:90|209:111,2,106.799996740723,2|2|2,3:2|2:0|3:2,0:0:0:0:
411,54,165795,5,2,2:3:0:0:
411,54,165863,2,0,P|400:62|393:73,2,26.6999991851807,2|2|2,0:3|2:3|0:3,0:0:0:0:
291,25,166068,6,0,B|336:-8|390:10|412:54|404:65|394:73|423:117|474:131|516:94,2,272.010334398952,2|2|2,3:3|3:2|3:2,0:0:0:0:
291,25,167704,1,2,3:2:0:0:
324,132,167977,5,2,2:0:0:0:
424,46,168113,1,2,2:0:0:0:
14,147,168250,5,6,3:2:0:0:
73,315,169613,6,0,P|194:333|310:393,1,240.299992666626,14|0,0:2|0:0,0:0:0:0:
489,266,169886,2,0,P|452:334|372:325,1,160.199995111084,14|0,0:2|0:0,0:0:0:0:
299,283,170159,2,0,P|289:249|257:218,1,66.75,14|0,0:2|0:0,0:0:0:0:
97,111,170431,6,0,P|115:73|199:73,1,106.799996740723,2|8,3:2|0:2,0:0:0:0:
357,166,170704,1,0,3:2:0:0:
227,131,170840,1,10,0:2:0:0:
378,27,170977,2,0,P|419:34|441:115,1,106.799996740723,2|8,3:2|0:2,0:0:0:0:
273,221,171250,2,0,P|214:226|168:245,1,106.799996740723,0|10,3:2|0:2,0:0:0:0:
17,123,171522,5,2,3:2:0:0:
107,295,171659,1,10,0:2:0:0:
132,102,171795,5,2,3:2:0:0:
26,275,171931,1,10,0:2:0:0:
88,28,172068,2,0,P|172:18|214:128,1,213.599993481446,2|2,3:2|3:2,0:0:0:0:
136,178,172477,1,10,0:2:0:0:
353,304,172613,6,0,P|408:287|467:282,1,106.799996740723,2|8,3:2|0:2,0:0:0:0:
258,251,172886,1,2,3:2:0:0:
230,331,173022,1,10,0:2:0:0:
467,288,173159,6,0,P|414:293|363:310,1,106.799996740723,2|8,3:2|0:2,0:0:0:0:
245,254,173431,1,2,3:2:0:0:
217,335,173567,1,10,0:2:0:0:
432,202,173704,6,0,P|477:178|483:126,1,106.799996740723,2|8,3:2|0:2,0:0:0:0:
258,72,173977,2,0,P|244:123|269:168,1,106.799996740723,2|8,3:2|0:2,0:0:0:0:
407,0,174250,2,0,P|371:100|347:207,1,213.599993481446,2|6,3:2|3:2,0:0:0:0:
330,302,174659,1,10,0:2:0:0:
113,65,174795,6,0,P|12:89|16:223,1,231.399989407349,6|0,3:2|3:2,0:0:0:0:
75,246,175204,1,10,0:2:0:0:
203,150,175340,2,0,P|190:98|183:45,1,106.799996740723,2|8,3:2|0:2,0:0:0:0:
89,248,175613,2,0,P|102:299|107:352,1,106.799996740723,2|10,3:2|0:2,0:0:0:0:
359,290,175886,5,2,3:2:0:0:
217,234,176022,1,10,0:2:0:0:
351,72,176159,5,2,3:2:0:0:
306,213,176295,1,10,0:2:0:0:
512,67,176431,2,0,P|471:165|448:269,1,213.599993481446,2|2,3:2|3:2,0:0:0:0:
442,364,176840,1,10,0:2:0:0:
193,307,176977,6,0,P|143:325|139:385,1,106.799996740723,2|8,3:2|0:2,0:0:0:0:
326,290,177250,1,2,3:2:0:0:
299,382,177386,1,10,0:2:0:0:
205,191,177522,6,0,P|196:138|167:72,1,106.799996740723,2|8,3:2|0:2,0:0:0:0:
351,210,177795,2,0,P|327:198|274:193,1,53.3999983703614,2|0,3:2|3:2,0:0:0:0:
241,17,177931,2,0,P|266:22|290:34,1,53.3999983703614,10|8,0:2|0:2,0:0:0:0:
475,76,178068,5,10,0:2:0:0:
479,66,178136,1,10,0:2:0:0:
484,57,178204,1,0,3:2:0:0:
489,48,178272,1,0,3:2:0:0:
447,2,178340,5,8,0:3:0:0:
387,24,178408,1,8,0:3:0:0:
370,82,178476,1,8,0:3:0:0:
394,134,178544,1,8,0:3:0:0:
444,160,178612,1,8,0:3:0:0:
493,182,178680,1,8,0:3:0:0:
500,235,178749,1,8,0:3:0:0:
468,273,178817,1,8,0:3:0:0:
437,272,178886,1,4,0:3:0:0:
420,260,178954,1,4,0:3:0:0:
418,244,179022,1,4,0:3:0:0:
425,237,179090,1,4,0:3:0:0:
434,238,179159,6,0,P|323:200|183:184,1,231.399989407349,6|0,3:2|3:2,0:0:0:0:
277,284,179568,1,10,0:2:0:0:
204,92,179704,2,0,P|158:95|129:158,1,106.799996740723,2|8,3:2|0:2,0:0:0:0:
37,266,179977,2,0,P|87:248|140:241,1,106.799996740723,0|10,3:2|0:2,0:0:0:0:
313,124,180250,5,2,3:2:0:0:
212,194,180386,1,10,0:2:0:0:
402,279,180522,5,2,3:2:0:0:
264,379,180659,1,10,0:2:0:0:
460,211,180795,2,0,P|364:203|316:327,1,213.599993481446,2|2,3:2|3:2,0:0:0:0:
381,366,181204,1,10,0:2:0:0:
480,126,181340,6,0,P|486:74|499:22,1,106.799996740723,2|8,3:2|0:2,0:0:0:0:
369,154,181613,1,2,3:2:0:0:
314,93,181750,1,10,0:2:0:0:
512,11,181886,6,0,P|499:62|492:115,1,106.799996740723,2|8,3:2|0:2,0:0:0:0:
381,159,182159,1,2,3:2:0:0:
326,98,182296,1,10,0:2:0:0:
185,225,182431,6,0,P|140:210|69:201,1,106.799996740723,2|8,3:2|0:2,0:0:0:0:
147,24,182704,2,0,P|192:39|263:48,1,106.799996740723,2|8,3:2|0:2,0:0:0:0:
41,125,182977,2,0,P|-7:100|-11:31,1,106.799996740723,6|8,3:2|0:2,0:0:0:0:
183,130,183250,1,2,3:2:0:0:
67,50,183386,1,10,0:2:0:0:
204,246,183522,6,0,P|311:206|435:189,1,231.399989407349,6|0,3:2|3:2,0:0:0:0:
349,105,183931,1,10,0:2:0:0:
512,191,184068,2,0,P|509:242|469:275,1,106.799996740723,2|8,3:2|0:2,0:0:0:0:
455,105,184340,2,0,P|446:52|442:0,1,106.799996740723,0|10,3:2|0:2,0:0:0:0:
326,189,184613,5,2,3:2:0:0:
297,48,184750,1,10,0:2:0:0:
155,139,184886,5,2,3:2:0:0:
366,106,185022,1,10,0:2:0:0:
93,44,185159,2,0,P|121:146|129:253,1,213.599993481446,2|2,3:2|3:2,0:0:0:0:
76,339,185568,1,10,0:2:0:0:
362,303,185704,5,6,3:2:0:0:
216,266,185840,1,10,0:2:0:0:
396,383,185977,2,0,P|413:296|450:200,1,160.199995111084,2|0,3:2|0:0,0:0:0:0:
456,216,186250,1,2,3:2:0:0:
342,128,186386,1,10,0:2:0:0:
512,30,186522,2,0,P|496:88|417:92,1,106.799996740723,2|8,3:2|0:2,0:0:0:0:
189,0,186795,5,10,0:2:0:0:
202,28,186863,1,8,0:2:0:0:
212,57,186931,1,8,0:2:0:0:
219,88,186999,1,8,0:2:0:0:
222,119,187067,1,10,0:2:0:0:
418,28,187204,1,8,0:2:0:0:
281,208,187340,5,10,0:2:0:0:
270,224,187409,1,8,0:2:0:0:
242,240,187477,1,8,0:2:0:0:
190,238,187545,1,8,0:2:0:0:
150,199,187613,1,10,0:2:0:0:
124,143,187681,1,8,0:2:0:0:
64,125,187750,1,8,0:2:0:0:
6,159,187818,1,8,0:2:0:0:
0,227,187886,6,0,P|15:275|20:355,1,106.799996740723,6|8,3:2|0:2,0:0:0:0:
211,312,188159,1,2,3:2:0:0:
96,265,188296,1,8,0:2:0:0:
254,384,188432,2,0,P|286:352|344:316,1,106.799996740723,2|8,3:2|0:2,0:0:0:0:
255,165,188705,2,0,P|191:196|208:262,1,106.799996740723,2|8,3:2|0:2,0:0:0:0:
420,305,188977,5,2,3:2:0:0:
420,305,189113,2,0,P|425:234|354:212,1,106.799996740723,10|0,0:2|3:2,0:0:0:0:
151,349,189386,1,10,0:2:0:0:
151,349,189522,2,0,P|203:355|258:373,1,106.799996740723,0|8,3:2|0:2,0:0:0:0:
171,206,189796,1,6,3:2:0:0:
51,320,189932,1,8,0:2:0:0:
21,141,190068,6,0,P|14:87|-5:28,1,106.799996740723,6|10,3:2|0:2,0:0:0:0:
84,207,190341,1,0,3:2:0:0:
351,230,190477,2,0,P|298:241|248:259,1,106.799996740723,10|0,0:2|3:2,0:0:0:0:
131,117,190750,2,0,P|183:105|233:87,1,106.799996740723,10|0,0:2|3:2,0:0:0:0:
463,181,191023,5,10,0:2:0:0:
309,124,191159,1,0,3:2:0:0:
435,19,191296,1,8,0:2:0:0:
357,226,191432,2,0,P|373:276|376:329,1,106.799996740723,0|8,3:2|0:2,0:0:0:0:
159,369,191704,2,0,P|142:318|139:265,1,106.799996740723,0|8,3:2|0:2,0:0:0:0:
297,128,191977,1,4,3:2:0:0:
198,193,192114,1,8,0:2:0:0:
20,77,192250,6,0,P|71:72|111:126,1,106.799996740723,2|8,3:2|0:2,0:0:0:0:
203,203,192522,1,2,3:2:0:0:
236,0,192659,2,0,P|215:42|198:119,1,106.799996740723,8|2,0:2|3:2,0:0:0:0:
462,83,192931,2,0,P|449:134|425:182,1,106.799996740723,8|0,0:2|3:2,0:0:0:0:
186,304,193205,6,0,P|129:282|122:223,1,106.799996740723,10|0,0:2|3:2,0:0:0:0:
319,95,193477,2,0,P|328:155|280:190,1,106.799996740723,10|0,0:2|3:2,0:0:0:0:
96,118,193750,1,10,0:2:0:0:
96,118,193886,2,0,P|45:103|-7:104,1,106.799996740723,0|8,3:2|0:2,0:0:0:0:
163,2,194159,2,0,P|216:1|247:58,1,106.799996740723,4|10,3:2|0:2,0:0:0:0:
382,217,194432,5,2,3:2:0:0:
398,235,194568,1,10,0:2:0:0:
451,78,194704,2,0,P|379:92|352:169,1,133.500005092621,4|10,3:2|0:2,0:0:0:0:
273,317,194977,5,0,3:2:0:0:
263,340,195113,1,10,0:2:0:0:
153,218,195249,2,0,P|224:201|280:260,1,133.500005092621,4|8,3:2|0:2,0:0:0:0:
474,361,195522,5,2,3:2:0:0:
486,384,195658,1,8,0:2:0:0:
463,189,195795,2,0,P|426:246|413:311,1,133.500005092621,6|8,3:2|0:2,0:0:0:0:
131,300,196068,5,2,3:2:0:0:
110,316,196204,1,8,0:2:0:0:
205,144,196341,2,0,P|217:211|205:276,1,133.500005092621,4|8,3:2|0:2,0:0:0:0:
501,57,196613,6,0,P|473:83|420:109,1,66.7500025463105,2|0,3:2|0:0,0:0:0:0:
308,239,196749,1,8,0:2:0:0:
308,239,196886,2,0,P|379:216|367:134,1,151.300002885819,6|8,3:2|0:2,0:0:0:0:
196,24,197159,6,0,P|232:34|281:67,1,66.7500025463105,2|0,3:2|0:0,0:0:0:0:
448,97,197295,1,8,0:2:0:0:
448,97,197432,2,0,P|392:45|327:97,1,151.300002885819,6|8,3:2|0:2,0:0:0:0:
318,303,197704,6,0,P|308:265|313:206,1,66.7500025463105,2|0,3:2|0:0,0:0:0:0:
257,48,197840,1,8,0:2:0:0:
257,48,197977,2,0,P|240:121|317:151,1,151.300002885819,6|8,3:2|0:2,0:0:0:0:
68,361,198250,6,0,P|37:337|49:288,1,66.7500025463105,2|0,3:2|0:0,0:0:0:0:
189,192,198386,1,8,0:2:0:0:
189,192,198523,2,0,P|165:244|150:363,1,151.300002885819,6|8,3:2|0:2,0:0:0:0:
378,333,198795,6,0,P|412:305|402:248,1,66.7500025463105,2|0,3:2|0:0,0:0:0:0:
265,133,198931,1,8,0:2:0:0:
265,133,199068,2,0,P|289:190|307:288,1,151.300002885819,6|8,3:2|0:2,0:0:0:0:
86,198,199340,6,0,P|100:157|132:114,1,66.7500025463105,2|0,3:2|0:0,0:0:0:0:
228,16,199476,1,8,0:2:0:0:
228,16,199613,2,0,P|185:52|85:29,1,151.300002885819,6|8,3:2|0:2,0:0:0:0:
325,31,199886,5,2,3:2:0:0:
341,24,199954,1,8,0:2:0:0:
359,21,200023,1,8,0:3:0:0:
377,21,200091,1,8,0:3:0:0:
394,23,200159,1,8,0:3:0:0:
411,29,200227,1,8,0:3:0:0:
427,37,200295,1,12,0:3:0:0:
440,49,200363,1,0,0:0:0:0:
451,63,200431,6,0,P|457:108|350:143,1,160.199995111084,4|4,0:3|0:3,0:0:0:0:
54,72,200704,2,0,P|38:41|47:8,1,71.2,4|4,0:3|0:3,0:0:0:0:
291,158,200977,6,0,P|257:259|242:364,1,213.6,6|0,3:2|0:0,0:0:0:0:
164,384,201249,2,0,P|70:337|86:266,1,160.199995111084,10|0,0:2|0:0,0:0:0:0:
23,229,201522,2,0,P|47:188|93:182,1,97.900002987671,0|0,3:2|3:2,0:0:0:0:
284,282,201795,1,10,0:2:0:0:
179,165,201931,1,0,0:0:0:0:
305,363,202068,6,0,P|392:332|374:231,1,200.250007638932,2|0,3:2|0:0,0:0:0:0:
319,189,202340,2,0,P|341:128|357:27,1,146.850004481506,10|0,0:2|0:0,0:0:0:0:
417,0,202613,2,0,P|473:40|463:81,1,89,2|0,3:2|0:0,0:0:0:0:
512,225,202886,1,10,0:2:0:0:
428,119,203022,1,2,0:2:0:0:
285,268,203158,6,0,P|195:240|94:229,1,186.899994296265,2|0,3:2|0:0,0:0:0:0:
22,245,203431,2,0,P|34:166|139:163,1,160.199995111084,10|0,0:2|0:0,0:0:0:0:
163,96,203704,2,0,P|203:107|222:158,1,89,2|0,3:2|0:0,0:0:0:0:
75,324,203977,1,10,0:2:0:0:
178,218,204113,1,2,0:2:0:0:
308,384,204249,6,0,P|366:374|390:290,1,124.59999619751,2|0,3:2|0:0,0:0:0:0:
509,158,204522,2,0,P|489:216|479:277,1,124.59999619751,10|0,0:2|3:2,0:0:0:0:
381,92,204795,2,0,P|407:0|498:9,1,186.899994296265,6|0,3:2|0:0,0:0:0:0:
462,83,205068,1,8,0:2:0:0:
303,0,205204,1,0,3:2:0:0:
144,269,205340,6,0,P|87:251|75:187,1,124.59999619751,2|0,3:2|0:0,0:0:0:0:
277,97,205613,2,0,P|289:155|240:197,1,124.59999619751,10|0,0:2|0:0,0:0:0:0:
37,112,205886,1,2,3:2:0:0:
156,188,206022,1,0,0:0:0:0:
99,0,206159,2,0,P|114:51|121:104,1,106.799996740723,10|0,0:2|3:2,0:0:0:0:
37,375,206431,6,0,P|124:321|226:318,1,206.925001578712,2|0,3:2|0:0,0:0:0:0:
286,378,206704,2,0,P|358:358|361:274,1,146.850004481506,10|0,0:2|0:0,0:0:0:0:
424,231,206977,2,0,P|399:188|329:195,1,106.799996740723,2|0,3:2|0:0,0:0:0:0:
140,294,207249,1,14,0:2:0:0:
278,254,207386,1,2,0:2:0:0:
144,63,207522,5,2,3:2:0:0:
189,214,207658,1,2,0:0:0:0:
7,59,207795,2,0,P|9:120|32:178,1,124.59999619751,10|0,0:2|3:2,0:0:0:0:
273,0,208068,2,0,P|295:57|298:119,1,124.59999619751,2|0,3:2|0:0,0:0:0:0:
140,294,208341,1,10,0:2:0:0:
166,139,208477,1,10,0:2:0:0:
342,348,208613,5,2,3:2:0:0:
364,331,208681,1,0,3:2:0:0:
373,301,208749,1,0,3:2:0:0:
355,281,208817,1,0,3:2:0:0:
316,272,208886,5,2,3:2:0:0:
307,256,208954,1,0,3:2:0:0:
288,252,209022,1,0,3:2:0:0:
269,258,209090,1,0,3:2:0:0:
224,311,209158,6,0,P|331:323|455:360,1,213.6,2|0,3:2|0:0,0:0:0:0:
512,384,209431,1,12,0:2:0:0:
113,0,209704,6,0,P|132:93|217:115,1,186.899994296265,6|0,3:2|0:0,0:0:0:0:
284,156,209977,2,0,P|350:126|457:107,1,160.199995111084,10|0,0:2|0:0,0:0:0:0:
505,147,210250,2,0,P|512:196|458:225,1,97.900002987671,0|0,3:2|0:0,0:0:0:0:
278,66,210522,1,10,0:2:0:0:
401,192,210659,1,0,3:2:0:0:
213,329,210795,6,0,P|133:294|7:280,1,186.899994296265,2|0,3:2|0:0,0:0:0:0:
0,206,211068,2,0,P|26:160|133:172,1,160.199995111084,10|0,0:2|0:0,0:0:0:0:
190,227,211341,2,0,P|205:166|226:118,1,89,2|0,3:2|0:0,0:0:0:0:
291,1,211614,1,10,0:2:0:0:
157,78,211750,1,2,0:2:0:0:
399,140,211886,6,0,P|468:195|439:278,1,186.899994296265,2|0,3:2|0:0,0:0:0:0:
367,315,212159,2,0,P|292:321|203:356,1,160.199995111084,10|0,0:2|0:0,0:0:0:0:
139,381,212432,2,0,P|101:355|116:280,1,89,2|0,3:2|0:0,0:0:0:0:
240,148,212705,1,10,0:2:0:0:
120,224,212841,1,2,0:2:0:0:
1,51,212977,6,0,P|21:108|31:171,1,124.59999619751,2|0,3:2|0:0,0:0:0:0:
217,314,213250,2,0,P|283:274|279:221,1,124.59999619751,14|0,0:2|0:0,0:0:0:0:
171,6,213522,2,0,P|135:113|112:235,1,226.950004328728,2|0,3:2|0:0,0:0:0:0:
99,326,213795,1,8,0:2:0:0:
396,60,214068,6,0,P|448:92|427:164,1,124.59999619751,2|0,3:2|0:0,0:0:0:0:
210,222,214340,2,0,P|212:160|284:143,1,124.59999619751,10|0,0:2|0:0,0:0:0:0:
417,250,214614,1,2,3:2:0:0:
338,123,214750,1,0,0:0:0:0:
499,252,214886,2,0,P|492:316|416:322,1,124.59999619751,10|0,0:2|0:2,0:0:0:0:
21,287,215159,6,0,P|70:374|167:351,1,213.6,2|0,3:2|0:0,0:0:0:0:
213,281,215432,2,0,P|198:202|168:129,1,160.199995111084,10|0,0:2|0:0,0:0:0:0:
173,50,215705,2,0,P|225:51|216:147,1,124.59999619751,2|0,3:2|0:0,0:0:0:0:
129,277,215977,1,14,0:2:0:0:
243,199,216114,1,2,0:2:0:0:
0,119,216250,5,6,3:2:0:0:
159,192,216386,1,2,0:0:0:0:
45,35,216523,2,0,P|76:91|88:160,1,124.59999619751,10|0,0:2|3:2,0:0:0:0:
330,257,216795,2,0,P|382:222|442:206,1,124.59999619751,2|0,3:2|0:0,0:0:0:0:
238,218,217067,1,8,0:2:0:0:
462,126,217204,1,2,3:2:0:0:
181,52,217340,6,0,P|287:65|312:169,1,226.950004328728,2|0,3:2|0:0,0:0:0:0:
242,227,217613,2,0,P|147:268|92:325,1,160.199995111084,6|0,3:2|0:0,0:0:0:0:
68,374,217886,2,0,P|-9:342|59:205,1,240.299992666626,2|0,3:2|0:0,0:0:0:0:
110,193,218159,5,14,0:2:0:0:
16,17,218295,1,0,3:2:0:0:
434,117,218431,5,6,3:2:0:0:
157,380,218977,5,6,3:2:0:0:
155,9,219522,6,0,B|207:-8|249:28|253:76|242:83|230:87|237:134|281:169|331:149,1,267,2|0,3:2|0:0,0:0:0:0:
327,63,219795,2,0,P|187:99|53:178,1,293.700008963013,6|0,3:2|0:0,0:0:0:0:
0,238,220068,5,6,3:2:0:0:
